osu file format v14

[General]
AudioFilename: lovejustice.mp3
AudioLeadIn: 0
PreviewTime: -1
Countdown: 0
SampleSet: None
StackLeniency: 0.7
Mode: 3
LetterboxInBreaks: 0
SpecialStyle: 0
WidescreenStoryboard: 0

[Editor]
DistanceSpacing: 1.3
BeatDivisor: 4
GridSize: 8
TimelineZoom: 3.299999

[Metadata]
Title:CUNUJOY MEGAPACK
TitleUnicode:CUNUJOY MEGAPACK
Artist:Various Artists
ArtistUnicode:Various Artists
Creator:Elementaires
Version:Love & Justice
Source:
Tags:
BeatmapID:2362517
BeatmapSetID:945425

[Difficulty]
HPDrainRate:5
CircleSize:7
OverallDifficulty:8
ApproachRate:5
SliderMultiplier:1.4
SliderTickRate:1

[Events]
//Background and Video events
0,0,"flonne2_title.jpg",0,0
//Break Periods
//Storyboard Layer 0 (Background)
//Storyboard Layer 1 (Fail)
//Storyboard Layer 2 (Pass)
//Storyboard Layer 3 (Foreground)
//Storyboard Layer 4 (Overlay)
//Storyboard Sound Samples

[TimingPoints]
1349,300,4,1,0,0,1,0

[HitObjects]
36,192,1349,5,0,0:0:0:0:
109,192,1349,1,0,0:0:0:0:
182,192,1349,1,0,0:0:0:0:
329,192,1349,1,0,0:0:0:0:
256,192,1349,1,0,0:0:0:0:
402,192,1349,1,0,0:0:0:0:
475,192,1349,1,0,0:0:0:0:
402,192,1949,1,0,0:0:0:0:
36,192,1949,1,0,0:0:0:0:
109,192,1949,1,0,0:0:0:0:
475,192,1949,1,0,0:0:0:0:
256,192,2399,1,0,0:0:0:0:
182,192,2399,1,0,0:0:0:0:
329,192,2399,1,0,0:0:0:0:
182,192,2849,1,0,0:0:0:0:
256,192,2849,1,0,0:0:0:0:
329,192,2849,1,0,0:0:0:0:
109,192,3149,1,0,0:0:0:0:
402,192,3149,1,0,0:0:0:0:
475,192,3149,1,0,0:0:0:0:
36,192,3149,1,0,0:0:0:0:
182,192,3749,1,0,0:0:0:0:
256,192,3749,1,0,0:0:0:0:
329,192,3749,1,0,0:0:0:0:
256,192,4049,1,0,0:0:0:0:
402,192,4349,1,0,0:0:0:0:
475,192,4349,1,0,0:0:0:0:
109,192,4349,1,0,0:0:0:0:
36,192,4349,1,0,0:0:0:0:
256,192,4499,1,0,0:0:0:0:
182,192,4799,1,0,0:0:0:0:
256,192,4799,1,0,0:0:0:0:
329,192,4799,1,0,0:0:0:0:
256,192,4949,1,0,0:0:0:0:
256,192,5099,1,0,0:0:0:0:
329,192,5099,1,0,0:0:0:0:
182,192,5099,1,0,0:0:0:0:
182,192,5249,1,0,0:0:0:0:
256,192,5249,1,0,0:0:0:0:
329,192,5249,1,0,0:0:0:0:
256,192,5399,1,0,0:0:0:0:
109,192,5549,1,0,0:0:0:0:
36,192,5549,1,0,0:0:0:0:
402,192,5549,1,0,0:0:0:0:
475,192,5549,1,0,0:0:0:0:
182,192,5699,1,0,0:0:0:0:
329,192,5699,1,0,0:0:0:0:
109,192,5774,1,0,0:0:0:0:
402,192,5774,1,0,0:0:0:0:
256,192,5849,1,0,0:0:0:0:
36,192,5849,1,0,0:0:0:0:
475,192,5849,1,0,0:0:0:0:
182,192,5999,1,0,0:0:0:0:
329,192,5999,1,0,0:0:0:0:
256,192,6149,1,0,0:0:0:0:
109,192,6149,1,0,0:0:0:0:
36,192,6149,1,0,0:0:0:0:
402,192,6149,1,0,0:0:0:0:
475,192,6149,1,0,0:0:0:0:
329,192,6299,1,0,0:0:0:0:
182,192,6449,1,0,0:0:0:0:
329,192,6599,1,0,0:0:0:0:
182,192,6749,1,0,0:0:0:0:
329,192,6899,1,0,0:0:0:0:
182,192,7049,1,0,0:0:0:0:
329,192,7199,1,0,0:0:0:0:
182,192,7349,1,0,0:0:0:0:
329,192,7499,1,0,0:0:0:0:
182,192,7649,1,0,0:0:0:0:
329,192,7799,1,0,0:0:0:0:
182,192,7949,1,0,0:0:0:0:
329,192,8099,1,0,0:0:0:0:
182,192,8249,1,0,0:0:0:0:
329,192,8399,1,0,0:0:0:0:
182,192,8549,1,0,0:0:0:0:
109,192,8549,1,0,0:0:0:0:
36,192,8549,1,0,0:0:0:0:
182,192,8699,1,0,0:0:0:0:
109,192,8699,1,0,0:0:0:0:
36,192,8699,1,0,0:0:0:0:
36,192,8849,1,0,0:0:0:0:
109,192,8849,1,0,0:0:0:0:
182,192,8849,1,0,0:0:0:0:
182,192,8999,1,0,0:0:0:0:
109,192,8999,1,0,0:0:0:0:
36,192,8999,1,0,0:0:0:0:
109,192,9149,1,0,0:0:0:0:
182,192,9149,1,0,0:0:0:0:
36,192,9149,1,0,0:0:0:0:
36,192,9299,1,0,0:0:0:0:
109,192,9299,1,0,0:0:0:0:
182,192,9299,1,0,0:0:0:0:
182,192,9449,1,0,0:0:0:0:
109,192,9449,1,0,0:0:0:0:
36,192,9449,1,0,0:0:0:0:
36,192,9599,1,0,0:0:0:0:
109,192,9599,1,0,0:0:0:0:
182,192,9599,1,0,0:0:0:0:
329,192,9674,1,0,0:0:0:0:
402,192,9674,1,0,0:0:0:0:
475,192,9674,1,0,0:0:0:0:
182,192,9749,1,0,0:0:0:0:
109,192,9749,1,0,0:0:0:0:
36,192,9749,1,0,0:0:0:0:
329,192,9824,1,0,0:0:0:0:
402,192,9824,1,0,0:0:0:0:
475,192,9824,1,0,0:0:0:0:
109,192,9899,1,0,0:0:0:0:
182,192,9899,1,0,0:0:0:0:
36,192,9899,1,0,0:0:0:0:
329,192,9974,1,0,0:0:0:0:
402,192,9974,1,0,0:0:0:0:
475,192,9974,1,0,0:0:0:0:
182,192,10049,1,0,0:0:0:0:
109,192,10049,1,0,0:0:0:0:
36,192,10049,1,0,0:0:0:0:
402,192,10124,1,0,0:0:0:0:
329,192,10124,1,0,0:0:0:0:
475,192,10124,1,0,0:0:0:0:
182,192,10199,1,0,0:0:0:0:
109,192,10199,1,0,0:0:0:0:
36,192,10199,1,0,0:0:0:0:
329,192,10274,1,0,0:0:0:0:
475,192,10274,1,0,0:0:0:0:
402,192,10274,1,0,0:0:0:0:
182,192,10349,1,0,0:0:0:0:
109,192,10349,1,0,0:0:0:0:
36,192,10349,1,0,0:0:0:0:
329,192,10424,1,0,0:0:0:0:
402,192,10424,1,0,0:0:0:0:
475,192,10424,1,0,0:0:0:0:
109,192,10499,1,0,0:0:0:0:
36,192,10499,1,0,0:0:0:0:
182,192,10499,1,0,0:0:0:0:
329,192,10574,1,0,0:0:0:0:
402,192,10574,1,0,0:0:0:0:
475,192,10574,1,0,0:0:0:0:
182,192,10649,1,0,0:0:0:0:
109,192,10649,1,0,0:0:0:0:
36,192,10649,1,0,0:0:0:0:
182,192,10724,1,0,0:0:0:0:
109,192,10724,1,0,0:0:0:0:
36,192,10724,1,0,0:0:0:0:
182,192,10799,1,0,0:0:0:0:
109,192,10799,1,0,0:0:0:0:
36,192,10799,1,0,0:0:0:0:
36,192,10874,1,0,0:0:0:0:
109,192,10874,1,0,0:0:0:0:
182,192,10874,1,0,0:0:0:0:
256,192,10949,1,0,0:0:0:0:
329,192,10949,1,0,0:0:0:0:
402,192,10949,1,0,0:0:0:0:
475,192,10949,1,0,0:0:0:0:
256,192,11024,1,0,0:0:0:0:
329,192,11024,1,0,0:0:0:0:
402,192,11024,1,0,0:0:0:0:
475,192,11024,1,0,0:0:0:0:
329,192,11099,1,0,0:0:0:0:
256,192,11099,1,0,0:0:0:0:
402,192,11099,1,0,0:0:0:0:
475,192,11099,1,0,0:0:0:0:
256,192,11174,1,0,0:0:0:0:
329,192,11174,1,0,0:0:0:0:
475,192,11174,1,0,0:0:0:0:
402,192,11174,1,0,0:0:0:0:
182,192,11249,1,0,0:0:0:0:
109,192,11249,1,0,0:0:0:0:
36,192,11249,1,0,0:0:0:0:
256,192,11324,1,0,0:0:0:0:
329,192,11324,1,0,0:0:0:0:
402,192,11324,1,0,0:0:0:0:
475,192,11324,1,0,0:0:0:0:
182,192,11399,1,0,0:0:0:0:
109,192,11399,1,0,0:0:0:0:
36,192,11399,1,0,0:0:0:0:
256,192,11474,1,0,0:0:0:0:
329,192,11474,1,0,0:0:0:0:
402,192,11474,1,0,0:0:0:0:
475,192,11474,1,0,0:0:0:0:
182,192,11549,1,0,0:0:0:0:
109,192,11549,1,0,0:0:0:0:
36,192,11549,1,0,0:0:0:0:
256,192,11624,1,0,0:0:0:0:
329,192,11624,1,0,0:0:0:0:
402,192,11624,1,0,0:0:0:0:
475,192,11624,1,0,0:0:0:0:
182,192,11699,1,0,0:0:0:0:
109,192,11699,1,0,0:0:0:0:
36,192,11699,1,0,0:0:0:0:
36,192,11774,1,0,0:0:0:0:
109,192,11774,1,0,0:0:0:0:
182,192,11774,1,0,0:0:0:0:
182,192,11849,1,0,0:0:0:0:
109,192,11849,1,0,0:0:0:0:
36,192,11849,1,0,0:0:0:0:
256,192,11999,1,0,0:0:0:0:
329,192,11999,1,0,0:0:0:0:
402,192,11999,1,0,0:0:0:0:
475,192,11999,1,0,0:0:0:0:
256,192,12074,1,0,0:0:0:0:
329,192,12074,1,0,0:0:0:0:
402,192,12074,1,0,0:0:0:0:
475,192,12074,1,0,0:0:0:0:
256,192,12149,1,0,0:0:0:0:
329,192,12149,1,0,0:0:0:0:
402,192,12149,1,0,0:0:0:0:
475,192,12149,1,0,0:0:0:0:
36,192,12299,1,0,0:0:0:0:
109,192,12299,1,0,0:0:0:0:
182,192,12299,1,0,0:0:0:0:
36,192,12374,1,0,0:0:0:0:
109,192,12374,1,0,0:0:0:0:
182,192,12374,1,0,0:0:0:0:
182,192,12449,1,0,0:0:0:0:
109,192,12449,1,0,0:0:0:0:
36,192,12449,1,0,0:0:0:0:
256,192,12599,1,0,0:0:0:0:
329,192,12599,1,0,0:0:0:0:
402,192,12599,1,0,0:0:0:0:
475,192,12599,1,0,0:0:0:0:
475,192,12674,1,0,0:0:0:0:
402,192,12674,1,0,0:0:0:0:
329,192,12674,1,0,0:0:0:0:
256,192,12674,1,0,0:0:0:0:
256,192,12749,1,0,0:0:0:0:
329,192,12749,1,0,0:0:0:0:
402,192,12749,1,0,0:0:0:0:
475,192,12749,1,0,0:0:0:0:
182,192,12899,1,0,0:0:0:0:
109,192,12899,1,0,0:0:0:0:
36,192,12899,1,0,0:0:0:0:
256,192,13049,1,0,0:0:0:0:
329,192,13049,1,0,0:0:0:0:
402,192,13049,1,0,0:0:0:0:
475,192,13049,1,0,0:0:0:0:
36,192,13199,1,0,0:0:0:0:
109,192,13199,1,0,0:0:0:0:
182,192,13199,1,0,0:0:0:0:
256,192,13349,1,0,0:0:0:0:
329,192,13349,1,0,0:0:0:0:
402,192,13349,1,0,0:0:0:0:
475,192,13349,1,0,0:0:0:0:
256,192,13424,1,0,0:0:0:0:
329,192,13424,1,0,0:0:0:0:
402,192,13424,1,0,0:0:0:0:
475,192,13424,1,0,0:0:0:0:
475,192,13499,1,0,0:0:0:0:
402,192,13499,1,0,0:0:0:0:
329,192,13499,1,0,0:0:0:0:
256,192,13499,1,0,0:0:0:0:
475,192,13574,1,0,0:0:0:0:
402,192,13574,1,0,0:0:0:0:
329,192,13574,1,0,0:0:0:0:
256,192,13574,1,0,0:0:0:0:
182,192,13649,1,0,0:0:0:0:
109,192,13649,1,0,0:0:0:0:
36,192,13649,1,0,0:0:0:0:
256,192,13724,1,0,0:0:0:0:
329,192,13724,1,0,0:0:0:0:
402,192,13724,1,0,0:0:0:0:
475,192,13724,1,0,0:0:0:0:
182,192,13799,1,0,0:0:0:0:
109,192,13799,1,0,0:0:0:0:
36,192,13799,1,0,0:0:0:0:
256,192,13874,1,0,0:0:0:0:
329,192,13874,1,0,0:0:0:0:
402,192,13874,1,0,0:0:0:0:
475,192,13874,1,0,0:0:0:0:
109,192,13949,1,0,0:0:0:0:
36,192,13949,1,0,0:0:0:0:
182,192,13949,1,0,0:0:0:0:
256,192,14024,1,0,0:0:0:0:
329,192,14024,1,0,0:0:0:0:
402,192,14024,1,0,0:0:0:0:
475,192,14024,1,0,0:0:0:0:
36,192,14099,1,0,0:0:0:0:
109,192,14099,1,0,0:0:0:0:
182,192,14099,1,0,0:0:0:0:
256,192,14174,1,0,0:0:0:0:
329,192,14174,1,0,0:0:0:0:
402,192,14174,1,0,0:0:0:0:
475,192,14174,1,0,0:0:0:0:
182,192,14249,1,0,0:0:0:0:
109,192,14249,1,0,0:0:0:0:
36,192,14249,1,0,0:0:0:0:
256,192,14324,1,0,0:0:0:0:
329,192,14324,1,0,0:0:0:0:
402,192,14324,1,0,0:0:0:0:
475,192,14324,1,0,0:0:0:0:
256,192,14399,1,0,0:0:0:0:
329,192,14399,1,0,0:0:0:0:
402,192,14399,1,0,0:0:0:0:
475,192,14399,1,0,0:0:0:0:
475,192,14474,1,0,0:0:0:0:
402,192,14474,1,0,0:0:0:0:
329,192,14474,1,0,0:0:0:0:
256,192,14474,1,0,0:0:0:0:
256,192,14549,1,0,0:0:0:0:
329,192,14549,1,0,0:0:0:0:
402,192,14549,1,0,0:0:0:0:
475,192,14549,1,0,0:0:0:0:
256,192,14624,1,0,0:0:0:0:
329,192,14624,1,0,0:0:0:0:
402,192,14624,1,0,0:0:0:0:
475,192,14624,1,0,0:0:0:0:
182,192,14699,1,0,0:0:0:0:
36,192,14699,1,0,0:0:0:0:
109,192,14699,1,0,0:0:0:0:
182,192,14774,1,0,0:0:0:0:
109,192,14774,1,0,0:0:0:0:
36,192,14774,1,0,0:0:0:0:
36,192,14849,1,0,0:0:0:0:
182,192,14849,1,0,0:0:0:0:
109,192,14849,1,0,0:0:0:0:
109,192,14924,1,0,0:0:0:0:
36,192,14924,1,0,0:0:0:0:
182,192,14924,1,0,0:0:0:0:
256,192,14999,1,0,0:0:0:0:
329,192,14999,1,0,0:0:0:0:
402,192,14999,1,0,0:0:0:0:
475,192,14999,1,0,0:0:0:0:
256,192,15074,1,0,0:0:0:0:
329,192,15074,1,0,0:0:0:0:
402,192,15074,1,0,0:0:0:0:
475,192,15074,1,0,0:0:0:0:
182,192,15149,1,0,0:0:0:0:
109,192,15149,1,0,0:0:0:0:
36,192,15149,1,0,0:0:0:0:
36,192,15224,1,0,0:0:0:0:
109,192,15224,1,0,0:0:0:0:
182,192,15224,1,0,0:0:0:0:
256,192,15299,1,0,0:0:0:0:
329,192,15299,1,0,0:0:0:0:
475,192,15299,1,0,0:0:0:0:
402,192,15299,1,0,0:0:0:0:
329,192,15374,1,0,0:0:0:0:
256,192,15374,1,0,0:0:0:0:
402,192,15374,1,0,0:0:0:0:
475,192,15374,1,0,0:0:0:0:
182,192,15449,1,0,0:0:0:0:
109,192,15449,1,0,0:0:0:0:
36,192,15449,1,0,0:0:0:0:
36,192,15524,1,0,0:0:0:0:
109,192,15524,1,0,0:0:0:0:
182,192,15524,1,0,0:0:0:0:
256,192,15599,1,0,0:0:0:0:
329,192,15599,1,0,0:0:0:0:
402,192,15599,1,0,0:0:0:0:
475,192,15599,1,0,0:0:0:0:
256,192,15674,1,0,0:0:0:0:
329,192,15674,1,0,0:0:0:0:
402,192,15674,1,0,0:0:0:0:
475,192,15674,1,0,0:0:0:0:
182,192,15749,1,0,0:0:0:0:
109,192,15749,1,0,0:0:0:0:
36,192,15749,1,0,0:0:0:0:
182,192,15824,1,0,0:0:0:0:
109,192,15824,1,0,0:0:0:0:
36,192,15824,1,0,0:0:0:0:
36,192,15899,1,0,0:0:0:0:
109,192,15899,1,0,0:0:0:0:
182,192,15899,1,0,0:0:0:0:
182,192,15974,1,0,0:0:0:0:
109,192,15974,1,0,0:0:0:0:
36,192,15974,1,0,0:0:0:0:
256,192,16049,1,0,0:0:0:0:
402,192,16049,1,0,0:0:0:0:
475,192,16049,1,0,0:0:0:0:
329,192,16049,1,0,0:0:0:0:
182,192,16124,1,0,0:0:0:0:
109,192,16124,1,0,0:0:0:0:
36,192,16124,1,0,0:0:0:0:
256,192,16199,1,0,0:0:0:0:
329,192,16199,1,0,0:0:0:0:
402,192,16199,1,0,0:0:0:0:
475,192,16199,1,0,0:0:0:0:
182,192,16274,1,0,0:0:0:0:
109,192,16274,1,0,0:0:0:0:
36,192,16274,1,0,0:0:0:0:
256,192,16349,1,0,0:0:0:0:
329,192,16349,1,0,0:0:0:0:
402,192,16349,1,0,0:0:0:0:
475,192,16349,1,0,0:0:0:0:
182,192,16424,1,0,0:0:0:0:
109,192,16424,1,0,0:0:0:0:
36,192,16424,1,0,0:0:0:0:
256,192,16499,1,0,0:0:0:0:
329,192,16499,1,0,0:0:0:0:
402,192,16499,1,0,0:0:0:0:
475,192,16499,1,0,0:0:0:0:
475,192,16574,1,0,0:0:0:0:
402,192,16574,1,0,0:0:0:0:
329,192,16574,1,0,0:0:0:0:
256,192,16574,1,0,0:0:0:0:
256,192,16649,1,0,0:0:0:0:
329,192,16649,1,0,0:0:0:0:
402,192,16649,1,0,0:0:0:0:
475,192,16649,1,0,0:0:0:0:
182,192,16799,1,0,0:0:0:0:
109,192,16799,1,0,0:0:0:0:
36,192,16799,1,0,0:0:0:0:
36,192,16874,1,0,0:0:0:0:
109,192,16874,1,0,0:0:0:0:
182,192,16874,1,0,0:0:0:0:
182,192,16949,1,0,0:0:0:0:
109,192,16949,1,0,0:0:0:0:
36,192,16949,1,0,0:0:0:0:
256,192,17099,1,0,0:0:0:0:
475,192,17099,1,0,0:0:0:0:
402,192,17099,1,0,0:0:0:0:
329,192,17099,1,0,0:0:0:0:
256,192,17174,1,0,0:0:0:0:
329,192,17174,1,0,0:0:0:0:
402,192,17174,1,0,0:0:0:0:
475,192,17174,1,0,0:0:0:0:
256,192,17249,1,0,0:0:0:0:
329,192,17249,1,0,0:0:0:0:
402,192,17249,1,0,0:0:0:0:
475,192,17249,1,0,0:0:0:0:
182,192,17399,1,0,0:0:0:0:
109,192,17399,1,0,0:0:0:0:
36,192,17399,1,0,0:0:0:0:
36,192,17474,1,0,0:0:0:0:
109,192,17474,1,0,0:0:0:0:
182,192,17474,1,0,0:0:0:0:
182,192,17549,1,0,0:0:0:0:
109,192,17549,1,0,0:0:0:0:
36,192,17549,1,0,0:0:0:0:
329,192,17699,1,0,0:0:0:0:
402,192,17699,1,0,0:0:0:0:
475,192,17699,1,0,0:0:0:0:
256,192,17699,1,0,0:0:0:0:
182,192,17849,1,0,0:0:0:0:
109,192,17849,1,0,0:0:0:0:
36,192,17849,1,0,0:0:0:0:
475,192,17999,1,0,0:0:0:0:
402,192,17999,1,0,0:0:0:0:
329,192,17999,1,0,0:0:0:0:
256,192,17999,1,0,0:0:0:0:
182,192,18149,1,0,0:0:0:0:
109,192,18149,1,0,0:0:0:0:
36,192,18149,1,0,0:0:0:0:
182,192,18224,1,0,0:0:0:0:
109,192,18224,1,0,0:0:0:0:
36,192,18224,1,0,0:0:0:0:
36,192,18299,1,0,0:0:0:0:
109,192,18299,1,0,0:0:0:0:
182,192,18299,1,0,0:0:0:0:
36,192,18374,1,0,0:0:0:0:
109,192,18374,1,0,0:0:0:0:
182,192,18374,1,0,0:0:0:0:
329,192,18449,1,0,0:0:0:0:
402,192,18449,1,0,0:0:0:0:
475,192,18449,1,0,0:0:0:0:
256,192,18449,1,0,0:0:0:0:
182,192,18524,1,0,0:0:0:0:
109,192,18524,1,0,0:0:0:0:
36,192,18524,1,0,0:0:0:0:
329,192,18599,1,0,0:0:0:0:
402,192,18599,1,0,0:0:0:0:
475,192,18599,1,0,0:0:0:0:
256,192,18599,1,0,0:0:0:0:
182,192,18674,1,0,0:0:0:0:
109,192,18674,1,0,0:0:0:0:
36,192,18674,1,0,0:0:0:0:
402,192,18749,1,0,0:0:0:0:
475,192,18749,1,0,0:0:0:0:
329,192,18749,1,0,0:0:0:0:
256,192,18749,1,0,0:0:0:0:
182,192,18824,1,0,0:0:0:0:
109,192,18824,1,0,0:0:0:0:
36,192,18824,1,0,0:0:0:0:
475,192,18899,1,0,0:0:0:0:
402,192,18899,1,0,0:0:0:0:
329,192,18899,1,0,0:0:0:0:
256,192,18899,1,0,0:0:0:0:
182,192,18974,1,0,0:0:0:0:
109,192,18974,1,0,0:0:0:0:
36,192,18974,1,0,0:0:0:0:
329,192,19049,1,0,0:0:0:0:
402,192,19049,1,0,0:0:0:0:
475,192,19049,1,0,0:0:0:0:
256,192,19049,1,0,0:0:0:0:
182,192,19124,1,0,0:0:0:0:
109,192,19124,1,0,0:0:0:0:
36,192,19124,1,0,0:0:0:0:
182,192,19199,1,0,0:0:0:0:
109,192,19199,1,0,0:0:0:0:
36,192,19199,1,0,0:0:0:0:
36,192,19274,1,0,0:0:0:0:
109,192,19274,1,0,0:0:0:0:
182,192,19274,1,0,0:0:0:0:
182,192,19349,1,0,0:0:0:0:
109,192,19349,1,0,0:0:0:0:
36,192,19349,1,0,0:0:0:0:
256,192,19349,1,0,0:0:0:0:
329,192,19349,1,0,0:0:0:0:
402,192,19349,1,0,0:0:0:0:
475,192,19349,1,0,0:0:0:0:
182,192,19424,1,0,0:0:0:0:
109,192,19424,1,0,0:0:0:0:
36,192,19424,1,0,0:0:0:0:
256,192,19424,1,0,0:0:0:0:
329,192,19424,1,0,0:0:0:0:
402,192,19424,1,0,0:0:0:0:
475,192,19424,1,0,0:0:0:0:
475,192,19499,1,0,0:0:0:0:
402,192,19499,1,0,0:0:0:0:
329,192,19499,1,0,0:0:0:0:
256,192,19499,1,0,0:0:0:0:
182,192,19499,1,0,0:0:0:0:
109,192,19499,1,0,0:0:0:0:
36,192,19499,1,0,0:0:0:0:
36,192,19574,1,0,0:0:0:0:
109,192,19574,1,0,0:0:0:0:
182,192,19574,1,0,0:0:0:0:
256,192,19574,1,0,0:0:0:0:
329,192,19574,1,0,0:0:0:0:
402,192,19574,1,0,0:0:0:0:
475,192,19574,1,0,0:0:0:0:
36,192,19649,1,0,0:0:0:0:
109,192,19649,1,0,0:0:0:0:
182,192,19649,1,0,0:0:0:0:
256,192,19649,1,0,0:0:0:0:
329,192,19649,1,0,0:0:0:0:
402,192,19649,1,0,0:0:0:0:
475,192,19649,1,0,0:0:0:0:
36,192,19724,1,0,0:0:0:0:
109,192,19724,1,0,0:0:0:0:
182,192,19724,1,0,0:0:0:0:
256,192,19724,1,0,0:0:0:0:
329,192,19724,1,0,0:0:0:0:
475,192,19724,1,0,0:0:0:0:
402,192,19724,1,0,0:0:0:0:
36,192,19799,1,0,0:0:0:0:
475,192,19799,1,0,0:0:0:0:
402,192,19799,1,0,0:0:0:0:
329,192,19799,1,0,0:0:0:0:
256,192,19799,1,0,0:0:0:0:
182,192,19799,1,0,0:0:0:0:
109,192,19799,1,0,0:0:0:0:
36,192,19874,1,0,0:0:0:0:
402,192,19874,1,0,0:0:0:0:
475,192,19874,1,0,0:0:0:0:
329,192,19874,1,0,0:0:0:0:
256,192,19874,1,0,0:0:0:0:
182,192,19874,1,0,0:0:0:0:
109,192,19874,1,0,0:0:0:0:
36,192,19949,1,0,0:0:0:0:
109,192,19949,1,0,0:0:0:0:
182,192,19949,1,0,0:0:0:0:
256,192,19949,1,0,0:0:0:0:
329,192,19949,1,0,0:0:0:0:
402,192,19949,1,0,0:0:0:0:
475,192,19949,1,0,0:0:0:0:
36,192,20024,1,0,0:0:0:0:
475,192,20024,1,0,0:0:0:0:
109,192,20024,1,0,0:0:0:0:
256,192,20024,1,0,0:0:0:0:
329,192,20024,1,0,0:0:0:0:
402,192,20024,1,0,0:0:0:0:
182,192,20024,1,0,0:0:0:0:
36,192,20099,1,0,0:0:0:0:
475,192,20099,1,0,0:0:0:0:
402,192,20099,1,0,0:0:0:0:
329,192,20099,1,0,0:0:0:0:
182,192,20099,1,0,0:0:0:0:
109,192,20099,1,0,0:0:0:0:
256,192,20099,1,0,0:0:0:0:
36,192,20174,1,0,0:0:0:0:
109,192,20174,1,0,0:0:0:0:
256,192,20174,1,0,0:0:0:0:
329,192,20174,1,0,0:0:0:0:
475,192,20174,1,0,0:0:0:0:
402,192,20174,1,0,0:0:0:0:
182,192,20174,1,0,0:0:0:0:
329,192,20249,1,0,0:0:0:0:
402,192,20249,1,0,0:0:0:0:
475,192,20249,1,0,0:0:0:0:
256,192,20249,1,0,0:0:0:0:
109,192,20249,1,0,0:0:0:0:
36,192,20249,1,0,0:0:0:0:
182,192,20249,1,0,0:0:0:0:
36,192,20324,1,0,0:0:0:0:
109,192,20324,1,0,0:0:0:0:
182,192,20324,1,0,0:0:0:0:
256,192,20324,1,0,0:0:0:0:
475,192,20324,1,0,0:0:0:0:
402,192,20324,1,0,0:0:0:0:
329,192,20324,1,0,0:0:0:0:
475,192,20399,1,0,0:0:0:0:
402,192,20399,1,0,0:0:0:0:
329,192,20399,1,0,0:0:0:0:
256,192,20399,1,0,0:0:0:0:
182,192,20399,1,0,0:0:0:0:
109,192,20399,1,0,0:0:0:0:
36,192,20399,1,0,0:0:0:0:
475,192,20474,1,0,0:0:0:0:
402,192,20474,1,0,0:0:0:0:
329,192,20474,1,0,0:0:0:0:
256,192,20474,1,0,0:0:0:0:
182,192,20474,1,0,0:0:0:0:
109,192,20474,1,0,0:0:0:0:
36,192,20474,1,0,0:0:0:0:
36,192,20549,1,0,0:0:0:0:
109,192,20549,1,0,0:0:0:0:
182,192,20549,1,0,0:0:0:0:
256,192,20549,1,0,0:0:0:0:
329,192,20549,1,0,0:0:0:0:
402,192,20549,1,0,0:0:0:0:
475,192,20549,1,0,0:0:0:0:
402,192,20699,1,0,0:0:0:0:
402,192,20849,1,0,0:0:0:0:
36,192,20849,1,0,0:0:0:0:
402,192,20999,1,0,0:0:0:0:
36,192,21149,1,0,0:0:0:0:
402,192,21149,1,0,0:0:0:0:
402,192,21299,1,0,0:0:0:0:
36,192,21449,1,0,0:0:0:0:
402,192,21449,1,0,0:0:0:0:
402,192,21599,1,0,0:0:0:0:
36,192,21749,1,0,0:0:0:0:
402,192,21749,1,0,0:0:0:0:
402,192,21899,1,0,0:0:0:0:
36,192,22049,1,0,0:0:0:0:
402,192,22049,1,0,0:0:0:0:
402,192,22199,1,0,0:0:0:0:
36,192,22349,1,0,0:0:0:0:
402,192,22349,1,0,0:0:0:0:
402,192,22499,1,0,0:0:0:0:
36,192,22649,1,0,0:0:0:0:
402,192,22649,1,0,0:0:0:0:
402,192,22799,1,0,0:0:0:0:
182,192,22949,1,0,0:0:0:0:
329,192,22949,1,0,0:0:0:0:
182,192,23099,1,0,0:0:0:0:
182,192,23249,1,0,0:0:0:0:
329,192,23249,1,0,0:0:0:0:
182,192,23399,1,0,0:0:0:0:
182,192,23549,1,0,0:0:0:0:
329,192,23549,1,0,0:0:0:0:
182,192,23699,1,0,0:0:0:0:
182,192,23849,1,0,0:0:0:0:
329,192,23849,1,0,0:0:0:0:
182,192,23999,1,0,0:0:0:0:
36,192,23999,1,0,0:0:0:0:
182,192,24149,1,0,0:0:0:0:
329,192,24149,1,0,0:0:0:0:
475,192,24149,1,0,0:0:0:0:
182,192,24299,1,0,0:0:0:0:
402,192,24299,1,0,0:0:0:0:
182,192,24449,1,0,0:0:0:0:
329,192,24449,1,0,0:0:0:0:
109,192,24449,1,0,0:0:0:0:
182,192,24599,1,0,0:0:0:0:
256,192,24599,1,0,0:0:0:0:
182,192,24749,1,0,0:0:0:0:
329,192,24749,1,0,0:0:0:0:
182,192,24899,1,0,0:0:0:0:
475,192,24899,1,0,0:0:0:0:
402,192,24899,1,0,0:0:0:0:
329,192,25049,1,0,0:0:0:0:
182,192,25049,1,0,0:0:0:0:
36,192,25049,1,0,0:0:0:0:
109,192,25049,1,0,0:0:0:0:
182,192,25199,1,0,0:0:0:0:
402,192,25199,1,0,0:0:0:0:
475,192,25199,1,0,0:0:0:0:
256,192,25349,1,0,0:0:0:0:
475,192,25349,1,0,0:0:0:0:
109,192,25349,1,0,0:0:0:0:
36,192,25349,1,0,0:0:0:0:
256,192,25499,1,0,0:0:0:0:
256,192,25649,1,0,0:0:0:0:
475,192,25649,1,0,0:0:0:0:
256,192,25799,1,0,0:0:0:0:
256,192,25949,1,0,0:0:0:0:
475,192,25949,1,0,0:0:0:0:
256,192,26099,1,0,0:0:0:0:
256,192,26249,1,0,0:0:0:0:
475,192,26249,1,0,0:0:0:0:
256,192,26399,1,0,0:0:0:0:
256,192,26549,1,0,0:0:0:0:
475,192,26549,1,0,0:0:0:0:
256,192,26699,1,0,0:0:0:0:
256,192,26849,1,0,0:0:0:0:
475,192,26849,1,0,0:0:0:0:
256,192,26999,1,0,0:0:0:0:
256,192,27149,1,0,0:0:0:0:
475,192,27149,1,0,0:0:0:0:
256,192,27299,1,0,0:0:0:0:
256,192,27449,1,0,0:0:0:0:
475,192,27449,1,0,0:0:0:0:
256,192,27599,1,0,0:0:0:0:
36,192,27599,1,0,0:0:0:0:
109,192,27674,1,0,0:0:0:0:
256,192,27749,1,0,0:0:0:0:
475,192,27749,1,0,0:0:0:0:
182,192,27749,1,0,0:0:0:0:
256,192,27899,5,0,0:0:0:0:
256,192,28049,1,0,0:0:0:0:
475,192,28049,1,0,0:0:0:0:
256,192,28199,1,0,0:0:0:0:
256,192,28349,1,0,0:0:0:0:
475,192,28349,1,0,0:0:0:0:
36,192,28349,1,0,0:0:0:0:
256,192,28499,1,0,0:0:0:0:
109,192,28499,1,0,0:0:0:0:
256,192,28649,1,0,0:0:0:0:
475,192,28649,1,0,0:0:0:0:
182,192,28649,1,0,0:0:0:0:
256,192,28799,1,0,0:0:0:0:
36,192,28799,1,0,0:0:0:0:
36,192,28949,5,0,0:0:0:0:
109,192,28949,1,0,0:0:0:0:
182,192,28949,1,0,0:0:0:0:
256,192,28949,1,0,0:0:0:0:
329,192,28949,1,0,0:0:0:0:
402,192,28949,1,0,0:0:0:0:
475,192,28949,1,0,0:0:0:0:
36,192,29249,1,0,0:0:0:0:
109,192,29249,1,0,0:0:0:0:
182,192,29249,1,0,0:0:0:0:
256,192,29249,1,0,0:0:0:0:
402,192,29249,1,0,0:0:0:0:
475,192,29249,1,0,0:0:0:0:
329,192,29249,1,0,0:0:0:0:
475,192,29399,1,0,0:0:0:0:
402,192,29399,1,0,0:0:0:0:
329,192,29399,1,0,0:0:0:0:
256,192,29399,1,0,0:0:0:0:
182,192,29399,1,0,0:0:0:0:
36,192,29399,1,0,0:0:0:0:
109,192,29399,1,0,0:0:0:0:
36,192,29699,1,0,0:0:0:0:
109,192,29699,1,0,0:0:0:0:
182,192,29699,1,0,0:0:0:0:
256,192,29699,1,0,0:0:0:0:
329,192,29699,1,0,0:0:0:0:
402,192,29699,1,0,0:0:0:0:
475,192,29699,1,0,0:0:0:0:
182,192,29999,1,0,0:0:0:0:
256,192,29999,1,0,0:0:0:0:
329,192,29999,1,0,0:0:0:0:
36,192,30149,1,0,0:0:0:0:
36,192,30224,1,0,0:0:0:0:
475,192,30299,1,0,0:0:0:0:
475,192,30374,1,0,0:0:0:0:
109,192,30449,1,0,0:0:0:0:
109,192,30524,1,0,0:0:0:0:
402,192,30599,1,0,0:0:0:0:
402,192,30674,1,0,0:0:0:0:
182,192,30749,1,0,0:0:0:0:
182,192,30824,1,0,0:0:0:0:
329,192,30899,1,0,0:0:0:0:
329,192,30974,1,0,0:0:0:0:
256,192,31049,1,0,0:0:0:0:
256,192,31124,1,0,0:0:0:0:
402,192,31199,1,0,0:0:0:0:
402,192,31274,1,0,0:0:0:0:
109,192,31349,1,0,0:0:0:0:
109,192,31424,1,0,0:0:0:0:
182,192,31499,1,0,0:0:0:0:
182,192,31574,1,0,0:0:0:0:
475,192,31649,1,0,0:0:0:0:
475,192,31724,1,0,0:0:0:0:
329,192,31799,1,0,0:0:0:0:
329,192,31874,1,0,0:0:0:0:
182,192,31949,1,0,0:0:0:0:
182,192,32024,1,0,0:0:0:0:
36,192,32099,1,0,0:0:0:0:
36,192,32174,1,0,0:0:0:0:
329,192,32249,1,0,0:0:0:0:
329,192,32324,1,0,0:0:0:0:
256,192,32399,1,0,0:0:0:0:
256,192,32474,1,0,0:0:0:0:
182,192,32549,1,0,0:0:0:0:
182,192,32624,1,0,0:0:0:0:
475,192,32699,1,0,0:0:0:0:
475,192,32774,1,0,0:0:0:0:
36,192,32849,1,0,0:0:0:0:
36,192,32924,1,0,0:0:0:0:
256,192,32999,1,0,0:0:0:0:
256,192,33074,1,0,0:0:0:0:
402,192,33149,1,0,0:0:0:0:
402,192,33224,1,0,0:0:0:0:
329,192,33299,1,0,0:0:0:0:
329,192,33374,1,0,0:0:0:0:
256,192,33449,1,0,0:0:0:0:
256,192,33524,1,0,0:0:0:0:
182,192,33599,1,0,0:0:0:0:
182,192,33674,1,0,0:0:0:0:
109,192,33749,1,0,0:0:0:0:
109,192,33824,1,0,0:0:0:0:
36,192,33899,1,0,0:0:0:0:
36,192,33974,1,0,0:0:0:0:
182,192,34049,1,0,0:0:0:0:
182,192,34124,1,0,0:0:0:0:
329,192,34199,1,0,0:0:0:0:
329,192,34274,1,0,0:0:0:0:
109,192,34349,1,0,0:0:0:0:
109,192,34424,1,0,0:0:0:0:
329,192,34499,1,0,0:0:0:0:
402,192,34499,1,0,0:0:0:0:
475,192,34499,1,0,0:0:0:0:
256,192,34499,1,0,0:0:0:0:
182,192,34574,1,0,0:0:0:0:
109,192,34574,1,0,0:0:0:0:
36,192,34574,1,0,0:0:0:0:
256,192,34649,1,0,0:0:0:0:
329,192,34649,1,0,0:0:0:0:
402,192,34649,1,0,0:0:0:0:
475,192,34649,1,0,0:0:0:0:
36,192,34724,1,0,0:0:0:0:
109,192,34724,1,0,0:0:0:0:
182,192,34724,1,0,0:0:0:0:
256,192,34799,1,0,0:0:0:0:
329,192,34799,1,0,0:0:0:0:
402,192,34799,1,0,0:0:0:0:
475,192,34799,1,0,0:0:0:0:
182,192,34874,1,0,0:0:0:0:
109,192,34874,1,0,0:0:0:0:
36,192,34874,1,0,0:0:0:0:
402,192,34949,1,0,0:0:0:0:
475,192,34949,1,0,0:0:0:0:
329,192,34949,1,0,0:0:0:0:
256,192,34949,1,0,0:0:0:0:
109,192,35099,1,0,0:0:0:0:
109,192,35174,1,0,0:0:0:0:
329,192,35249,1,0,0:0:0:0:
329,192,35324,1,0,0:0:0:0:
36,192,35399,1,0,0:0:0:0:
36,192,35474,1,0,0:0:0:0:
182,192,35549,1,0,0:0:0:0:
182,192,35624,1,0,0:0:0:0:
329,192,35699,1,0,0:0:0:0:
329,192,35774,1,0,0:0:0:0:
475,192,35849,1,0,0:0:0:0:
475,192,35924,1,0,0:0:0:0:
182,192,35999,1,0,0:0:0:0:
182,192,36074,1,0,0:0:0:0:
256,192,36149,1,0,0:0:0:0:
256,192,36224,1,0,0:0:0:0:
329,192,36299,1,0,0:0:0:0:
329,192,36374,1,0,0:0:0:0:
36,192,36449,1,0,0:0:0:0:
36,192,36524,1,0,0:0:0:0:
475,192,36599,1,0,0:0:0:0:
475,192,36674,1,0,0:0:0:0:
256,192,36749,1,0,0:0:0:0:
256,192,36824,1,0,0:0:0:0:
109,192,36899,1,0,0:0:0:0:
109,192,36974,1,0,0:0:0:0:
182,192,37049,1,0,0:0:0:0:
182,192,37124,1,0,0:0:0:0:
402,192,37199,1,0,0:0:0:0:
402,192,37274,1,0,0:0:0:0:
182,192,37349,1,0,0:0:0:0:
109,192,37349,1,0,0:0:0:0:
36,192,37349,1,0,0:0:0:0:
256,192,37424,1,0,0:0:0:0:
329,192,37424,1,0,0:0:0:0:
475,192,37424,1,0,0:0:0:0:
402,192,37424,1,0,0:0:0:0:
182,192,37499,1,0,0:0:0:0:
109,192,37499,1,0,0:0:0:0:
36,192,37499,1,0,0:0:0:0:
256,192,37574,1,0,0:0:0:0:
329,192,37574,1,0,0:0:0:0:
402,192,37574,1,0,0:0:0:0:
475,192,37574,1,0,0:0:0:0:
182,192,37649,1,0,0:0:0:0:
36,192,37649,1,0,0:0:0:0:
109,192,37649,1,0,0:0:0:0:
256,192,37724,1,0,0:0:0:0:
329,192,37724,1,0,0:0:0:0:
402,192,37724,1,0,0:0:0:0:
475,192,37724,1,0,0:0:0:0:
182,192,37799,1,0,0:0:0:0:
109,192,37799,1,0,0:0:0:0:
36,192,37799,1,0,0:0:0:0:
256,192,37874,1,0,0:0:0:0:
329,192,37874,1,0,0:0:0:0:
475,192,37874,1,0,0:0:0:0:
402,192,37874,1,0,0:0:0:0:
182,192,37949,1,0,0:0:0:0:
109,192,37949,1,0,0:0:0:0:
36,192,37949,1,0,0:0:0:0:
182,192,38024,1,0,0:0:0:0:
109,192,38024,1,0,0:0:0:0:
36,192,38024,1,0,0:0:0:0:
36,192,38099,1,0,0:0:0:0:
109,192,38099,1,0,0:0:0:0:
182,192,38099,1,0,0:0:0:0:
182,192,38174,1,0,0:0:0:0:
109,192,38174,1,0,0:0:0:0:
36,192,38174,1,0,0:0:0:0:
36,192,38249,1,0,0:0:0:0:
109,192,38249,1,0,0:0:0:0:
182,192,38249,1,0,0:0:0:0:
182,192,38324,1,0,0:0:0:0:
109,192,38324,1,0,0:0:0:0:
36,192,38324,1,0,0:0:0:0:
36,192,38399,1,0,0:0:0:0:
109,192,38399,1,0,0:0:0:0:
182,192,38399,1,0,0:0:0:0:
256,192,38399,1,0,0:0:0:0:
329,192,38399,1,0,0:0:0:0:
402,192,38399,1,0,0:0:0:0:
475,192,38399,1,0,0:0:0:0:
36,192,38699,1,0,0:0:0:0:
109,192,38699,1,0,0:0:0:0:
182,192,38699,1,0,0:0:0:0:
256,192,38699,1,0,0:0:0:0:
329,192,38699,1,0,0:0:0:0:
402,192,38699,1,0,0:0:0:0:
475,192,38699,1,0,0:0:0:0:
36,192,38999,1,0,0:0:0:0:
109,192,38999,1,0,0:0:0:0:
182,192,38999,1,0,0:0:0:0:
256,192,38999,1,0,0:0:0:0:
329,192,38999,1,0,0:0:0:0:
402,192,38999,1,0,0:0:0:0:
475,192,38999,1,0,0:0:0:0:
36,192,39299,1,0,0:0:0:0:
109,192,39299,1,0,0:0:0:0:
182,192,39299,1,0,0:0:0:0:
256,192,39299,1,0,0:0:0:0:
329,192,39299,1,0,0:0:0:0:
402,192,39299,1,0,0:0:0:0:
475,192,39299,1,0,0:0:0:0:
329,192,39449,1,0,0:0:0:0:
402,192,39449,1,0,0:0:0:0:
475,192,39449,1,0,0:0:0:0:
182,192,39524,1,0,0:0:0:0:
109,192,39524,1,0,0:0:0:0:
36,192,39524,1,0,0:0:0:0:
329,192,39599,1,0,0:0:0:0:
402,192,39599,1,0,0:0:0:0:
475,192,39599,1,0,0:0:0:0:
182,192,39674,1,0,0:0:0:0:
109,192,39674,1,0,0:0:0:0:
36,192,39674,1,0,0:0:0:0:
256,192,39749,1,0,0:0:0:0:
329,192,39749,1,0,0:0:0:0:
402,192,39749,1,0,0:0:0:0:
475,192,39749,1,0,0:0:0:0:
256,192,39824,1,0,0:0:0:0:
329,192,39824,1,0,0:0:0:0:
475,192,39824,1,0,0:0:0:0:
402,192,39824,1,0,0:0:0:0:
256,192,39899,1,0,0:0:0:0:
329,192,39899,1,0,0:0:0:0:
402,192,39899,1,0,0:0:0:0:
475,192,39899,1,0,0:0:0:0:
256,192,39974,1,0,0:0:0:0:
329,192,39974,1,0,0:0:0:0:
402,192,39974,1,0,0:0:0:0:
475,192,39974,1,0,0:0:0:0:
182,192,40049,1,0,0:0:0:0:
109,192,40049,1,0,0:0:0:0:
36,192,40049,1,0,0:0:0:0:
36,192,40124,1,0,0:0:0:0:
182,192,40124,1,0,0:0:0:0:
109,192,40124,1,0,0:0:0:0:
256,192,40199,1,0,0:0:0:0:
329,192,40199,1,0,0:0:0:0:
402,192,40199,1,0,0:0:0:0:
475,192,40199,1,0,0:0:0:0:
256,192,40274,1,0,0:0:0:0:
329,192,40274,1,0,0:0:0:0:
402,192,40274,1,0,0:0:0:0:
475,192,40274,1,0,0:0:0:0:
256,192,40349,1,0,0:0:0:0:
329,192,40349,1,0,0:0:0:0:
475,192,40349,1,0,0:0:0:0:
402,192,40349,1,0,0:0:0:0:
256,192,40424,1,0,0:0:0:0:
329,192,40424,1,0,0:0:0:0:
402,192,40424,1,0,0:0:0:0:
475,192,40424,1,0,0:0:0:0:
182,192,40499,1,0,0:0:0:0:
109,192,40499,1,0,0:0:0:0:
36,192,40499,1,0,0:0:0:0:
36,192,40574,1,0,0:0:0:0:
182,192,40574,1,0,0:0:0:0:
109,192,40574,1,0,0:0:0:0:
36,192,40649,1,0,0:0:0:0:
182,192,40649,1,0,0:0:0:0:
109,192,40649,1,0,0:0:0:0:
109,192,40724,1,0,0:0:0:0:
36,192,40724,1,0,0:0:0:0:
182,192,40724,1,0,0:0:0:0:
256,192,40799,1,0,0:0:0:0:
329,192,40799,1,0,0:0:0:0:
475,192,40799,1,0,0:0:0:0:
402,192,40799,1,0,0:0:0:0:
256,192,40874,1,0,0:0:0:0:
402,192,40874,1,0,0:0:0:0:
329,192,40874,1,0,0:0:0:0:
475,192,40874,1,0,0:0:0:0:
475,192,40949,1,0,0:0:0:0:
402,192,40949,1,0,0:0:0:0:
329,192,40949,1,0,0:0:0:0:
256,192,40949,1,0,0:0:0:0:
256,192,41024,1,0,0:0:0:0:
329,192,41024,1,0,0:0:0:0:
475,192,41024,1,0,0:0:0:0:
402,192,41024,1,0,0:0:0:0:
182,192,41099,1,0,0:0:0:0:
109,192,41099,1,0,0:0:0:0:
36,192,41099,1,0,0:0:0:0:
36,192,41174,1,0,0:0:0:0:
109,192,41174,1,0,0:0:0:0:
182,192,41174,1,0,0:0:0:0:
256,192,41249,1,0,0:0:0:0:
329,192,41249,1,0,0:0:0:0:
475,192,41249,1,0,0:0:0:0:
402,192,41249,1,0,0:0:0:0:
256,192,41324,1,0,0:0:0:0:
329,192,41324,1,0,0:0:0:0:
402,192,41324,1,0,0:0:0:0:
475,192,41324,1,0,0:0:0:0:
182,192,41399,1,0,0:0:0:0:
109,192,41399,1,0,0:0:0:0:
36,192,41399,1,0,0:0:0:0:
36,192,41474,1,0,0:0:0:0:
182,192,41474,1,0,0:0:0:0:
109,192,41474,1,0,0:0:0:0:
182,192,41549,1,0,0:0:0:0:
109,192,41549,1,0,0:0:0:0:
36,192,41549,1,0,0:0:0:0:
36,192,41624,1,0,0:0:0:0:
109,192,41624,1,0,0:0:0:0:
182,192,41624,1,0,0:0:0:0:
256,192,41699,1,0,0:0:0:0:
329,192,41699,1,0,0:0:0:0:
402,192,41699,1,0,0:0:0:0:
475,192,41699,1,0,0:0:0:0:
256,192,41774,1,0,0:0:0:0:
329,192,41774,1,0,0:0:0:0:
402,192,41774,1,0,0:0:0:0:
475,192,41774,1,0,0:0:0:0:
182,192,41849,1,0,0:0:0:0:
109,192,41849,1,0,0:0:0:0:
36,192,41849,1,0,0:0:0:0:
36,192,41924,1,0,0:0:0:0:
182,192,41924,1,0,0:0:0:0:
109,192,41924,1,0,0:0:0:0:
256,192,41999,1,0,0:0:0:0:
329,192,41999,1,0,0:0:0:0:
402,192,41999,1,0,0:0:0:0:
475,192,41999,1,0,0:0:0:0:
475,192,42074,1,0,0:0:0:0:
402,192,42074,1,0,0:0:0:0:
329,192,42074,1,0,0:0:0:0:
256,192,42074,1,0,0:0:0:0:
182,192,42149,1,0,0:0:0:0:
109,192,42149,1,0,0:0:0:0:
36,192,42149,1,0,0:0:0:0:
109,192,42224,1,0,0:0:0:0:
182,192,42224,1,0,0:0:0:0:
36,192,42224,1,0,0:0:0:0:
109,192,42299,1,0,0:0:0:0:
36,192,42299,1,0,0:0:0:0:
182,192,42299,1,0,0:0:0:0:
36,192,42374,1,0,0:0:0:0:
109,192,42374,1,0,0:0:0:0:
182,192,42374,1,0,0:0:0:0:
256,192,42449,1,0,0:0:0:0:
329,192,42449,1,0,0:0:0:0:
402,192,42449,1,0,0:0:0:0:
475,192,42449,1,0,0:0:0:0:
256,192,42524,1,0,0:0:0:0:
329,192,42524,1,0,0:0:0:0:
402,192,42524,1,0,0:0:0:0:
475,192,42524,1,0,0:0:0:0:
256,192,42599,1,0,0:0:0:0:
329,192,42599,1,0,0:0:0:0:
475,192,42599,1,0,0:0:0:0:
402,192,42599,1,0,0:0:0:0:
256,192,42674,1,0,0:0:0:0:
329,192,42674,1,0,0:0:0:0:
402,192,42674,1,0,0:0:0:0:
475,192,42674,1,0,0:0:0:0:
182,192,42749,1,0,0:0:0:0:
109,192,42749,1,0,0:0:0:0:
36,192,42749,1,0,0:0:0:0:
36,192,42824,1,0,0:0:0:0:
182,192,42824,1,0,0:0:0:0:
109,192,42824,1,0,0:0:0:0:
256,192,42899,1,0,0:0:0:0:
329,192,42899,1,0,0:0:0:0:
402,192,42899,1,0,0:0:0:0:
475,192,42899,1,0,0:0:0:0:
256,192,42974,1,0,0:0:0:0:
402,192,42974,1,0,0:0:0:0:
475,192,42974,1,0,0:0:0:0:
329,192,42974,1,0,0:0:0:0:
256,192,43049,1,0,0:0:0:0:
329,192,43049,1,0,0:0:0:0:
475,192,43049,1,0,0:0:0:0:
402,192,43049,1,0,0:0:0:0:
256,192,43124,1,0,0:0:0:0:
329,192,43124,1,0,0:0:0:0:
402,192,43124,1,0,0:0:0:0:
475,192,43124,1,0,0:0:0:0:
109,192,43199,1,0,0:0:0:0:
256,192,43499,1,0,0:0:0:0:
402,192,43799,1,0,0:0:0:0:
256,192,44099,1,0,0:0:0:0:
182,192,44099,1,0,0:0:0:0:
109,192,44099,1,0,0:0:0:0:
36,192,44099,1,0,0:0:0:0:
329,192,44099,1,0,0:0:0:0:
402,192,44099,1,0,0:0:0:0:
475,192,44099,1,0,0:0:0:0:
475,192,44249,1,0,0:0:0:0:
402,192,44249,1,0,0:0:0:0:
329,192,44249,1,0,0:0:0:0:
256,192,44249,1,0,0:0:0:0:
182,192,44249,1,0,0:0:0:0:
109,192,44249,1,0,0:0:0:0:
36,192,44249,1,0,0:0:0:0:
36,192,44399,1,0,0:0:0:0:
109,192,44399,1,0,0:0:0:0:
182,192,44399,1,0,0:0:0:0:
256,192,44399,1,0,0:0:0:0:
402,192,44399,1,0,0:0:0:0:
475,192,44399,1,0,0:0:0:0:
329,192,44399,1,0,0:0:0:0:
36,192,44549,1,0,0:0:0:0:
109,192,44549,1,0,0:0:0:0:
182,192,44549,1,0,0:0:0:0:
256,192,44549,1,0,0:0:0:0:
329,192,44549,1,0,0:0:0:0:
402,192,44549,1,0,0:0:0:0:
475,192,44549,1,0,0:0:0:0:
256,192,44624,1,0,0:0:0:0:
329,192,44624,1,0,0:0:0:0:
475,192,44624,1,0,0:0:0:0:
402,192,44624,1,0,0:0:0:0:
475,192,44699,1,0,0:0:0:0:
256,192,44699,1,0,0:0:0:0:
329,192,44699,1,0,0:0:0:0:
402,192,44699,1,0,0:0:0:0:
256,192,44774,1,0,0:0:0:0:
329,192,44774,1,0,0:0:0:0:
402,192,44774,1,0,0:0:0:0:
475,192,44774,1,0,0:0:0:0:
182,192,44849,1,0,0:0:0:0:
109,192,44849,1,0,0:0:0:0:
36,192,44849,1,0,0:0:0:0:
36,192,44924,1,0,0:0:0:0:
109,192,44924,1,0,0:0:0:0:
182,192,44924,1,0,0:0:0:0:
256,192,44999,1,0,0:0:0:0:
329,192,44999,1,0,0:0:0:0:
402,192,44999,1,0,0:0:0:0:
475,192,44999,1,0,0:0:0:0:
475,192,45074,1,0,0:0:0:0:
402,192,45074,1,0,0:0:0:0:
329,192,45074,1,0,0:0:0:0:
256,192,45074,1,0,0:0:0:0:
256,192,45149,1,0,0:0:0:0:
329,192,45149,1,0,0:0:0:0:
402,192,45149,1,0,0:0:0:0:
475,192,45149,1,0,0:0:0:0:
256,192,45224,1,0,0:0:0:0:
329,192,45224,1,0,0:0:0:0:
475,192,45224,1,0,0:0:0:0:
402,192,45224,1,0,0:0:0:0:
182,192,45299,1,0,0:0:0:0:
109,192,45299,1,0,0:0:0:0:
36,192,45299,1,0,0:0:0:0:
36,192,45374,1,0,0:0:0:0:
109,192,45374,1,0,0:0:0:0:
182,192,45374,1,0,0:0:0:0:
36,192,45449,1,0,0:0:0:0:
109,192,45449,1,0,0:0:0:0:
182,192,45449,1,0,0:0:0:0:
182,192,45524,1,0,0:0:0:0:
109,192,45524,1,0,0:0:0:0:
36,192,45524,1,0,0:0:0:0:
256,192,45599,1,0,0:0:0:0:
329,192,45599,1,0,0:0:0:0:
475,192,45599,1,0,0:0:0:0:
402,192,45599,1,0,0:0:0:0:
256,192,45674,1,0,0:0:0:0:
329,192,45674,1,0,0:0:0:0:
402,192,45674,1,0,0:0:0:0:
475,192,45674,1,0,0:0:0:0:
256,192,45749,1,0,0:0:0:0:
329,192,45749,1,0,0:0:0:0:
402,192,45749,1,0,0:0:0:0:
475,192,45749,1,0,0:0:0:0:
256,192,45824,1,0,0:0:0:0:
329,192,45824,1,0,0:0:0:0:
402,192,45824,1,0,0:0:0:0:
475,192,45824,1,0,0:0:0:0:
182,192,45899,1,0,0:0:0:0:
109,192,45899,1,0,0:0:0:0:
36,192,45899,1,0,0:0:0:0:
36,192,45974,1,0,0:0:0:0:
182,192,45974,1,0,0:0:0:0:
109,192,45974,1,0,0:0:0:0:
256,192,46049,1,0,0:0:0:0:
329,192,46049,1,0,0:0:0:0:
402,192,46049,1,0,0:0:0:0:
475,192,46049,1,0,0:0:0:0:
256,192,46124,1,0,0:0:0:0:
329,192,46124,1,0,0:0:0:0:
475,192,46124,1,0,0:0:0:0:
402,192,46124,1,0,0:0:0:0:
36,192,46199,1,0,0:0:0:0:
36,192,46274,1,0,0:0:0:0:
36,192,46349,1,0,0:0:0:0:
36,192,46424,1,0,0:0:0:0:
402,192,46499,1,0,0:0:0:0:
402,192,46574,1,0,0:0:0:0:
402,192,46649,1,0,0:0:0:0:
402,192,46724,1,0,0:0:0:0:
182,192,46799,1,0,0:0:0:0:
182,192,46874,1,0,0:0:0:0:
329,192,46949,1,0,0:0:0:0:
329,192,47024,1,0,0:0:0:0:
329,192,47099,1,0,0:0:0:0:
329,192,47174,1,0,0:0:0:0:
329,192,47249,1,0,0:0:0:0:
329,192,47324,1,0,0:0:0:0:
109,192,47399,1,0,0:0:0:0:
109,192,47474,1,0,0:0:0:0:
109,192,47549,1,0,0:0:0:0:
109,192,47624,1,0,0:0:0:0:
109,192,47699,1,0,0:0:0:0:
109,192,47774,1,0,0:0:0:0:
475,192,47849,1,0,0:0:0:0:
475,192,47924,1,0,0:0:0:0:
475,192,47999,1,0,0:0:0:0:
475,192,48074,1,0,0:0:0:0:
475,192,48149,1,0,0:0:0:0:
402,192,48149,1,0,0:0:0:0:
329,192,48149,1,0,0:0:0:0:
256,192,48149,1,0,0:0:0:0:
182,192,48149,1,0,0:0:0:0:
109,192,48149,1,0,0:0:0:0:
36,192,48149,1,0,0:0:0:0:
36,192,48299,1,0,0:0:0:0:
109,192,48299,1,0,0:0:0:0:
182,192,48299,1,0,0:0:0:0:
256,192,48299,1,0,0:0:0:0:
329,192,48299,1,0,0:0:0:0:
402,192,48299,1,0,0:0:0:0:
475,192,48299,1,0,0:0:0:0:
36,192,48449,1,0,0:0:0:0:
109,192,48449,1,0,0:0:0:0:
182,192,48449,1,0,0:0:0:0:
256,192,48449,1,0,0:0:0:0:
402,192,48449,1,0,0:0:0:0:
329,192,48449,1,0,0:0:0:0:
475,192,48449,1,0,0:0:0:0:
36,192,48749,1,0,0:0:0:0:
109,192,48749,1,0,0:0:0:0:
182,192,48749,1,0,0:0:0:0:
256,192,48749,1,0,0:0:0:0:
329,192,48749,1,0,0:0:0:0:
402,192,48749,1,0,0:0:0:0:
475,192,48749,1,0,0:0:0:0:
36,192,48899,1,0,0:0:0:0:
109,192,48899,1,0,0:0:0:0:
182,192,48899,1,0,0:0:0:0:
329,192,48899,1,0,0:0:0:0:
402,192,48899,1,0,0:0:0:0:
475,192,48899,1,0,0:0:0:0:
256,192,48899,1,0,0:0:0:0:
36,192,49049,1,0,0:0:0:0:
109,192,49049,1,0,0:0:0:0:
182,192,49049,1,0,0:0:0:0:
256,192,49049,1,0,0:0:0:0:
329,192,49049,1,0,0:0:0:0:
402,192,49049,1,0,0:0:0:0:
475,192,49049,1,0,0:0:0:0:
475,192,49199,1,0,0:0:0:0:
402,192,49199,1,0,0:0:0:0:
329,192,49199,1,0,0:0:0:0:
256,192,49199,1,0,0:0:0:0:
182,192,49199,1,0,0:0:0:0:
109,192,49199,1,0,0:0:0:0:
36,192,49199,1,0,0:0:0:0:
36,192,49349,1,0,0:0:0:0:
109,192,49349,1,0,0:0:0:0:
182,192,49349,1,0,0:0:0:0:
256,192,49349,1,0,0:0:0:0:
329,192,49349,1,0,0:0:0:0:
402,192,49349,1,0,0:0:0:0:
475,192,49349,1,0,0:0:0:0:
256,192,49424,1,0,0:0:0:0:
329,192,49424,1,0,0:0:0:0:
475,192,49424,1,0,0:0:0:0:
402,192,49424,1,0,0:0:0:0:
256,192,49499,1,0,0:0:0:0:
329,192,49499,1,0,0:0:0:0:
402,192,49499,1,0,0:0:0:0:
475,192,49499,1,0,0:0:0:0:
256,192,49574,1,0,0:0:0:0:
329,192,49574,1,0,0:0:0:0:
402,192,49574,1,0,0:0:0:0:
475,192,49574,1,0,0:0:0:0:
182,192,49649,1,0,0:0:0:0:
109,192,49649,1,0,0:0:0:0:
36,192,49649,1,0,0:0:0:0:
36,192,49724,1,0,0:0:0:0:
182,192,49724,1,0,0:0:0:0:
109,192,49724,1,0,0:0:0:0:
256,192,49799,1,0,0:0:0:0:
329,192,49799,1,0,0:0:0:0:
402,192,49799,1,0,0:0:0:0:
475,192,49799,1,0,0:0:0:0:
256,192,49874,1,0,0:0:0:0:
329,192,49874,1,0,0:0:0:0:
402,192,49874,1,0,0:0:0:0:
475,192,49874,1,0,0:0:0:0:
256,192,49949,1,0,0:0:0:0:
329,192,49949,1,0,0:0:0:0:
475,192,49949,1,0,0:0:0:0:
402,192,49949,1,0,0:0:0:0:
256,192,50024,1,0,0:0:0:0:
329,192,50024,1,0,0:0:0:0:
402,192,50024,1,0,0:0:0:0:
475,192,50024,1,0,0:0:0:0:
182,192,50099,1,0,0:0:0:0:
109,192,50099,1,0,0:0:0:0:
36,192,50099,1,0,0:0:0:0:
36,192,50174,1,0,0:0:0:0:
182,192,50174,1,0,0:0:0:0:
109,192,50174,1,0,0:0:0:0:
36,192,50249,1,0,0:0:0:0:
182,192,50249,1,0,0:0:0:0:
109,192,50249,1,0,0:0:0:0:
109,192,50324,1,0,0:0:0:0:
36,192,50324,1,0,0:0:0:0:
182,192,50324,1,0,0:0:0:0:
256,192,50399,1,0,0:0:0:0:
329,192,50399,1,0,0:0:0:0:
475,192,50399,1,0,0:0:0:0:
402,192,50399,1,0,0:0:0:0:
256,192,50474,1,0,0:0:0:0:
402,192,50474,1,0,0:0:0:0:
329,192,50474,1,0,0:0:0:0:
475,192,50474,1,0,0:0:0:0:
475,192,50549,1,0,0:0:0:0:
402,192,50549,1,0,0:0:0:0:
329,192,50549,1,0,0:0:0:0:
256,192,50549,1,0,0:0:0:0:
256,192,50624,1,0,0:0:0:0:
329,192,50624,1,0,0:0:0:0:
475,192,50624,1,0,0:0:0:0:
402,192,50624,1,0,0:0:0:0:
182,192,50699,1,0,0:0:0:0:
109,192,50699,1,0,0:0:0:0:
36,192,50699,1,0,0:0:0:0:
36,192,50774,1,0,0:0:0:0:
109,192,50774,1,0,0:0:0:0:
182,192,50774,1,0,0:0:0:0:
256,192,50849,1,0,0:0:0:0:
329,192,50849,1,0,0:0:0:0:
475,192,50849,1,0,0:0:0:0:
402,192,50849,1,0,0:0:0:0:
256,192,50924,1,0,0:0:0:0:
329,192,50924,1,0,0:0:0:0:
402,192,50924,1,0,0:0:0:0:
475,192,50924,1,0,0:0:0:0:
182,192,50999,1,0,0:0:0:0:
109,192,50999,1,0,0:0:0:0:
36,192,50999,1,0,0:0:0:0:
36,192,51074,1,0,0:0:0:0:
182,192,51074,1,0,0:0:0:0:
109,192,51074,1,0,0:0:0:0:
182,192,51149,1,0,0:0:0:0:
109,192,51149,1,0,0:0:0:0:
36,192,51149,1,0,0:0:0:0:
36,192,51224,1,0,0:0:0:0:
109,192,51224,1,0,0:0:0:0:
182,192,51224,1,0,0:0:0:0:
256,192,51299,1,0,0:0:0:0:
329,192,51299,1,0,0:0:0:0:
402,192,51299,1,0,0:0:0:0:
475,192,51299,1,0,0:0:0:0:
256,192,51374,1,0,0:0:0:0:
329,192,51374,1,0,0:0:0:0:
402,192,51374,1,0,0:0:0:0:
475,192,51374,1,0,0:0:0:0:
182,192,51449,1,0,0:0:0:0:
109,192,51449,1,0,0:0:0:0:
36,192,51449,1,0,0:0:0:0:
36,192,51524,1,0,0:0:0:0:
182,192,51524,1,0,0:0:0:0:
109,192,51524,1,0,0:0:0:0:
256,192,51599,1,0,0:0:0:0:
329,192,51599,1,0,0:0:0:0:
402,192,51599,1,0,0:0:0:0:
475,192,51599,1,0,0:0:0:0:
475,192,51674,1,0,0:0:0:0:
402,192,51674,1,0,0:0:0:0:
329,192,51674,1,0,0:0:0:0:
256,192,51674,1,0,0:0:0:0:
182,192,51749,1,0,0:0:0:0:
109,192,51749,1,0,0:0:0:0:
36,192,51749,1,0,0:0:0:0:
109,192,51824,1,0,0:0:0:0:
182,192,51824,1,0,0:0:0:0:
36,192,51824,1,0,0:0:0:0:
109,192,51899,1,0,0:0:0:0:
36,192,51899,1,0,0:0:0:0:
182,192,51899,1,0,0:0:0:0:
36,192,51974,1,0,0:0:0:0:
109,192,51974,1,0,0:0:0:0:
182,192,51974,1,0,0:0:0:0:
256,192,52049,1,0,0:0:0:0:
329,192,52049,1,0,0:0:0:0:
402,192,52049,1,0,0:0:0:0:
475,192,52049,1,0,0:0:0:0:
256,192,52124,1,0,0:0:0:0:
329,192,52124,1,0,0:0:0:0:
402,192,52124,1,0,0:0:0:0:
475,192,52124,1,0,0:0:0:0:
256,192,52199,1,0,0:0:0:0:
329,192,52199,1,0,0:0:0:0:
475,192,52199,1,0,0:0:0:0:
402,192,52199,1,0,0:0:0:0:
256,192,52274,1,0,0:0:0:0:
329,192,52274,1,0,0:0:0:0:
402,192,52274,1,0,0:0:0:0:
475,192,52274,1,0,0:0:0:0:
182,192,52349,1,0,0:0:0:0:
109,192,52349,1,0,0:0:0:0:
36,192,52349,1,0,0:0:0:0:
36,192,52424,1,0,0:0:0:0:
182,192,52424,1,0,0:0:0:0:
109,192,52424,1,0,0:0:0:0:
256,192,52499,1,0,0:0:0:0:
329,192,52499,1,0,0:0:0:0:
402,192,52499,1,0,0:0:0:0:
475,192,52499,1,0,0:0:0:0:
256,192,52574,1,0,0:0:0:0:
402,192,52574,1,0,0:0:0:0:
475,192,52574,1,0,0:0:0:0:
329,192,52574,1,0,0:0:0:0:
256,192,52649,1,0,0:0:0:0:
329,192,52649,1,0,0:0:0:0:
475,192,52649,1,0,0:0:0:0:
402,192,52649,1,0,0:0:0:0:
256,192,52724,1,0,0:0:0:0:
329,192,52724,1,0,0:0:0:0:
402,192,52724,1,0,0:0:0:0:
475,192,52724,1,0,0:0:0:0:
36,192,52799,1,0,0:0:0:0:
109,192,52799,1,0,0:0:0:0:
182,192,52799,1,0,0:0:0:0:
256,192,53099,1,0,0:0:0:0:
182,192,53099,1,0,0:0:0:0:
329,192,53099,1,0,0:0:0:0:
475,192,53399,1,0,0:0:0:0:
402,192,53399,1,0,0:0:0:0:
329,192,53399,1,0,0:0:0:0:
182,192,53699,1,0,0:0:0:0:
256,192,53699,1,0,0:0:0:0:
329,192,53699,1,0,0:0:0:0:
36,192,53699,1,0,0:0:0:0:
475,192,53699,1,0,0:0:0:0:
109,192,53699,1,0,0:0:0:0:
402,192,53699,1,0,0:0:0:0:
182,192,53849,1,0,0:0:0:0:
256,192,53849,1,0,0:0:0:0:
329,192,53849,1,0,0:0:0:0:
475,192,53849,1,0,0:0:0:0:
36,192,53849,1,0,0:0:0:0:
109,192,53849,1,0,0:0:0:0:
402,192,53849,1,0,0:0:0:0:
182,192,53999,1,0,0:0:0:0:
256,192,53999,1,0,0:0:0:0:
329,192,53999,1,0,0:0:0:0:
36,192,53999,1,0,0:0:0:0:
475,192,53999,1,0,0:0:0:0:
109,192,53999,1,0,0:0:0:0:
402,192,53999,1,0,0:0:0:0:
182,192,54149,1,0,0:0:0:0:
109,192,54149,1,0,0:0:0:0:
36,192,54149,1,0,0:0:0:0:
329,192,54224,1,0,0:0:0:0:
475,192,54224,1,0,0:0:0:0:
402,192,54224,1,0,0:0:0:0:
182,192,54299,1,0,0:0:0:0:
109,192,54299,1,0,0:0:0:0:
36,192,54299,1,0,0:0:0:0:
329,192,54374,1,0,0:0:0:0:
402,192,54374,1,0,0:0:0:0:
475,192,54374,1,0,0:0:0:0:
182,192,54449,1,0,0:0:0:0:
109,192,54449,1,0,0:0:0:0:
36,192,54449,1,0,0:0:0:0:
329,192,54524,1,0,0:0:0:0:
402,192,54524,1,0,0:0:0:0:
475,192,54524,1,0,0:0:0:0:
182,192,54599,1,0,0:0:0:0:
109,192,54599,1,0,0:0:0:0:
36,192,54599,1,0,0:0:0:0:
329,192,54674,1,0,0:0:0:0:
402,192,54674,1,0,0:0:0:0:
475,192,54674,1,0,0:0:0:0:
182,192,54749,1,0,0:0:0:0:
109,192,54749,1,0,0:0:0:0:
36,192,54749,1,0,0:0:0:0:
329,192,54824,1,0,0:0:0:0:
402,192,54824,1,0,0:0:0:0:
475,192,54824,1,0,0:0:0:0:
182,192,54899,1,0,0:0:0:0:
109,192,54899,1,0,0:0:0:0:
36,192,54899,1,0,0:0:0:0:
329,192,54974,1,0,0:0:0:0:
402,192,54974,1,0,0:0:0:0:
475,192,54974,1,0,0:0:0:0:
182,192,55049,1,0,0:0:0:0:
109,192,55049,1,0,0:0:0:0:
36,192,55049,1,0,0:0:0:0:
329,192,55099,1,0,0:0:0:0:
402,192,55099,1,0,0:0:0:0:
475,192,55099,1,0,0:0:0:0:
182,192,55149,1,0,0:0:0:0:
109,192,55149,1,0,0:0:0:0:
36,192,55149,1,0,0:0:0:0:
329,192,55199,1,0,0:0:0:0:
402,192,55199,1,0,0:0:0:0:
475,192,55199,1,0,0:0:0:0:
182,192,55249,1,0,0:0:0:0:
109,192,55249,1,0,0:0:0:0:
36,192,55249,1,0,0:0:0:0:
329,192,55299,1,0,0:0:0:0:
475,192,55299,1,0,0:0:0:0:
402,192,55299,1,0,0:0:0:0:
182,192,55349,1,0,0:0:0:0:
109,192,55349,1,0,0:0:0:0:
36,192,55349,1,0,0:0:0:0:
329,192,55424,1,0,0:0:0:0:
402,192,55424,1,0,0:0:0:0:
475,192,55424,1,0,0:0:0:0:
182,192,55499,1,0,0:0:0:0:
109,192,55499,1,0,0:0:0:0:
36,192,55499,1,0,0:0:0:0:
329,192,55574,1,0,0:0:0:0:
475,192,55574,1,0,0:0:0:0:
402,192,55574,1,0,0:0:0:0:
182,192,55649,1,0,0:0:0:0:
109,192,55649,1,0,0:0:0:0:
36,192,55649,1,0,0:0:0:0:
329,192,55724,1,0,0:0:0:0:
402,192,55724,1,0,0:0:0:0:
475,192,55724,1,0,0:0:0:0:
182,192,55799,1,0,0:0:0:0:
109,192,55799,1,0,0:0:0:0:
36,192,55799,1,0,0:0:0:0:
329,192,55874,1,0,0:0:0:0:
402,192,55874,1,0,0:0:0:0:
475,192,55874,1,0,0:0:0:0:
182,192,55949,1,0,0:0:0:0:
36,192,55949,1,0,0:0:0:0:
109,192,55949,1,0,0:0:0:0:
329,192,56024,1,0,0:0:0:0:
402,192,56024,1,0,0:0:0:0:
475,192,56024,1,0,0:0:0:0:
182,192,56099,1,0,0:0:0:0:
109,192,56099,1,0,0:0:0:0:
36,192,56099,1,0,0:0:0:0:
329,192,56174,1,0,0:0:0:0:
402,192,56174,1,0,0:0:0:0:
475,192,56174,1,0,0:0:0:0:
182,192,56249,1,0,0:0:0:0:
109,192,56249,1,0,0:0:0:0:
36,192,56249,1,0,0:0:0:0:
329,192,56299,1,0,0:0:0:0:
402,192,56299,1,0,0:0:0:0:
475,192,56299,1,0,0:0:0:0:
182,192,56349,1,0,0:0:0:0:
109,192,56349,1,0,0:0:0:0:
36,192,56349,1,0,0:0:0:0:
329,192,56399,1,0,0:0:0:0:
402,192,56399,1,0,0:0:0:0:
475,192,56399,1,0,0:0:0:0:
182,192,56449,1,0,0:0:0:0:
109,192,56449,1,0,0:0:0:0:
36,192,56449,1,0,0:0:0:0:
329,192,56499,1,0,0:0:0:0:
402,192,56499,1,0,0:0:0:0:
475,192,56499,1,0,0:0:0:0:
182,192,56549,1,0,0:0:0:0:
109,192,56549,1,0,0:0:0:0:
36,192,56549,1,0,0:0:0:0:
329,192,56624,1,0,0:0:0:0:
402,192,56624,1,0,0:0:0:0:
475,192,56624,1,0,0:0:0:0:
109,192,56699,1,0,0:0:0:0:
182,192,56699,1,0,0:0:0:0:
36,192,56699,1,0,0:0:0:0:
329,192,56774,1,0,0:0:0:0:
402,192,56774,1,0,0:0:0:0:
475,192,56774,1,0,0:0:0:0:
182,192,56849,1,0,0:0:0:0:
109,192,56849,1,0,0:0:0:0:
36,192,56849,1,0,0:0:0:0:
329,192,56899,1,0,0:0:0:0:
402,192,56899,1,0,0:0:0:0:
475,192,56899,1,0,0:0:0:0:
182,192,56949,1,0,0:0:0:0:
109,192,56949,1,0,0:0:0:0:
36,192,56949,1,0,0:0:0:0:
329,192,56999,1,0,0:0:0:0:
402,192,56999,1,0,0:0:0:0:
475,192,56999,1,0,0:0:0:0:
182,192,57049,1,0,0:0:0:0:
109,192,57049,1,0,0:0:0:0:
36,192,57049,1,0,0:0:0:0:
329,192,57099,1,0,0:0:0:0:
402,192,57099,1,0,0:0:0:0:
475,192,57099,1,0,0:0:0:0:
182,192,57149,1,0,0:0:0:0:
109,192,57149,1,0,0:0:0:0:
36,192,57149,1,0,0:0:0:0:
329,192,57224,1,0,0:0:0:0:
402,192,57224,1,0,0:0:0:0:
475,192,57224,1,0,0:0:0:0:
182,192,57299,1,0,0:0:0:0:
109,192,57299,1,0,0:0:0:0:
36,192,57299,1,0,0:0:0:0:
329,192,57374,1,0,0:0:0:0:
402,192,57374,1,0,0:0:0:0:
475,192,57374,1,0,0:0:0:0:
182,192,57449,1,0,0:0:0:0:
109,192,57449,1,0,0:0:0:0:
36,192,57449,1,0,0:0:0:0:
329,192,57499,1,0,0:0:0:0:
402,192,57499,1,0,0:0:0:0:
475,192,57499,1,0,0:0:0:0:
182,192,57549,1,0,0:0:0:0:
109,192,57549,1,0,0:0:0:0:
36,192,57549,1,0,0:0:0:0:
329,192,57599,1,0,0:0:0:0:
402,192,57599,1,0,0:0:0:0:
475,192,57599,1,0,0:0:0:0:
182,192,57649,1,0,0:0:0:0:
109,192,57649,1,0,0:0:0:0:
36,192,57649,1,0,0:0:0:0:
329,192,57699,1,0,0:0:0:0:
402,192,57699,1,0,0:0:0:0:
475,192,57699,1,0,0:0:0:0:
182,192,57749,1,0,0:0:0:0:
109,192,57749,1,0,0:0:0:0:
36,192,57749,1,0,0:0:0:0:
329,192,57799,1,0,0:0:0:0:
402,192,57799,1,0,0:0:0:0:
475,192,57799,1,0,0:0:0:0:
182,192,57849,1,0,0:0:0:0:
109,192,57849,1,0,0:0:0:0:
36,192,57849,1,0,0:0:0:0:
329,192,57899,1,0,0:0:0:0:
402,192,57899,1,0,0:0:0:0:
475,192,57899,1,0,0:0:0:0:
182,192,57974,1,0,0:0:0:0:
109,192,57974,1,0,0:0:0:0:
36,192,57974,1,0,0:0:0:0:
329,192,58049,1,0,0:0:0:0:
402,192,58049,1,0,0:0:0:0:
475,192,58049,1,0,0:0:0:0:
182,192,58124,1,0,0:0:0:0:
109,192,58124,1,0,0:0:0:0:
36,192,58124,1,0,0:0:0:0:
475,192,58199,1,0,0:0:0:0:
329,192,58199,1,0,0:0:0:0:
402,192,58199,1,0,0:0:0:0:
182,192,58274,1,0,0:0:0:0:
109,192,58274,1,0,0:0:0:0:
36,192,58274,1,0,0:0:0:0:
329,192,58349,1,0,0:0:0:0:
402,192,58349,1,0,0:0:0:0:
475,192,58349,1,0,0:0:0:0:
182,192,58399,1,0,0:0:0:0:
109,192,58399,1,0,0:0:0:0:
36,192,58399,1,0,0:0:0:0:
329,192,58449,1,0,0:0:0:0:
402,192,58449,1,0,0:0:0:0:
475,192,58449,1,0,0:0:0:0:
182,192,58499,1,0,0:0:0:0:
109,192,58499,1,0,0:0:0:0:
36,192,58499,1,0,0:0:0:0:
329,192,58549,1,0,0:0:0:0:
402,192,58549,1,0,0:0:0:0:
475,192,58549,1,0,0:0:0:0:
182,192,58599,1,0,0:0:0:0:
109,192,58599,1,0,0:0:0:0:
36,192,58599,1,0,0:0:0:0:
329,192,58649,1,0,0:0:0:0:
402,192,58649,1,0,0:0:0:0:
475,192,58649,1,0,0:0:0:0:
182,192,58699,1,0,0:0:0:0:
109,192,58699,1,0,0:0:0:0:
36,192,58699,1,0,0:0:0:0:
329,192,58749,1,0,0:0:0:0:
402,192,58749,1,0,0:0:0:0:
475,192,58749,1,0,0:0:0:0:
182,192,58799,1,0,0:0:0:0:
109,192,58799,1,0,0:0:0:0:
36,192,58799,1,0,0:0:0:0:
329,192,58849,1,0,0:0:0:0:
402,192,58849,1,0,0:0:0:0:
475,192,58849,1,0,0:0:0:0:
182,192,58899,1,0,0:0:0:0:
109,192,58899,1,0,0:0:0:0:
36,192,58899,1,0,0:0:0:0:
329,192,58949,1,0,0:0:0:0:
256,192,58949,1,0,0:0:0:0:
402,192,58949,1,0,0:0:0:0:
475,192,58949,1,0,0:0:0:0:
36,192,59549,1,0,0:0:0:0:
475,192,59549,1,0,0:0:0:0:
256,192,59999,1,0,0:0:0:0:
256,192,60449,1,0,0:0:0:0:
36,192,60749,1,0,0:0:0:0:
475,192,60749,1,0,0:0:0:0:
256,192,61349,1,0,0:0:0:0:
36,192,61949,1,0,0:0:0:0:
475,192,61949,1,0,0:0:0:0:
256,192,62399,1,0,0:0:0:0:
256,192,62849,1,0,0:0:0:0:
256,192,62999,1,0,0:0:0:0:
182,192,63149,1,0,0:0:0:0:
329,192,63149,1,0,0:0:0:0:
36,192,63749,1,0,0:0:0:0:
109,192,63749,1,0,0:0:0:0:
182,192,63749,1,0,0:0:0:0:
256,192,63749,1,0,0:0:0:0:
329,192,63749,1,0,0:0:0:0:
402,192,63749,1,0,0:0:0:0:
475,192,63749,1,0,0:0:0:0:
36,192,64349,1,0,0:0:0:0:
475,192,64349,1,0,0:0:0:0:
256,192,64799,1,0,0:0:0:0:
256,192,65249,1,0,0:0:0:0:
36,192,65549,1,0,0:0:0:0:
475,192,65549,1,0,0:0:0:0:
36,192,66149,1,0,0:0:0:0:
109,192,66149,1,0,0:0:0:0:
182,192,66149,1,0,0:0:0:0:
256,192,66149,1,0,0:0:0:0:
329,192,66149,1,0,0:0:0:0:
402,192,66149,1,0,0:0:0:0:
475,192,66149,1,0,0:0:0:0:
36,192,66749,1,0,0:0:0:0:
109,192,66749,1,0,0:0:0:0:
182,192,66749,1,0,0:0:0:0:
329,192,66749,1,0,0:0:0:0:
402,192,66749,1,0,0:0:0:0:
475,192,66749,1,0,0:0:0:0:
256,192,67199,1,0,0:0:0:0:
182,192,67349,1,0,0:0:0:0:
109,192,67349,1,0,0:0:0:0:
36,192,67349,1,0,0:0:0:0:
402,192,67349,1,0,0:0:0:0:
329,192,67349,1,0,0:0:0:0:
475,192,67349,1,0,0:0:0:0:
256,192,67499,1,0,0:0:0:0:
182,192,67649,1,0,0:0:0:0:
109,192,67649,1,0,0:0:0:0:
36,192,67649,1,0,0:0:0:0:
329,192,67649,1,0,0:0:0:0:
402,192,67649,1,0,0:0:0:0:
475,192,67649,1,0,0:0:0:0:
256,192,67799,1,0,0:0:0:0:
182,192,67949,1,0,0:0:0:0:
109,192,67949,1,0,0:0:0:0:
36,192,67949,1,0,0:0:0:0:
329,192,67949,1,0,0:0:0:0:
402,192,67949,1,0,0:0:0:0:
475,192,67949,1,0,0:0:0:0:
256,192,68099,1,0,0:0:0:0:
182,192,68249,1,0,0:0:0:0:
109,192,68249,1,0,0:0:0:0:
36,192,68249,1,0,0:0:0:0:
329,192,68249,1,0,0:0:0:0:
402,192,68249,1,0,0:0:0:0:
475,192,68249,1,0,0:0:0:0:
256,192,68399,1,0,0:0:0:0:
256,192,68549,1,0,0:0:0:0:
182,192,68549,1,0,0:0:0:0:
109,192,68549,1,0,0:0:0:0:
36,192,68549,1,0,0:0:0:0:
329,192,68549,1,0,0:0:0:0:
402,192,68549,1,0,0:0:0:0:
475,192,68549,1,0,0:0:0:0:
109,192,68849,1,0,0:0:0:0:
402,192,68849,1,0,0:0:0:0:
109,192,69449,1,0,0:0:0:0:
402,192,69449,1,0,0:0:0:0:
256,192,69749,1,0,0:0:0:0:
109,192,70049,1,0,0:0:0:0:
402,192,70049,1,0,0:0:0:0:
109,192,70649,1,0,0:0:0:0:
402,192,70649,1,0,0:0:0:0:
36,192,70949,1,0,0:0:0:0:
109,192,70949,1,0,0:0:0:0:
182,192,70949,1,0,0:0:0:0:
256,192,70949,1,0,0:0:0:0:
329,192,70949,1,0,0:0:0:0:
402,192,70949,1,0,0:0:0:0:
475,192,70949,1,0,0:0:0:0:
109,192,71249,1,0,0:0:0:0:
402,192,71249,1,0,0:0:0:0:
36,192,71549,1,0,0:0:0:0:
109,192,71549,1,0,0:0:0:0:
182,192,71549,1,0,0:0:0:0:
256,192,71549,1,0,0:0:0:0:
329,192,71549,1,0,0:0:0:0:
475,192,71549,1,0,0:0:0:0:
402,192,71549,1,0,0:0:0:0:
109,192,71849,1,0,0:0:0:0:
402,192,71849,1,0,0:0:0:0:
182,192,72149,1,0,0:0:0:0:
109,192,72149,1,0,0:0:0:0:
36,192,72149,1,0,0:0:0:0:
329,192,72224,1,0,0:0:0:0:
402,192,72224,1,0,0:0:0:0:
475,192,72224,1,0,0:0:0:0:
182,192,72299,1,0,0:0:0:0:
109,192,72299,1,0,0:0:0:0:
36,192,72299,1,0,0:0:0:0:
329,192,72374,1,0,0:0:0:0:
402,192,72374,1,0,0:0:0:0:
475,192,72374,1,0,0:0:0:0:
182,192,72449,1,0,0:0:0:0:
109,192,72449,1,0,0:0:0:0:
36,192,72449,1,0,0:0:0:0:
329,192,72524,1,0,0:0:0:0:
402,192,72524,1,0,0:0:0:0:
475,192,72524,1,0,0:0:0:0:
182,192,72599,1,0,0:0:0:0:
109,192,72599,1,0,0:0:0:0:
36,192,72599,1,0,0:0:0:0:
329,192,72674,1,0,0:0:0:0:
402,192,72674,1,0,0:0:0:0:
475,192,72674,1,0,0:0:0:0:
182,192,72749,1,0,0:0:0:0:
109,192,72749,1,0,0:0:0:0:
36,192,72749,1,0,0:0:0:0:
329,192,72799,1,0,0:0:0:0:
475,192,72799,1,0,0:0:0:0:
402,192,72799,1,0,0:0:0:0:
182,192,72849,1,0,0:0:0:0:
109,192,72849,1,0,0:0:0:0:
36,192,72849,1,0,0:0:0:0:
329,192,72899,1,0,0:0:0:0:
402,192,72899,1,0,0:0:0:0:
475,192,72899,1,0,0:0:0:0:
182,192,72949,1,0,0:0:0:0:
109,192,72949,1,0,0:0:0:0:
36,192,72949,1,0,0:0:0:0:
329,192,72999,1,0,0:0:0:0:
402,192,72999,1,0,0:0:0:0:
475,192,72999,1,0,0:0:0:0:
182,192,73049,1,0,0:0:0:0:
109,192,73049,1,0,0:0:0:0:
36,192,73049,1,0,0:0:0:0:
36,192,73349,1,0,0:0:0:0:
109,192,73349,1,0,0:0:0:0:
182,192,73349,1,0,0:0:0:0:
256,192,73349,1,0,0:0:0:0:
329,192,73349,1,0,0:0:0:0:
475,192,73349,1,0,0:0:0:0:
402,192,73349,1,0,0:0:0:0:
256,192,73424,1,0,0:0:0:0:
329,192,73424,1,0,0:0:0:0:
402,192,73424,1,0,0:0:0:0:
475,192,73424,1,0,0:0:0:0:
475,192,73499,1,0,0:0:0:0:
256,192,73499,1,0,0:0:0:0:
329,192,73499,1,0,0:0:0:0:
402,192,73499,1,0,0:0:0:0:
256,192,73574,1,0,0:0:0:0:
329,192,73574,1,0,0:0:0:0:
402,192,73574,1,0,0:0:0:0:
475,192,73574,1,0,0:0:0:0:
182,192,73649,1,0,0:0:0:0:
109,192,73649,1,0,0:0:0:0:
36,192,73649,1,0,0:0:0:0:
36,192,73724,1,0,0:0:0:0:
109,192,73724,1,0,0:0:0:0:
182,192,73724,1,0,0:0:0:0:
256,192,73799,1,0,0:0:0:0:
329,192,73799,1,0,0:0:0:0:
402,192,73799,1,0,0:0:0:0:
475,192,73799,1,0,0:0:0:0:
475,192,73874,1,0,0:0:0:0:
402,192,73874,1,0,0:0:0:0:
329,192,73874,1,0,0:0:0:0:
256,192,73874,1,0,0:0:0:0:
256,192,73949,1,0,0:0:0:0:
329,192,73949,1,0,0:0:0:0:
402,192,73949,1,0,0:0:0:0:
475,192,73949,1,0,0:0:0:0:
256,192,74024,1,0,0:0:0:0:
329,192,74024,1,0,0:0:0:0:
475,192,74024,1,0,0:0:0:0:
402,192,74024,1,0,0:0:0:0:
182,192,74099,1,0,0:0:0:0:
109,192,74099,1,0,0:0:0:0:
36,192,74099,1,0,0:0:0:0:
36,192,74174,1,0,0:0:0:0:
109,192,74174,1,0,0:0:0:0:
182,192,74174,1,0,0:0:0:0:
36,192,74249,1,0,0:0:0:0:
109,192,74249,1,0,0:0:0:0:
182,192,74249,1,0,0:0:0:0:
182,192,74324,1,0,0:0:0:0:
109,192,74324,1,0,0:0:0:0:
36,192,74324,1,0,0:0:0:0:
256,192,74399,1,0,0:0:0:0:
329,192,74399,1,0,0:0:0:0:
475,192,74399,1,0,0:0:0:0:
402,192,74399,1,0,0:0:0:0:
256,192,74474,1,0,0:0:0:0:
329,192,74474,1,0,0:0:0:0:
402,192,74474,1,0,0:0:0:0:
475,192,74474,1,0,0:0:0:0:
256,192,74549,1,0,0:0:0:0:
329,192,74549,1,0,0:0:0:0:
402,192,74549,1,0,0:0:0:0:
475,192,74549,1,0,0:0:0:0:
256,192,74624,1,0,0:0:0:0:
329,192,74624,1,0,0:0:0:0:
402,192,74624,1,0,0:0:0:0:
475,192,74624,1,0,0:0:0:0:
182,192,74699,1,0,0:0:0:0:
109,192,74699,1,0,0:0:0:0:
36,192,74699,1,0,0:0:0:0:
36,192,74774,1,0,0:0:0:0:
182,192,74774,1,0,0:0:0:0:
109,192,74774,1,0,0:0:0:0:
256,192,74849,1,0,0:0:0:0:
329,192,74849,1,0,0:0:0:0:
402,192,74849,1,0,0:0:0:0:
475,192,74849,1,0,0:0:0:0:
256,192,74924,1,0,0:0:0:0:
329,192,74924,1,0,0:0:0:0:
475,192,74924,1,0,0:0:0:0:
402,192,74924,1,0,0:0:0:0:
36,192,74999,1,0,0:0:0:0:
36,192,75074,1,0,0:0:0:0:
36,192,75149,1,0,0:0:0:0:
36,192,75224,1,0,0:0:0:0:
402,192,75299,1,0,0:0:0:0:
402,192,75374,1,0,0:0:0:0:
402,192,75449,1,0,0:0:0:0:
402,192,75524,1,0,0:0:0:0:
182,192,75599,1,0,0:0:0:0:
182,192,75674,1,0,0:0:0:0:
329,192,75749,1,0,0:0:0:0:
329,192,75824,1,0,0:0:0:0:
329,192,75899,1,0,0:0:0:0:
329,192,75974,1,0,0:0:0:0:
329,192,76049,1,0,0:0:0:0:
329,192,76124,1,0,0:0:0:0:
109,192,76199,1,0,0:0:0:0:
109,192,76274,1,0,0:0:0:0:
109,192,76349,1,0,0:0:0:0:
109,192,76424,1,0,0:0:0:0:
109,192,76499,1,0,0:0:0:0:
109,192,76574,1,0,0:0:0:0:
475,192,76649,1,0,0:0:0:0:
475,192,76724,1,0,0:0:0:0:
475,192,76799,1,0,0:0:0:0:
475,192,76874,1,0,0:0:0:0:
475,192,76949,1,0,0:0:0:0:
402,192,76949,1,0,0:0:0:0:
329,192,76949,1,0,0:0:0:0:
256,192,76949,1,0,0:0:0:0:
182,192,76949,1,0,0:0:0:0:
109,192,76949,1,0,0:0:0:0:
36,192,76949,1,0,0:0:0:0:
36,192,77099,1,0,0:0:0:0:
109,192,77099,1,0,0:0:0:0:
182,192,77099,1,0,0:0:0:0:
256,192,77099,1,0,0:0:0:0:
329,192,77099,1,0,0:0:0:0:
402,192,77099,1,0,0:0:0:0:
475,192,77099,1,0,0:0:0:0:
36,192,77249,1,0,0:0:0:0:
109,192,77249,1,0,0:0:0:0:
182,192,77249,1,0,0:0:0:0:
256,192,77249,1,0,0:0:0:0:
402,192,77249,1,0,0:0:0:0:
329,192,77249,1,0,0:0:0:0:
475,192,77249,1,0,0:0:0:0:
36,192,77549,1,0,0:0:0:0:
109,192,77549,1,0,0:0:0:0:
182,192,77549,1,0,0:0:0:0:
256,192,77549,1,0,0:0:0:0:
329,192,77549,1,0,0:0:0:0:
402,192,77549,1,0,0:0:0:0:
475,192,77549,1,0,0:0:0:0:
36,192,77699,1,0,0:0:0:0:
109,192,77699,1,0,0:0:0:0:
182,192,77699,1,0,0:0:0:0:
329,192,77699,1,0,0:0:0:0:
402,192,77699,1,0,0:0:0:0:
475,192,77699,1,0,0:0:0:0:
256,192,77699,1,0,0:0:0:0:
36,192,77849,1,0,0:0:0:0:
109,192,77849,1,0,0:0:0:0:
182,192,77849,1,0,0:0:0:0:
256,192,77849,1,0,0:0:0:0:
329,192,77849,1,0,0:0:0:0:
402,192,77849,1,0,0:0:0:0:
475,192,77849,1,0,0:0:0:0:
475,192,77999,1,0,0:0:0:0:
402,192,77999,1,0,0:0:0:0:
329,192,77999,1,0,0:0:0:0:
256,192,77999,1,0,0:0:0:0:
182,192,77999,1,0,0:0:0:0:
109,192,77999,1,0,0:0:0:0:
36,192,77999,1,0,0:0:0:0:
36,192,78149,1,0,0:0:0:0:
109,192,78149,1,0,0:0:0:0:
182,192,78149,1,0,0:0:0:0:
256,192,78149,1,0,0:0:0:0:
329,192,78149,1,0,0:0:0:0:
402,192,78149,1,0,0:0:0:0:
475,192,78149,1,0,0:0:0:0:
256,192,78224,1,0,0:0:0:0:
329,192,78224,1,0,0:0:0:0:
475,192,78224,1,0,0:0:0:0:
402,192,78224,1,0,0:0:0:0:
256,192,78299,1,0,0:0:0:0:
329,192,78299,1,0,0:0:0:0:
402,192,78299,1,0,0:0:0:0:
475,192,78299,1,0,0:0:0:0:
256,192,78374,1,0,0:0:0:0:
329,192,78374,1,0,0:0:0:0:
402,192,78374,1,0,0:0:0:0:
475,192,78374,1,0,0:0:0:0:
182,192,78449,1,0,0:0:0:0:
109,192,78449,1,0,0:0:0:0:
36,192,78449,1,0,0:0:0:0:
36,192,78524,1,0,0:0:0:0:
182,192,78524,1,0,0:0:0:0:
109,192,78524,1,0,0:0:0:0:
256,192,78599,1,0,0:0:0:0:
329,192,78599,1,0,0:0:0:0:
402,192,78599,1,0,0:0:0:0:
475,192,78599,1,0,0:0:0:0:
256,192,78674,1,0,0:0:0:0:
329,192,78674,1,0,0:0:0:0:
402,192,78674,1,0,0:0:0:0:
475,192,78674,1,0,0:0:0:0:
256,192,78749,1,0,0:0:0:0:
329,192,78749,1,0,0:0:0:0:
475,192,78749,1,0,0:0:0:0:
402,192,78749,1,0,0:0:0:0:
256,192,78824,1,0,0:0:0:0:
329,192,78824,1,0,0:0:0:0:
402,192,78824,1,0,0:0:0:0:
475,192,78824,1,0,0:0:0:0:
182,192,78899,1,0,0:0:0:0:
109,192,78899,1,0,0:0:0:0:
36,192,78899,1,0,0:0:0:0:
36,192,78974,1,0,0:0:0:0:
182,192,78974,1,0,0:0:0:0:
109,192,78974,1,0,0:0:0:0:
36,192,79049,1,0,0:0:0:0:
182,192,79049,1,0,0:0:0:0:
109,192,79049,1,0,0:0:0:0:
109,192,79124,1,0,0:0:0:0:
36,192,79124,1,0,0:0:0:0:
182,192,79124,1,0,0:0:0:0:
256,192,79199,1,0,0:0:0:0:
329,192,79199,1,0,0:0:0:0:
475,192,79199,1,0,0:0:0:0:
402,192,79199,1,0,0:0:0:0:
256,192,79274,1,0,0:0:0:0:
402,192,79274,1,0,0:0:0:0:
329,192,79274,1,0,0:0:0:0:
475,192,79274,1,0,0:0:0:0:
475,192,79349,1,0,0:0:0:0:
402,192,79349,1,0,0:0:0:0:
329,192,79349,1,0,0:0:0:0:
256,192,79349,1,0,0:0:0:0:
256,192,79424,1,0,0:0:0:0:
329,192,79424,1,0,0:0:0:0:
475,192,79424,1,0,0:0:0:0:
402,192,79424,1,0,0:0:0:0:
182,192,79499,1,0,0:0:0:0:
109,192,79499,1,0,0:0:0:0:
36,192,79499,1,0,0:0:0:0:
36,192,79574,1,0,0:0:0:0:
109,192,79574,1,0,0:0:0:0:
182,192,79574,1,0,0:0:0:0:
256,192,79649,1,0,0:0:0:0:
329,192,79649,1,0,0:0:0:0:
475,192,79649,1,0,0:0:0:0:
402,192,79649,1,0,0:0:0:0:
256,192,79724,1,0,0:0:0:0:
329,192,79724,1,0,0:0:0:0:
402,192,79724,1,0,0:0:0:0:
475,192,79724,1,0,0:0:0:0:
182,192,79799,1,0,0:0:0:0:
109,192,79799,1,0,0:0:0:0:
36,192,79799,1,0,0:0:0:0:
36,192,79874,1,0,0:0:0:0:
182,192,79874,1,0,0:0:0:0:
109,192,79874,1,0,0:0:0:0:
182,192,79949,1,0,0:0:0:0:
109,192,79949,1,0,0:0:0:0:
36,192,79949,1,0,0:0:0:0:
36,192,80024,1,0,0:0:0:0:
109,192,80024,1,0,0:0:0:0:
182,192,80024,1,0,0:0:0:0:
256,192,80099,1,0,0:0:0:0:
329,192,80099,1,0,0:0:0:0:
402,192,80099,1,0,0:0:0:0:
475,192,80099,1,0,0:0:0:0:
256,192,80174,1,0,0:0:0:0:
329,192,80174,1,0,0:0:0:0:
402,192,80174,1,0,0:0:0:0:
475,192,80174,1,0,0:0:0:0:
182,192,80249,1,0,0:0:0:0:
109,192,80249,1,0,0:0:0:0:
36,192,80249,1,0,0:0:0:0:
36,192,80324,1,0,0:0:0:0:
182,192,80324,1,0,0:0:0:0:
109,192,80324,1,0,0:0:0:0:
256,192,80399,1,0,0:0:0:0:
329,192,80399,1,0,0:0:0:0:
402,192,80399,1,0,0:0:0:0:
475,192,80399,1,0,0:0:0:0:
475,192,80474,1,0,0:0:0:0:
402,192,80474,1,0,0:0:0:0:
329,192,80474,1,0,0:0:0:0:
256,192,80474,1,0,0:0:0:0:
182,192,80549,1,0,0:0:0:0:
109,192,80549,1,0,0:0:0:0:
36,192,80549,1,0,0:0:0:0:
109,192,80624,1,0,0:0:0:0:
182,192,80624,1,0,0:0:0:0:
36,192,80624,1,0,0:0:0:0:
109,192,80699,1,0,0:0:0:0:
36,192,80699,1,0,0:0:0:0:
182,192,80699,1,0,0:0:0:0:
36,192,80774,1,0,0:0:0:0:
109,192,80774,1,0,0:0:0:0:
182,192,80774,1,0,0:0:0:0:
256,192,80849,1,0,0:0:0:0:
329,192,80849,1,0,0:0:0:0:
402,192,80849,1,0,0:0:0:0:
475,192,80849,1,0,0:0:0:0:
256,192,80924,1,0,0:0:0:0:
329,192,80924,1,0,0:0:0:0:
402,192,80924,1,0,0:0:0:0:
475,192,80924,1,0,0:0:0:0:
256,192,80999,1,0,0:0:0:0:
329,192,80999,1,0,0:0:0:0:
475,192,80999,1,0,0:0:0:0:
402,192,80999,1,0,0:0:0:0:
256,192,81074,1,0,0:0:0:0:
329,192,81074,1,0,0:0:0:0:
402,192,81074,1,0,0:0:0:0:
475,192,81074,1,0,0:0:0:0:
182,192,81149,1,0,0:0:0:0:
109,192,81149,1,0,0:0:0:0:
36,192,81149,1,0,0:0:0:0:
36,192,81224,1,0,0:0:0:0:
182,192,81224,1,0,0:0:0:0:
109,192,81224,1,0,0:0:0:0:
256,192,81299,1,0,0:0:0:0:
329,192,81299,1,0,0:0:0:0:
402,192,81299,1,0,0:0:0:0:
475,192,81299,1,0,0:0:0:0:
256,192,81374,1,0,0:0:0:0:
402,192,81374,1,0,0:0:0:0:
475,192,81374,1,0,0:0:0:0:
329,192,81374,1,0,0:0:0:0:
256,192,81449,1,0,0:0:0:0:
329,192,81449,1,0,0:0:0:0:
475,192,81449,1,0,0:0:0:0:
402,192,81449,1,0,0:0:0:0:
256,192,81524,1,0,0:0:0:0:
329,192,81524,1,0,0:0:0:0:
402,192,81524,1,0,0:0:0:0:
475,192,81524,1,0,0:0:0:0:
36,192,81599,1,0,0:0:0:0:
109,192,81599,1,0,0:0:0:0:
182,192,81599,1,0,0:0:0:0:
256,192,81899,1,0,0:0:0:0:
182,192,81899,1,0,0:0:0:0:
329,192,81899,1,0,0:0:0:0:
475,192,82199,1,0,0:0:0:0:
402,192,82199,1,0,0:0:0:0:
329,192,82199,1,0,0:0:0:0:
182,192,82499,1,0,0:0:0:0:
256,192,82499,1,0,0:0:0:0:
329,192,82499,1,0,0:0:0:0:
36,192,82499,1,0,0:0:0:0:
475,192,82499,1,0,0:0:0:0:
109,192,82499,1,0,0:0:0:0:
402,192,82499,1,0,0:0:0:0:
182,192,82649,1,0,0:0:0:0:
256,192,82649,1,0,0:0:0:0:
329,192,82649,1,0,0:0:0:0:
475,192,82649,1,0,0:0:0:0:
36,192,82649,1,0,0:0:0:0:
109,192,82649,1,0,0:0:0:0:
402,192,82649,1,0,0:0:0:0:
182,192,82799,1,0,0:0:0:0:
256,192,82799,1,0,0:0:0:0:
329,192,82799,1,0,0:0:0:0:
36,192,82799,1,0,0:0:0:0:
475,192,82799,1,0,0:0:0:0:
109,192,82799,1,0,0:0:0:0:
402,192,82799,1,0,0:0:0:0:
182,192,82949,1,0,0:0:0:0:
109,192,82949,1,0,0:0:0:0:
36,192,82949,1,0,0:0:0:0:
329,192,83024,1,0,0:0:0:0:
475,192,83024,1,0,0:0:0:0:
402,192,83024,1,0,0:0:0:0:
182,192,83099,1,0,0:0:0:0:
109,192,83099,1,0,0:0:0:0:
36,192,83099,1,0,0:0:0:0:
329,192,83174,1,0,0:0:0:0:
402,192,83174,1,0,0:0:0:0:
475,192,83174,1,0,0:0:0:0:
182,192,83249,1,0,0:0:0:0:
109,192,83249,1,0,0:0:0:0:
36,192,83249,1,0,0:0:0:0:
329,192,83324,1,0,0:0:0:0:
402,192,83324,1,0,0:0:0:0:
475,192,83324,1,0,0:0:0:0:
182,192,83399,1,0,0:0:0:0:
109,192,83399,1,0,0:0:0:0:
36,192,83399,1,0,0:0:0:0:
329,192,83474,1,0,0:0:0:0:
402,192,83474,1,0,0:0:0:0:
475,192,83474,1,0,0:0:0:0:
182,192,83549,1,0,0:0:0:0:
109,192,83549,1,0,0:0:0:0:
36,192,83549,1,0,0:0:0:0:
329,192,83624,1,0,0:0:0:0:
402,192,83624,1,0,0:0:0:0:
475,192,83624,1,0,0:0:0:0:
182,192,83699,1,0,0:0:0:0:
109,192,83699,1,0,0:0:0:0:
36,192,83699,1,0,0:0:0:0:
329,192,83774,1,0,0:0:0:0:
402,192,83774,1,0,0:0:0:0:
475,192,83774,1,0,0:0:0:0:
182,192,83849,1,0,0:0:0:0:
109,192,83849,1,0,0:0:0:0:
36,192,83849,1,0,0:0:0:0:
329,192,83899,1,0,0:0:0:0:
402,192,83899,1,0,0:0:0:0:
475,192,83899,1,0,0:0:0:0:
182,192,83949,1,0,0:0:0:0:
109,192,83949,1,0,0:0:0:0:
36,192,83949,1,0,0:0:0:0:
329,192,83999,1,0,0:0:0:0:
402,192,83999,1,0,0:0:0:0:
475,192,83999,1,0,0:0:0:0:
182,192,84049,1,0,0:0:0:0:
109,192,84049,1,0,0:0:0:0:
36,192,84049,1,0,0:0:0:0:
329,192,84099,1,0,0:0:0:0:
475,192,84099,1,0,0:0:0:0:
402,192,84099,1,0,0:0:0:0:
182,192,84149,1,0,0:0:0:0:
109,192,84149,1,0,0:0:0:0:
36,192,84149,1,0,0:0:0:0:
329,192,84224,1,0,0:0:0:0:
402,192,84224,1,0,0:0:0:0:
475,192,84224,1,0,0:0:0:0:
182,192,84299,1,0,0:0:0:0:
109,192,84299,1,0,0:0:0:0:
36,192,84299,1,0,0:0:0:0:
329,192,84374,1,0,0:0:0:0:
475,192,84374,1,0,0:0:0:0:
402,192,84374,1,0,0:0:0:0:
182,192,84449,1,0,0:0:0:0:
109,192,84449,1,0,0:0:0:0:
36,192,84449,1,0,0:0:0:0:
329,192,84524,1,0,0:0:0:0:
402,192,84524,1,0,0:0:0:0:
475,192,84524,1,0,0:0:0:0:
182,192,84599,1,0,0:0:0:0:
109,192,84599,1,0,0:0:0:0:
36,192,84599,1,0,0:0:0:0:
329,192,84674,1,0,0:0:0:0:
402,192,84674,1,0,0:0:0:0:
475,192,84674,1,0,0:0:0:0:
182,192,84749,1,0,0:0:0:0:
36,192,84749,1,0,0:0:0:0:
109,192,84749,1,0,0:0:0:0:
329,192,84824,1,0,0:0:0:0:
402,192,84824,1,0,0:0:0:0:
475,192,84824,1,0,0:0:0:0:
182,192,84899,1,0,0:0:0:0:
109,192,84899,1,0,0:0:0:0:
36,192,84899,1,0,0:0:0:0:
329,192,84974,1,0,0:0:0:0:
402,192,84974,1,0,0:0:0:0:
475,192,84974,1,0,0:0:0:0:
182,192,85049,1,0,0:0:0:0:
109,192,85049,1,0,0:0:0:0:
36,192,85049,1,0,0:0:0:0:
329,192,85099,1,0,0:0:0:0:
402,192,85099,1,0,0:0:0:0:
475,192,85099,1,0,0:0:0:0:
182,192,85149,1,0,0:0:0:0:
109,192,85149,1,0,0:0:0:0:
36,192,85149,1,0,0:0:0:0:
329,192,85199,1,0,0:0:0:0:
402,192,85199,1,0,0:0:0:0:
475,192,85199,1,0,0:0:0:0:
182,192,85249,1,0,0:0:0:0:
109,192,85249,1,0,0:0:0:0:
36,192,85249,1,0,0:0:0:0:
329,192,85299,1,0,0:0:0:0:
402,192,85299,1,0,0:0:0:0:
475,192,85299,1,0,0:0:0:0:
182,192,85349,1,0,0:0:0:0:
109,192,85349,1,0,0:0:0:0:
36,192,85349,1,0,0:0:0:0:
329,192,85424,1,0,0:0:0:0:
402,192,85424,1,0,0:0:0:0:
475,192,85424,1,0,0:0:0:0:
109,192,85499,1,0,0:0:0:0:
182,192,85499,1,0,0:0:0:0:
36,192,85499,1,0,0:0:0:0:
329,192,85574,1,0,0:0:0:0:
402,192,85574,1,0,0:0:0:0:
475,192,85574,1,0,0:0:0:0:
182,192,85649,1,0,0:0:0:0:
109,192,85649,1,0,0:0:0:0:
36,192,85649,1,0,0:0:0:0:
329,192,85699,1,0,0:0:0:0:
402,192,85699,1,0,0:0:0:0:
475,192,85699,1,0,0:0:0:0:
182,192,85749,1,0,0:0:0:0:
109,192,85749,1,0,0:0:0:0:
36,192,85749,1,0,0:0:0:0:
329,192,85799,1,0,0:0:0:0:
402,192,85799,1,0,0:0:0:0:
475,192,85799,1,0,0:0:0:0:
182,192,85849,1,0,0:0:0:0:
109,192,85849,1,0,0:0:0:0:
36,192,85849,1,0,0:0:0:0:
329,192,85899,1,0,0:0:0:0:
402,192,85899,1,0,0:0:0:0:
475,192,85899,1,0,0:0:0:0:
182,192,85949,1,0,0:0:0:0:
109,192,85949,1,0,0:0:0:0:
36,192,85949,1,0,0:0:0:0:
329,192,86024,1,0,0:0:0:0:
402,192,86024,1,0,0:0:0:0:
475,192,86024,1,0,0:0:0:0:
182,192,86099,1,0,0:0:0:0:
109,192,86099,1,0,0:0:0:0:
36,192,86099,1,0,0:0:0:0:
329,192,86174,1,0,0:0:0:0:
402,192,86174,1,0,0:0:0:0:
475,192,86174,1,0,0:0:0:0:
182,192,86249,1,0,0:0:0:0:
109,192,86249,1,0,0:0:0:0:
36,192,86249,1,0,0:0:0:0:
329,192,86299,1,0,0:0:0:0:
402,192,86299,1,0,0:0:0:0:
475,192,86299,1,0,0:0:0:0:
182,192,86349,1,0,0:0:0:0:
109,192,86349,1,0,0:0:0:0:
36,192,86349,1,0,0:0:0:0:
329,192,86399,1,0,0:0:0:0:
402,192,86399,1,0,0:0:0:0:
475,192,86399,1,0,0:0:0:0:
182,192,86449,1,0,0:0:0:0:
109,192,86449,1,0,0:0:0:0:
36,192,86449,1,0,0:0:0:0:
329,192,86499,1,0,0:0:0:0:
402,192,86499,1,0,0:0:0:0:
475,192,86499,1,0,0:0:0:0:
182,192,86549,1,0,0:0:0:0:
109,192,86549,1,0,0:0:0:0:
36,192,86549,1,0,0:0:0:0:
329,192,86599,1,0,0:0:0:0:
402,192,86599,1,0,0:0:0:0:
475,192,86599,1,0,0:0:0:0:
182,192,86649,1,0,0:0:0:0:
109,192,86649,1,0,0:0:0:0:
36,192,86649,1,0,0:0:0:0:
329,192,86699,1,0,0:0:0:0:
402,192,86699,1,0,0:0:0:0:
475,192,86699,1,0,0:0:0:0:
182,192,86774,1,0,0:0:0:0:
109,192,86774,1,0,0:0:0:0:
36,192,86774,1,0,0:0:0:0:
329,192,86849,1,0,0:0:0:0:
402,192,86849,1,0,0:0:0:0:
475,192,86849,1,0,0:0:0:0:
182,192,86924,1,0,0:0:0:0:
109,192,86924,1,0,0:0:0:0:
36,192,86924,1,0,0:0:0:0:
475,192,86999,1,0,0:0:0:0:
329,192,86999,1,0,0:0:0:0:
402,192,86999,1,0,0:0:0:0:
182,192,87074,1,0,0:0:0:0:
109,192,87074,1,0,0:0:0:0:
36,192,87074,1,0,0:0:0:0:
329,192,87149,1,0,0:0:0:0:
402,192,87149,1,0,0:0:0:0:
475,192,87149,1,0,0:0:0:0:
182,192,87199,1,0,0:0:0:0:
109,192,87199,1,0,0:0:0:0:
36,192,87199,1,0,0:0:0:0:
329,192,87249,1,0,0:0:0:0:
402,192,87249,1,0,0:0:0:0:
475,192,87249,1,0,0:0:0:0:
182,192,87299,1,0,0:0:0:0:
109,192,87299,1,0,0:0:0:0:
36,192,87299,1,0,0:0:0:0:
329,192,87349,1,0,0:0:0:0:
402,192,87349,1,0,0:0:0:0:
475,192,87349,1,0,0:0:0:0:
182,192,87399,1,0,0:0:0:0:
109,192,87399,1,0,0:0:0:0:
36,192,87399,1,0,0:0:0:0:
329,192,87449,1,0,0:0:0:0:
402,192,87449,1,0,0:0:0:0:
475,192,87449,1,0,0:0:0:0:
182,192,87499,1,0,0:0:0:0:
109,192,87499,1,0,0:0:0:0:
36,192,87499,1,0,0:0:0:0:
329,192,87549,1,0,0:0:0:0:
402,192,87549,1,0,0:0:0:0:
475,192,87549,1,0,0:0:0:0:
182,192,87599,1,0,0:0:0:0:
109,192,87599,1,0,0:0:0:0:
36,192,87599,1,0,0:0:0:0:
329,192,87649,1,0,0:0:0:0:
402,192,87649,1,0,0:0:0:0:
475,192,87649,1,0,0:0:0:0:
182,192,87699,1,0,0:0:0:0:
109,192,87699,1,0,0:0:0:0:
36,192,87699,1,0,0:0:0:0:
329,192,87749,1,0,0:0:0:0:
256,192,87749,1,0,0:0:0:0:
402,192,87749,1,0,0:0:0:0:
475,192,87749,1,0,0:0:0:0:
36,192,88949,1,0,0:0:0:0:
109,192,88949,1,0,0:0:0:0:
182,192,88949,1,0,0:0:0:0:
256,192,88949,1,0,0:0:0:0:
329,192,88949,1,0,0:0:0:0:
402,192,88949,1,0,0:0:0:0:
475,192,88949,1,0,0:0:0:0:
36,192,90149,1,0,0:0:0:0:
109,192,90149,1,0,0:0:0:0:
182,192,90149,1,0,0:0:0:0:
329,192,90149,1,0,0:0:0:0:
402,192,90149,1,0,0:0:0:0:
256,192,90149,1,0,0:0:0:0:
475,192,90149,1,0,0:0:0:0:
36,192,90749,1,0,0:0:0:0:
109,192,90749,1,0,0:0:0:0:
256,192,90749,1,0,0:0:0:0:
329,192,90749,1,0,0:0:0:0:
182,192,90749,1,0,0:0:0:0:
402,192,90749,1,0,0:0:0:0:
475,192,90749,1,0,0:0:0:0:
329,192,91349,1,0,0:0:0:0:
402,192,91349,1,0,0:0:0:0:
475,192,91349,1,0,0:0:0:0:
182,192,91424,1,0,0:0:0:0:
109,192,91424,1,0,0:0:0:0:
36,192,91424,1,0,0:0:0:0:
329,192,91499,1,0,0:0:0:0:
402,192,91499,1,0,0:0:0:0:
475,192,91499,1,0,0:0:0:0:
182,192,91574,1,0,0:0:0:0:
109,192,91574,1,0,0:0:0:0:
36,192,91574,1,0,0:0:0:0:
329,192,91649,1,0,0:0:0:0:
402,192,91649,1,0,0:0:0:0:
475,192,91649,1,0,0:0:0:0:
182,192,91724,1,0,0:0:0:0:
109,192,91724,1,0,0:0:0:0:
36,192,91724,1,0,0:0:0:0:
329,192,91799,1,0,0:0:0:0:
475,192,91799,1,0,0:0:0:0:
402,192,91799,1,0,0:0:0:0:
182,192,91874,1,0,0:0:0:0:
109,192,91874,1,0,0:0:0:0:
36,192,91874,1,0,0:0:0:0:
329,192,91949,1,0,0:0:0:0:
475,192,91949,1,0,0:0:0:0:
402,192,91949,1,0,0:0:0:0:
182,192,91999,1,0,0:0:0:0:
109,192,91999,1,0,0:0:0:0:
36,192,91999,1,0,0:0:0:0:
329,192,92049,1,0,0:0:0:0:
402,192,92049,1,0,0:0:0:0:
475,192,92049,1,0,0:0:0:0:
182,192,92099,1,0,0:0:0:0:
109,192,92099,1,0,0:0:0:0:
36,192,92099,1,0,0:0:0:0:
329,192,92149,1,0,0:0:0:0:
402,192,92149,1,0,0:0:0:0:
475,192,92149,1,0,0:0:0:0:
182,192,92199,1,0,0:0:0:0:
109,192,92199,1,0,0:0:0:0:
36,192,92199,1,0,0:0:0:0:
329,192,92249,1,0,0:0:0:0:
402,192,92249,1,0,0:0:0:0:
475,192,92249,1,0,0:0:0:0:
182,192,92299,1,0,0:0:0:0:
109,192,92299,1,0,0:0:0:0:
36,192,92299,1,0,0:0:0:0:
329,192,92349,1,0,0:0:0:0:
402,192,92349,1,0,0:0:0:0:
475,192,92349,1,0,0:0:0:0:
182,192,92399,1,0,0:0:0:0:
109,192,92399,1,0,0:0:0:0:
36,192,92399,1,0,0:0:0:0:
329,192,92449,1,0,0:0:0:0:
402,192,92449,1,0,0:0:0:0:
475,192,92449,1,0,0:0:0:0:
182,192,92499,1,0,0:0:0:0:
109,192,92499,1,0,0:0:0:0:
36,192,92499,1,0,0:0:0:0:
256,192,92549,1,0,0:0:0:0:
329,192,92549,1,0,0:0:0:0:
402,192,92549,1,0,0:0:0:0:
475,192,92549,1,0,0:0:0:0:
256,192,92624,1,0,0:0:0:0:
329,192,92624,1,0,0:0:0:0:
402,192,92624,1,0,0:0:0:0:
475,192,92624,1,0,0:0:0:0:
329,192,92699,1,0,0:0:0:0:
256,192,92699,1,0,0:0:0:0:
402,192,92699,1,0,0:0:0:0:
475,192,92699,1,0,0:0:0:0:
256,192,92774,1,0,0:0:0:0:
329,192,92774,1,0,0:0:0:0:
475,192,92774,1,0,0:0:0:0:
402,192,92774,1,0,0:0:0:0:
182,192,92849,1,0,0:0:0:0:
109,192,92849,1,0,0:0:0:0:
36,192,92849,1,0,0:0:0:0:
256,192,92924,1,0,0:0:0:0:
329,192,92924,1,0,0:0:0:0:
402,192,92924,1,0,0:0:0:0:
475,192,92924,1,0,0:0:0:0:
182,192,92999,1,0,0:0:0:0:
109,192,92999,1,0,0:0:0:0:
36,192,92999,1,0,0:0:0:0:
256,192,93074,1,0,0:0:0:0:
329,192,93074,1,0,0:0:0:0:
402,192,93074,1,0,0:0:0:0:
475,192,93074,1,0,0:0:0:0:
182,192,93149,1,0,0:0:0:0:
109,192,93149,1,0,0:0:0:0:
36,192,93149,1,0,0:0:0:0:
256,192,93224,1,0,0:0:0:0:
329,192,93224,1,0,0:0:0:0:
402,192,93224,1,0,0:0:0:0:
475,192,93224,1,0,0:0:0:0:
182,192,93299,1,0,0:0:0:0:
109,192,93299,1,0,0:0:0:0:
36,192,93299,1,0,0:0:0:0:
36,192,93374,1,0,0:0:0:0:
109,192,93374,1,0,0:0:0:0:
182,192,93374,1,0,0:0:0:0:
182,192,93449,1,0,0:0:0:0:
109,192,93449,1,0,0:0:0:0:
36,192,93449,1,0,0:0:0:0:
256,192,93599,1,0,0:0:0:0:
329,192,93599,1,0,0:0:0:0:
402,192,93599,1,0,0:0:0:0:
475,192,93599,1,0,0:0:0:0:
256,192,93674,1,0,0:0:0:0:
329,192,93674,1,0,0:0:0:0:
402,192,93674,1,0,0:0:0:0:
475,192,93674,1,0,0:0:0:0:
256,192,93749,1,0,0:0:0:0:
329,192,93749,1,0,0:0:0:0:
402,192,93749,1,0,0:0:0:0:
475,192,93749,1,0,0:0:0:0:
36,192,93899,1,0,0:0:0:0:
109,192,93899,1,0,0:0:0:0:
182,192,93899,1,0,0:0:0:0:
36,192,93974,1,0,0:0:0:0:
109,192,93974,1,0,0:0:0:0:
182,192,93974,1,0,0:0:0:0:
182,192,94049,1,0,0:0:0:0:
109,192,94049,1,0,0:0:0:0:
36,192,94049,1,0,0:0:0:0:
256,192,94199,1,0,0:0:0:0:
329,192,94199,1,0,0:0:0:0:
402,192,94199,1,0,0:0:0:0:
475,192,94199,1,0,0:0:0:0:
475,192,94274,1,0,0:0:0:0:
402,192,94274,1,0,0:0:0:0:
329,192,94274,1,0,0:0:0:0:
256,192,94274,1,0,0:0:0:0:
256,192,94349,1,0,0:0:0:0:
329,192,94349,1,0,0:0:0:0:
402,192,94349,1,0,0:0:0:0:
475,192,94349,1,0,0:0:0:0:
182,192,94499,1,0,0:0:0:0:
109,192,94499,1,0,0:0:0:0:
36,192,94499,1,0,0:0:0:0:
256,192,94649,1,0,0:0:0:0:
329,192,94649,1,0,0:0:0:0:
402,192,94649,1,0,0:0:0:0:
475,192,94649,1,0,0:0:0:0:
36,192,94799,1,0,0:0:0:0:
109,192,94799,1,0,0:0:0:0:
182,192,94799,1,0,0:0:0:0:
256,192,94949,1,0,0:0:0:0:
329,192,94949,1,0,0:0:0:0:
402,192,94949,1,0,0:0:0:0:
475,192,94949,1,0,0:0:0:0:
256,192,95024,1,0,0:0:0:0:
329,192,95024,1,0,0:0:0:0:
402,192,95024,1,0,0:0:0:0:
475,192,95024,1,0,0:0:0:0:
475,192,95099,1,0,0:0:0:0:
402,192,95099,1,0,0:0:0:0:
329,192,95099,1,0,0:0:0:0:
256,192,95099,1,0,0:0:0:0:
475,192,95174,1,0,0:0:0:0:
402,192,95174,1,0,0:0:0:0:
329,192,95174,1,0,0:0:0:0:
256,192,95174,1,0,0:0:0:0:
182,192,95249,1,0,0:0:0:0:
109,192,95249,1,0,0:0:0:0:
36,192,95249,1,0,0:0:0:0:
256,192,95324,1,0,0:0:0:0:
329,192,95324,1,0,0:0:0:0:
402,192,95324,1,0,0:0:0:0:
475,192,95324,1,0,0:0:0:0:
182,192,95399,1,0,0:0:0:0:
109,192,95399,1,0,0:0:0:0:
36,192,95399,1,0,0:0:0:0:
256,192,95474,1,0,0:0:0:0:
329,192,95474,1,0,0:0:0:0:
402,192,95474,1,0,0:0:0:0:
475,192,95474,1,0,0:0:0:0:
109,192,95549,1,0,0:0:0:0:
36,192,95549,1,0,0:0:0:0:
182,192,95549,1,0,0:0:0:0:
256,192,95624,1,0,0:0:0:0:
329,192,95624,1,0,0:0:0:0:
402,192,95624,1,0,0:0:0:0:
475,192,95624,1,0,0:0:0:0:
36,192,95699,1,0,0:0:0:0:
109,192,95699,1,0,0:0:0:0:
182,192,95699,1,0,0:0:0:0:
256,192,95774,1,0,0:0:0:0:
329,192,95774,1,0,0:0:0:0:
402,192,95774,1,0,0:0:0:0:
475,192,95774,1,0,0:0:0:0:
182,192,95849,1,0,0:0:0:0:
109,192,95849,1,0,0:0:0:0:
36,192,95849,1,0,0:0:0:0:
256,192,95924,1,0,0:0:0:0:
329,192,95924,1,0,0:0:0:0:
402,192,95924,1,0,0:0:0:0:
475,192,95924,1,0,0:0:0:0:
256,192,95999,1,0,0:0:0:0:
329,192,95999,1,0,0:0:0:0:
402,192,95999,1,0,0:0:0:0:
475,192,95999,1,0,0:0:0:0:
475,192,96074,1,0,0:0:0:0:
402,192,96074,1,0,0:0:0:0:
329,192,96074,1,0,0:0:0:0:
256,192,96074,1,0,0:0:0:0:
256,192,96149,1,0,0:0:0:0:
329,192,96149,1,0,0:0:0:0:
402,192,96149,1,0,0:0:0:0:
475,192,96149,1,0,0:0:0:0:
256,192,96224,1,0,0:0:0:0:
329,192,96224,1,0,0:0:0:0:
402,192,96224,1,0,0:0:0:0:
475,192,96224,1,0,0:0:0:0:
182,192,96299,1,0,0:0:0:0:
36,192,96299,1,0,0:0:0:0:
109,192,96299,1,0,0:0:0:0:
182,192,96374,1,0,0:0:0:0:
109,192,96374,1,0,0:0:0:0:
36,192,96374,1,0,0:0:0:0:
36,192,96449,1,0,0:0:0:0:
182,192,96449,1,0,0:0:0:0:
109,192,96449,1,0,0:0:0:0:
109,192,96524,1,0,0:0:0:0:
36,192,96524,1,0,0:0:0:0:
182,192,96524,1,0,0:0:0:0:
256,192,96599,1,0,0:0:0:0:
329,192,96599,1,0,0:0:0:0:
402,192,96599,1,0,0:0:0:0:
475,192,96599,1,0,0:0:0:0:
256,192,96674,1,0,0:0:0:0:
329,192,96674,1,0,0:0:0:0:
402,192,96674,1,0,0:0:0:0:
475,192,96674,1,0,0:0:0:0:
182,192,96749,1,0,0:0:0:0:
109,192,96749,1,0,0:0:0:0:
36,192,96749,1,0,0:0:0:0:
36,192,96824,1,0,0:0:0:0:
109,192,96824,1,0,0:0:0:0:
182,192,96824,1,0,0:0:0:0:
256,192,96899,1,0,0:0:0:0:
329,192,96899,1,0,0:0:0:0:
475,192,96899,1,0,0:0:0:0:
402,192,96899,1,0,0:0:0:0:
329,192,96974,1,0,0:0:0:0:
256,192,96974,1,0,0:0:0:0:
402,192,96974,1,0,0:0:0:0:
475,192,96974,1,0,0:0:0:0:
182,192,97049,1,0,0:0:0:0:
109,192,97049,1,0,0:0:0:0:
36,192,97049,1,0,0:0:0:0:
36,192,97124,1,0,0:0:0:0:
109,192,97124,1,0,0:0:0:0:
182,192,97124,1,0,0:0:0:0:
256,192,97199,1,0,0:0:0:0:
329,192,97199,1,0,0:0:0:0:
402,192,97199,1,0,0:0:0:0:
475,192,97199,1,0,0:0:0:0:
256,192,97274,1,0,0:0:0:0:
329,192,97274,1,0,0:0:0:0:
402,192,97274,1,0,0:0:0:0:
475,192,97274,1,0,0:0:0:0:
182,192,97349,1,0,0:0:0:0:
109,192,97349,1,0,0:0:0:0:
36,192,97349,1,0,0:0:0:0:
182,192,97424,1,0,0:0:0:0:
109,192,97424,1,0,0:0:0:0:
36,192,97424,1,0,0:0:0:0:
36,192,97499,1,0,0:0:0:0:
109,192,97499,1,0,0:0:0:0:
182,192,97499,1,0,0:0:0:0:
182,192,97574,1,0,0:0:0:0:
109,192,97574,1,0,0:0:0:0:
36,192,97574,1,0,0:0:0:0:
256,192,97649,1,0,0:0:0:0:
402,192,97649,1,0,0:0:0:0:
475,192,97649,1,0,0:0:0:0:
329,192,97649,1,0,0:0:0:0:
182,192,97724,1,0,0:0:0:0:
109,192,97724,1,0,0:0:0:0:
36,192,97724,1,0,0:0:0:0:
256,192,97799,1,0,0:0:0:0:
329,192,97799,1,0,0:0:0:0:
402,192,97799,1,0,0:0:0:0:
475,192,97799,1,0,0:0:0:0:
182,192,97874,1,0,0:0:0:0:
109,192,97874,1,0,0:0:0:0:
36,192,97874,1,0,0:0:0:0:
256,192,97949,1,0,0:0:0:0:
329,192,97949,1,0,0:0:0:0:
402,192,97949,1,0,0:0:0:0:
475,192,97949,1,0,0:0:0:0:
182,192,98024,1,0,0:0:0:0:
109,192,98024,1,0,0:0:0:0:
36,192,98024,1,0,0:0:0:0:
256,192,98099,1,0,0:0:0:0:
329,192,98099,1,0,0:0:0:0:
402,192,98099,1,0,0:0:0:0:
475,192,98099,1,0,0:0:0:0:
475,192,98174,1,0,0:0:0:0:
402,192,98174,1,0,0:0:0:0:
329,192,98174,1,0,0:0:0:0:
256,192,98174,1,0,0:0:0:0:
256,192,98249,1,0,0:0:0:0:
329,192,98249,1,0,0:0:0:0:
402,192,98249,1,0,0:0:0:0:
475,192,98249,1,0,0:0:0:0:
182,192,98399,1,0,0:0:0:0:
109,192,98399,1,0,0:0:0:0:
36,192,98399,1,0,0:0:0:0:
36,192,98474,1,0,0:0:0:0:
109,192,98474,1,0,0:0:0:0:
182,192,98474,1,0,0:0:0:0:
182,192,98549,1,0,0:0:0:0:
109,192,98549,1,0,0:0:0:0:
36,192,98549,1,0,0:0:0:0:
256,192,98699,1,0,0:0:0:0:
475,192,98699,1,0,0:0:0:0:
402,192,98699,1,0,0:0:0:0:
329,192,98699,1,0,0:0:0:0:
256,192,98774,1,0,0:0:0:0:
329,192,98774,1,0,0:0:0:0:
402,192,98774,1,0,0:0:0:0:
475,192,98774,1,0,0:0:0:0:
256,192,98849,1,0,0:0:0:0:
329,192,98849,1,0,0:0:0:0:
402,192,98849,1,0,0:0:0:0:
475,192,98849,1,0,0:0:0:0:
182,192,98999,1,0,0:0:0:0:
109,192,98999,1,0,0:0:0:0:
36,192,98999,1,0,0:0:0:0:
36,192,99074,1,0,0:0:0:0:
109,192,99074,1,0,0:0:0:0:
182,192,99074,1,0,0:0:0:0:
182,192,99149,1,0,0:0:0:0:
109,192,99149,1,0,0:0:0:0:
36,192,99149,1,0,0:0:0:0:
329,192,99299,1,0,0:0:0:0:
402,192,99299,1,0,0:0:0:0:
475,192,99299,1,0,0:0:0:0:
256,192,99299,1,0,0:0:0:0:
182,192,99449,1,0,0:0:0:0:
109,192,99449,1,0,0:0:0:0:
36,192,99449,1,0,0:0:0:0:
475,192,99599,1,0,0:0:0:0:
402,192,99599,1,0,0:0:0:0:
329,192,99599,1,0,0:0:0:0:
256,192,99599,1,0,0:0:0:0:
182,192,99749,1,0,0:0:0:0:
109,192,99749,1,0,0:0:0:0:
36,192,99749,1,0,0:0:0:0:
182,192,99824,1,0,0:0:0:0:
109,192,99824,1,0,0:0:0:0:
36,192,99824,1,0,0:0:0:0:
36,192,99899,1,0,0:0:0:0:
109,192,99899,1,0,0:0:0:0:
182,192,99899,1,0,0:0:0:0:
36,192,99974,1,0,0:0:0:0:
109,192,99974,1,0,0:0:0:0:
182,192,99974,1,0,0:0:0:0:
329,192,100049,1,0,0:0:0:0:
402,192,100049,1,0,0:0:0:0:
475,192,100049,1,0,0:0:0:0:
256,192,100049,1,0,0:0:0:0:
182,192,100124,1,0,0:0:0:0:
109,192,100124,1,0,0:0:0:0:
36,192,100124,1,0,0:0:0:0:
329,192,100199,1,0,0:0:0:0:
402,192,100199,1,0,0:0:0:0:
475,192,100199,1,0,0:0:0:0:
256,192,100199,1,0,0:0:0:0:
182,192,100274,1,0,0:0:0:0:
109,192,100274,1,0,0:0:0:0:
36,192,100274,1,0,0:0:0:0:
402,192,100349,1,0,0:0:0:0:
475,192,100349,1,0,0:0:0:0:
329,192,100349,1,0,0:0:0:0:
256,192,100349,1,0,0:0:0:0:
182,192,100424,1,0,0:0:0:0:
109,192,100424,1,0,0:0:0:0:
36,192,100424,1,0,0:0:0:0:
475,192,100499,1,0,0:0:0:0:
402,192,100499,1,0,0:0:0:0:
329,192,100499,1,0,0:0:0:0:
256,192,100499,1,0,0:0:0:0:
182,192,100574,1,0,0:0:0:0:
109,192,100574,1,0,0:0:0:0:
36,192,100574,1,0,0:0:0:0:
329,192,100649,1,0,0:0:0:0:
402,192,100649,1,0,0:0:0:0:
475,192,100649,1,0,0:0:0:0:
256,192,100649,1,0,0:0:0:0:
182,192,100724,1,0,0:0:0:0:
109,192,100724,1,0,0:0:0:0:
36,192,100724,1,0,0:0:0:0:
182,192,100799,1,0,0:0:0:0:
109,192,100799,1,0,0:0:0:0:
36,192,100799,1,0,0:0:0:0:
36,192,100874,1,0,0:0:0:0:
109,192,100874,1,0,0:0:0:0:
182,192,100874,1,0,0:0:0:0:
182,192,100949,1,0,0:0:0:0:
109,192,100949,1,0,0:0:0:0:
36,192,100949,1,0,0:0:0:0:
256,192,100949,1,0,0:0:0:0:
329,192,100949,1,0,0:0:0:0:
402,192,100949,1,0,0:0:0:0:
475,192,100949,1,0,0:0:0:0:
182,192,101024,1,0,0:0:0:0:
109,192,101024,1,0,0:0:0:0:
36,192,101024,1,0,0:0:0:0:
256,192,101024,1,0,0:0:0:0:
329,192,101024,1,0,0:0:0:0:
402,192,101024,1,0,0:0:0:0:
475,192,101024,1,0,0:0:0:0:
475,192,101099,1,0,0:0:0:0:
402,192,101099,1,0,0:0:0:0:
329,192,101099,1,0,0:0:0:0:
256,192,101099,1,0,0:0:0:0:
182,192,101099,1,0,0:0:0:0:
109,192,101099,1,0,0:0:0:0:
36,192,101099,1,0,0:0:0:0:
36,192,101174,1,0,0:0:0:0:
109,192,101174,1,0,0:0:0:0:
182,192,101174,1,0,0:0:0:0:
256,192,101174,1,0,0:0:0:0:
329,192,101174,1,0,0:0:0:0:
402,192,101174,1,0,0:0:0:0:
475,192,101174,1,0,0:0:0:0:
36,192,101249,1,0,0:0:0:0:
109,192,101249,1,0,0:0:0:0:
182,192,101249,1,0,0:0:0:0:
256,192,101249,1,0,0:0:0:0:
329,192,101249,1,0,0:0:0:0:
402,192,101249,1,0,0:0:0:0:
475,192,101249,1,0,0:0:0:0:
36,192,101324,1,0,0:0:0:0:
109,192,101324,1,0,0:0:0:0:
182,192,101324,1,0,0:0:0:0:
256,192,101324,1,0,0:0:0:0:
329,192,101324,1,0,0:0:0:0:
475,192,101324,1,0,0:0:0:0:
402,192,101324,1,0,0:0:0:0:
36,192,101399,1,0,0:0:0:0:
475,192,101399,1,0,0:0:0:0:
402,192,101399,1,0,0:0:0:0:
329,192,101399,1,0,0:0:0:0:
256,192,101399,1,0,0:0:0:0:
182,192,101399,1,0,0:0:0:0:
109,192,101399,1,0,0:0:0:0:
36,192,101474,1,0,0:0:0:0:
402,192,101474,1,0,0:0:0:0:
475,192,101474,1,0,0:0:0:0:
329,192,101474,1,0,0:0:0:0:
256,192,101474,1,0,0:0:0:0:
182,192,101474,1,0,0:0:0:0:
109,192,101474,1,0,0:0:0:0:
36,192,101549,1,0,0:0:0:0:
109,192,101549,1,0,0:0:0:0:
182,192,101549,1,0,0:0:0:0:
256,192,101549,1,0,0:0:0:0:
329,192,101549,1,0,0:0:0:0:
402,192,101549,1,0,0:0:0:0:
475,192,101549,1,0,0:0:0:0:
36,192,101624,1,0,0:0:0:0:
475,192,101624,1,0,0:0:0:0:
109,192,101624,1,0,0:0:0:0:
256,192,101624,1,0,0:0:0:0:
329,192,101624,1,0,0:0:0:0:
402,192,101624,1,0,0:0:0:0:
182,192,101624,1,0,0:0:0:0:
36,192,101699,1,0,0:0:0:0:
475,192,101699,1,0,0:0:0:0:
402,192,101699,1,0,0:0:0:0:
329,192,101699,1,0,0:0:0:0:
182,192,101699,1,0,0:0:0:0:
109,192,101699,1,0,0:0:0:0:
256,192,101699,1,0,0:0:0:0:
36,192,101774,1,0,0:0:0:0:
109,192,101774,1,0,0:0:0:0:
256,192,101774,1,0,0:0:0:0:
329,192,101774,1,0,0:0:0:0:
475,192,101774,1,0,0:0:0:0:
402,192,101774,1,0,0:0:0:0:
182,192,101774,1,0,0:0:0:0:
329,192,101849,1,0,0:0:0:0:
402,192,101849,1,0,0:0:0:0:
475,192,101849,1,0,0:0:0:0:
256,192,101849,1,0,0:0:0:0:
109,192,101849,1,0,0:0:0:0:
36,192,101849,1,0,0:0:0:0:
182,192,101849,1,0,0:0:0:0:
36,192,101924,1,0,0:0:0:0:
109,192,101924,1,0,0:0:0:0:
182,192,101924,1,0,0:0:0:0:
256,192,101924,1,0,0:0:0:0:
475,192,101924,1,0,0:0:0:0:
402,192,101924,1,0,0:0:0:0:
329,192,101924,1,0,0:0:0:0:
475,192,101999,1,0,0:0:0:0:
402,192,101999,1,0,0:0:0:0:
329,192,101999,1,0,0:0:0:0:
256,192,101999,1,0,0:0:0:0:
182,192,101999,1,0,0:0:0:0:
109,192,101999,1,0,0:0:0:0:
36,192,101999,1,0,0:0:0:0:
475,192,102074,1,0,0:0:0:0:
402,192,102074,1,0,0:0:0:0:
329,192,102074,1,0,0:0:0:0:
256,192,102074,1,0,0:0:0:0:
182,192,102074,1,0,0:0:0:0:
109,192,102074,1,0,0:0:0:0:
36,192,102074,1,0,0:0:0:0:
36,192,102149,1,0,0:0:0:0:
109,192,102149,1,0,0:0:0:0:
182,192,102149,1,0,0:0:0:0:
402,192,102149,1,0,0:0:0:0:
475,192,102149,1,0,0:0:0:0:
256,192,102149,1,0,0:0:0:0:
329,192,102149,1,0,0:0:0:0:
402,192,102224,1,0,0:0:0:0:
475,192,102224,1,0,0:0:0:0:
256,192,102224,1,0,0:0:0:0:
329,192,102224,1,0,0:0:0:0:
402,192,102299,1,0,0:0:0:0:
475,192,102299,1,0,0:0:0:0:
329,192,102299,1,0,0:0:0:0:
256,192,102299,1,0,0:0:0:0:
475,192,102374,1,0,0:0:0:0:
402,192,102374,1,0,0:0:0:0:
256,192,102374,1,0,0:0:0:0:
329,192,102374,1,0,0:0:0:0:
36,192,102449,1,0,0:0:0:0:
109,192,102449,1,0,0:0:0:0:
182,192,102449,1,0,0:0:0:0:
402,192,102524,1,0,0:0:0:0:
475,192,102524,1,0,0:0:0:0:
256,192,102524,1,0,0:0:0:0:
329,192,102524,1,0,0:0:0:0:
36,192,102599,1,0,0:0:0:0:
109,192,102599,1,0,0:0:0:0:
182,192,102599,1,0,0:0:0:0:
402,192,102674,1,0,0:0:0:0:
475,192,102674,1,0,0:0:0:0:
256,192,102674,1,0,0:0:0:0:
329,192,102674,1,0,0:0:0:0:
36,192,102749,1,0,0:0:0:0:
109,192,102749,1,0,0:0:0:0:
182,192,102749,1,0,0:0:0:0:
402,192,102824,1,0,0:0:0:0:
475,192,102824,1,0,0:0:0:0:
256,192,102824,1,0,0:0:0:0:
329,192,102824,1,0,0:0:0:0:
36,192,102899,1,0,0:0:0:0:
109,192,102899,1,0,0:0:0:0:
182,192,102899,1,0,0:0:0:0:
182,192,102974,1,0,0:0:0:0:
109,192,102974,1,0,0:0:0:0:
36,192,102974,1,0,0:0:0:0:
36,192,103049,1,0,0:0:0:0:
109,192,103049,1,0,0:0:0:0:
182,192,103049,1,0,0:0:0:0:
402,192,103199,1,0,0:0:0:0:
475,192,103199,1,0,0:0:0:0:
256,192,103199,1,0,0:0:0:0:
329,192,103199,1,0,0:0:0:0:
402,192,103274,1,0,0:0:0:0:
475,192,103274,1,0,0:0:0:0:
256,192,103274,1,0,0:0:0:0:
329,192,103274,1,0,0:0:0:0:
402,192,103349,1,0,0:0:0:0:
475,192,103349,1,0,0:0:0:0:
256,192,103349,1,0,0:0:0:0:
329,192,103349,1,0,0:0:0:0:
182,192,103499,1,0,0:0:0:0:
109,192,103499,1,0,0:0:0:0:
36,192,103499,1,0,0:0:0:0:
182,192,103574,1,0,0:0:0:0:
109,192,103574,1,0,0:0:0:0:
36,192,103574,1,0,0:0:0:0:
36,192,103649,1,0,0:0:0:0:
109,192,103649,1,0,0:0:0:0:
182,192,103649,1,0,0:0:0:0:
402,192,103799,1,0,0:0:0:0:
475,192,103799,1,0,0:0:0:0:
256,192,103799,1,0,0:0:0:0:
329,192,103799,1,0,0:0:0:0:
329,192,103874,1,0,0:0:0:0:
256,192,103874,1,0,0:0:0:0:
475,192,103874,1,0,0:0:0:0:
402,192,103874,1,0,0:0:0:0:
402,192,103949,1,0,0:0:0:0:
475,192,103949,1,0,0:0:0:0:
256,192,103949,1,0,0:0:0:0:
329,192,103949,1,0,0:0:0:0:
36,192,104099,1,0,0:0:0:0:
109,192,104099,1,0,0:0:0:0:
182,192,104099,1,0,0:0:0:0:
402,192,104249,1,0,0:0:0:0:
475,192,104249,1,0,0:0:0:0:
256,192,104249,1,0,0:0:0:0:
329,192,104249,1,0,0:0:0:0:
182,192,104399,1,0,0:0:0:0:
109,192,104399,1,0,0:0:0:0:
36,192,104399,1,0,0:0:0:0:
402,192,104549,1,0,0:0:0:0:
475,192,104549,1,0,0:0:0:0:
256,192,104549,1,0,0:0:0:0:
329,192,104549,1,0,0:0:0:0:
402,192,104624,1,0,0:0:0:0:
475,192,104624,1,0,0:0:0:0:
256,192,104624,1,0,0:0:0:0:
329,192,104624,1,0,0:0:0:0:
329,192,104699,1,0,0:0:0:0:
256,192,104699,1,0,0:0:0:0:
475,192,104699,1,0,0:0:0:0:
402,192,104699,1,0,0:0:0:0:
329,192,104774,1,0,0:0:0:0:
256,192,104774,1,0,0:0:0:0:
475,192,104774,1,0,0:0:0:0:
402,192,104774,1,0,0:0:0:0:
36,192,104849,1,0,0:0:0:0:
109,192,104849,1,0,0:0:0:0:
182,192,104849,1,0,0:0:0:0:
402,192,104924,1,0,0:0:0:0:
475,192,104924,1,0,0:0:0:0:
256,192,104924,1,0,0:0:0:0:
329,192,104924,1,0,0:0:0:0:
36,192,104999,1,0,0:0:0:0:
109,192,104999,1,0,0:0:0:0:
182,192,104999,1,0,0:0:0:0:
402,192,105074,1,0,0:0:0:0:
475,192,105074,1,0,0:0:0:0:
256,192,105074,1,0,0:0:0:0:
329,192,105074,1,0,0:0:0:0:
182,192,105149,1,0,0:0:0:0:
36,192,105149,1,0,0:0:0:0:
109,192,105149,1,0,0:0:0:0:
402,192,105224,1,0,0:0:0:0:
475,192,105224,1,0,0:0:0:0:
256,192,105224,1,0,0:0:0:0:
329,192,105224,1,0,0:0:0:0:
182,192,105299,1,0,0:0:0:0:
109,192,105299,1,0,0:0:0:0:
36,192,105299,1,0,0:0:0:0:
402,192,105374,1,0,0:0:0:0:
475,192,105374,1,0,0:0:0:0:
256,192,105374,1,0,0:0:0:0:
329,192,105374,1,0,0:0:0:0:
36,192,105449,1,0,0:0:0:0:
109,192,105449,1,0,0:0:0:0:
182,192,105449,1,0,0:0:0:0:
402,192,105524,1,0,0:0:0:0:
475,192,105524,1,0,0:0:0:0:
256,192,105524,1,0,0:0:0:0:
329,192,105524,1,0,0:0:0:0:
402,192,105599,1,0,0:0:0:0:
475,192,105599,1,0,0:0:0:0:
256,192,105599,1,0,0:0:0:0:
329,192,105599,1,0,0:0:0:0:
329,192,105674,1,0,0:0:0:0:
256,192,105674,1,0,0:0:0:0:
475,192,105674,1,0,0:0:0:0:
402,192,105674,1,0,0:0:0:0:
402,192,105749,1,0,0:0:0:0:
475,192,105749,1,0,0:0:0:0:
256,192,105749,1,0,0:0:0:0:
329,192,105749,1,0,0:0:0:0:
402,192,105824,1,0,0:0:0:0:
475,192,105824,1,0,0:0:0:0:
256,192,105824,1,0,0:0:0:0:
329,192,105824,1,0,0:0:0:0:
109,192,105899,1,0,0:0:0:0:
36,192,105899,1,0,0:0:0:0:
182,192,105899,1,0,0:0:0:0:
36,192,105974,1,0,0:0:0:0:
109,192,105974,1,0,0:0:0:0:
182,192,105974,1,0,0:0:0:0:
109,192,106049,1,0,0:0:0:0:
182,192,106049,1,0,0:0:0:0:
36,192,106049,1,0,0:0:0:0:
182,192,106124,1,0,0:0:0:0:
36,192,106124,1,0,0:0:0:0:
109,192,106124,1,0,0:0:0:0:
402,192,106199,1,0,0:0:0:0:
475,192,106199,1,0,0:0:0:0:
256,192,106199,1,0,0:0:0:0:
329,192,106199,1,0,0:0:0:0:
402,192,106274,1,0,0:0:0:0:
475,192,106274,1,0,0:0:0:0:
256,192,106274,1,0,0:0:0:0:
329,192,106274,1,0,0:0:0:0:
36,192,106349,1,0,0:0:0:0:
109,192,106349,1,0,0:0:0:0:
182,192,106349,1,0,0:0:0:0:
182,192,106424,1,0,0:0:0:0:
109,192,106424,1,0,0:0:0:0:
36,192,106424,1,0,0:0:0:0:
475,192,106499,1,0,0:0:0:0:
402,192,106499,1,0,0:0:0:0:
256,192,106499,1,0,0:0:0:0:
329,192,106499,1,0,0:0:0:0:
402,192,106574,1,0,0:0:0:0:
475,192,106574,1,0,0:0:0:0:
329,192,106574,1,0,0:0:0:0:
256,192,106574,1,0,0:0:0:0:
36,192,106649,1,0,0:0:0:0:
109,192,106649,1,0,0:0:0:0:
182,192,106649,1,0,0:0:0:0:
182,192,106724,1,0,0:0:0:0:
109,192,106724,1,0,0:0:0:0:
36,192,106724,1,0,0:0:0:0:
402,192,106799,1,0,0:0:0:0:
475,192,106799,1,0,0:0:0:0:
256,192,106799,1,0,0:0:0:0:
329,192,106799,1,0,0:0:0:0:
402,192,106874,1,0,0:0:0:0:
475,192,106874,1,0,0:0:0:0:
256,192,106874,1,0,0:0:0:0:
329,192,106874,1,0,0:0:0:0:
36,192,106949,1,0,0:0:0:0:
109,192,106949,1,0,0:0:0:0:
182,192,106949,1,0,0:0:0:0:
36,192,107024,1,0,0:0:0:0:
109,192,107024,1,0,0:0:0:0:
182,192,107024,1,0,0:0:0:0:
182,192,107099,1,0,0:0:0:0:
109,192,107099,1,0,0:0:0:0:
36,192,107099,1,0,0:0:0:0:
36,192,107174,1,0,0:0:0:0:
109,192,107174,1,0,0:0:0:0:
182,192,107174,1,0,0:0:0:0:
475,192,107249,1,0,0:0:0:0:
329,192,107249,1,0,0:0:0:0:
256,192,107249,1,0,0:0:0:0:
402,192,107249,1,0,0:0:0:0:
36,192,107324,1,0,0:0:0:0:
109,192,107324,1,0,0:0:0:0:
182,192,107324,1,0,0:0:0:0:
402,192,107399,1,0,0:0:0:0:
475,192,107399,1,0,0:0:0:0:
256,192,107399,1,0,0:0:0:0:
329,192,107399,1,0,0:0:0:0:
36,192,107474,1,0,0:0:0:0:
109,192,107474,1,0,0:0:0:0:
182,192,107474,1,0,0:0:0:0:
402,192,107549,1,0,0:0:0:0:
475,192,107549,1,0,0:0:0:0:
256,192,107549,1,0,0:0:0:0:
329,192,107549,1,0,0:0:0:0:
36,192,107624,1,0,0:0:0:0:
109,192,107624,1,0,0:0:0:0:
182,192,107624,1,0,0:0:0:0:
402,192,107699,1,0,0:0:0:0:
475,192,107699,1,0,0:0:0:0:
256,192,107699,1,0,0:0:0:0:
329,192,107699,1,0,0:0:0:0:
329,192,107774,1,0,0:0:0:0:
256,192,107774,1,0,0:0:0:0:
475,192,107774,1,0,0:0:0:0:
402,192,107774,1,0,0:0:0:0:
402,192,107849,1,0,0:0:0:0:
475,192,107849,1,0,0:0:0:0:
256,192,107849,1,0,0:0:0:0:
329,192,107849,1,0,0:0:0:0:
36,192,107999,1,0,0:0:0:0:
109,192,107999,1,0,0:0:0:0:
182,192,107999,1,0,0:0:0:0:
182,192,108074,1,0,0:0:0:0:
109,192,108074,1,0,0:0:0:0:
36,192,108074,1,0,0:0:0:0:
36,192,108149,1,0,0:0:0:0:
109,192,108149,1,0,0:0:0:0:
182,192,108149,1,0,0:0:0:0:
402,192,108299,1,0,0:0:0:0:
329,192,108299,1,0,0:0:0:0:
256,192,108299,1,0,0:0:0:0:
475,192,108299,1,0,0:0:0:0:
402,192,108374,1,0,0:0:0:0:
475,192,108374,1,0,0:0:0:0:
256,192,108374,1,0,0:0:0:0:
329,192,108374,1,0,0:0:0:0:
402,192,108449,1,0,0:0:0:0:
475,192,108449,1,0,0:0:0:0:
256,192,108449,1,0,0:0:0:0:
329,192,108449,1,0,0:0:0:0:
36,192,108599,1,0,0:0:0:0:
109,192,108599,1,0,0:0:0:0:
182,192,108599,1,0,0:0:0:0:
182,192,108674,1,0,0:0:0:0:
109,192,108674,1,0,0:0:0:0:
36,192,108674,1,0,0:0:0:0:
36,192,108749,1,0,0:0:0:0:
109,192,108749,1,0,0:0:0:0:
182,192,108749,1,0,0:0:0:0:
475,192,108899,1,0,0:0:0:0:
256,192,108899,1,0,0:0:0:0:
329,192,108899,1,0,0:0:0:0:
402,192,108899,1,0,0:0:0:0:
36,192,109049,1,0,0:0:0:0:
109,192,109049,1,0,0:0:0:0:
182,192,109049,1,0,0:0:0:0:
329,192,109199,1,0,0:0:0:0:
256,192,109199,1,0,0:0:0:0:
475,192,109199,1,0,0:0:0:0:
402,192,109199,1,0,0:0:0:0:
182,192,109349,1,0,0:0:0:0:
109,192,109349,1,0,0:0:0:0:
36,192,109349,1,0,0:0:0:0:
329,192,109424,1,0,0:0:0:0:
402,192,109424,1,0,0:0:0:0:
475,192,109424,1,0,0:0:0:0:
182,192,109499,1,0,0:0:0:0:
109,192,109499,1,0,0:0:0:0:
36,192,109499,1,0,0:0:0:0:
329,192,109574,1,0,0:0:0:0:
402,192,109574,1,0,0:0:0:0:
475,192,109574,1,0,0:0:0:0:
36,192,109649,1,0,0:0:0:0:
109,192,109649,1,0,0:0:0:0:
182,192,109649,1,0,0:0:0:0:
329,192,109724,1,0,0:0:0:0:
402,192,109724,1,0,0:0:0:0:
475,192,109724,1,0,0:0:0:0:
182,192,109799,1,0,0:0:0:0:
109,192,109799,1,0,0:0:0:0:
36,192,109799,1,0,0:0:0:0:
329,192,109874,1,0,0:0:0:0:
475,192,109874,1,0,0:0:0:0:
402,192,109874,1,0,0:0:0:0:
182,192,109949,1,0,0:0:0:0:
109,192,109949,1,0,0:0:0:0:
36,192,109949,1,0,0:0:0:0:
329,192,109999,1,0,0:0:0:0:
402,192,109999,1,0,0:0:0:0:
475,192,109999,1,0,0:0:0:0:
182,192,110049,1,0,0:0:0:0:
109,192,110049,1,0,0:0:0:0:
36,192,110049,1,0,0:0:0:0:
329,192,110099,1,0,0:0:0:0:
402,192,110099,1,0,0:0:0:0:
475,192,110099,1,0,0:0:0:0:
182,192,110174,1,0,0:0:0:0:
109,192,110174,1,0,0:0:0:0:
36,192,110174,1,0,0:0:0:0:
329,192,110249,1,0,0:0:0:0:
402,192,110249,1,0,0:0:0:0:
475,192,110249,1,0,0:0:0:0:
182,192,110299,1,0,0:0:0:0:
109,192,110299,1,0,0:0:0:0:
36,192,110299,1,0,0:0:0:0:
329,192,110349,1,0,0:0:0:0:
475,192,110349,1,0,0:0:0:0:
402,192,110349,1,0,0:0:0:0:
182,192,110399,1,0,0:0:0:0:
109,192,110399,1,0,0:0:0:0:
36,192,110399,1,0,0:0:0:0:
329,192,110449,1,0,0:0:0:0:
402,192,110449,1,0,0:0:0:0:
475,192,110449,1,0,0:0:0:0:
182,192,110499,1,0,0:0:0:0:
109,192,110499,1,0,0:0:0:0:
36,192,110499,1,0,0:0:0:0:
329,192,110549,1,0,0:0:0:0:
402,192,110549,1,0,0:0:0:0:
475,192,110549,1,0,0:0:0:0:
36,192,110699,1,0,0:0:0:0:
109,192,110699,1,0,0:0:0:0:
182,192,110699,1,0,0:0:0:0:
256,192,110699,1,0,0:0:0:0:
329,192,110699,1,0,0:0:0:0:
402,192,110699,1,0,0:0:0:0:
475,192,110699,1,0,0:0:0:0:
36,192,110849,1,0,0:0:0:0:
109,192,110849,1,0,0:0:0:0:
182,192,110849,1,0,0:0:0:0:
256,192,110849,1,0,0:0:0:0:
329,192,110849,1,0,0:0:0:0:
402,192,110849,1,0,0:0:0:0:
475,192,110849,1,0,0:0:0:0:
36,192,110999,1,0,0:0:0:0:
109,192,110999,1,0,0:0:0:0:
182,192,110999,1,0,0:0:0:0:
256,192,110999,1,0,0:0:0:0:
329,192,110999,1,0,0:0:0:0:
402,192,110999,1,0,0:0:0:0:
475,192,110999,1,0,0:0:0:0:
36,192,111299,1,0,0:0:0:0:
109,192,111299,1,0,0:0:0:0:
182,192,111299,1,0,0:0:0:0:
256,192,111299,1,0,0:0:0:0:
329,192,111299,1,0,0:0:0:0:
402,192,111299,1,0,0:0:0:0:
475,192,111299,1,0,0:0:0:0:
475,192,111449,1,0,0:0:0:0:
402,192,111449,1,0,0:0:0:0:
329,192,111449,1,0,0:0:0:0:
256,192,111449,1,0,0:0:0:0:
182,192,111449,1,0,0:0:0:0:
109,192,111449,1,0,0:0:0:0:
36,192,111449,1,0,0:0:0:0:
36,192,111599,1,0,0:0:0:0:
109,192,111599,1,0,0:0:0:0:
182,192,111599,1,0,0:0:0:0:
256,192,111599,1,0,0:0:0:0:
329,192,111599,1,0,0:0:0:0:
402,192,111599,1,0,0:0:0:0:
475,192,111599,1,0,0:0:0:0:
36,192,111749,1,0,0:0:0:0:
109,192,111749,1,0,0:0:0:0:
182,192,111749,1,0,0:0:0:0:
256,192,111749,1,0,0:0:0:0:
329,192,111749,1,0,0:0:0:0:
402,192,111749,1,0,0:0:0:0:
475,192,111749,1,0,0:0:0:0:
