osu file format v14

[General]
AudioFilename: audio x0.9.mp3
AudioLeadIn: 0
PreviewTime: -1
Countdown: 0
SampleSet: Normal
StackLeniency: 0.7
Mode: 3
LetterboxInBreaks: 0
SpecialStyle: 0
WidescreenStoryboard: 0

[Editor]
DistanceSpacing: 0.8
BeatDivisor: 4
GridSize: 8
TimelineZoom: 2.7

[Metadata]
Title:CUNUJOY MEGAPACK
TitleUnicode:CUNUJOY MEGAPACK
Artist:Various Artists
ArtistUnicode:Various Artists
Creator:Elementaires
Version:Gravity Blast
Source:
Tags:
BeatmapID:2349478
BeatmapSetID:945425

[Difficulty]
HPDrainRate:8
CircleSize:7
OverallDifficulty:8
ApproachRate:5
SliderMultiplier:1.4
SliderTickRate:1

[Events]
//Background and Video events
0,0,"91WXiQ8z86L._SS500_.jpg",0,0
//Break Periods
//Storyboard Layer 0 (Background)
//Storyboard Layer 1 (Fail)
//Storyboard Layer 2 (Pass)
//Storyboard Layer 3 (Foreground)
//Storyboard Layer 4 (Overlay)
//Storyboard Sound Samples

[TimingPoints]
2592,370.3704,4,1,0,10,1,0

[HitObjects]
182,192,2221,5,0,0:0:0:0:0
109,192,2221,1,0,0:0:0:0:0
329,192,2314,1,0,0:0:0:0:0
402,192,2314,1,0,0:0:0:0:0
182,192,2406,1,0,0:0:0:0:0
109,192,2406,1,0,0:0:0:0:0
329,192,2499,1,0,0:0:0:0:0
402,192,2499,1,0,0:0:0:0:0
182,192,2592,1,0,0:0:0:0:0
36,192,2592,1,0,0:0:0:0:0
109,192,2592,1,0,0:0:0:0:0
256,192,2777,1,0,0:0:0:0:0
402,192,2777,1,0,0:0:0:0:0
36,192,2962,1,0,0:0:0:0:0
475,192,2962,1,0,0:0:0:0:0
329,192,2962,1,0,0:0:0:0:0
182,192,2962,1,0,0:0:0:0:0
402,192,2962,1,0,0:0:0:0:
256,192,3147,1,0,0:0:0:0:0
109,192,3147,1,0,0:0:0:0:0
475,192,3332,1,0,0:0:0:0:0
329,192,3332,1,0,0:0:0:0:0
182,192,3332,1,0,0:0:0:0:0
36,192,3332,1,0,0:0:0:0:0
256,192,3517,1,0,0:0:0:0:0
402,192,3517,1,0,0:0:0:0:0
36,192,3703,1,0,0:0:0:0:0
182,192,3703,1,0,0:0:0:0:0
329,192,3703,1,0,0:0:0:0:0
475,192,3703,1,0,0:0:0:0:0
256,192,3703,1,0,0:0:0:0:
402,192,3888,1,0,0:0:0:0:0
109,192,3888,1,0,0:0:0:0:0
475,192,4073,1,0,0:0:0:0:0
36,192,4073,1,0,0:0:0:0:0
182,192,4073,1,0,0:0:0:0:0
329,192,4073,1,0,0:0:0:0:0
402,192,4258,1,0,0:0:0:0:0
256,192,4258,1,0,0:0:0:0:0
36,192,4443,1,0,0:0:0:0:0
182,192,4443,1,0,0:0:0:0:0
329,192,4443,1,0,0:0:0:0:0
475,192,4443,1,0,0:0:0:0:0
109,192,4443,1,0,0:0:0:0:
256,192,4629,1,0,0:0:0:0:0
402,192,4629,1,0,0:0:0:0:0
475,192,4814,1,0,0:0:0:0:0
36,192,4814,1,0,0:0:0:0:0
329,192,4814,1,0,0:0:0:0:0
182,192,4814,1,0,0:0:0:0:0
109,192,4999,1,0,0:0:0:0:0
256,192,4999,1,0,0:0:0:0:0
402,192,5184,1,0,0:0:0:0:0
475,192,5184,1,0,0:0:0:0:0
182,192,5184,1,0,0:0:0:0:0
36,192,5184,1,0,0:0:0:0:0
329,192,5184,1,0,0:0:0:0:
329,192,5369,1,0,0:0:0:0:0
109,192,5369,1,0,0:0:0:0:0
36,192,5554,1,0,0:0:0:0:0
256,192,5554,1,0,0:0:0:0:0
182,192,5554,1,0,0:0:0:0:0
402,192,5554,1,0,0:0:0:0:0
109,192,5740,1,0,0:0:0:0:0
475,192,5740,1,0,0:0:0:0:0
182,192,5925,1,0,0:0:0:0:0
36,192,5925,1,0,0:0:0:0:0
329,192,5925,1,0,0:0:0:0:0
402,192,5925,1,0,0:0:0:0:0
256,192,5925,1,0,0:0:0:0:
109,192,6110,1,0,0:0:0:0:0
256,192,6110,1,0,0:0:0:0:0
475,192,6295,1,0,0:0:0:0:0
182,192,6295,1,0,0:0:0:0:0
36,192,6295,1,0,0:0:0:0:0
329,192,6295,1,0,0:0:0:0:0
109,192,6480,1,0,0:0:0:0:0
402,192,6480,1,0,0:0:0:0:0
36,192,6666,1,0,0:0:0:0:0
182,192,6666,1,0,0:0:0:0:0
256,192,6666,1,0,0:0:0:0:0
329,192,6666,1,0,0:0:0:0:0
109,192,6666,1,0,0:0:0:0:
402,192,6851,1,0,0:0:0:0:0
109,192,6851,1,0,0:0:0:0:0
329,192,7036,1,0,0:0:0:0:0
36,192,7036,1,0,0:0:0:0:0
182,192,7036,1,0,0:0:0:0:0
475,192,7036,1,0,0:0:0:0:0
402,192,7221,1,0,0:0:0:0:0
256,192,7221,1,0,0:0:0:0:0
36,192,7406,1,0,0:0:0:0:0
182,192,7406,1,0,0:0:0:0:0
329,192,7406,1,0,0:0:0:0:0
475,192,7406,1,0,0:0:0:0:0
256,192,7406,1,0,0:0:0:0:
402,192,7592,1,0,0:0:0:0:0
109,192,7592,1,0,0:0:0:0:0
475,192,7777,1,0,0:0:0:0:0
36,192,7777,1,0,0:0:0:0:0
256,192,7777,1,0,0:0:0:0:0
182,192,7962,1,0,0:0:0:0:0
329,192,7962,1,0,0:0:0:0:0
475,192,8147,1,0,0:0:0:0:0
36,192,8147,1,0,0:0:0:0:0
256,192,8147,1,0,0:0:0:0:0
109,192,8332,1,0,0:0:0:0:0
402,192,8332,1,0,0:0:0:0:0
329,192,8517,1,0,0:0:0:0:0
182,192,8517,1,0,0:0:0:0:0
36,192,8517,1,0,0:0:0:0:0
475,192,8517,1,0,0:0:0:0:0
402,192,8517,1,0,0:0:0:0:
109,192,8703,1,0,0:0:0:0:0
256,192,8703,1,0,0:0:0:0:0
182,192,8888,1,0,0:0:0:0:0
329,192,8888,1,0,0:0:0:0:0
475,192,8888,1,0,0:0:0:0:0
36,192,8888,1,0,0:0:0:0:0
109,192,8888,1,0,0:0:0:0:
402,192,9073,1,0,0:0:0:0:0
256,192,9073,1,0,0:0:0:0:0
329,192,9258,1,0,0:0:0:0:0
475,192,9258,1,0,0:0:0:0:0
36,192,9258,1,0,0:0:0:0:0
182,192,9258,1,0,0:0:0:0:0
109,192,9443,1,0,0:0:0:0:0
256,192,9443,1,0,0:0:0:0:0
182,192,9629,1,0,0:0:0:0:0
36,192,9629,1,0,0:0:0:0:0
475,192,9629,1,0,0:0:0:0:0
329,192,9629,1,0,0:0:0:0:0
402,192,9629,1,0,0:0:0:0:
402,192,9814,1,0,0:0:0:0:0
109,192,9814,1,0,0:0:0:0:0
329,192,9999,1,0,0:0:0:0:0
182,192,9999,1,0,0:0:0:0:0
36,192,9999,1,0,0:0:0:0:0
475,192,9999,1,0,0:0:0:0:0
256,192,10184,1,0,0:0:0:0:0
109,192,10184,1,0,0:0:0:0:0
182,192,10369,1,0,0:0:0:0:0
36,192,10369,1,0,0:0:0:0:0
475,192,10369,1,0,0:0:0:0:0
329,192,10369,1,0,0:0:0:0:0
256,192,10369,1,0,0:0:0:0:
109,192,10554,1,0,0:0:0:0:0
256,192,10554,1,0,0:0:0:0:0
182,192,10740,1,0,0:0:0:0:0
329,192,10740,1,0,0:0:0:0:0
36,192,10740,1,0,0:0:0:0:0
475,192,10740,1,0,0:0:0:0:0
256,192,10925,1,0,0:0:0:0:0
402,192,10925,1,0,0:0:0:0:0
329,192,11110,1,0,0:0:0:0:0
475,192,11110,1,0,0:0:0:0:0
109,192,11110,1,0,0:0:0:0:0
36,192,11110,1,0,0:0:0:0:0
182,192,11110,1,0,0:0:0:0:
402,192,11295,1,0,0:0:0:0:0
182,192,11295,1,0,0:0:0:0:0
329,192,11480,1,0,0:0:0:0:0
109,192,11480,1,0,0:0:0:0:0
475,192,11480,1,0,0:0:0:0:0
256,192,11480,1,0,0:0:0:0:0
36,192,11666,1,0,0:0:0:0:0
402,192,11666,1,0,0:0:0:0:0
182,192,11851,1,0,0:0:0:0:0
109,192,11851,1,0,0:0:0:0:0
329,192,11851,1,0,0:0:0:0:0
475,192,11851,1,0,0:0:0:0:0
256,192,11851,1,0,0:0:0:0:
256,192,12036,1,0,0:0:0:0:0
402,192,12036,1,0,0:0:0:0:0
475,192,12221,1,0,0:0:0:0:0
182,192,12221,1,0,0:0:0:0:0
36,192,12221,1,0,0:0:0:0:0
329,192,12221,1,0,0:0:0:0:0
109,192,12406,1,0,0:0:0:0:0
402,192,12406,1,0,0:0:0:0:0
256,192,12592,1,0,0:0:0:0:0
182,192,12592,1,0,0:0:0:0:0
475,192,12592,1,0,0:0:0:0:0
329,192,12592,1,0,0:0:0:0:0
36,192,12592,1,0,0:0:0:0:
402,192,12777,1,0,0:0:0:0:0
109,192,12777,1,0,0:0:0:0:0
329,192,12962,1,0,0:0:0:0:0
36,192,12962,1,0,0:0:0:0:0
182,192,12962,1,0,0:0:0:0:0
475,192,12962,1,0,0:0:0:0:0
256,192,13147,1,0,0:0:0:0:0
109,192,13147,1,0,0:0:0:0:0
182,192,13332,1,0,0:0:0:0:0
36,192,13332,1,0,0:0:0:0:0
475,192,13332,1,0,0:0:0:0:0
329,192,13332,1,0,0:0:0:0:0
402,192,13332,1,0,0:0:0:0:
402,192,13517,1,0,0:0:0:0:0
109,192,13517,1,0,0:0:0:0:0
256,192,13703,1,0,0:0:0:0:0
475,192,13703,1,0,0:0:0:0:0
36,192,13703,1,0,0:0:0:0:0
182,192,13888,1,0,0:0:0:0:0
329,192,13888,1,0,0:0:0:0:0
475,192,14073,1,0,0:0:0:0:0
402,192,14073,1,0,0:0:0:0:0
36,192,14073,1,0,0:0:0:0:0
256,192,14258,1,0,0:0:0:0:0
109,192,14258,1,0,0:0:0:0:0
475,192,14443,1,0,0:0:0:0:0
36,192,14443,1,0,0:0:0:0:0
182,192,14443,1,0,0:0:0:0:0
329,192,14443,1,0,0:0:0:0:0
109,192,14443,1,0,0:0:0:0:
256,192,14629,1,0,0:0:0:0:0
402,192,14629,1,0,0:0:0:0:0
36,192,14814,1,0,0:0:0:0:0
475,192,14814,1,0,0:0:0:0:0
329,192,14814,1,0,0:0:0:0:0
182,192,14814,1,0,0:0:0:0:0
402,192,14814,1,0,0:0:0:0:
256,192,14999,1,0,0:0:0:0:0
109,192,14999,1,0,0:0:0:0:0
475,192,15184,1,0,0:0:0:0:0
329,192,15184,1,0,0:0:0:0:0
182,192,15184,1,0,0:0:0:0:0
36,192,15184,1,0,0:0:0:0:0
256,192,15369,1,0,0:0:0:0:0
402,192,15369,1,0,0:0:0:0:0
36,192,15554,1,0,0:0:0:0:0
182,192,15554,1,0,0:0:0:0:0
329,192,15554,1,0,0:0:0:0:0
475,192,15554,1,0,0:0:0:0:0
256,192,15554,1,0,0:0:0:0:
402,192,15740,1,0,0:0:0:0:0
109,192,15740,1,0,0:0:0:0:0
475,192,15925,1,0,0:0:0:0:0
36,192,15925,1,0,0:0:0:0:0
182,192,15925,1,0,0:0:0:0:0
329,192,15925,1,0,0:0:0:0:0
402,192,16110,1,0,0:0:0:0:0
256,192,16110,1,0,0:0:0:0:0
36,192,16295,1,0,0:0:0:0:0
182,192,16295,1,0,0:0:0:0:0
329,192,16295,1,0,0:0:0:0:0
475,192,16295,1,0,0:0:0:0:0
109,192,16295,1,0,0:0:0:0:
256,192,16480,1,0,0:0:0:0:0
402,192,16480,1,0,0:0:0:0:0
475,192,16666,1,0,0:0:0:0:0
36,192,16666,1,0,0:0:0:0:0
329,192,16666,1,0,0:0:0:0:0
182,192,16666,1,0,0:0:0:0:0
109,192,16851,1,0,0:0:0:0:0
256,192,16851,1,0,0:0:0:0:0
402,192,17036,1,0,0:0:0:0:0
475,192,17036,1,0,0:0:0:0:0
182,192,17036,1,0,0:0:0:0:0
36,192,17036,1,0,0:0:0:0:0
329,192,17036,1,0,0:0:0:0:
329,192,17221,1,0,0:0:0:0:0
109,192,17221,1,0,0:0:0:0:0
36,192,17406,1,0,0:0:0:0:0
256,192,17406,1,0,0:0:0:0:0
182,192,17406,1,0,0:0:0:0:0
402,192,17406,1,0,0:0:0:0:0
109,192,17592,1,0,0:0:0:0:0
475,192,17592,1,0,0:0:0:0:0
182,192,17777,1,0,0:0:0:0:0
36,192,17777,1,0,0:0:0:0:0
329,192,17777,1,0,0:0:0:0:0
402,192,17777,1,0,0:0:0:0:0
475,192,17777,1,0,0:0:0:0:
109,192,17962,1,0,0:0:0:0:0
256,192,17962,1,0,0:0:0:0:0
475,192,18147,1,0,0:0:0:0:0
182,192,18147,1,0,0:0:0:0:0
36,192,18147,1,0,0:0:0:0:0
329,192,18147,1,0,0:0:0:0:0
109,192,18332,1,0,0:0:0:0:0
402,192,18332,1,0,0:0:0:0:0
36,192,18517,1,0,0:0:0:0:0
182,192,18517,1,0,0:0:0:0:0
256,192,18517,1,0,0:0:0:0:0
329,192,18517,1,0,0:0:0:0:0
475,192,18517,1,0,0:0:0:0:
402,192,18703,1,0,0:0:0:0:0
109,192,18703,1,0,0:0:0:0:0
329,192,18888,1,0,0:0:0:0:0
36,192,18888,1,0,0:0:0:0:0
182,192,18888,1,0,0:0:0:0:0
475,192,18888,1,0,0:0:0:0:0
402,192,19073,1,0,0:0:0:0:0
256,192,19073,1,0,0:0:0:0:0
36,192,19258,1,0,0:0:0:0:0
182,192,19258,1,0,0:0:0:0:0
329,192,19258,1,0,0:0:0:0:0
475,192,19258,1,0,0:0:0:0:0
109,192,19258,1,0,0:0:0:0:
402,192,19443,1,0,0:0:0:0:0
109,192,19443,1,0,0:0:0:0:0
475,192,19629,1,0,0:0:0:0:0
36,192,19629,1,0,0:0:0:0:0
256,192,19629,1,0,0:0:0:0:0
182,192,19814,1,0,0:0:0:0:0
329,192,19814,1,0,0:0:0:0:0
475,192,19999,1,0,0:0:0:0:0
36,192,19999,1,0,0:0:0:0:0
109,192,19999,1,0,0:0:0:0:0
329,192,19999,1,0,0:0:0:0:
402,192,20184,1,0,0:0:0:0:0
256,192,20184,1,0,0:0:0:0:0
182,192,20369,1,0,0:0:0:0:0
329,192,20369,1,0,0:0:0:0:0
475,192,20369,1,0,0:0:0:0:0
36,192,20369,1,0,0:0:0:0:0
109,192,20369,1,0,0:0:0:0:
402,192,20554,1,0,0:0:0:0:0
256,192,20554,1,0,0:0:0:0:0
329,192,20740,1,0,0:0:0:0:0
182,192,20740,1,0,0:0:0:0:0
36,192,20740,1,0,0:0:0:0:0
475,192,20740,1,0,0:0:0:0:0
402,192,20740,1,0,0:0:0:0:
109,192,20925,1,0,0:0:0:0:0
256,192,20925,1,0,0:0:0:0:0
182,192,21110,1,0,0:0:0:0:0
36,192,21110,1,0,0:0:0:0:0
475,192,21110,1,0,0:0:0:0:0
329,192,21110,1,0,0:0:0:0:0
402,192,21295,1,0,0:0:0:0:0
256,192,21295,1,0,0:0:0:0:0
329,192,21480,1,0,0:0:0:0:0
475,192,21480,1,0,0:0:0:0:0
36,192,21480,1,0,0:0:0:0:0
182,192,21480,1,0,0:0:0:0:0
256,192,21480,1,0,0:0:0:0:
109,192,21666,1,0,0:0:0:0:0
402,192,21666,1,0,0:0:0:0:0
182,192,21851,1,0,0:0:0:0:0
329,192,21851,1,0,0:0:0:0:0
475,192,21851,1,0,0:0:0:0:0
36,192,21851,1,0,0:0:0:0:0
256,192,22036,1,0,0:0:0:0:0
402,192,22036,1,0,0:0:0:0:0
329,192,22221,1,0,0:0:0:0:0
475,192,22221,1,0,0:0:0:0:0
36,192,22221,1,0,0:0:0:0:0
182,192,22221,1,0,0:0:0:0:0
109,192,22221,1,0,0:0:0:0:
402,192,22406,1,0,0:0:0:0:0
256,192,22406,1,0,0:0:0:0:0
329,192,22592,1,0,0:0:0:0:0
182,192,22592,1,0,0:0:0:0:0
475,192,22592,1,0,0:0:0:0:0
36,192,22592,1,0,0:0:0:0:0
256,192,22777,1,0,0:0:0:0:0
109,192,22777,1,0,0:0:0:0:0
182,192,22962,1,0,0:0:0:0:0
36,192,22962,1,0,0:0:0:0:0
402,192,22962,1,0,0:0:0:0:0
475,192,22962,1,0,0:0:0:0:0
329,192,22962,1,0,0:0:0:0:
109,192,23147,1,0,0:0:0:0:0
329,192,23147,1,0,0:0:0:0:0
182,192,23332,1,0,0:0:0:0:0
402,192,23332,1,0,0:0:0:0:0
36,192,23332,1,0,0:0:0:0:0
256,192,23332,1,0,0:0:0:0:0
475,192,23517,1,0,0:0:0:0:0
109,192,23517,1,0,0:0:0:0:0
329,192,23703,1,0,0:0:0:0:0
402,192,23703,1,0,0:0:0:0:0
182,192,23703,1,0,0:0:0:0:0
36,192,23703,1,0,0:0:0:0:0
475,192,23703,1,0,0:0:0:0:
256,192,23888,1,0,0:0:0:0:0
109,192,23888,1,0,0:0:0:0:0
36,192,24073,1,0,0:0:0:0:0
329,192,24073,1,0,0:0:0:0:0
475,192,24073,1,0,0:0:0:0:0
182,192,24073,1,0,0:0:0:0:0
402,192,24258,1,0,0:0:0:0:0
109,192,24258,1,0,0:0:0:0:0
256,192,24443,1,0,0:0:0:0:0
329,192,24443,1,0,0:0:0:0:0
36,192,24443,1,0,0:0:0:0:0
182,192,24443,1,0,0:0:0:0:0
475,192,24443,1,0,0:0:0:0:
109,192,24629,1,0,0:0:0:0:0
402,192,24629,1,0,0:0:0:0:0
182,192,24814,1,0,0:0:0:0:0
475,192,24814,1,0,0:0:0:0:0
329,192,24814,1,0,0:0:0:0:0
36,192,24814,1,0,0:0:0:0:0
256,192,24999,1,0,0:0:0:0:0
402,192,24999,1,0,0:0:0:0:0
329,192,25184,1,0,0:0:0:0:0
475,192,25184,1,0,0:0:0:0:0
36,192,25184,1,0,0:0:0:0:0
182,192,25184,1,0,0:0:0:0:0
109,192,25369,1,0,0:0:0:0:0
402,192,25369,1,0,0:0:0:0:0
256,192,25554,1,0,0:0:0:0:0
36,192,25554,1,0,0:0:0:0:0
475,192,25554,1,0,0:0:0:0:0
329,192,25740,1,0,0:0:0:0:0
182,192,25740,1,0,0:0:0:0:0
36,192,25925,1,0,0:0:0:0:0
256,192,25925,1,0,0:0:0:0:0
475,192,25925,1,0,0:0:0:0:0
109,192,26110,1,0,0:0:0:0:0
402,192,26110,1,0,0:0:0:0:0
475,192,26295,1,0,0:0:0:0:0
36,192,26295,1,0,0:0:0:0:0
182,192,26295,1,0,0:0:0:0:0
329,192,26295,1,0,0:0:0:0:0
256,192,26480,5,0,0:0:0:0:0
402,192,26480,1,0,0:0:0:0:0
36,192,26666,1,0,0:0:0:0:0
475,192,26666,1,0,0:0:0:0:0
329,192,26666,1,0,0:0:0:0:0
182,192,26666,1,0,0:0:0:0:0
109,192,26666,1,0,0:0:0:0:
256,192,26666,1,0,0:0:0:0:
402,192,26666,1,0,0:0:0:0:
256,192,26851,1,0,0:0:0:0:0
109,192,26851,1,0,0:0:0:0:0
475,192,27036,1,0,0:0:0:0:0
329,192,27036,1,0,0:0:0:0:0
182,192,27036,1,0,0:0:0:0:0
36,192,27036,1,0,0:0:0:0:0
256,192,27221,1,0,0:0:0:0:0
402,192,27221,1,0,0:0:0:0:0
36,192,27406,1,0,0:0:0:0:0
182,192,27406,1,0,0:0:0:0:0
329,192,27406,1,0,0:0:0:0:0
475,192,27406,1,0,0:0:0:0:0
109,192,27406,1,0,0:0:0:0:
402,192,27406,1,0,0:0:0:0:
256,192,27406,1,0,0:0:0:0:
402,192,27592,1,0,0:0:0:0:0
109,192,27592,1,0,0:0:0:0:0
109,192,27777,5,0,0:0:0:0:0
109,192,27869,1,0,0:0:0:0:0
402,192,27962,1,0,0:0:0:0:0
402,192,28054,1,0,0:0:0:0:0
182,192,28147,1,0,0:0:0:0:0
182,192,28240,1,0,0:0:0:0:0
329,192,28332,1,0,0:0:0:0:0
329,192,28425,1,0,0:0:0:0:0
36,192,28517,1,0,0:0:0:0:0
36,192,28610,1,0,0:0:0:0:0
475,192,28703,1,0,0:0:0:0:0
475,192,28795,1,0,0:0:0:0:0
109,192,28888,1,0,0:0:0:0:0
109,192,28980,1,0,0:0:0:0:0
256,192,29073,1,0,0:0:0:0:0
475,192,29258,1,0,0:0:0:0:0
36,192,29258,1,0,0:0:0:0:0
182,192,29258,1,0,0:0:0:0:0
402,192,29258,1,0,0:0:0:0:0
109,192,29443,1,0,0:0:0:0:0
475,192,29443,1,0,0:0:0:0:0
182,192,29629,1,0,0:0:0:0:0
36,192,29629,1,0,0:0:0:0:0
329,192,29629,1,0,0:0:0:0:0
402,192,29629,1,0,0:0:0:0:0
256,192,29629,1,0,0:0:0:0:
475,192,29629,1,0,0:0:0:0:
109,192,29629,1,0,0:0:0:0:
109,192,29814,1,0,0:0:0:0:0
256,192,29814,1,0,0:0:0:0:0
475,192,29999,1,0,0:0:0:0:0
182,192,29999,1,0,0:0:0:0:0
36,192,29999,1,0,0:0:0:0:0
329,192,29999,1,0,0:0:0:0:0
109,192,30184,1,0,0:0:0:0:0
402,192,30184,1,0,0:0:0:0:0
36,192,30369,1,0,0:0:0:0:0
182,192,30369,1,0,0:0:0:0:0
256,192,30369,1,0,0:0:0:0:0
329,192,30369,1,0,0:0:0:0:0
402,192,30369,1,0,0:0:0:0:
475,192,30369,1,0,0:0:0:0:
109,192,30369,1,0,0:0:0:0:
402,192,30554,1,0,0:0:0:0:0
109,192,30554,1,0,0:0:0:0:0
329,192,30740,1,0,0:0:0:0:0
36,192,30740,1,0,0:0:0:0:0
182,192,30740,1,0,0:0:0:0:0
475,192,30740,1,0,0:0:0:0:0
402,192,30925,1,0,0:0:0:0:0
256,192,30925,1,0,0:0:0:0:0
36,192,31110,1,0,0:0:0:0:0
182,192,31110,1,0,0:0:0:0:0
329,192,31110,1,0,0:0:0:0:0
475,192,31110,1,0,0:0:0:0:0
109,192,31110,1,0,0:0:0:0:
256,192,31110,1,0,0:0:0:0:
402,192,31110,1,0,0:0:0:0:
402,192,31295,1,0,0:0:0:0:0
109,192,31295,1,0,0:0:0:0:0
475,192,31480,1,0,0:0:0:0:0
36,192,31480,1,0,0:0:0:0:0
256,192,31480,1,0,0:0:0:0:0
329,192,31666,1,0,0:0:0:0:0
109,192,31666,1,0,0:0:0:0:0
475,192,31851,1,0,0:0:0:0:0
36,192,31851,1,0,0:0:0:0:0
182,192,31851,1,0,0:0:0:0:0
402,192,31851,1,0,0:0:0:0:0
329,192,31851,1,0,0:0:0:0:
256,192,31851,1,0,0:0:0:0:
109,192,31851,1,0,0:0:0:0:
109,192,32036,1,0,0:0:0:0:0
256,192,32036,1,0,0:0:0:0:0
182,192,32221,1,0,0:0:0:0:0
329,192,32221,1,0,0:0:0:0:0
475,192,32221,1,0,0:0:0:0:0
36,192,32221,1,0,0:0:0:0:0
402,192,32406,1,0,0:0:0:0:0
256,192,32406,1,0,0:0:0:0:0
329,192,32592,1,0,0:0:0:0:0
182,192,32592,1,0,0:0:0:0:0
36,192,32592,1,0,0:0:0:0:0
475,192,32592,1,0,0:0:0:0:0
109,192,32592,1,0,0:0:0:0:
256,192,32592,1,0,0:0:0:0:
402,192,32592,1,0,0:0:0:0:
109,192,32777,1,0,0:0:0:0:0
256,192,32777,1,0,0:0:0:0:0
182,192,32962,1,0,0:0:0:0:0
36,192,32962,1,0,0:0:0:0:0
475,192,32962,1,0,0:0:0:0:0
329,192,32962,1,0,0:0:0:0:0
402,192,33147,1,0,0:0:0:0:0
256,192,33147,1,0,0:0:0:0:0
329,192,33332,1,0,0:0:0:0:0
475,192,33332,1,0,0:0:0:0:0
36,192,33332,1,0,0:0:0:0:0
182,192,33332,1,0,0:0:0:0:0
109,192,33332,1,0,0:0:0:0:
256,192,33332,1,0,0:0:0:0:
402,192,33332,1,0,0:0:0:0:
109,192,33517,1,0,0:0:0:0:0
402,192,33517,1,0,0:0:0:0:0
475,192,33703,1,0,0:0:0:0:0
475,192,33795,1,0,0:0:0:0:0
182,192,33888,1,0,0:0:0:0:0
182,192,33980,1,0,0:0:0:0:0
402,192,34073,1,0,0:0:0:0:0
402,192,34166,1,0,0:0:0:0:0
109,192,34258,1,0,0:0:0:0:0
109,192,34351,1,0,0:0:0:0:0
329,192,34443,1,0,0:0:0:0:0
329,192,34536,1,0,0:0:0:0:0
36,192,34629,1,0,0:0:0:0:0
36,192,34721,1,0,0:0:0:0:0
256,192,34814,1,0,0:0:0:0:0
256,192,34906,1,0,0:0:0:0:0
109,192,34999,1,0,0:0:0:0:0
109,192,35092,1,0,0:0:0:0:0
329,192,35184,1,0,0:0:0:0:0
475,192,35184,1,0,0:0:0:0:0
256,192,35184,1,0,0:0:0:0:0
402,192,35369,1,0,0:0:0:0:0
182,192,35369,1,0,0:0:0:0:0
109,192,35554,1,0,0:0:0:0:0
36,192,35554,1,0,0:0:0:0:0
256,192,35554,1,0,0:0:0:0:0
475,192,35554,1,0,0:0:0:0:0
329,192,35554,1,0,0:0:0:0:
402,192,35554,1,0,0:0:0:0:
182,192,35554,1,0,0:0:0:0:
182,192,35740,1,0,0:0:0:0:0
329,192,35740,1,0,0:0:0:0:0
402,192,35925,1,0,0:0:0:0:0
36,192,35925,1,0,0:0:0:0:0
256,192,35925,1,0,0:0:0:0:0
475,192,35925,1,0,0:0:0:0:0
329,192,36110,1,0,0:0:0:0:0
182,192,36110,1,0,0:0:0:0:0
475,192,36295,1,0,0:0:0:0:0
402,192,36295,1,0,0:0:0:0:0
36,192,36295,1,0,0:0:0:0:0
109,192,36295,1,0,0:0:0:0:0
256,192,36295,1,0,0:0:0:0:0
182,192,36295,1,0,0:0:0:0:
329,192,36295,1,0,0:0:0:0:
329,192,36480,1,0,0:0:0:0:0
182,192,36480,1,0,0:0:0:0:0
36,192,36666,1,0,0:0:0:0:0
36,192,36758,1,0,0:0:0:0:0
182,192,36851,1,0,0:0:0:0:0
182,192,36943,1,0,0:0:0:0:0
329,192,37036,1,0,0:0:0:0:0
329,192,37129,1,0,0:0:0:0:0
475,192,37221,1,0,0:0:0:0:0
475,192,37314,1,0,0:0:0:0:0
36,192,37406,1,0,0:0:0:0:0
109,192,37453,1,0,0:0:0:0:0
182,192,37499,1,0,0:0:0:0:0
256,192,37545,1,0,0:0:0:0:0
329,192,37592,1,0,0:0:0:0:0
402,192,37638,1,0,0:0:0:0:0
475,192,37684,1,0,0:0:0:0:0
256,192,37730,1,0,0:0:0:0:0
182,192,37777,1,0,0:0:0:0:0
109,192,37823,1,0,0:0:0:0:0
36,192,37869,1,0,0:0:0:0:0
475,192,37962,1,0,0:0:0:0:0
402,192,38008,1,0,0:0:0:0:0
329,192,38054,1,0,0:0:0:0:0
256,192,38101,1,0,0:0:0:0:0
182,192,38147,1,0,0:0:0:0:0
182,192,38240,1,0,0:0:0:0:0
329,192,38332,1,0,0:0:0:0:0
329,192,38425,1,0,0:0:0:0:0
182,192,38517,1,0,0:0:0:0:0
182,192,38610,1,0,0:0:0:0:0
329,192,38703,1,0,0:0:0:0:0
329,192,38795,1,0,0:0:0:0:0
182,192,38888,1,0,0:0:0:0:0
182,192,38980,1,0,0:0:0:0:0
329,192,39073,1,0,0:0:0:0:0
329,192,39166,1,0,0:0:0:0:0
182,192,39258,1,0,0:0:0:0:0
182,192,39351,1,0,0:0:0:0:0
329,192,39443,1,0,0:0:0:0:0
329,192,39536,1,0,0:0:0:0:0
182,192,39629,1,0,0:0:0:0:0
36,192,39629,1,0,0:0:0:0:0
182,192,39721,1,0,0:0:0:0:0
36,192,39721,1,0,0:0:0:0:0
329,192,39814,1,0,0:0:0:0:0
475,192,39814,1,0,0:0:0:0:0
329,192,39906,1,0,0:0:0:0:0
475,192,39906,1,0,0:0:0:0:0
182,192,39999,1,0,0:0:0:0:0
109,192,39999,1,0,0:0:0:0:0
182,192,40092,1,0,0:0:0:0:0
109,192,40092,1,0,0:0:0:0:0
329,192,40184,1,0,0:0:0:0:0
402,192,40184,1,0,0:0:0:0:0
402,192,40277,1,0,0:0:0:0:0
329,192,40277,1,0,0:0:0:0:0
109,192,40369,1,0,0:0:0:0:0
36,192,40369,1,0,0:0:0:0:0
109,192,40462,1,0,0:0:0:0:0
36,192,40462,1,0,0:0:0:0:0
402,192,40554,1,0,0:0:0:0:0
475,192,40554,1,0,0:0:0:0:0
475,192,40647,1,0,0:0:0:0:0
402,192,40647,1,0,0:0:0:0:0
36,192,40740,1,0,0:0:0:0:0
182,192,40740,1,0,0:0:0:0:0
182,192,40832,1,0,0:0:0:0:0
36,192,40832,1,0,0:0:0:0:0
329,192,40925,1,0,0:0:0:0:0
402,192,40925,1,0,0:0:0:0:0
402,192,41017,1,0,0:0:0:0:0
329,192,41017,1,0,0:0:0:0:0
182,192,41110,1,0,0:0:0:0:0
182,192,41203,1,0,0:0:0:0:0
329,192,41295,1,0,0:0:0:0:0
329,192,41388,1,0,0:0:0:0:0
182,192,41480,1,0,0:0:0:0:0
182,192,41573,1,0,0:0:0:0:0
329,192,41666,1,0,0:0:0:0:0
329,192,41758,1,0,0:0:0:0:0
182,192,41851,1,0,0:0:0:0:0
182,192,41943,1,0,0:0:0:0:0
329,192,42036,1,0,0:0:0:0:0
329,192,42129,1,0,0:0:0:0:0
182,192,42221,1,0,0:0:0:0:0
182,192,42314,1,0,0:0:0:0:0
329,192,42406,1,0,0:0:0:0:0
182,192,42592,1,0,0:0:0:0:0
109,192,42592,1,0,0:0:0:0:0
36,192,42592,1,0,0:0:0:0:0
256,192,42592,1,0,0:0:0:0:0
402,192,42592,1,0,0:0:0:0:0
475,192,42592,1,0,0:0:0:0:0
329,192,42592,1,0,0:0:0:0:0
182,192,42962,1,0,0:0:0:0:0
109,192,42962,1,0,0:0:0:0:0
36,192,42962,1,0,0:0:0:0:0
256,192,42962,1,0,0:0:0:0:0
329,192,42962,1,0,0:0:0:0:0
402,192,42962,1,0,0:0:0:0:0
475,192,42962,1,0,0:0:0:0:0
256,192,43054,1,0,0:0:0:0:0
182,192,43054,1,0,0:0:0:0:0
109,192,43054,1,0,0:0:0:0:0
36,192,43054,1,0,0:0:0:0:0
329,192,43054,1,0,0:0:0:0:0
402,192,43054,1,0,0:0:0:0:0
475,192,43054,1,0,0:0:0:0:0
475,192,43147,1,0,0:0:0:0:0
402,192,43147,1,0,0:0:0:0:0
329,192,43147,1,0,0:0:0:0:0
256,192,43147,1,0,0:0:0:0:0
182,192,43147,1,0,0:0:0:0:0
109,192,43147,1,0,0:0:0:0:0
36,192,43147,1,0,0:0:0:0:0
36,192,43332,1,0,0:0:0:0:0
109,192,43332,1,0,0:0:0:0:0
182,192,43332,1,0,0:0:0:0:0
256,192,43332,1,0,0:0:0:0:0
329,192,43332,1,0,0:0:0:0:0
402,192,43332,1,0,0:0:0:0:0
475,192,43332,1,0,0:0:0:0:0
475,192,43517,1,0,0:0:0:0:0
329,192,43517,1,0,0:0:0:0:0
402,192,43517,1,0,0:0:0:0:0
256,192,43517,1,0,0:0:0:0:0
182,192,43517,1,0,0:0:0:0:0
109,192,43517,1,0,0:0:0:0:0
36,192,43517,1,0,0:0:0:0:0
36,192,43703,1,0,0:0:0:0:0
109,192,43703,1,0,0:0:0:0:0
182,192,43703,1,0,0:0:0:0:0
256,192,43703,1,0,0:0:0:0:0
329,192,43703,1,0,0:0:0:0:0
402,192,43703,1,0,0:0:0:0:0
475,192,43703,1,0,0:0:0:0:0
256,192,43888,1,0,0:0:0:0:0
182,192,43888,1,0,0:0:0:0:0
109,192,43888,1,0,0:0:0:0:0
36,192,43888,1,0,0:0:0:0:0
329,192,43888,1,0,0:0:0:0:0
402,192,43888,1,0,0:0:0:0:0
475,192,43888,1,0,0:0:0:0:0
475,192,44073,1,0,0:0:0:0:0
402,192,44073,1,0,0:0:0:0:0
256,192,44073,1,0,0:0:0:0:0
329,192,44073,1,0,0:0:0:0:0
182,192,44073,1,0,0:0:0:0:0
109,192,44073,1,0,0:0:0:0:0
36,192,44073,1,0,0:0:0:0:0
329,192,44258,1,0,0:0:0:0:0
329,192,44351,1,0,0:0:0:0:0
182,192,44443,1,0,0:0:0:0:0
182,192,44536,1,0,0:0:0:0:0
329,192,44629,1,0,0:0:0:0:0
329,192,44721,1,0,0:0:0:0:0
182,192,44814,1,0,0:0:0:0:0
182,192,44906,1,0,0:0:0:0:0
329,192,44999,1,0,0:0:0:0:0
329,192,45092,1,0,0:0:0:0:0
182,192,45184,1,0,0:0:0:0:0
182,192,45277,1,0,0:0:0:0:0
329,192,45369,1,0,0:0:0:0:0
329,192,45462,1,0,0:0:0:0:0
182,192,45554,1,0,0:0:0:0:0
36,192,45554,1,0,0:0:0:0:0
182,192,45647,1,0,0:0:0:0:0
36,192,45647,1,0,0:0:0:0:0
329,192,45740,1,0,0:0:0:0:0
475,192,45740,1,0,0:0:0:0:0
475,192,45832,1,0,0:0:0:0:0
329,192,45832,1,0,0:0:0:0:0
182,192,45925,1,0,0:0:0:0:0
109,192,45925,1,0,0:0:0:0:0
182,192,46017,1,0,0:0:0:0:0
109,192,46017,1,0,0:0:0:0:0
329,192,46110,1,0,0:0:0:0:0
402,192,46110,1,0,0:0:0:0:0
402,192,46203,1,0,0:0:0:0:0
329,192,46203,1,0,0:0:0:0:0
36,192,46295,1,0,0:0:0:0:0
109,192,46295,1,0,0:0:0:0:0
109,192,46388,1,0,0:0:0:0:0
36,192,46388,1,0,0:0:0:0:0
256,192,46480,1,0,0:0:0:0:0
475,192,46480,1,0,0:0:0:0:0
256,192,46573,1,0,0:0:0:0:0
475,192,46573,1,0,0:0:0:0:0
182,192,46666,1,0,0:0:0:0:0
36,192,46666,1,0,0:0:0:0:0
36,192,46758,1,0,0:0:0:0:0
182,192,46758,1,0,0:0:0:0:0
402,192,46851,1,0,0:0:0:0:0
329,192,46851,1,0,0:0:0:0:0
402,192,46943,1,0,0:0:0:0:0
329,192,46943,1,0,0:0:0:0:0
182,192,47036,1,0,0:0:0:0:0
182,192,47129,1,0,0:0:0:0:0
329,192,47221,1,0,0:0:0:0:0
329,192,47314,1,0,0:0:0:0:0
182,192,47406,1,0,0:0:0:0:0
182,192,47499,1,0,0:0:0:0:0
329,192,47592,1,0,0:0:0:0:0
329,192,47684,1,0,0:0:0:0:0
182,192,47777,1,0,0:0:0:0:0
182,192,47869,1,0,0:0:0:0:0
329,192,47962,1,0,0:0:0:0:0
329,192,48054,1,0,0:0:0:0:0
182,192,48147,1,0,0:0:0:0:0
182,192,48240,1,0,0:0:0:0:0
329,192,48332,1,0,0:0:0:0:0
329,192,48425,1,0,0:0:0:0:0
182,192,48517,1,0,0:0:0:0:0
182,192,48610,1,0,0:0:0:0:0
329,192,48703,1,0,0:0:0:0:0
329,192,48795,1,0,0:0:0:0:0
182,192,48888,1,0,0:0:0:0:0
182,192,48980,1,0,0:0:0:0:0
329,192,49073,1,0,0:0:0:0:0
329,192,49166,1,0,0:0:0:0:0
36,192,49258,1,0,0:0:0:0:0
109,192,49281,1,0,0:0:0:0:0
182,192,49304,1,0,0:0:0:0:0
256,192,49328,1,0,0:0:0:0:0
329,192,49351,1,0,0:0:0:0:0
402,192,49374,1,0,0:0:0:0:0
475,192,49397,1,0,0:0:0:0:0
36,192,49420,1,0,0:0:0:0:0
109,192,49443,1,0,0:0:0:0:0
182,192,49467,1,0,0:0:0:0:0
256,192,49490,1,0,0:0:0:0:0
329,192,49513,1,0,0:0:0:0:0
402,192,49536,1,0,0:0:0:0:0
475,192,49559,1,0,0:0:0:0:0
36,192,49582,1,0,0:0:0:0:0
109,192,49605,1,0,0:0:0:0:0
182,192,49629,1,0,0:0:0:0:0
256,192,49652,1,0,0:0:0:0:0
329,192,49675,1,0,0:0:0:0:0
402,192,49698,1,0,0:0:0:0:0
475,192,49721,1,0,0:0:0:0:0
36,192,49744,1,0,0:0:0:0:0
109,192,49767,1,0,0:0:0:0:0
182,192,49791,1,0,0:0:0:0:0
256,192,49814,1,0,0:0:0:0:0
329,192,49837,1,0,0:0:0:0:0
402,192,49860,1,0,0:0:0:0:0
475,192,49883,1,0,0:0:0:0:0
36,192,49999,1,0,0:0:0:0:0
109,192,49999,1,0,0:0:0:0:0
182,192,49999,1,0,0:0:0:0:0
256,192,49999,1,0,0:0:0:0:0
329,192,49999,1,0,0:0:0:0:0
402,192,49999,1,0,0:0:0:0:0
475,192,49999,1,0,0:0:0:0:0
109,192,50184,1,0,0:0:0:0:0
256,192,50184,1,0,0:0:0:0:0
182,192,50369,1,0,0:0:0:0:0
329,192,50369,1,0,0:0:0:0:0
475,192,50369,1,0,0:0:0:0:0
36,192,50369,1,0,0:0:0:0:0
256,192,50369,1,0,0:0:0:0:
402,192,50554,1,0,0:0:0:0:0
256,192,50554,1,0,0:0:0:0:0
329,192,50740,1,0,0:0:0:0:0
182,192,50740,1,0,0:0:0:0:0
36,192,50740,1,0,0:0:0:0:0
475,192,50740,1,0,0:0:0:0:0
402,192,50740,1,0,0:0:0:0:
109,192,50925,1,0,0:0:0:0:0
256,192,50925,1,0,0:0:0:0:0
182,192,51110,1,0,0:0:0:0:0
36,192,51110,1,0,0:0:0:0:0
475,192,51110,1,0,0:0:0:0:0
329,192,51110,1,0,0:0:0:0:0
109,192,51110,1,0,0:0:0:0:
402,192,51295,1,0,0:0:0:0:0
256,192,51295,1,0,0:0:0:0:0
329,192,51480,1,0,0:0:0:0:0
475,192,51480,1,0,0:0:0:0:0
36,192,51480,1,0,0:0:0:0:0
182,192,51480,1,0,0:0:0:0:0
256,192,51480,1,0,0:0:0:0:
109,192,51666,1,0,0:0:0:0:0
402,192,51666,1,0,0:0:0:0:0
182,192,51851,1,0,0:0:0:0:0
329,192,51851,1,0,0:0:0:0:0
475,192,51851,1,0,0:0:0:0:0
36,192,51851,1,0,0:0:0:0:0
402,192,51851,1,0,0:0:0:0:
256,192,52036,1,0,0:0:0:0:0
402,192,52036,1,0,0:0:0:0:0
329,192,52221,1,0,0:0:0:0:0
475,192,52221,1,0,0:0:0:0:0
36,192,52221,1,0,0:0:0:0:0
182,192,52221,1,0,0:0:0:0:0
109,192,52221,1,0,0:0:0:0:
402,192,52406,1,0,0:0:0:0:0
256,192,52406,1,0,0:0:0:0:0
329,192,52592,1,0,0:0:0:0:0
182,192,52592,1,0,0:0:0:0:0
475,192,52592,1,0,0:0:0:0:0
36,192,52592,1,0,0:0:0:0:0
402,192,52592,1,0,0:0:0:0:
256,192,52777,1,0,0:0:0:0:0
109,192,52777,1,0,0:0:0:0:0
182,192,52962,1,0,0:0:0:0:0
36,192,52962,1,0,0:0:0:0:0
402,192,52962,1,0,0:0:0:0:0
475,192,52962,1,0,0:0:0:0:0
256,192,52962,1,0,0:0:0:0:
109,192,53147,1,0,0:0:0:0:0
329,192,53147,1,0,0:0:0:0:0
182,192,53332,1,0,0:0:0:0:0
402,192,53332,1,0,0:0:0:0:0
36,192,53332,1,0,0:0:0:0:0
256,192,53332,1,0,0:0:0:0:0
109,192,53332,1,0,0:0:0:0:
475,192,53517,1,0,0:0:0:0:0
109,192,53517,1,0,0:0:0:0:0
329,192,53703,1,0,0:0:0:0:0
402,192,53703,1,0,0:0:0:0:0
182,192,53703,1,0,0:0:0:0:0
36,192,53703,1,0,0:0:0:0:0
475,192,53703,1,0,0:0:0:0:
256,192,53888,1,0,0:0:0:0:0
109,192,53888,1,0,0:0:0:0:0
36,192,54073,1,0,0:0:0:0:0
329,192,54073,1,0,0:0:0:0:0
475,192,54073,1,0,0:0:0:0:0
182,192,54073,1,0,0:0:0:0:0
256,192,54073,1,0,0:0:0:0:
402,192,54258,1,0,0:0:0:0:0
109,192,54258,1,0,0:0:0:0:0
256,192,54443,1,0,0:0:0:0:0
329,192,54443,1,0,0:0:0:0:0
36,192,54443,1,0,0:0:0:0:0
182,192,54443,1,0,0:0:0:0:0
109,192,54443,1,0,0:0:0:0:
109,192,54629,1,0,0:0:0:0:0
402,192,54629,1,0,0:0:0:0:0
182,192,54814,1,0,0:0:0:0:0
475,192,54814,1,0,0:0:0:0:0
329,192,54814,1,0,0:0:0:0:0
36,192,54814,1,0,0:0:0:0:0
402,192,54814,1,0,0:0:0:0:
256,192,54999,1,0,0:0:0:0:0
402,192,54999,1,0,0:0:0:0:0
329,192,55184,1,0,0:0:0:0:0
475,192,55184,1,0,0:0:0:0:0
36,192,55184,1,0,0:0:0:0:0
182,192,55184,1,0,0:0:0:0:0
256,192,55184,1,0,0:0:0:0:
109,192,55369,1,0,0:0:0:0:0
402,192,55369,1,0,0:0:0:0:0
256,192,55554,1,0,0:0:0:0:0
36,192,55554,1,0,0:0:0:0:0
475,192,55554,1,0,0:0:0:0:0
109,192,55554,1,0,0:0:0:0:
329,192,55740,1,0,0:0:0:0:0
182,192,55740,1,0,0:0:0:0:0
36,192,55925,1,0,0:0:0:0:0
109,192,55925,1,0,0:0:0:0:0
256,192,55925,1,0,0:0:0:0:0
329,192,55925,1,0,0:0:0:0:0
475,192,55925,1,0,0:0:0:0:0
402,192,55925,1,0,0:0:0:0:0
182,192,55925,1,0,0:0:0:0:0
109,192,56110,1,0,0:0:0:0:0
402,192,56110,1,0,0:0:0:0:0
182,192,56295,1,0,0:0:0:0:0
329,192,56295,1,0,0:0:0:0:0
475,192,56295,1,0,0:0:0:0:0
36,192,56295,1,0,0:0:0:0:0
256,192,56295,1,0,0:0:0:0:
402,192,56480,1,0,0:0:0:0:0
256,192,56480,1,0,0:0:0:0:0
329,192,56666,1,0,0:0:0:0:0
182,192,56666,1,0,0:0:0:0:0
36,192,56666,1,0,0:0:0:0:0
475,192,56666,1,0,0:0:0:0:0
402,192,56666,1,0,0:0:0:0:
109,192,56851,1,0,0:0:0:0:0
256,192,56851,1,0,0:0:0:0:0
182,192,57036,1,0,0:0:0:0:0
36,192,57036,1,0,0:0:0:0:0
475,192,57036,1,0,0:0:0:0:0
329,192,57036,1,0,0:0:0:0:0
109,192,57036,1,0,0:0:0:0:
402,192,57221,1,0,0:0:0:0:0
256,192,57221,1,0,0:0:0:0:0
329,192,57406,1,0,0:0:0:0:0
475,192,57406,1,0,0:0:0:0:0
36,192,57406,1,0,0:0:0:0:0
182,192,57406,1,0,0:0:0:0:0
256,192,57406,1,0,0:0:0:0:
109,192,57592,1,0,0:0:0:0:0
402,192,57592,1,0,0:0:0:0:0
182,192,57777,1,0,0:0:0:0:0
329,192,57777,1,0,0:0:0:0:0
475,192,57777,1,0,0:0:0:0:0
36,192,57777,1,0,0:0:0:0:0
402,192,57777,1,0,0:0:0:0:
256,192,57962,1,0,0:0:0:0:0
402,192,57962,1,0,0:0:0:0:0
329,192,58147,1,0,0:0:0:0:0
475,192,58147,1,0,0:0:0:0:0
36,192,58147,1,0,0:0:0:0:0
182,192,58147,1,0,0:0:0:0:0
256,192,58147,1,0,0:0:0:0:
402,192,58332,1,0,0:0:0:0:0
256,192,58332,1,0,0:0:0:0:0
329,192,58517,1,0,0:0:0:0:0
182,192,58517,1,0,0:0:0:0:0
475,192,58517,1,0,0:0:0:0:0
36,192,58517,1,0,0:0:0:0:0
109,192,58517,1,0,0:0:0:0:
256,192,58703,1,0,0:0:0:0:0
109,192,58703,1,0,0:0:0:0:0
182,192,58888,1,0,0:0:0:0:0
36,192,58888,1,0,0:0:0:0:0
402,192,58888,1,0,0:0:0:0:0
475,192,58888,1,0,0:0:0:0:0
256,192,58888,1,0,0:0:0:0:
109,192,59073,1,0,0:0:0:0:0
329,192,59073,1,0,0:0:0:0:0
182,192,59258,1,0,0:0:0:0:0
402,192,59258,1,0,0:0:0:0:0
36,192,59258,1,0,0:0:0:0:0
256,192,59258,1,0,0:0:0:0:0
475,192,59258,1,0,0:0:0:0:
475,192,59443,1,0,0:0:0:0:0
109,192,59443,1,0,0:0:0:0:0
329,192,59629,1,0,0:0:0:0:0
402,192,59629,1,0,0:0:0:0:0
182,192,59629,1,0,0:0:0:0:0
36,192,59629,1,0,0:0:0:0:0
256,192,59629,1,0,0:0:0:0:
256,192,59814,1,0,0:0:0:0:0
109,192,59814,1,0,0:0:0:0:0
36,192,59999,1,0,0:0:0:0:0
329,192,59999,1,0,0:0:0:0:0
475,192,59999,1,0,0:0:0:0:0
182,192,59999,1,0,0:0:0:0:0
109,192,59999,1,0,0:0:0:0:
402,192,60184,1,0,0:0:0:0:0
109,192,60184,1,0,0:0:0:0:0
256,192,60369,1,0,0:0:0:0:0
329,192,60369,1,0,0:0:0:0:0
36,192,60369,1,0,0:0:0:0:0
182,192,60369,1,0,0:0:0:0:0
475,192,60369,1,0,0:0:0:0:
109,192,60554,1,0,0:0:0:0:0
402,192,60554,1,0,0:0:0:0:0
182,192,60740,1,0,0:0:0:0:0
475,192,60740,1,0,0:0:0:0:0
329,192,60740,1,0,0:0:0:0:0
36,192,60740,1,0,0:0:0:0:0
109,192,60740,1,0,0:0:0:0:
256,192,60925,1,0,0:0:0:0:0
402,192,60925,1,0,0:0:0:0:0
329,192,61110,1,0,0:0:0:0:0
475,192,61110,1,0,0:0:0:0:0
36,192,61110,1,0,0:0:0:0:0
182,192,61110,1,0,0:0:0:0:0
256,192,61110,1,0,0:0:0:0:
109,192,61295,1,0,0:0:0:0:0
402,192,61295,1,0,0:0:0:0:0
256,192,61480,1,0,0:0:0:0:0
36,192,61480,1,0,0:0:0:0:0
475,192,61480,1,0,0:0:0:0:0
402,192,61480,1,0,0:0:0:0:
109,192,61480,1,0,0:0:0:0:
329,192,61666,1,0,0:0:0:0:0
182,192,61666,1,0,0:0:0:0:0
36,192,61851,1,0,0:0:0:0:0
109,192,61851,1,0,0:0:0:0:0
256,192,61851,1,0,0:0:0:0:0
329,192,61851,1,0,0:0:0:0:0
475,192,61851,1,0,0:0:0:0:0
402,192,61851,1,0,0:0:0:0:0
182,192,61851,1,0,0:0:0:0:0
109,192,61943,1,0,0:0:0:0:0
329,192,62036,1,0,0:0:0:0:0
329,192,62129,1,0,0:0:0:0:0
182,192,62221,1,0,0:0:0:0:0
182,192,62314,1,0,0:0:0:0:0
329,192,62406,1,0,0:0:0:0:0
329,192,62499,1,0,0:0:0:0:0
475,192,62592,1,0,0:0:0:0:0
475,192,62684,1,0,0:0:0:0:0
182,192,62777,1,0,0:0:0:0:0
182,192,62869,1,0,0:0:0:0:0
329,192,62962,1,0,0:0:0:0:0
329,192,63054,1,0,0:0:0:0:0
109,192,63147,1,0,0:0:0:0:0
109,192,63240,1,0,0:0:0:0:0
256,192,63332,1,0,0:0:0:0:0
402,192,63332,1,0,0:0:0:0:0
256,192,63425,1,0,0:0:0:0:0
402,192,63425,1,0,0:0:0:0:0
182,192,63517,1,0,0:0:0:0:0
36,192,63517,1,0,0:0:0:0:0
182,192,63610,1,0,0:0:0:0:0
36,192,63610,1,0,0:0:0:0:0
329,192,63703,1,0,0:0:0:0:0
475,192,63703,1,0,0:0:0:0:0
329,192,63795,1,0,0:0:0:0:0
475,192,63795,1,0,0:0:0:0:0
182,192,63888,1,0,0:0:0:0:0
36,192,63888,1,0,0:0:0:0:0
182,192,63980,1,0,0:0:0:0:0
36,192,63980,1,0,0:0:0:0:0
402,192,64073,1,0,0:0:0:0:0
402,192,64166,1,0,0:0:0:0:0
109,192,64258,1,0,0:0:0:0:0
182,192,64258,1,0,0:0:0:0:0
109,192,64351,1,0,0:0:0:0:0
182,192,64351,1,0,0:0:0:0:0
329,192,64443,1,0,0:0:0:0:0
475,192,64443,1,0,0:0:0:0:0
329,192,64536,1,0,0:0:0:0:0
475,192,64536,1,0,0:0:0:0:0
182,192,64629,1,0,0:0:0:0:0
36,192,64629,1,0,0:0:0:0:0
182,192,64721,1,0,0:0:0:0:0
36,192,64721,1,0,0:0:0:0:0
402,192,64814,1,0,0:0:0:0:0
402,192,64906,1,0,0:0:0:0:0
256,192,64999,5,0,0:0:0:0:0
256,192,65092,1,0,0:0:0:0:0
109,192,65184,1,0,0:0:0:0:0
109,192,65277,1,0,0:0:0:0:0
329,192,65369,1,0,0:0:0:0:0
329,192,65462,1,0,0:0:0:0:0
182,192,65554,1,0,0:0:0:0:0
36,192,65554,1,0,0:0:0:0:0
182,192,65647,1,0,0:0:0:0:0
36,192,65647,1,0,0:0:0:0:0
402,192,65740,1,0,0:0:0:0:0
402,192,65832,1,0,0:0:0:0:0
256,192,65925,1,0,0:0:0:0:0
256,192,66017,1,0,0:0:0:0:0
475,192,66110,1,0,0:0:0:0:0
475,192,66203,1,0,0:0:0:0:0
36,192,66295,1,0,0:0:0:0:
182,192,66295,1,0,0:0:0:0:
36,192,66388,1,0,0:0:0:0:
182,192,66388,1,0,0:0:0:0:
402,192,66480,1,0,0:0:0:0:0
329,192,66480,1,0,0:0:0:0:
402,192,66573,1,0,0:0:0:0:0
329,192,66573,1,0,0:0:0:0:
182,192,66666,1,0,0:0:0:0:
109,192,66666,1,0,0:0:0:0:
109,192,66758,1,0,0:0:0:0:
182,192,66758,1,0,0:0:0:0:
256,192,66851,1,0,0:0:0:0:
475,192,66851,1,0,0:0:0:0:
256,192,66943,1,0,0:0:0:0:
475,192,66943,1,0,0:0:0:0:
109,192,67036,1,0,0:0:0:0:0
36,192,67036,1,0,0:0:0:0:0
109,192,67129,1,0,0:0:0:0:0
36,192,67129,1,0,0:0:0:0:0
256,192,67221,1,0,0:0:0:0:0
182,192,67221,1,0,0:0:0:0:0
256,192,67314,1,0,0:0:0:0:0
182,192,67314,1,0,0:0:0:0:0
402,192,67406,1,0,0:0:0:0:0
329,192,67406,1,0,0:0:0:0:0
402,192,67499,1,0,0:0:0:0:0
329,192,67499,1,0,0:0:0:0:0
109,192,67592,1,0,0:0:0:0:0
475,192,67592,1,0,0:0:0:0:0
36,192,67777,5,0,0:0:0:0:0
182,192,67777,1,0,0:0:0:0:0
256,192,67777,1,0,0:0:0:0:0
329,192,67777,1,0,0:0:0:0:0
402,192,67777,1,0,0:0:0:0:0
475,192,67777,1,0,0:0:0:0:0
109,192,67777,1,0,0:0:0:0:0
36,192,68054,1,0,0:0:0:0:0
109,192,68054,1,0,0:0:0:0:0
256,192,68054,1,0,0:0:0:0:0
182,192,68054,1,0,0:0:0:0:0
329,192,68054,1,0,0:0:0:0:0
475,192,68054,1,0,0:0:0:0:0
402,192,68054,1,0,0:0:0:0:0
475,192,68332,1,0,0:0:0:0:0
402,192,68332,1,0,0:0:0:0:0
329,192,68332,1,0,0:0:0:0:0
256,192,68332,1,0,0:0:0:0:0
182,192,68332,1,0,0:0:0:0:0
109,192,68332,1,0,0:0:0:0:0
36,192,68332,1,0,0:0:0:0:0
36,192,68703,1,0,0:0:0:0:0
109,192,68703,1,0,0:0:0:0:0
182,192,68703,1,0,0:0:0:0:0
256,192,68703,1,0,0:0:0:0:0
329,192,68703,1,0,0:0:0:0:0
402,192,68703,1,0,0:0:0:0:0
475,192,68703,1,0,0:0:0:0:0
475,192,68795,1,0,0:0:0:0:0
402,192,68795,1,0,0:0:0:0:0
329,192,68795,1,0,0:0:0:0:0
256,192,68795,1,0,0:0:0:0:0
182,192,68795,1,0,0:0:0:0:0
109,192,68795,1,0,0:0:0:0:0
36,192,68795,1,0,0:0:0:0:0
36,192,68888,1,0,0:0:0:0:0
109,192,68888,1,0,0:0:0:0:0
182,192,68888,1,0,0:0:0:0:0
256,192,68888,1,0,0:0:0:0:0
329,192,68888,1,0,0:0:0:0:0
402,192,68888,1,0,0:0:0:0:0
475,192,68888,1,0,0:0:0:0:0
36,192,69073,1,0,0:0:0:0:0
109,192,69073,1,0,0:0:0:0:0
182,192,69073,1,0,0:0:0:0:0
256,192,69073,1,0,0:0:0:0:0
329,192,69073,1,0,0:0:0:0:0
402,192,69073,1,0,0:0:0:0:0
475,192,69073,1,0,0:0:0:0:0
36,192,69258,1,0,0:0:0:0:0
109,192,69258,1,0,0:0:0:0:0
256,192,69258,1,0,0:0:0:0:0
182,192,69258,1,0,0:0:0:0:0
329,192,69258,1,0,0:0:0:0:0
402,192,69258,1,0,0:0:0:0:0
475,192,69258,1,0,0:0:0:0:0
36,192,69536,1,0,0:0:0:0:0
109,192,69536,1,0,0:0:0:0:0
182,192,69536,1,0,0:0:0:0:0
256,192,69536,1,0,0:0:0:0:0
402,192,69536,1,0,0:0:0:0:0
329,192,69536,1,0,0:0:0:0:0
475,192,69536,1,0,0:0:0:0:0
475,192,69814,1,0,0:0:0:0:0
402,192,69814,1,0,0:0:0:0:0
329,192,69814,1,0,0:0:0:0:0
256,192,69814,1,0,0:0:0:0:0
182,192,69814,1,0,0:0:0:0:0
109,192,69814,1,0,0:0:0:0:0
36,192,69814,1,0,0:0:0:0:0
36,192,70184,1,0,0:0:0:0:0
109,192,70184,1,0,0:0:0:0:0
182,192,70184,1,0,0:0:0:0:0
256,192,70184,1,0,0:0:0:0:0
329,192,70184,1,0,0:0:0:0:0
402,192,70184,1,0,0:0:0:0:0
475,192,70184,1,0,0:0:0:0:0
475,192,70277,1,0,0:0:0:0:0
329,192,70277,1,0,0:0:0:0:0
402,192,70277,1,0,0:0:0:0:0
256,192,70277,1,0,0:0:0:0:0
182,192,70277,1,0,0:0:0:0:0
109,192,70277,1,0,0:0:0:0:0
36,192,70277,1,0,0:0:0:0:0
36,192,70369,1,0,0:0:0:0:0
109,192,70369,1,0,0:0:0:0:0
182,192,70369,1,0,0:0:0:0:0
256,192,70369,1,0,0:0:0:0:0
329,192,70369,1,0,0:0:0:0:0
402,192,70369,1,0,0:0:0:0:0
475,192,70369,1,0,0:0:0:0:0
36,192,70554,1,0,0:0:0:0:0
182,192,70554,1,0,0:0:0:0:0
109,192,70554,1,0,0:0:0:0:0
256,192,70554,1,0,0:0:0:0:0
329,192,70554,1,0,0:0:0:0:0
402,192,70554,1,0,0:0:0:0:0
475,192,70554,1,0,0:0:0:0:0
36,192,70740,1,0,0:0:0:0:0
109,192,70740,1,0,0:0:0:0:0
182,192,70740,1,0,0:0:0:0:0
329,192,70740,1,0,0:0:0:0:0
256,192,70740,1,0,0:0:0:0:0
402,192,70740,1,0,0:0:0:0:0
475,192,70740,1,0,0:0:0:0:0
36,192,71017,1,0,0:0:0:0:0
109,192,71017,1,0,0:0:0:0:0
256,192,71017,1,0,0:0:0:0:0
402,192,71017,1,0,0:0:0:0:0
475,192,71017,1,0,0:0:0:0:0
329,192,71017,1,0,0:0:0:0:0
182,192,71017,1,0,0:0:0:0:0
36,192,71295,1,0,0:0:0:0:0
182,192,71295,1,0,0:0:0:0:0
256,192,71295,1,0,0:0:0:0:0
109,192,71295,1,0,0:0:0:0:0
329,192,71295,1,0,0:0:0:0:0
402,192,71295,1,0,0:0:0:0:0
475,192,71295,1,0,0:0:0:0:0
36,192,71480,1,0,0:0:0:0:0
109,192,71480,1,0,0:0:0:0:0
182,192,71480,1,0,0:0:0:0:0
329,192,71480,1,0,0:0:0:0:0
256,192,71480,1,0,0:0:0:0:0
402,192,71480,1,0,0:0:0:0:0
475,192,71480,1,0,0:0:0:0:0
36,192,71573,1,0,0:0:0:0:0
109,192,71573,1,0,0:0:0:0:0
182,192,71573,1,0,0:0:0:0:0
256,192,71573,1,0,0:0:0:0:0
329,192,71573,1,0,0:0:0:0:0
402,192,71573,1,0,0:0:0:0:0
475,192,71573,1,0,0:0:0:0:0
475,192,71758,1,0,0:0:0:0:0
402,192,71758,1,0,0:0:0:0:0
329,192,71758,1,0,0:0:0:0:0
256,192,71758,1,0,0:0:0:0:0
182,192,71758,1,0,0:0:0:0:0
109,192,71758,1,0,0:0:0:0:0
36,192,71758,1,0,0:0:0:0:0
36,192,71851,1,0,0:0:0:0:0
109,192,71851,1,0,0:0:0:0:0
182,192,71851,1,0,0:0:0:0:0
256,192,71851,1,0,0:0:0:0:0
329,192,71851,1,0,0:0:0:0:0
402,192,71851,1,0,0:0:0:0:0
475,192,71851,1,0,0:0:0:0:0
36,192,72036,1,0,0:0:0:0:0
109,192,72036,1,0,0:0:0:0:0
182,192,72036,1,0,0:0:0:0:0
329,192,72036,1,0,0:0:0:0:0
402,192,72036,1,0,0:0:0:0:0
475,192,72036,1,0,0:0:0:0:0
256,192,72036,1,0,0:0:0:0:0
36,192,72221,1,0,0:0:0:0:0
109,192,72221,1,0,0:0:0:0:0
182,192,72221,1,0,0:0:0:0:0
256,192,72221,1,0,0:0:0:0:0
329,192,72221,1,0,0:0:0:0:0
475,192,72221,1,0,0:0:0:0:0
402,192,72221,1,0,0:0:0:0:0
36,192,72406,1,0,0:0:0:0:0
109,192,72406,1,0,0:0:0:0:0
256,192,72406,1,0,0:0:0:0:0
182,192,72406,1,0,0:0:0:0:0
329,192,72406,1,0,0:0:0:0:0
402,192,72406,1,0,0:0:0:0:0
475,192,72406,1,0,0:0:0:0:0
475,192,72592,1,0,0:0:0:0:0
402,192,72592,1,0,0:0:0:0:0
329,192,72592,1,0,0:0:0:0:0
256,192,72592,1,0,0:0:0:0:0
182,192,72592,1,0,0:0:0:0:0
109,192,72592,1,0,0:0:0:0:0
36,192,72592,1,0,0:0:0:0:0
36,192,72777,1,0,0:0:0:0:0
109,192,72777,1,0,0:0:0:0:0
182,192,72777,1,0,0:0:0:0:0
256,192,72777,1,0,0:0:0:0:0
329,192,72777,1,0,0:0:0:0:0
402,192,72777,1,0,0:0:0:0:0
475,192,72777,1,0,0:0:0:0:0
475,192,72962,1,0,0:0:0:0:0
402,192,72962,1,0,0:0:0:0:0
329,192,72962,1,0,0:0:0:0:0
182,192,72962,1,0,0:0:0:0:0
109,192,72962,1,0,0:0:0:0:0
36,192,72962,1,0,0:0:0:0:0
256,192,72962,1,0,0:0:0:0:0
36,192,73147,1,0,0:0:0:0:0
109,192,73147,1,0,0:0:0:0:0
182,192,73147,1,0,0:0:0:0:0
256,192,73147,1,0,0:0:0:0:0
329,192,73147,1,0,0:0:0:0:0
402,192,73147,1,0,0:0:0:0:0
475,192,73147,1,0,0:0:0:0:0
475,192,73332,1,0,0:0:0:0:0
402,192,73332,1,0,0:0:0:0:0
256,192,73332,1,0,0:0:0:0:0
182,192,73332,1,0,0:0:0:0:0
109,192,73332,1,0,0:0:0:0:0
36,192,73332,1,0,0:0:0:0:0
329,192,73332,1,0,0:0:0:0:0
36,192,73517,1,0,0:0:0:0:0
109,192,73517,1,0,0:0:0:0:0
182,192,73517,1,0,0:0:0:0:0
256,192,73517,1,0,0:0:0:0:0
402,192,73517,1,0,0:0:0:0:0
475,192,73517,1,0,0:0:0:0:0
329,192,73517,1,0,0:0:0:0:0
36,192,73703,1,0,0:0:0:0:0
182,192,73703,1,0,0:0:0:0:0
329,192,73703,1,0,0:0:0:0:0
402,192,73703,1,0,0:0:0:0:0
475,192,73703,1,0,0:0:0:0:0
256,192,73703,1,0,0:0:0:0:0
109,192,73703,1,0,0:0:0:0:0
109,192,73795,1,0,0:0:0:0:0
36,192,73795,1,0,0:0:0:0:0
109,192,73888,1,0,0:0:0:0:0
36,192,73888,1,0,0:0:0:0:0
109,192,73980,1,0,0:0:0:0:0
36,192,73980,1,0,0:0:0:0:0
329,192,74073,1,0,0:0:0:0:0
402,192,74073,1,0,0:0:0:0:0
402,192,74166,1,0,0:0:0:0:0
329,192,74166,1,0,0:0:0:0:0
182,192,74258,1,0,0:0:0:0:0
109,192,74258,1,0,0:0:0:0:0
182,192,74351,1,0,0:0:0:0:0
109,192,74351,1,0,0:0:0:0:0
182,192,74443,1,0,0:0:0:0:0
109,192,74443,1,0,0:0:0:0:0
182,192,74536,1,0,0:0:0:0:0
109,192,74536,1,0,0:0:0:0:0
329,192,74629,1,0,0:0:0:0:0
475,192,74629,1,0,0:0:0:0:0
329,192,74721,1,0,0:0:0:0:0
475,192,74721,1,0,0:0:0:0:0
182,192,74814,1,0,0:0:0:0:0
36,192,74814,1,0,0:0:0:0:0
182,192,74906,1,0,0:0:0:0:0
36,192,74906,1,0,0:0:0:0:0
182,192,74999,1,0,0:0:0:0:0
36,192,74999,1,0,0:0:0:0:0
182,192,75092,1,0,0:0:0:0:0
36,192,75092,1,0,0:0:0:0:0
475,192,75184,1,0,0:0:0:0:0
402,192,75184,1,0,0:0:0:0:0
475,192,75277,1,0,0:0:0:0:0
402,192,75277,1,0,0:0:0:0:0
475,192,75369,1,0,0:0:0:0:0
402,192,75369,1,0,0:0:0:0:0
475,192,75462,1,0,0:0:0:0:0
402,192,75462,1,0,0:0:0:0:0
109,192,75554,1,0,0:0:0:0:0
36,192,75554,1,0,0:0:0:0:0
109,192,75647,1,0,0:0:0:0:0
36,192,75647,1,0,0:0:0:0:0
329,192,75740,1,0,0:0:0:0:0
256,192,75740,1,0,0:0:0:0:0
329,192,75832,1,0,0:0:0:0:0
256,192,75832,1,0,0:0:0:0:0
329,192,75925,1,0,0:0:0:0:0
256,192,75925,1,0,0:0:0:0:0
329,192,76017,1,0,0:0:0:0:0
256,192,76017,1,0,0:0:0:0:0
36,192,76110,1,0,0:0:0:0:0
182,192,76110,1,0,0:0:0:0:0
182,192,76203,1,0,0:0:0:0:0
36,192,76203,1,0,0:0:0:0:0
329,192,76295,1,0,0:0:0:0:0
475,192,76295,1,0,0:0:0:0:0
475,192,76388,1,0,0:0:0:0:0
329,192,76388,1,0,0:0:0:0:0
329,192,76480,1,0,0:0:0:0:0
475,192,76480,1,0,0:0:0:0:0
329,192,76573,1,0,0:0:0:0:0
475,192,76573,1,0,0:0:0:0:0
109,192,76666,1,0,0:0:0:0:0
182,192,76666,1,0,0:0:0:0:0
182,192,76758,1,0,0:0:0:0:0
109,192,76758,1,0,0:0:0:0:0
182,192,76851,1,0,0:0:0:0:0
109,192,76851,1,0,0:0:0:0:0
182,192,76943,1,0,0:0:0:0:0
109,192,76943,1,0,0:0:0:0:0
402,192,77036,1,0,0:0:0:0:0
475,192,77036,1,0,0:0:0:0:0
475,192,77129,1,0,0:0:0:0:0
402,192,77129,1,0,0:0:0:0:0
36,192,77221,1,0,0:0:0:0:0
109,192,77221,1,0,0:0:0:0:0
109,192,77314,1,0,0:0:0:0:0
36,192,77314,1,0,0:0:0:0:0
182,192,77592,1,0,0:0:0:0:
109,192,77592,1,0,0:0:0:0:
109,192,77684,1,0,0:0:0:0:
182,192,77684,1,0,0:0:0:0:
256,192,77777,1,0,0:0:0:0:
329,192,77777,1,0,0:0:0:0:
256,192,77869,1,0,0:0:0:0:
329,192,77869,1,0,0:0:0:0:
36,192,77962,1,0,0:0:0:0:
109,192,77962,1,0,0:0:0:0:
36,192,78054,1,0,0:0:0:0:
109,192,78054,1,0,0:0:0:0:
329,192,78147,1,0,0:0:0:0:
402,192,78147,1,0,0:0:0:0:
475,192,78147,1,0,0:0:0:0:
329,192,78240,1,0,0:0:0:0:
402,192,78240,1,0,0:0:0:0:
475,192,78240,1,0,0:0:0:0:
182,192,78332,1,0,0:0:0:0:
36,192,78332,1,0,0:0:0:0:
182,192,78425,1,0,0:0:0:0:
36,192,78425,1,0,0:0:0:0:
402,192,78517,1,0,0:0:0:0:0
329,192,78517,1,0,0:0:0:0:
402,192,78610,1,0,0:0:0:0:0
329,192,78610,1,0,0:0:0:0:
109,192,78703,1,0,0:0:0:0:
182,192,78703,1,0,0:0:0:0:
109,192,78795,1,0,0:0:0:0:
182,192,78795,1,0,0:0:0:0:
256,192,78888,1,0,0:0:0:0:
475,192,78888,1,0,0:0:0:0:
36,192,79073,1,0,0:0:0:0:0
109,192,79073,1,0,0:0:0:0:0
182,192,79073,1,0,0:0:0:0:0
256,192,79073,1,0,0:0:0:0:0
329,192,79073,1,0,0:0:0:0:0
475,192,79073,1,0,0:0:0:0:0
402,192,79073,1,0,0:0:0:0:0
475,192,79258,1,0,0:0:0:0:0
402,192,79258,1,0,0:0:0:0:0
329,192,79258,1,0,0:0:0:0:0
256,192,79258,1,0,0:0:0:0:0
182,192,79258,1,0,0:0:0:0:0
109,192,79258,1,0,0:0:0:0:0
36,192,79258,1,0,0:0:0:0:0
36,192,79443,1,0,0:0:0:0:0
109,192,79443,1,0,0:0:0:0:0
182,192,79443,1,0,0:0:0:0:0
256,192,79443,1,0,0:0:0:0:0
329,192,79443,1,0,0:0:0:0:0
402,192,79443,1,0,0:0:0:0:0
475,192,79443,1,0,0:0:0:0:0
36,192,79629,1,0,0:0:0:0:0
109,192,79629,1,0,0:0:0:0:0
182,192,79629,1,0,0:0:0:0:0
256,192,79629,1,0,0:0:0:0:0
329,192,79629,1,0,0:0:0:0:0
402,192,79629,1,0,0:0:0:0:0
475,192,79629,1,0,0:0:0:0:0
402,192,79721,1,0,0:0:0:0:0
475,192,79721,1,0,0:0:0:0:0
402,192,79814,1,0,0:0:0:0:0
475,192,79814,1,0,0:0:0:0:0
402,192,79906,1,0,0:0:0:0:0
475,192,79906,1,0,0:0:0:0:0
182,192,79999,1,0,0:0:0:0:0
109,192,79999,1,0,0:0:0:0:0
109,192,80092,1,0,0:0:0:0:0
182,192,80092,1,0,0:0:0:0:0
329,192,80184,1,0,0:0:0:0:0
402,192,80184,1,0,0:0:0:0:0
329,192,80277,1,0,0:0:0:0:0
402,192,80277,1,0,0:0:0:0:0
329,192,80369,1,0,0:0:0:0:0
402,192,80369,1,0,0:0:0:0:0
329,192,80462,1,0,0:0:0:0:0
402,192,80462,1,0,0:0:0:0:0
182,192,80554,1,0,0:0:0:0:0
36,192,80554,1,0,0:0:0:0:0
182,192,80647,1,0,0:0:0:0:0
36,192,80647,1,0,0:0:0:0:0
329,192,80740,1,0,0:0:0:0:0
475,192,80740,1,0,0:0:0:0:0
329,192,80832,1,0,0:0:0:0:0
475,192,80832,1,0,0:0:0:0:0
329,192,80925,1,0,0:0:0:0:0
475,192,80925,1,0,0:0:0:0:0
329,192,81017,1,0,0:0:0:0:0
475,192,81017,1,0,0:0:0:0:0
36,192,81110,1,0,0:0:0:0:0
109,192,81110,1,0,0:0:0:0:0
36,192,81203,1,0,0:0:0:0:0
109,192,81203,1,0,0:0:0:0:0
36,192,81295,1,0,0:0:0:0:0
109,192,81295,1,0,0:0:0:0:0
36,192,81388,1,0,0:0:0:0:0
109,192,81388,1,0,0:0:0:0:0
402,192,81480,1,0,0:0:0:0:0
475,192,81480,1,0,0:0:0:0:0
402,192,81573,1,0,0:0:0:0:0
475,192,81573,1,0,0:0:0:0:0
182,192,81666,1,0,0:0:0:0:0
256,192,81666,1,0,0:0:0:0:0
182,192,81758,1,0,0:0:0:0:0
256,192,81758,1,0,0:0:0:0:0
182,192,81851,1,0,0:0:0:0:0
256,192,81851,1,0,0:0:0:0:0
182,192,81943,1,0,0:0:0:0:0
256,192,81943,1,0,0:0:0:0:0
475,192,82036,1,0,0:0:0:0:0
329,192,82036,1,0,0:0:0:0:0
329,192,82129,1,0,0:0:0:0:0
475,192,82129,1,0,0:0:0:0:0
182,192,82221,1,0,0:0:0:0:0
36,192,82221,1,0,0:0:0:0:0
36,192,82314,1,0,0:0:0:0:0
182,192,82314,1,0,0:0:0:0:0
182,192,82406,1,0,0:0:0:0:0
36,192,82406,1,0,0:0:0:0:0
182,192,82499,1,0,0:0:0:0:0
36,192,82499,1,0,0:0:0:0:0
402,192,82592,1,0,0:0:0:0:0
329,192,82592,1,0,0:0:0:0:0
329,192,82684,1,0,0:0:0:0:0
402,192,82684,1,0,0:0:0:0:0
329,192,82777,1,0,0:0:0:0:0
402,192,82777,1,0,0:0:0:0:0
329,192,82869,1,0,0:0:0:0:0
402,192,82869,1,0,0:0:0:0:0
109,192,82962,1,0,0:0:0:0:0
36,192,82962,1,0,0:0:0:0:0
36,192,83054,1,0,0:0:0:0:0
109,192,83054,1,0,0:0:0:0:0
475,192,83147,1,0,0:0:0:0:0
402,192,83147,1,0,0:0:0:0:0
402,192,83240,1,0,0:0:0:0:0
475,192,83240,1,0,0:0:0:0:0
182,192,83517,1,0,0:0:0:0:
109,192,83517,1,0,0:0:0:0:
182,192,83610,1,0,0:0:0:0:
109,192,83610,1,0,0:0:0:0:
256,192,83703,1,0,0:0:0:0:
329,192,83703,1,0,0:0:0:0:
329,192,83795,1,0,0:0:0:0:
256,192,83795,1,0,0:0:0:0:
36,192,83888,1,0,0:0:0:0:
109,192,83888,1,0,0:0:0:0:
36,192,83980,1,0,0:0:0:0:
109,192,83980,1,0,0:0:0:0:
329,192,84073,1,0,0:0:0:0:
475,192,84073,1,0,0:0:0:0:
402,192,84073,1,0,0:0:0:0:
329,192,84166,1,0,0:0:0:0:
475,192,84166,1,0,0:0:0:0:
402,192,84166,1,0,0:0:0:0:
36,192,84258,1,0,0:0:0:0:
182,192,84258,1,0,0:0:0:0:
182,192,84351,1,0,0:0:0:0:
36,192,84351,1,0,0:0:0:0:
329,192,84443,1,0,0:0:0:0:
402,192,84443,1,0,0:0:0:0:0
329,192,84536,1,0,0:0:0:0:
402,192,84536,1,0,0:0:0:0:0
182,192,84629,1,0,0:0:0:0:
109,192,84629,1,0,0:0:0:0:
109,192,84721,1,0,0:0:0:0:
182,192,84721,1,0,0:0:0:0:
475,192,84814,1,0,0:0:0:0:
256,192,84814,1,0,0:0:0:0:
36,192,84999,1,0,0:0:0:0:0
109,192,84999,1,0,0:0:0:0:0
182,192,84999,1,0,0:0:0:0:0
256,192,84999,1,0,0:0:0:0:0
402,192,84999,1,0,0:0:0:0:0
475,192,84999,1,0,0:0:0:0:0
329,192,84999,1,0,0:0:0:0:0
475,192,85184,1,0,0:0:0:0:0
402,192,85184,1,0,0:0:0:0:0
329,192,85184,1,0,0:0:0:0:0
256,192,85184,1,0,0:0:0:0:0
182,192,85184,1,0,0:0:0:0:0
109,192,85184,1,0,0:0:0:0:0
36,192,85184,1,0,0:0:0:0:0
36,192,85369,1,0,0:0:0:0:0
109,192,85369,1,0,0:0:0:0:0
182,192,85369,1,0,0:0:0:0:0
256,192,85369,1,0,0:0:0:0:0
329,192,85369,1,0,0:0:0:0:0
402,192,85369,1,0,0:0:0:0:0
475,192,85369,1,0,0:0:0:0:0
36,192,85554,1,0,0:0:0:0:0
182,192,85554,1,0,0:0:0:0:0
256,192,85554,1,0,0:0:0:0:0
109,192,85554,1,0,0:0:0:0:0
329,192,85554,1,0,0:0:0:0:0
475,192,85554,1,0,0:0:0:0:0
402,192,85554,1,0,0:0:0:0:0
36,192,85647,1,0,0:0:0:0:0
109,192,85647,1,0,0:0:0:0:0
36,192,85740,1,0,0:0:0:0:0
109,192,85740,1,0,0:0:0:0:0
36,192,85832,1,0,0:0:0:0:0
109,192,85832,1,0,0:0:0:0:0
402,192,85925,1,0,0:0:0:0:0
329,192,85925,1,0,0:0:0:0:0
329,192,86017,1,0,0:0:0:0:0
402,192,86017,1,0,0:0:0:0:0
109,192,86110,1,0,0:0:0:0:0
182,192,86110,1,0,0:0:0:0:0
109,192,86203,1,0,0:0:0:0:0
182,192,86203,1,0,0:0:0:0:0
109,192,86295,1,0,0:0:0:0:0
182,192,86295,1,0,0:0:0:0:0
109,192,86388,1,0,0:0:0:0:0
182,192,86388,1,0,0:0:0:0:0
475,192,86480,1,0,0:0:0:0:0
329,192,86480,1,0,0:0:0:0:0
475,192,86573,1,0,0:0:0:0:0
329,192,86573,1,0,0:0:0:0:0
36,192,86666,1,0,0:0:0:0:0
182,192,86666,1,0,0:0:0:0:0
36,192,86758,1,0,0:0:0:0:0
182,192,86758,1,0,0:0:0:0:0
36,192,86851,1,0,0:0:0:0:0
182,192,86851,1,0,0:0:0:0:0
36,192,86943,1,0,0:0:0:0:0
182,192,86943,1,0,0:0:0:0:0
402,192,87036,1,0,0:0:0:0:0
475,192,87036,1,0,0:0:0:0:0
402,192,87129,1,0,0:0:0:0:0
475,192,87129,1,0,0:0:0:0:0
402,192,87221,1,0,0:0:0:0:0
475,192,87221,1,0,0:0:0:0:0
402,192,87314,1,0,0:0:0:0:0
475,192,87314,1,0,0:0:0:0:0
36,192,87406,1,0,0:0:0:0:0
109,192,87406,1,0,0:0:0:0:0
36,192,87499,1,0,0:0:0:0:0
109,192,87499,1,0,0:0:0:0:0
256,192,87592,1,0,0:0:0:0:0
329,192,87592,1,0,0:0:0:0:0
256,192,87684,1,0,0:0:0:0:0
329,192,87684,1,0,0:0:0:0:0
256,192,87777,1,0,0:0:0:0:0
329,192,87777,1,0,0:0:0:0:0
256,192,87869,1,0,0:0:0:0:0
329,192,87869,1,0,0:0:0:0:0
182,192,87962,1,0,0:0:0:0:0
36,192,87962,1,0,0:0:0:0:0
36,192,88054,1,0,0:0:0:0:0
182,192,88054,1,0,0:0:0:0:0
475,192,88147,1,0,0:0:0:0:0
329,192,88147,1,0,0:0:0:0:0
329,192,88240,1,0,0:0:0:0:0
475,192,88240,1,0,0:0:0:0:0
475,192,88332,1,0,0:0:0:0:0
329,192,88332,1,0,0:0:0:0:0
475,192,88425,1,0,0:0:0:0:0
329,192,88425,1,0,0:0:0:0:0
182,192,88517,1,0,0:0:0:0:0
109,192,88517,1,0,0:0:0:0:0
109,192,88610,1,0,0:0:0:0:0
182,192,88610,1,0,0:0:0:0:0
109,192,88703,1,0,0:0:0:0:0
182,192,88703,1,0,0:0:0:0:0
109,192,88795,1,0,0:0:0:0:0
182,192,88795,1,0,0:0:0:0:0
475,192,88888,1,0,0:0:0:0:0
402,192,88888,1,0,0:0:0:0:0
402,192,88980,1,0,0:0:0:0:0
475,192,88980,1,0,0:0:0:0:0
109,192,89073,1,0,0:0:0:0:0
36,192,89073,1,0,0:0:0:0:0
36,192,89166,1,0,0:0:0:0:0
109,192,89166,1,0,0:0:0:0:0
402,192,89443,1,0,0:0:0:0:
329,192,89443,1,0,0:0:0:0:
402,192,89536,1,0,0:0:0:0:
329,192,89536,1,0,0:0:0:0:
182,192,89629,1,0,0:0:0:0:
256,192,89629,1,0,0:0:0:0:
256,192,89721,1,0,0:0:0:0:
182,192,89721,1,0,0:0:0:0:
402,192,89814,1,0,0:0:0:0:
475,192,89814,1,0,0:0:0:0:
402,192,89906,1,0,0:0:0:0:
475,192,89906,1,0,0:0:0:0:
109,192,89999,1,0,0:0:0:0:
36,192,89999,1,0,0:0:0:0:
182,192,89999,1,0,0:0:0:0:
109,192,90092,1,0,0:0:0:0:
36,192,90092,1,0,0:0:0:0:
182,192,90092,1,0,0:0:0:0:
329,192,90184,1,0,0:0:0:0:
475,192,90184,1,0,0:0:0:0:
475,192,90277,1,0,0:0:0:0:
329,192,90277,1,0,0:0:0:0:
109,192,90369,1,0,0:0:0:0:0
182,192,90369,1,0,0:0:0:0:
109,192,90462,1,0,0:0:0:0:0
182,192,90462,1,0,0:0:0:0:
402,192,90554,1,0,0:0:0:0:
329,192,90554,1,0,0:0:0:0:
329,192,90647,1,0,0:0:0:0:
402,192,90647,1,0,0:0:0:0:
256,192,90740,1,0,0:0:0:0:
36,192,90740,1,0,0:0:0:0:
36,192,90925,1,0,0:0:0:0:0
109,192,90925,1,0,0:0:0:0:0
182,192,90925,1,0,0:0:0:0:0
256,192,90925,1,0,0:0:0:0:0
402,192,90925,1,0,0:0:0:0:0
475,192,90925,1,0,0:0:0:0:0
329,192,90925,1,0,0:0:0:0:0
475,192,91110,1,0,0:0:0:0:0
402,192,91110,1,0,0:0:0:0:0
329,192,91110,1,0,0:0:0:0:0
256,192,91110,1,0,0:0:0:0:0
109,192,91110,1,0,0:0:0:0:0
36,192,91110,1,0,0:0:0:0:0
182,192,91110,1,0,0:0:0:0:0
475,192,91295,1,0,0:0:0:0:0
402,192,91295,1,0,0:0:0:0:0
329,192,91295,1,0,0:0:0:0:0
256,192,91295,1,0,0:0:0:0:0
36,192,91295,1,0,0:0:0:0:0
109,192,91295,1,0,0:0:0:0:0
182,192,91295,1,0,0:0:0:0:0
36,192,91480,1,0,0:0:0:0:0
109,192,91480,1,0,0:0:0:0:0
182,192,91480,1,0,0:0:0:0:0
256,192,91480,1,0,0:0:0:0:0
329,192,91480,1,0,0:0:0:0:0
475,192,91480,1,0,0:0:0:0:0
402,192,91480,1,0,0:0:0:0:0
402,192,91573,1,0,0:0:0:0:0
475,192,91573,1,0,0:0:0:0:0
402,192,91666,1,0,0:0:0:0:0
475,192,91666,1,0,0:0:0:0:0
402,192,91758,1,0,0:0:0:0:0
475,192,91758,1,0,0:0:0:0:0
182,192,91851,1,0,0:0:0:0:0
109,192,91851,1,0,0:0:0:0:0
109,192,91943,1,0,0:0:0:0:0
182,192,91943,1,0,0:0:0:0:0
329,192,92036,1,0,0:0:0:0:0
402,192,92036,1,0,0:0:0:0:0
329,192,92129,1,0,0:0:0:0:0
402,192,92129,1,0,0:0:0:0:0
329,192,92221,1,0,0:0:0:0:0
402,192,92221,1,0,0:0:0:0:0
329,192,92314,1,0,0:0:0:0:0
402,192,92314,1,0,0:0:0:0:0
182,192,92406,1,0,0:0:0:0:0
36,192,92406,1,0,0:0:0:0:0
182,192,92499,1,0,0:0:0:0:0
36,192,92499,1,0,0:0:0:0:0
329,192,92592,1,0,0:0:0:0:0
475,192,92592,1,0,0:0:0:0:0
329,192,92684,1,0,0:0:0:0:0
475,192,92684,1,0,0:0:0:0:0
329,192,92777,1,0,0:0:0:0:0
475,192,92777,1,0,0:0:0:0:0
329,192,92869,1,0,0:0:0:0:0
475,192,92869,1,0,0:0:0:0:0
36,192,92962,1,0,0:0:0:0:0
109,192,92962,1,0,0:0:0:0:0
36,192,93054,1,0,0:0:0:0:0
109,192,93054,1,0,0:0:0:0:0
36,192,93147,1,0,0:0:0:0:0
109,192,93147,1,0,0:0:0:0:0
36,192,93240,1,0,0:0:0:0:0
109,192,93240,1,0,0:0:0:0:0
402,192,93332,1,0,0:0:0:0:0
475,192,93332,1,0,0:0:0:0:0
402,192,93425,1,0,0:0:0:0:0
475,192,93425,1,0,0:0:0:0:0
182,192,93517,1,0,0:0:0:0:0
256,192,93517,1,0,0:0:0:0:0
182,192,93610,1,0,0:0:0:0:0
256,192,93610,1,0,0:0:0:0:0
182,192,93703,1,0,0:0:0:0:0
256,192,93703,1,0,0:0:0:0:0
182,192,93795,1,0,0:0:0:0:0
256,192,93795,1,0,0:0:0:0:0
475,192,93888,1,0,0:0:0:0:0
329,192,93888,1,0,0:0:0:0:0
329,192,93980,1,0,0:0:0:0:0
475,192,93980,1,0,0:0:0:0:0
182,192,94073,1,0,0:0:0:0:0
36,192,94073,1,0,0:0:0:0:0
36,192,94166,1,0,0:0:0:0:0
182,192,94166,1,0,0:0:0:0:0
182,192,94258,1,0,0:0:0:0:0
36,192,94258,1,0,0:0:0:0:0
182,192,94351,1,0,0:0:0:0:0
36,192,94351,1,0,0:0:0:0:0
402,192,94443,1,0,0:0:0:0:0
329,192,94443,1,0,0:0:0:0:0
329,192,94536,1,0,0:0:0:0:0
402,192,94536,1,0,0:0:0:0:0
329,192,94629,1,0,0:0:0:0:0
402,192,94629,1,0,0:0:0:0:0
329,192,94721,1,0,0:0:0:0:0
402,192,94721,1,0,0:0:0:0:0
109,192,94814,1,0,0:0:0:0:0
36,192,94814,1,0,0:0:0:0:0
36,192,94906,1,0,0:0:0:0:0
109,192,94906,1,0,0:0:0:0:0
475,192,94999,1,0,0:0:0:0:0
402,192,94999,1,0,0:0:0:0:0
402,192,95092,1,0,0:0:0:0:0
475,192,95092,1,0,0:0:0:0:0
182,192,95369,1,0,0:0:0:0:
109,192,95369,1,0,0:0:0:0:
182,192,95462,1,0,0:0:0:0:
109,192,95462,1,0,0:0:0:0:
256,192,95554,1,0,0:0:0:0:
329,192,95554,1,0,0:0:0:0:
329,192,95647,1,0,0:0:0:0:
256,192,95647,1,0,0:0:0:0:
36,192,95740,1,0,0:0:0:0:
109,192,95740,1,0,0:0:0:0:
36,192,95832,1,0,0:0:0:0:
109,192,95832,1,0,0:0:0:0:
329,192,95925,1,0,0:0:0:0:
475,192,95925,1,0,0:0:0:0:
402,192,95925,1,0,0:0:0:0:
329,192,96017,1,0,0:0:0:0:
475,192,96017,1,0,0:0:0:0:
402,192,96017,1,0,0:0:0:0:
36,192,96110,1,0,0:0:0:0:
182,192,96110,1,0,0:0:0:0:
182,192,96203,1,0,0:0:0:0:
36,192,96203,1,0,0:0:0:0:
329,192,96295,1,0,0:0:0:0:
402,192,96295,1,0,0:0:0:0:0
329,192,96388,1,0,0:0:0:0:
402,192,96388,1,0,0:0:0:0:0
182,192,96480,1,0,0:0:0:0:
109,192,96480,1,0,0:0:0:0:
109,192,96573,1,0,0:0:0:0:
182,192,96573,1,0,0:0:0:0:
475,192,96666,1,0,0:0:0:0:
256,192,96666,1,0,0:0:0:0:
36,192,96851,1,0,0:0:0:0:0
109,192,96851,1,0,0:0:0:0:0
182,192,96851,1,0,0:0:0:0:0
329,192,96851,1,0,0:0:0:0:0
402,192,96851,1,0,0:0:0:0:0
256,192,96851,1,0,0:0:0:0:0
475,192,96851,1,0,0:0:0:0:0
475,192,97036,1,0,0:0:0:0:0
402,192,97036,1,0,0:0:0:0:0
329,192,97036,1,0,0:0:0:0:0
256,192,97036,1,0,0:0:0:0:0
182,192,97036,1,0,0:0:0:0:0
109,192,97036,1,0,0:0:0:0:0
36,192,97036,1,0,0:0:0:0:0
36,192,97221,1,0,0:0:0:0:0
109,192,97221,1,0,0:0:0:0:0
182,192,97221,1,0,0:0:0:0:0
256,192,97221,1,0,0:0:0:0:0
329,192,97221,1,0,0:0:0:0:0
402,192,97221,1,0,0:0:0:0:0
475,192,97221,1,0,0:0:0:0:0
475,192,97406,1,0,0:0:0:0:0
329,192,97406,1,0,0:0:0:0:0
36,192,97406,1,0,0:0:0:0:0
182,192,97406,1,0,0:0:0:0:0
182,192,97499,1,0,0:0:0:0:0
402,192,97592,1,0,0:0:0:0:0
402,192,97684,1,0,0:0:0:0:0
109,192,97777,1,0,0:0:0:0:0
109,192,97869,1,0,0:0:0:0:0
329,192,97962,1,0,0:0:0:0:0
329,192,98054,1,0,0:0:0:0:0
182,192,98147,1,0,0:0:0:0:0
182,192,98240,1,0,0:0:0:0:0
329,192,98332,1,0,0:0:0:0:0
329,192,98425,1,0,0:0:0:0:0
109,192,98517,1,0,0:0:0:0:0
109,192,98610,1,0,0:0:0:0:0
329,192,98703,1,0,0:0:0:0:0
36,192,98888,1,0,0:0:0:0:0
256,192,98888,1,0,0:0:0:0:0
182,192,98888,1,0,0:0:0:0:0
109,192,98888,1,0,0:0:0:0:0
402,192,98888,1,0,0:0:0:0:0
475,192,98888,1,0,0:0:0:0:0
329,192,98888,1,0,0:0:0:0:0
402,192,99073,1,0,0:0:0:0:0
402,192,99166,1,0,0:0:0:0:0
36,192,99258,1,0,0:0:0:0:0
36,192,99351,1,0,0:0:0:0:0
402,192,99443,1,0,0:0:0:0:0
402,192,99536,1,0,0:0:0:0:0
182,192,99629,1,0,0:0:0:0:0
182,192,99721,1,0,0:0:0:0:0
402,192,99814,1,0,0:0:0:0:0
402,192,99906,1,0,0:0:0:0:0
109,192,99999,1,0,0:0:0:0:0
109,192,100092,1,0,0:0:0:0:0
402,192,100184,1,0,0:0:0:0:0
36,192,100369,1,0,0:0:0:0:0
109,192,100369,1,0,0:0:0:0:0
182,192,100369,1,0,0:0:0:0:0
256,192,100369,1,0,0:0:0:0:0
329,192,100369,1,0,0:0:0:0:0
475,192,100369,1,0,0:0:0:0:0
402,192,100369,1,0,0:0:0:0:0
475,192,100462,1,0,0:0:0:0:0
182,192,100554,1,0,0:0:0:0:0
182,192,100647,1,0,0:0:0:0:0
475,192,100740,1,0,0:0:0:0:0
475,192,100832,1,0,0:0:0:0:0
109,192,100925,1,0,0:0:0:0:0
109,192,101017,1,0,0:0:0:0:0
475,192,101110,1,0,0:0:0:0:0
475,192,101203,1,0,0:0:0:0:0
36,192,101295,1,0,0:0:0:0:0
36,192,101388,1,0,0:0:0:0:0
475,192,101480,1,0,0:0:0:0:0
475,192,101573,1,0,0:0:0:0:0
109,192,101666,1,0,0:0:0:0:0
36,192,101851,1,0,0:0:0:0:0
182,192,101851,1,0,0:0:0:0:0
256,192,101851,1,0,0:0:0:0:0
402,192,101851,1,0,0:0:0:0:0
475,192,101851,1,0,0:0:0:0:0
329,192,101851,1,0,0:0:0:0:0
109,192,101851,1,0,0:0:0:0:0
402,192,101943,1,0,0:0:0:0:0
402,192,102036,1,0,0:0:0:0:0
402,192,102129,1,0,0:0:0:0:0
109,192,102221,1,0,0:0:0:0:0
109,192,102314,1,0,0:0:0:0:0
182,192,102406,1,0,0:0:0:0:0
182,192,102499,1,0,0:0:0:0:0
182,192,102592,1,0,0:0:0:0:0
182,192,102684,1,0,0:0:0:0:0
402,192,102777,1,0,0:0:0:0:0
402,192,102869,1,0,0:0:0:0:0
329,192,102962,1,0,0:0:0:0:0
329,192,103054,1,0,0:0:0:0:0
256,192,103147,1,0,0:0:0:0:0
36,192,103332,1,0,0:0:0:0:0
109,192,103355,1,0,0:0:0:0:0
182,192,103379,1,0,0:0:0:0:0
256,192,103402,1,0,0:0:0:0:0
329,192,103425,1,0,0:0:0:0:0
402,192,103448,1,0,0:0:0:0:0
475,192,103471,1,0,0:0:0:0:0
36,192,103517,1,0,0:0:0:0:0
109,192,103541,1,0,0:0:0:0:0
182,192,103564,1,0,0:0:0:0:0
256,192,103587,1,0,0:0:0:0:0
329,192,103610,1,0,0:0:0:0:0
402,192,103633,1,0,0:0:0:0:0
475,192,103656,1,0,0:0:0:0:0
36,192,103703,1,0,0:0:0:0:0
109,192,103726,1,0,0:0:0:0:0
182,192,103749,1,0,0:0:0:0:0
256,192,103772,1,0,0:0:0:0:0
329,192,103795,1,0,0:0:0:0:0
402,192,103818,1,0,0:0:0:0:0
475,192,103842,1,0,0:0:0:0:0
36,192,103888,1,0,0:0:0:0:0
109,192,103911,1,0,0:0:0:0:0
182,192,103934,1,0,0:0:0:0:0
256,192,103957,1,0,0:0:0:0:0
329,192,103980,1,0,0:0:0:0:0
402,192,104004,1,0,0:0:0:0:0
475,192,104027,1,0,0:0:0:0:0
36,192,104073,1,0,0:0:0:0:0
109,192,104096,1,0,0:0:0:0:0
182,192,104119,1,0,0:0:0:0:0
256,192,104142,1,0,0:0:0:0:0
329,192,104166,1,0,0:0:0:0:0
402,192,104189,1,0,0:0:0:0:0
475,192,104212,1,0,0:0:0:0:0
36,192,104258,1,0,0:0:0:0:0
109,192,104281,1,0,0:0:0:0:0
182,192,104304,1,0,0:0:0:0:0
256,192,104328,1,0,0:0:0:0:0
329,192,104351,1,0,0:0:0:0:0
402,192,104374,1,0,0:0:0:0:0
475,192,104397,1,0,0:0:0:0:0
36,192,104814,1,0,0:0:0:0:0
109,192,104814,1,0,0:0:0:0:0
182,192,104814,1,0,0:0:0:0:0
256,192,104814,1,0,0:0:0:0:0
329,192,104814,1,0,0:0:0:0:0
402,192,104814,1,0,0:0:0:0:0
475,192,104814,1,0,0:0:0:0:0
182,192,104906,1,0,0:0:0:0:0
402,192,104999,1,0,0:0:0:0:0
402,192,105092,1,0,0:0:0:0:0
182,192,105184,1,0,0:0:0:0:0
182,192,105277,1,0,0:0:0:0:0
256,192,105369,1,0,0:0:0:0:0
256,192,105462,1,0,0:0:0:0:0
182,192,105554,1,0,0:0:0:0:0
182,192,105647,1,0,0:0:0:0:0
402,192,105740,1,0,0:0:0:0:0
402,192,105832,1,0,0:0:0:0:0
182,192,105925,1,0,0:0:0:0:0
182,192,106017,1,0,0:0:0:0:0
329,192,106110,1,0,0:0:0:0:0
256,192,106295,1,0,0:0:0:0:0
182,192,106295,1,0,0:0:0:0:0
109,192,106295,1,0,0:0:0:0:0
36,192,106295,1,0,0:0:0:0:0
402,192,106295,1,0,0:0:0:0:0
475,192,106295,1,0,0:0:0:0:0
329,192,106295,1,0,0:0:0:0:0
109,192,106388,1,0,0:0:0:0:0
182,192,106388,1,0,0:0:0:0:0
329,192,106480,1,0,0:0:0:0:0
402,192,106480,1,0,0:0:0:0:0
402,192,106573,1,0,0:0:0:0:0
329,192,106573,1,0,0:0:0:0:0
182,192,106666,1,0,0:0:0:0:0
109,192,106666,1,0,0:0:0:0:0
182,192,106758,1,0,0:0:0:0:0
109,192,106758,1,0,0:0:0:0:0
329,192,106851,1,0,0:0:0:0:0
475,192,106851,1,0,0:0:0:0:0
329,192,106943,1,0,0:0:0:0:0
475,192,106943,1,0,0:0:0:0:0
182,192,107036,1,0,0:0:0:0:0
109,192,107036,1,0,0:0:0:0:0
182,192,107129,1,0,0:0:0:0:0
109,192,107129,1,0,0:0:0:0:0
256,192,107221,1,0,0:0:0:0:0
402,192,107221,1,0,0:0:0:0:0
256,192,107314,1,0,0:0:0:0:0
402,192,107314,1,0,0:0:0:0:0
182,192,107406,1,0,0:0:0:0:0
109,192,107406,1,0,0:0:0:0:0
182,192,107499,1,0,0:0:0:0:0
109,192,107499,1,0,0:0:0:0:0
402,192,107592,1,0,0:0:0:0:0
475,192,107592,1,0,0:0:0:0:0
475,192,107777,1,0,0:0:0:0:0
402,192,107777,1,0,0:0:0:0:0
329,192,107777,1,0,0:0:0:0:0
256,192,107777,1,0,0:0:0:0:0
182,192,107777,1,0,0:0:0:0:0
36,192,107777,1,0,0:0:0:0:0
109,192,107777,1,0,0:0:0:0:0
182,192,107869,1,0,0:0:0:0:0
329,192,107916,1,0,0:0:0:0:0
182,192,107962,1,0,0:0:0:0:0
402,192,108054,1,0,0:0:0:0:0
109,192,108101,1,0,0:0:0:0:0
402,192,108147,1,0,0:0:0:0:0
36,192,108240,1,0,0:0:0:0:0
475,192,108286,1,0,0:0:0:0:0
36,192,108332,1,0,0:0:0:0:0
402,192,108425,1,0,0:0:0:0:0
109,192,108471,1,0,0:0:0:0:0
402,192,108564,1,0,0:0:0:0:0
182,192,108610,1,0,0:0:0:0:0
329,192,108656,1,0,0:0:0:0:0
182,192,108703,1,0,0:0:0:0:0
329,192,108749,1,0,0:0:0:0:0
182,192,108795,1,0,0:0:0:0:0
329,192,108842,1,0,0:0:0:0:0
182,192,108888,1,0,0:0:0:0:0
329,192,108934,1,0,0:0:0:0:0
182,192,108980,1,0,0:0:0:0:0
329,192,109027,1,0,0:0:0:0:0
182,192,109073,1,0,0:0:0:0:0
329,192,109119,1,0,0:0:0:0:0
109,192,109258,1,0,0:0:0:0:0
256,192,109258,1,0,0:0:0:0:0
36,192,109258,1,0,0:0:0:0:0
329,192,109258,1,0,0:0:0:0:0
402,192,109258,1,0,0:0:0:0:0
475,192,109258,1,0,0:0:0:0:0
182,192,109258,1,0,0:0:0:0:0
109,192,109443,1,0,0:0:0:0:0
256,192,109443,1,0,0:0:0:0:0
182,192,109629,1,0,0:0:0:0:0
36,192,109629,1,0,0:0:0:0:0
329,192,109629,1,0,0:0:0:0:0
109,192,109629,1,0,0:0:0:0:
256,192,109629,1,0,0:0:0:0:
402,192,109629,1,0,0:0:0:0:
475,192,109629,1,0,0:0:0:0:
109,192,109814,1,0,0:0:0:0:0
256,192,109814,1,0,0:0:0:0:0
182,192,109999,1,0,0:0:0:0:0
329,192,109999,1,0,0:0:0:0:0
475,192,109999,1,0,0:0:0:0:0
256,192,110184,1,0,0:0:0:0:0
402,192,110184,1,0,0:0:0:0:0
475,192,110369,1,0,0:0:0:0:0
329,192,110369,1,0,0:0:0:0:0
36,192,110369,1,0,0:0:0:0:0
109,192,110369,1,0,0:0:0:0:
182,192,110369,1,0,0:0:0:0:
256,192,110369,1,0,0:0:0:0:
402,192,110369,1,0,0:0:0:0:
109,192,110554,1,0,0:0:0:0:0
402,192,110554,1,0,0:0:0:0:0
182,192,110740,1,0,0:0:0:0:0
36,192,110740,1,0,0:0:0:0:0
475,192,110740,1,0,0:0:0:0:0
109,192,110925,1,0,0:0:0:0:0
402,192,110925,1,0,0:0:0:0:0
329,192,111110,1,0,0:0:0:0:0
475,192,111110,1,0,0:0:0:0:0
36,192,111110,1,0,0:0:0:0:0
256,192,111110,1,0,0:0:0:0:
182,192,111110,1,0,0:0:0:0:
109,192,111110,1,0,0:0:0:0:
402,192,111110,1,0,0:0:0:0:
256,192,111295,1,0,0:0:0:0:0
402,192,111295,1,0,0:0:0:0:0
182,192,111480,1,0,0:0:0:0:0
329,192,111480,1,0,0:0:0:0:0
475,192,111480,1,0,0:0:0:0:0
256,192,111666,1,0,0:0:0:0:0
109,192,111666,1,0,0:0:0:0:0
402,192,111666,1,0,0:0:0:0:0
36,192,111851,1,0,0:0:0:0:0
475,192,111851,1,0,0:0:0:0:0
182,192,111851,1,0,0:0:0:0:
109,192,111851,1,0,0:0:0:0:
329,192,111851,1,0,0:0:0:0:
256,192,111851,1,0,0:0:0:0:
402,192,111851,1,0,0:0:0:0:
256,192,112036,1,0,0:0:0:0:0
109,192,112036,1,0,0:0:0:0:0
329,192,112221,1,0,0:0:0:0:0
182,192,112221,1,0,0:0:0:0:0
36,192,112221,1,0,0:0:0:0:0
109,192,112406,1,0,0:0:0:0:0
475,192,112406,1,0,0:0:0:0:0
256,192,112406,1,0,0:0:0:0:0
402,192,112592,1,0,0:0:0:0:0
329,192,112592,1,0,0:0:0:0:0
36,192,112592,1,0,0:0:0:0:0
256,192,112592,1,0,0:0:0:0:
109,192,112592,1,0,0:0:0:0:
182,192,112592,1,0,0:0:0:0:
475,192,112592,1,0,0:0:0:0:
109,192,112777,1,0,0:0:0:0:0
475,192,112777,1,0,0:0:0:0:0
182,192,112962,1,0,0:0:0:0:0
256,192,112962,1,0,0:0:0:0:0
402,192,113147,1,0,0:0:0:0:0
36,192,113147,1,0,0:0:0:0:0
109,192,113332,1,0,0:0:0:0:0
329,192,113332,1,0,0:0:0:0:0
475,192,113332,1,0,0:0:0:0:0
402,192,113332,1,0,0:0:0:0:
256,192,113332,1,0,0:0:0:0:
182,192,113332,1,0,0:0:0:0:
36,192,113332,1,0,0:0:0:0:
402,192,113517,1,0,0:0:0:0:0
182,192,113517,1,0,0:0:0:0:0
36,192,113517,1,0,0:0:0:0:0
329,192,113703,1,0,0:0:0:0:0
256,192,113703,1,0,0:0:0:0:0
109,192,113703,1,0,0:0:0:0:0
402,192,113888,1,0,0:0:0:0:0
182,192,113888,1,0,0:0:0:0:0
256,192,114073,1,0,0:0:0:0:0
36,192,114073,1,0,0:0:0:0:
109,192,114073,1,0,0:0:0:0:
182,192,114073,1,0,0:0:0:0:
329,192,114073,1,0,0:0:0:0:
402,192,114073,1,0,0:0:0:0:
475,192,114073,1,0,0:0:0:0:
329,192,114258,1,0,0:0:0:0:0
182,192,114258,1,0,0:0:0:0:0
402,192,114443,1,0,0:0:0:0:0
256,192,114443,1,0,0:0:0:0:0
36,192,114443,1,0,0:0:0:0:0
109,192,114629,1,0,0:0:0:0:0
329,192,114629,1,0,0:0:0:0:0
36,192,114814,1,0,0:0:0:0:
109,192,114814,1,0,0:0:0:0:
182,192,114814,1,0,0:0:0:0:
256,192,114814,1,0,0:0:0:0:
329,192,114814,1,0,0:0:0:0:
402,192,114814,1,0,0:0:0:0:
475,192,114814,1,0,0:0:0:0:
256,192,114999,1,0,0:0:0:0:0
475,192,114999,1,0,0:0:0:0:0
329,192,115184,1,0,0:0:0:0:0
402,192,115184,1,0,0:0:0:0:0
109,192,115184,1,0,0:0:0:0:0
182,192,115369,1,0,0:0:0:0:0
256,192,115369,1,0,0:0:0:0:0
109,192,115554,1,0,0:0:0:0:0
402,192,115554,1,0,0:0:0:0:0
475,192,115554,1,0,0:0:0:0:0
329,192,115554,1,0,0:0:0:0:
256,192,115554,1,0,0:0:0:0:
182,192,115554,1,0,0:0:0:0:
36,192,115554,1,0,0:0:0:0:
329,192,115740,1,0,0:0:0:0:0
182,192,115740,1,0,0:0:0:0:0
256,192,115925,1,0,0:0:0:0:0
109,192,115925,1,0,0:0:0:0:0
475,192,115925,1,0,0:0:0:0:0
182,192,116110,1,0,0:0:0:0:0
402,192,116110,1,0,0:0:0:0:0
36,192,116110,1,0,0:0:0:0:0
329,192,116295,1,0,0:0:0:0:0
475,192,116295,1,0,0:0:0:0:0
36,192,116295,1,0,0:0:0:0:
109,192,116295,1,0,0:0:0:0:
182,192,116295,1,0,0:0:0:0:
256,192,116295,1,0,0:0:0:0:
402,192,116295,1,0,0:0:0:0:
182,192,116480,1,0,0:0:0:0:0
402,192,116480,1,0,0:0:0:0:0
109,192,116666,1,0,0:0:0:0:0
256,192,116666,1,0,0:0:0:0:0
475,192,116666,1,0,0:0:0:0:0
182,192,116851,1,0,0:0:0:0:0
402,192,116851,1,0,0:0:0:0:0
329,192,117036,1,0,0:0:0:0:0
36,192,117036,1,0,0:0:0:0:0
109,192,117036,1,0,0:0:0:0:0
182,192,117036,1,0,0:0:0:0:
256,192,117036,1,0,0:0:0:0:
402,192,117036,1,0,0:0:0:0:
475,192,117036,1,0,0:0:0:0:
182,192,117221,1,0,0:0:0:0:0
475,192,117221,1,0,0:0:0:0:0
402,192,117406,1,0,0:0:0:0:0
256,192,117406,1,0,0:0:0:0:0
36,192,117406,1,0,0:0:0:0:0
109,192,117592,1,0,0:0:0:0:0
329,192,117592,1,0,0:0:0:0:0
182,192,117777,1,0,0:0:0:0:0
402,192,117777,1,0,0:0:0:0:0
36,192,117777,1,0,0:0:0:0:0
329,192,117777,1,0,0:0:0:0:
256,192,117777,1,0,0:0:0:0:
109,192,117777,1,0,0:0:0:0:
475,192,117777,1,0,0:0:0:0:
256,192,117962,1,0,0:0:0:0:0
475,192,117962,1,0,0:0:0:0:0
329,192,118147,1,0,0:0:0:0:0
36,192,118147,1,0,0:0:0:0:0
182,192,118147,1,0,0:0:0:0:0
109,192,118332,5,0,0:0:0:0:0
402,192,118332,1,0,0:0:0:0:0
182,192,118517,1,0,0:0:0:0:0
475,192,118517,1,0,0:0:0:0:0
402,192,118517,1,0,0:0:0:0:
329,192,118517,1,0,0:0:0:0:
256,192,118517,1,0,0:0:0:0:
109,192,118517,1,0,0:0:0:0:
36,192,118517,1,0,0:0:0:0:
256,192,118703,1,0,0:0:0:0:0
402,192,118703,1,0,0:0:0:0:0
329,192,118888,1,0,0:0:0:0:0
475,192,118888,1,0,0:0:0:0:0
36,192,118888,1,0,0:0:0:0:0
109,192,119073,1,0,0:0:0:0:0
402,192,119073,1,0,0:0:0:0:0
182,192,119258,1,0,0:0:0:0:0
475,192,119258,1,0,0:0:0:0:0
36,192,119258,1,0,0:0:0:0:
109,192,119258,1,0,0:0:0:0:
256,192,119258,1,0,0:0:0:0:
329,192,119258,1,0,0:0:0:0:
402,192,119258,1,0,0:0:0:0:
402,192,119443,1,0,0:0:0:0:0
109,192,119443,1,0,0:0:0:0:0
36,192,119629,5,0,0:0:0:0:0
109,192,119629,1,0,0:0:0:0:0
182,192,119629,1,0,0:0:0:0:0
256,192,119629,1,0,0:0:0:0:0
329,192,119629,1,0,0:0:0:0:0
402,192,119629,1,0,0:0:0:0:0
475,192,119629,1,0,0:0:0:0:0
182,192,119721,1,0,0:0:0:0:0
329,192,119814,1,0,0:0:0:0:0
329,192,119906,1,0,0:0:0:0:0
182,192,119999,1,0,0:0:0:0:0
182,192,120092,1,0,0:0:0:0:0
329,192,120184,1,0,0:0:0:0:0
329,192,120277,1,0,0:0:0:0:0
182,192,120369,1,0,0:0:0:0:0
182,192,120462,1,0,0:0:0:0:0
329,192,120554,1,0,0:0:0:0:0
329,192,120647,1,0,0:0:0:0:0
182,192,120740,1,0,0:0:0:0:0
109,192,120740,1,0,0:0:0:0:0
36,192,120740,1,0,0:0:0:0:0
36,192,120832,1,0,0:0:0:0:0
182,192,120832,1,0,0:0:0:0:0
109,192,120832,1,0,0:0:0:0:0
182,192,120925,1,0,0:0:0:0:0
109,192,120925,1,0,0:0:0:0:0
36,192,120925,1,0,0:0:0:0:0
36,192,121017,1,0,0:0:0:0:0
109,192,121017,1,0,0:0:0:0:0
182,192,121017,1,0,0:0:0:0:0
36,192,121110,1,0,0:0:0:0:0
109,192,121110,1,0,0:0:0:0:0
182,192,121110,1,0,0:0:0:0:0
256,192,121110,1,0,0:0:0:0:0
329,192,121110,1,0,0:0:0:0:0
402,192,121110,1,0,0:0:0:0:0
475,192,121110,1,0,0:0:0:0:0
329,192,121203,1,0,0:0:0:0:0
329,192,121295,1,0,0:0:0:0:0
329,192,121388,1,0,0:0:0:0:0
182,192,121480,1,0,0:0:0:0:0
182,192,121573,1,0,0:0:0:0:0
182,192,121666,1,0,0:0:0:0:0
182,192,121758,1,0,0:0:0:0:0
36,192,121851,1,0,0:0:0:0:0
109,192,121851,1,0,0:0:0:0:0
182,192,121851,1,0,0:0:0:0:0
256,192,121851,1,0,0:0:0:0:0
329,192,121851,1,0,0:0:0:0:0
402,192,121851,1,0,0:0:0:0:0
475,192,121851,1,0,0:0:0:0:0
402,192,121943,1,0,0:0:0:0:0
402,192,122036,1,0,0:0:0:0:0
402,192,122129,1,0,0:0:0:0:0
109,192,122221,1,0,0:0:0:0:0
109,192,122314,1,0,0:0:0:0:0
109,192,122406,1,0,0:0:0:0:0
109,192,122499,1,0,0:0:0:0:0
402,192,122592,1,0,0:0:0:0:0
329,192,122592,1,0,0:0:0:0:0
182,192,122592,1,0,0:0:0:0:0
109,192,122592,1,0,0:0:0:0:0
36,192,122592,1,0,0:0:0:0:0
256,192,122592,1,0,0:0:0:0:0
475,192,122592,1,0,0:0:0:0:0
475,192,122684,1,0,0:0:0:0:0
475,192,122777,1,0,0:0:0:0:0
475,192,122869,1,0,0:0:0:0:0
36,192,122962,1,0,0:0:0:0:0
36,192,123054,1,0,0:0:0:0:0
36,192,123147,1,0,0:0:0:0:0
36,192,123240,1,0,0:0:0:0:0
36,192,123332,1,0,0:0:0:0:0
109,192,123332,1,0,0:0:0:0:0
182,192,123332,1,0,0:0:0:0:0
329,192,123332,1,0,0:0:0:0:0
475,192,123332,1,0,0:0:0:0:0
402,192,123332,1,0,0:0:0:0:0
256,192,123332,1,0,0:0:0:0:0
329,192,123425,1,0,0:0:0:0:0
402,192,123425,1,0,0:0:0:0:0
402,192,123517,1,0,0:0:0:0:0
329,192,123517,1,0,0:0:0:0:0
402,192,123610,1,0,0:0:0:0:0
329,192,123610,1,0,0:0:0:0:0
182,192,123703,1,0,0:0:0:0:0
109,192,123703,1,0,0:0:0:0:0
182,192,123795,1,0,0:0:0:0:0
109,192,123795,1,0,0:0:0:0:0
182,192,123888,1,0,0:0:0:0:0
109,192,123888,1,0,0:0:0:0:0
182,192,123980,1,0,0:0:0:0:0
109,192,123980,1,0,0:0:0:0:0
36,192,124073,1,0,0:0:0:0:0
182,192,124073,1,0,0:0:0:0:0
109,192,124073,1,0,0:0:0:0:0
256,192,124073,1,0,0:0:0:0:0
329,192,124073,1,0,0:0:0:0:0
475,192,124073,1,0,0:0:0:0:0
402,192,124073,1,0,0:0:0:0:0
402,192,124166,1,0,0:0:0:0:0
475,192,124166,1,0,0:0:0:0:0
475,192,124258,5,0,0:0:0:0:0
402,192,124258,1,0,0:0:0:0:0
475,192,124351,1,0,0:0:0:0:0
402,192,124351,1,0,0:0:0:0:0
109,192,124443,1,0,0:0:0:0:0
36,192,124443,1,0,0:0:0:0:0
36,192,124536,1,0,0:0:0:0:0
109,192,124536,1,0,0:0:0:0:0
109,192,124629,1,0,0:0:0:0:0
36,192,124629,1,0,0:0:0:0:0
36,192,124721,1,0,0:0:0:0:0
109,192,124721,1,0,0:0:0:0:0
36,192,124814,1,0,0:0:0:0:0
109,192,124814,1,0,0:0:0:0:0
182,192,124814,1,0,0:0:0:0:0
256,192,124814,1,0,0:0:0:0:0
402,192,124814,1,0,0:0:0:0:0
475,192,124814,1,0,0:0:0:0:0
329,192,124814,1,0,0:0:0:0:0
329,192,124906,1,0,0:0:0:0:0
475,192,124906,1,0,0:0:0:0:0
402,192,124906,1,0,0:0:0:0:0
475,192,124999,1,0,0:0:0:0:0
402,192,124999,1,0,0:0:0:0:0
329,192,124999,1,0,0:0:0:0:0
402,192,125092,1,0,0:0:0:0:0
329,192,125092,1,0,0:0:0:0:0
475,192,125092,1,0,0:0:0:0:0
182,192,125184,1,0,0:0:0:0:0
109,192,125184,1,0,0:0:0:0:0
36,192,125184,1,0,0:0:0:0:0
36,192,125277,1,0,0:0:0:0:0
182,192,125277,1,0,0:0:0:0:0
109,192,125277,1,0,0:0:0:0:0
109,192,125369,1,0,0:0:0:0:0
182,192,125369,1,0,0:0:0:0:0
36,192,125369,1,0,0:0:0:0:0
36,192,125462,1,0,0:0:0:0:0
109,192,125462,1,0,0:0:0:0:0
182,192,125462,1,0,0:0:0:0:0
36,192,125554,5,0,0:0:0:0:0
109,192,125554,1,0,0:0:0:0:0
182,192,125554,1,0,0:0:0:0:0
256,192,125554,1,0,0:0:0:0:0
329,192,125554,1,0,0:0:0:0:0
402,192,125554,1,0,0:0:0:0:0
475,192,125554,1,0,0:0:0:0:0
475,192,125647,1,0,0:0:0:0:0
402,192,125647,1,0,0:0:0:0:0
329,192,125647,1,0,0:0:0:0:0
256,192,125647,1,0,0:0:0:0:0
182,192,125647,1,0,0:0:0:0:0
109,192,125647,1,0,0:0:0:0:0
36,192,125647,1,0,0:0:0:0:0
36,192,125740,1,0,0:0:0:0:0
109,192,125740,1,0,0:0:0:0:0
182,192,125740,1,0,0:0:0:0:0
256,192,125740,1,0,0:0:0:0:0
329,192,125740,1,0,0:0:0:0:0
475,192,125740,1,0,0:0:0:0:0
402,192,125740,1,0,0:0:0:0:0
475,192,125832,1,0,0:0:0:0:0
402,192,125832,1,0,0:0:0:0:0
329,192,125832,1,0,0:0:0:0:0
256,192,125832,1,0,0:0:0:0:0
182,192,125832,1,0,0:0:0:0:0
109,192,125832,1,0,0:0:0:0:0
36,192,125832,1,0,0:0:0:0:0
36,192,125925,1,0,0:0:0:0:0
109,192,125925,1,0,0:0:0:0:0
182,192,125925,1,0,0:0:0:0:0
256,192,125925,1,0,0:0:0:0:0
402,192,125925,1,0,0:0:0:0:0
475,192,125925,1,0,0:0:0:0:0
329,192,125925,1,0,0:0:0:0:0
475,192,126017,1,0,0:0:0:0:0
402,192,126017,1,0,0:0:0:0:0
329,192,126017,1,0,0:0:0:0:0
256,192,126017,1,0,0:0:0:0:0
182,192,126017,1,0,0:0:0:0:0
109,192,126017,1,0,0:0:0:0:0
36,192,126017,1,0,0:0:0:0:0
36,192,126110,1,0,0:0:0:0:0
109,192,126110,1,0,0:0:0:0:0
182,192,126110,1,0,0:0:0:0:0
329,192,126110,1,0,0:0:0:0:0
402,192,126110,1,0,0:0:0:0:0
475,192,126110,1,0,0:0:0:0:0
256,192,126110,1,0,0:0:0:0:0
256,192,126203,1,0,0:0:0:0:0
36,192,126203,1,0,0:0:0:0:0
109,192,126203,1,0,0:0:0:0:0
182,192,126203,1,0,0:0:0:0:0
329,192,126203,1,0,0:0:0:0:0
402,192,126203,1,0,0:0:0:0:0
475,192,126203,1,0,0:0:0:0:0
36,192,126295,1,0,0:0:0:0:0
182,192,126295,1,0,0:0:0:0:0
256,192,126295,1,0,0:0:0:0:0
329,192,126295,1,0,0:0:0:0:0
402,192,126295,1,0,0:0:0:0:0
475,192,126295,1,0,0:0:0:0:0
109,192,126295,1,0,0:0:0:0:0
36,192,126388,1,0,0:0:0:0:0
109,192,126388,1,0,0:0:0:0:0
182,192,126388,1,0,0:0:0:0:0
329,192,126388,1,0,0:0:0:0:0
402,192,126388,1,0,0:0:0:0:0
475,192,126388,1,0,0:0:0:0:0
256,192,126388,1,0,0:0:0:0:0
36,192,126480,1,0,0:0:0:0:0
182,192,126480,1,0,0:0:0:0:0
329,192,126480,1,0,0:0:0:0:0
475,192,126480,1,0,0:0:0:0:0
402,192,126480,1,0,0:0:0:0:0
256,192,126480,1,0,0:0:0:0:0
109,192,126480,1,0,0:0:0:0:0
36,192,126573,1,0,0:0:0:0:0
109,192,126573,1,0,0:0:0:0:0
182,192,126573,1,0,0:0:0:0:0
256,192,126573,1,0,0:0:0:0:0
329,192,126573,1,0,0:0:0:0:0
402,192,126573,1,0,0:0:0:0:0
475,192,126573,1,0,0:0:0:0:0
475,192,126666,1,0,0:0:0:0:0
402,192,126666,1,0,0:0:0:0:0
329,192,126666,1,0,0:0:0:0:0
256,192,126666,1,0,0:0:0:0:0
182,192,126666,1,0,0:0:0:0:0
109,192,126666,1,0,0:0:0:0:0
36,192,126666,1,0,0:0:0:0:0
36,192,126758,1,0,0:0:0:0:0
109,192,126758,1,0,0:0:0:0:0
182,192,126758,1,0,0:0:0:0:0
329,192,126758,1,0,0:0:0:0:0
402,192,126758,1,0,0:0:0:0:0
475,192,126758,1,0,0:0:0:0:0
256,192,126758,1,0,0:0:0:0:0
475,192,126851,1,0,0:0:0:0:0
402,192,126851,1,0,0:0:0:0:0
329,192,126851,1,0,0:0:0:0:0
256,192,126851,1,0,0:0:0:0:0
109,192,126851,1,0,0:0:0:0:0
36,192,126851,1,0,0:0:0:0:0
182,192,126851,1,0,0:0:0:0:0
36,192,127036,1,0,0:0:0:0:0
109,192,127082,1,0,0:0:0:0:0
182,192,127129,1,0,0:0:0:0:0
256,192,127175,1,0,0:0:0:0:0
329,192,127221,1,0,0:0:0:0:0
402,192,127267,1,0,0:0:0:0:0
475,192,127314,1,0,0:0:0:0:0
36,192,127360,1,0,0:0:0:0:0
109,192,127406,1,0,0:0:0:0:0
182,192,127453,1,0,0:0:0:0:0
256,192,127499,1,0,0:0:0:0:0
329,192,127545,1,0,0:0:0:0:0
402,192,127592,1,0,0:0:0:0:0
475,192,127638,1,0,0:0:0:0:0
36,192,127684,1,0,0:0:0:0:0
109,192,127730,1,0,0:0:0:0:0
182,192,127777,1,0,0:0:0:0:0
256,192,127823,1,0,0:0:0:0:0
329,192,127869,1,0,0:0:0:0:0
402,192,127916,1,0,0:0:0:0:0
475,192,127962,1,0,0:0:0:0:0
36,192,128008,1,0,0:0:0:0:0
109,192,128054,1,0,0:0:0:0:0
182,192,128101,1,0,0:0:0:0:0
256,192,128147,1,0,0:0:0:0:0
329,192,128193,1,0,0:0:0:0:0
402,192,128240,1,0,0:0:0:0:0
475,192,128286,1,0,0:0:0:0:0
36,192,128332,1,0,0:0:0:0:0
109,192,128379,1,0,0:0:0:0:0
182,192,128425,1,0,0:0:0:0:0
256,192,128471,1,0,0:0:0:0:0
475,192,128517,1,0,0:0:0:0:0
402,192,128564,1,0,0:0:0:0:0
329,192,128610,1,0,0:0:0:0:0
256,192,128656,1,0,0:0:0:0:0
182,192,128703,1,0,0:0:0:0:0
109,192,128749,1,0,0:0:0:0:0
36,192,128795,1,0,0:0:0:0:0
182,192,128888,1,0,0:0:0:0:0
256,192,128934,1,0,0:0:0:0:0
329,192,128980,1,0,0:0:0:0:0
402,192,129027,1,0,0:0:0:0:0
475,192,129073,1,0,0:0:0:0:0
36,192,129119,1,0,0:0:0:0:0
109,192,129166,1,0,0:0:0:0:0
182,192,129212,1,0,0:0:0:0:0
256,192,129258,1,0,0:0:0:0:0
475,192,129304,1,0,0:0:0:0:0
402,192,129351,1,0,0:0:0:0:0
329,192,129397,1,0,0:0:0:0:0
256,192,129443,1,0,0:0:0:0:0
182,192,129490,1,0,0:0:0:0:0
109,192,129536,1,0,0:0:0:0:0
402,192,129629,1,0,0:0:0:0:0
329,192,129675,1,0,0:0:0:0:0
256,192,129721,1,0,0:0:0:0:0
182,192,129767,1,0,0:0:0:0:0
109,192,129814,1,0,0:0:0:0:0
36,192,129860,1,0,0:0:0:0:0
36,192,129999,1,0,0:0:0:0:0
109,192,129999,1,0,0:0:0:0:0
182,192,129999,1,0,0:0:0:0:0
256,192,129999,1,0,0:0:0:0:0
329,192,129999,1,0,0:0:0:0:0
402,192,129999,1,0,0:0:0:0:0
475,192,129999,1,0,0:0:0:0:0
475,192,130092,1,0,0:0:0:0:0
402,192,130092,1,0,0:0:0:0:0
329,192,130092,1,0,0:0:0:0:0
256,192,130092,1,0,0:0:0:0:0
182,192,130092,1,0,0:0:0:0:0
109,192,130092,1,0,0:0:0:0:0
36,192,130092,1,0,0:0:0:0:0
36,192,130277,5,0,0:0:0:0:0
109,192,130277,1,0,0:0:0:0:0
182,192,130277,1,0,0:0:0:0:0
256,192,130277,1,0,0:0:0:0:0
329,192,130277,1,0,0:0:0:0:0
402,192,130277,1,0,0:0:0:0:0
475,192,130277,1,0,0:0:0:0:0
475,192,130369,1,0,0:0:0:0:0
402,192,130369,1,0,0:0:0:0:0
256,192,130369,1,0,0:0:0:0:0
329,192,130369,1,0,0:0:0:0:0
182,192,130369,1,0,0:0:0:0:0
109,192,130369,1,0,0:0:0:0:0
36,192,130369,1,0,0:0:0:0:0
36,192,130554,1,0,0:0:0:0:0
109,192,130554,1,0,0:0:0:0:0
256,192,130554,1,0,0:0:0:0:0
182,192,130554,1,0,0:0:0:0:0
329,192,130554,1,0,0:0:0:0:0
402,192,130554,1,0,0:0:0:0:0
475,192,130554,1,0,0:0:0:0:0
475,192,130647,1,0,0:0:0:0:0
402,192,130647,1,0,0:0:0:0:0
329,192,130647,1,0,0:0:0:0:0
256,192,130647,1,0,0:0:0:0:0
182,192,130647,1,0,0:0:0:0:0
109,192,130647,1,0,0:0:0:0:0
36,192,130647,1,0,0:0:0:0:0
36,192,130740,1,0,0:0:0:0:0
109,192,130740,1,0,0:0:0:0:0
182,192,130740,1,0,0:0:0:0:0
256,192,130925,1,0,0:0:0:0:0
402,192,130925,1,0,0:0:0:0:0
329,192,131110,1,0,0:0:0:0:0
182,192,131110,1,0,0:0:0:0:0
36,192,131110,1,0,0:0:0:0:0
256,192,131295,1,0,0:0:0:0:0
402,192,131295,1,0,0:0:0:0:0
36,192,131480,5,0,0:0:0:0:0
182,192,131480,1,0,0:0:0:0:0
329,192,131480,1,0,0:0:0:0:0
402,192,131480,1,0,0:0:0:0:0
475,192,131480,1,0,0:0:0:0:0
256,192,131480,1,0,0:0:0:0:0
109,192,131480,1,0,0:0:0:0:0
109,192,131573,1,0,0:0:0:0:0
36,192,131573,1,0,0:0:0:0:0
109,192,131666,1,0,0:0:0:0:0
36,192,131666,1,0,0:0:0:0:0
109,192,131758,1,0,0:0:0:0:0
36,192,131758,1,0,0:0:0:0:0
329,192,131851,1,0,0:0:0:0:0
402,192,131851,1,0,0:0:0:0:0
402,192,131943,1,0,0:0:0:0:0
329,192,131943,1,0,0:0:0:0:0
182,192,132036,1,0,0:0:0:0:0
109,192,132036,1,0,0:0:0:0:0
182,192,132129,1,0,0:0:0:0:0
109,192,132129,1,0,0:0:0:0:0
182,192,132221,1,0,0:0:0:0:0
109,192,132221,1,0,0:0:0:0:0
182,192,132314,1,0,0:0:0:0:0
109,192,132314,1,0,0:0:0:0:0
329,192,132406,1,0,0:0:0:0:0
475,192,132406,1,0,0:0:0:0:0
329,192,132499,1,0,0:0:0:0:0
475,192,132499,1,0,0:0:0:0:0
182,192,132592,1,0,0:0:0:0:0
36,192,132592,1,0,0:0:0:0:0
182,192,132684,1,0,0:0:0:0:0
36,192,132684,1,0,0:0:0:0:0
182,192,132777,1,0,0:0:0:0:0
36,192,132777,1,0,0:0:0:0:0
182,192,132869,1,0,0:0:0:0:0
36,192,132869,1,0,0:0:0:0:0
475,192,132962,1,0,0:0:0:0:0
402,192,132962,1,0,0:0:0:0:0
475,192,133054,1,0,0:0:0:0:0
402,192,133054,1,0,0:0:0:0:0
475,192,133147,1,0,0:0:0:0:0
402,192,133147,1,0,0:0:0:0:0
475,192,133240,1,0,0:0:0:0:0
402,192,133240,1,0,0:0:0:0:0
109,192,133332,1,0,0:0:0:0:0
36,192,133332,1,0,0:0:0:0:0
109,192,133425,1,0,0:0:0:0:0
36,192,133425,1,0,0:0:0:0:0
329,192,133517,1,0,0:0:0:0:0
256,192,133517,1,0,0:0:0:0:0
329,192,133610,1,0,0:0:0:0:0
256,192,133610,1,0,0:0:0:0:0
329,192,133703,1,0,0:0:0:0:0
256,192,133703,1,0,0:0:0:0:0
329,192,133795,1,0,0:0:0:0:0
256,192,133795,1,0,0:0:0:0:0
36,192,133888,1,0,0:0:0:0:0
182,192,133888,1,0,0:0:0:0:0
182,192,133980,1,0,0:0:0:0:0
36,192,133980,1,0,0:0:0:0:0
329,192,134073,1,0,0:0:0:0:0
475,192,134073,1,0,0:0:0:0:0
475,192,134166,1,0,0:0:0:0:0
329,192,134166,1,0,0:0:0:0:0
329,192,134258,5,0,0:0:0:0:0
475,192,134258,1,0,0:0:0:0:0
329,192,134351,1,0,0:0:0:0:0
475,192,134351,1,0,0:0:0:0:0
109,192,134443,1,0,0:0:0:0:0
182,192,134443,1,0,0:0:0:0:0
182,192,134536,1,0,0:0:0:0:0
109,192,134536,1,0,0:0:0:0:0
182,192,134629,1,0,0:0:0:0:0
109,192,134629,1,0,0:0:0:0:0
182,192,134721,1,0,0:0:0:0:0
109,192,134721,1,0,0:0:0:0:0
402,192,134814,1,0,0:0:0:0:0
475,192,134814,1,0,0:0:0:0:0
475,192,134906,1,0,0:0:0:0:0
402,192,134906,1,0,0:0:0:0:0
36,192,134999,1,0,0:0:0:0:0
109,192,134999,1,0,0:0:0:0:0
109,192,135092,1,0,0:0:0:0:0
36,192,135092,1,0,0:0:0:0:0
402,192,135369,1,0,0:0:0:0:
329,192,135369,1,0,0:0:0:0:
402,192,135462,1,0,0:0:0:0:
329,192,135462,1,0,0:0:0:0:
182,192,135554,1,0,0:0:0:0:
256,192,135554,1,0,0:0:0:0:
256,192,135647,1,0,0:0:0:0:
182,192,135647,1,0,0:0:0:0:
402,192,135740,1,0,0:0:0:0:
475,192,135740,1,0,0:0:0:0:
402,192,135832,1,0,0:0:0:0:
475,192,135832,1,0,0:0:0:0:
109,192,135925,1,0,0:0:0:0:
36,192,135925,1,0,0:0:0:0:
182,192,135925,1,0,0:0:0:0:
109,192,136017,1,0,0:0:0:0:
36,192,136017,1,0,0:0:0:0:
182,192,136017,1,0,0:0:0:0:
329,192,136110,1,0,0:0:0:0:
475,192,136110,1,0,0:0:0:0:
256,192,136110,1,0,0:0:0:0:
475,192,136203,1,0,0:0:0:0:
329,192,136203,1,0,0:0:0:0:
256,192,136203,1,0,0:0:0:0:
109,192,136295,1,0,0:0:0:0:0
182,192,136295,1,0,0:0:0:0:
36,192,136295,1,0,0:0:0:0:
109,192,136388,1,0,0:0:0:0:0
182,192,136388,1,0,0:0:0:0:
36,192,136388,1,0,0:0:0:0:
402,192,136480,1,0,0:0:0:0:
329,192,136480,1,0,0:0:0:0:
475,192,136480,1,0,0:0:0:0:
329,192,136573,1,0,0:0:0:0:
402,192,136573,1,0,0:0:0:0:
475,192,136573,1,0,0:0:0:0:
36,192,136666,1,0,0:0:0:0:
182,192,136666,1,0,0:0:0:0:
36,192,136851,1,0,0:0:0:0:0
256,192,136851,1,0,0:0:0:0:0
329,192,136851,1,0,0:0:0:0:0
475,192,136851,1,0,0:0:0:0:0
402,192,136851,1,0,0:0:0:0:0
109,192,136851,1,0,0:0:0:0:
182,192,136851,1,0,0:0:0:0:
475,192,137036,1,0,0:0:0:0:0
402,192,137036,1,0,0:0:0:0:0
329,192,137036,1,0,0:0:0:0:0
256,192,137036,1,0,0:0:0:0:0
182,192,137036,1,0,0:0:0:0:0
109,192,137036,1,0,0:0:0:0:0
36,192,137036,1,0,0:0:0:0:0
36,192,137221,1,0,0:0:0:0:0
109,192,137221,1,0,0:0:0:0:0
182,192,137221,1,0,0:0:0:0:0
256,192,137221,1,0,0:0:0:0:0
329,192,137221,1,0,0:0:0:0:0
402,192,137221,1,0,0:0:0:0:0
475,192,137221,1,0,0:0:0:0:0
36,192,137406,1,0,0:0:0:0:0
109,192,137406,1,0,0:0:0:0:0
182,192,137406,1,0,0:0:0:0:0
256,192,137406,1,0,0:0:0:0:0
329,192,137406,1,0,0:0:0:0:0
402,192,137406,1,0,0:0:0:0:0
475,192,137406,1,0,0:0:0:0:0
402,192,137499,1,0,0:0:0:0:0
475,192,137499,1,0,0:0:0:0:0
402,192,137592,1,0,0:0:0:0:0
475,192,137592,1,0,0:0:0:0:0
402,192,137684,1,0,0:0:0:0:0
475,192,137684,1,0,0:0:0:0:0
182,192,137777,1,0,0:0:0:0:0
109,192,137777,1,0,0:0:0:0:0
109,192,137869,1,0,0:0:0:0:0
182,192,137869,1,0,0:0:0:0:0
329,192,137962,1,0,0:0:0:0:0
402,192,137962,1,0,0:0:0:0:0
329,192,138054,1,0,0:0:0:0:0
402,192,138054,1,0,0:0:0:0:0
329,192,138147,1,0,0:0:0:0:0
402,192,138147,1,0,0:0:0:0:0
329,192,138240,1,0,0:0:0:0:0
402,192,138240,1,0,0:0:0:0:0
182,192,138332,1,0,0:0:0:0:0
36,192,138332,1,0,0:0:0:0:0
182,192,138425,1,0,0:0:0:0:0
36,192,138425,1,0,0:0:0:0:0
329,192,138517,1,0,0:0:0:0:0
475,192,138517,1,0,0:0:0:0:0
329,192,138610,1,0,0:0:0:0:0
475,192,138610,1,0,0:0:0:0:0
329,192,138703,1,0,0:0:0:0:0
475,192,138703,1,0,0:0:0:0:0
329,192,138795,1,0,0:0:0:0:0
475,192,138795,1,0,0:0:0:0:0
36,192,138888,1,0,0:0:0:0:0
109,192,138888,1,0,0:0:0:0:0
36,192,138980,1,0,0:0:0:0:0
109,192,138980,1,0,0:0:0:0:0
36,192,139073,1,0,0:0:0:0:0
109,192,139073,1,0,0:0:0:0:0
36,192,139166,1,0,0:0:0:0:0
109,192,139166,1,0,0:0:0:0:0
402,192,139258,1,0,0:0:0:0:0
475,192,139258,1,0,0:0:0:0:0
402,192,139351,1,0,0:0:0:0:0
475,192,139351,1,0,0:0:0:0:0
182,192,139443,1,0,0:0:0:0:0
256,192,139443,1,0,0:0:0:0:0
182,192,139536,1,0,0:0:0:0:0
256,192,139536,1,0,0:0:0:0:0
182,192,139629,1,0,0:0:0:0:0
256,192,139629,1,0,0:0:0:0:0
182,192,139721,1,0,0:0:0:0:0
256,192,139721,1,0,0:0:0:0:0
475,192,139814,1,0,0:0:0:0:0
329,192,139814,1,0,0:0:0:0:0
329,192,139906,1,0,0:0:0:0:0
475,192,139906,1,0,0:0:0:0:0
182,192,139999,1,0,0:0:0:0:0
36,192,139999,1,0,0:0:0:0:0
36,192,140092,1,0,0:0:0:0:0
182,192,140092,1,0,0:0:0:0:0
182,192,140184,1,0,0:0:0:0:0
36,192,140184,1,0,0:0:0:0:0
182,192,140277,1,0,0:0:0:0:0
36,192,140277,1,0,0:0:0:0:0
402,192,140369,1,0,0:0:0:0:0
329,192,140369,1,0,0:0:0:0:0
329,192,140462,1,0,0:0:0:0:0
402,192,140462,1,0,0:0:0:0:0
329,192,140554,1,0,0:0:0:0:0
402,192,140554,1,0,0:0:0:0:0
329,192,140647,1,0,0:0:0:0:0
402,192,140647,1,0,0:0:0:0:0
109,192,140740,1,0,0:0:0:0:0
36,192,140740,1,0,0:0:0:0:0
36,192,140832,1,0,0:0:0:0:0
109,192,140832,1,0,0:0:0:0:0
475,192,140925,1,0,0:0:0:0:0
402,192,140925,1,0,0:0:0:0:0
402,192,141017,1,0,0:0:0:0:0
475,192,141017,1,0,0:0:0:0:0
182,192,141295,1,0,0:0:0:0:
109,192,141295,1,0,0:0:0:0:
182,192,141388,1,0,0:0:0:0:
109,192,141388,1,0,0:0:0:0:
256,192,141480,1,0,0:0:0:0:
329,192,141480,1,0,0:0:0:0:
329,192,141573,1,0,0:0:0:0:
256,192,141573,1,0,0:0:0:0:
36,192,141666,1,0,0:0:0:0:
109,192,141666,1,0,0:0:0:0:
36,192,141758,1,0,0:0:0:0:
109,192,141758,1,0,0:0:0:0:
329,192,141851,1,0,0:0:0:0:
475,192,141851,1,0,0:0:0:0:
402,192,141851,1,0,0:0:0:0:
329,192,141943,1,0,0:0:0:0:
475,192,141943,1,0,0:0:0:0:
402,192,141943,1,0,0:0:0:0:
36,192,142036,1,0,0:0:0:0:
182,192,142036,1,0,0:0:0:0:
109,192,142036,1,0,0:0:0:0:
182,192,142129,1,0,0:0:0:0:
36,192,142129,1,0,0:0:0:0:
109,192,142129,1,0,0:0:0:0:
329,192,142221,1,0,0:0:0:0:
402,192,142221,1,0,0:0:0:0:0
256,192,142221,1,0,0:0:0:0:
329,192,142314,1,0,0:0:0:0:
402,192,142314,1,0,0:0:0:0:0
256,192,142314,1,0,0:0:0:0:
182,192,142406,1,0,0:0:0:0:
109,192,142406,1,0,0:0:0:0:
36,192,142406,1,0,0:0:0:0:
109,192,142499,1,0,0:0:0:0:
182,192,142499,1,0,0:0:0:0:
36,192,142499,1,0,0:0:0:0:
475,192,142592,1,0,0:0:0:0:
256,192,142592,1,0,0:0:0:0:
36,192,142777,1,0,0:0:0:0:0
109,192,142777,1,0,0:0:0:0:0
182,192,142777,1,0,0:0:0:0:0
256,192,142777,1,0,0:0:0:0:0
402,192,142777,1,0,0:0:0:0:0
475,192,142777,1,0,0:0:0:0:0
329,192,142777,1,0,0:0:0:0:0
475,192,142962,1,0,0:0:0:0:0
402,192,142962,1,0,0:0:0:0:0
329,192,142962,1,0,0:0:0:0:0
256,192,142962,1,0,0:0:0:0:0
182,192,142962,1,0,0:0:0:0:0
109,192,142962,1,0,0:0:0:0:0
36,192,142962,1,0,0:0:0:0:0
36,192,143147,1,0,0:0:0:0:0
109,192,143147,1,0,0:0:0:0:0
182,192,143147,1,0,0:0:0:0:0
256,192,143147,1,0,0:0:0:0:0
329,192,143147,1,0,0:0:0:0:0
402,192,143147,1,0,0:0:0:0:0
475,192,143147,1,0,0:0:0:0:0
36,192,143332,1,0,0:0:0:0:0
182,192,143332,1,0,0:0:0:0:0
256,192,143332,1,0,0:0:0:0:0
109,192,143332,1,0,0:0:0:0:0
329,192,143332,1,0,0:0:0:0:0
475,192,143332,1,0,0:0:0:0:0
402,192,143332,1,0,0:0:0:0:0
109,192,143425,1,0,0:0:0:0:0
402,192,143517,1,0,0:0:0:0:0
329,192,143517,1,0,0:0:0:0:
402,192,143610,1,0,0:0:0:0:0
329,192,143610,1,0,0:0:0:0:
329,192,143703,1,0,0:0:0:0:0
402,192,143703,1,0,0:0:0:0:
329,192,143795,1,0,0:0:0:0:0
402,192,143795,1,0,0:0:0:0:
256,192,143888,1,0,0:0:0:0:0
256,192,143980,1,0,0:0:0:0:0
182,192,144073,1,0,0:0:0:0:0
109,192,144073,1,0,0:0:0:0:0
182,192,144166,1,0,0:0:0:0:0
109,192,144166,1,0,0:0:0:0:0
182,192,144258,1,0,0:0:0:0:0
109,192,144258,1,0,0:0:0:0:0
182,192,144351,1,0,0:0:0:0:0
109,192,144351,1,0,0:0:0:0:0
402,192,144443,1,0,0:0:0:0:0
329,192,144443,1,0,0:0:0:0:0
402,192,144536,1,0,0:0:0:0:0
329,192,144536,1,0,0:0:0:0:0
402,192,144629,1,0,0:0:0:0:0
329,192,144629,1,0,0:0:0:0:0
402,192,144721,1,0,0:0:0:0:0
329,192,144721,1,0,0:0:0:0:0
109,192,144814,1,0,0:0:0:0:0
182,192,144814,1,0,0:0:0:0:0
109,192,144906,1,0,0:0:0:0:0
182,192,144906,1,0,0:0:0:0:0
109,192,144999,1,0,0:0:0:0:0
182,192,144999,1,0,0:0:0:0:0
109,192,145092,1,0,0:0:0:0:0
182,192,145092,1,0,0:0:0:0:0
256,192,145184,1,0,0:0:0:0:0
329,192,145184,1,0,0:0:0:0:0
402,192,145184,1,0,0:0:0:0:0
475,192,145184,1,0,0:0:0:0:0
475,192,145554,1,0,0:0:0:0:0
402,192,145554,1,0,0:0:0:0:0
475,192,145647,1,0,0:0:0:0:0
402,192,145647,1,0,0:0:0:0:0
109,192,145740,1,0,0:0:0:0:0
109,192,145832,1,0,0:0:0:0:0
329,192,145925,1,0,0:0:0:0:0
402,192,145925,1,0,0:0:0:0:0
329,192,146017,1,0,0:0:0:0:0
402,192,146017,1,0,0:0:0:0:0
256,192,146110,1,0,0:0:0:0:0
256,192,146203,1,0,0:0:0:0:0
182,192,146295,1,0,0:0:0:0:0
109,192,146295,1,0,0:0:0:0:0
182,192,146388,1,0,0:0:0:0:0
109,192,146388,1,0,0:0:0:0:0
329,192,146480,1,0,0:0:0:0:0
402,192,146480,1,0,0:0:0:0:0
329,192,146573,1,0,0:0:0:0:0
402,192,146573,1,0,0:0:0:0:0
329,192,146666,1,0,0:0:0:0:0
402,192,146666,1,0,0:0:0:0:0
329,192,146758,1,0,0:0:0:0:0
402,192,146758,1,0,0:0:0:0:0
109,192,146851,1,0,0:0:0:0:0
109,192,146943,1,0,0:0:0:0:0
182,192,147036,1,0,0:0:0:0:0
256,192,147036,1,0,0:0:0:0:0
182,192,147129,1,0,0:0:0:0:0
256,192,147129,1,0,0:0:0:0:0
182,192,147221,1,0,0:0:0:0:0
256,192,147221,1,0,0:0:0:0:0
182,192,147314,1,0,0:0:0:0:0
256,192,147314,1,0,0:0:0:0:0
475,192,147406,1,0,0:0:0:0:0
402,192,147406,1,0,0:0:0:0:0
475,192,147499,1,0,0:0:0:0:0
402,192,147499,1,0,0:0:0:0:0
475,192,147592,1,0,0:0:0:0:0
402,192,147592,1,0,0:0:0:0:0
475,192,147684,1,0,0:0:0:0:0
402,192,147684,1,0,0:0:0:0:0
36,192,147777,1,0,0:0:0:0:0
182,192,147777,1,0,0:0:0:0:0
36,192,147869,1,0,0:0:0:0:0
182,192,147869,1,0,0:0:0:0:0
36,192,147962,1,0,0:0:0:0:0
182,192,147962,1,0,0:0:0:0:0
36,192,148054,1,0,0:0:0:0:0
182,192,148054,1,0,0:0:0:0:0
256,192,148147,1,0,0:0:0:0:0
329,192,148147,1,0,0:0:0:0:0
402,192,148147,1,0,0:0:0:0:0
475,192,148147,1,0,0:0:0:0:0
256,192,148517,1,0,0:0:0:0:0
329,192,148517,1,0,0:0:0:0:0
256,192,148610,1,0,0:0:0:0:0
329,192,148610,1,0,0:0:0:0:0
182,192,148703,1,0,0:0:0:0:0
182,192,148795,1,0,0:0:0:0:0
329,192,148888,1,0,0:0:0:0:0
402,192,148888,1,0,0:0:0:0:0
329,192,148980,1,0,0:0:0:0:0
402,192,148980,1,0,0:0:0:0:0
475,192,149073,1,0,0:0:0:0:0
475,192,149166,1,0,0:0:0:0:0
109,192,149258,1,0,0:0:0:0:0
182,192,149258,1,0,0:0:0:0:0
109,192,149351,1,0,0:0:0:0:0
182,192,149351,1,0,0:0:0:0:0
402,192,149443,1,0,0:0:0:0:0
329,192,149443,1,0,0:0:0:0:
402,192,149536,1,0,0:0:0:0:0
329,192,149536,1,0,0:0:0:0:
329,192,149629,1,0,0:0:0:0:0
402,192,149629,1,0,0:0:0:0:
329,192,149721,1,0,0:0:0:0:0
402,192,149721,1,0,0:0:0:0:
256,192,149814,1,0,0:0:0:0:0
256,192,149906,1,0,0:0:0:0:0
182,192,149999,1,0,0:0:0:0:0
36,192,149999,1,0,0:0:0:0:0
182,192,150092,1,0,0:0:0:0:0
36,192,150092,1,0,0:0:0:0:0
182,192,150184,1,0,0:0:0:0:0
36,192,150184,1,0,0:0:0:0:0
182,192,150277,1,0,0:0:0:0:0
36,192,150277,1,0,0:0:0:0:0
402,192,150369,1,0,0:0:0:0:0
329,192,150369,1,0,0:0:0:0:0
402,192,150462,1,0,0:0:0:0:0
329,192,150462,1,0,0:0:0:0:0
402,192,150554,1,0,0:0:0:0:0
329,192,150554,1,0,0:0:0:0:0
402,192,150647,1,0,0:0:0:0:0
329,192,150647,1,0,0:0:0:0:0
109,192,150740,1,0,0:0:0:0:0
182,192,150740,1,0,0:0:0:0:0
109,192,150832,1,0,0:0:0:0:0
182,192,150832,1,0,0:0:0:0:0
109,192,150925,1,0,0:0:0:0:0
182,192,150925,1,0,0:0:0:0:0
109,192,151017,1,0,0:0:0:0:0
182,192,151017,1,0,0:0:0:0:0
329,192,151110,1,0,0:0:0:0:0
402,192,151110,1,0,0:0:0:0:0
475,192,151110,1,0,0:0:0:0:0
256,192,151110,1,0,0:0:0:0:0
475,192,151480,1,0,0:0:0:0:0
402,192,151480,1,0,0:0:0:0:0
475,192,151573,1,0,0:0:0:0:0
402,192,151573,1,0,0:0:0:0:0
109,192,151666,1,0,0:0:0:0:0
109,192,151758,1,0,0:0:0:0:0
329,192,151851,1,0,0:0:0:0:0
402,192,151851,1,0,0:0:0:0:0
329,192,151943,1,0,0:0:0:0:0
402,192,151943,1,0,0:0:0:0:0
256,192,152036,1,0,0:0:0:0:0
256,192,152129,1,0,0:0:0:0:0
182,192,152221,1,0,0:0:0:0:0
36,192,152221,1,0,0:0:0:0:0
182,192,152314,1,0,0:0:0:0:0
36,192,152314,1,0,0:0:0:0:0
329,192,152406,1,0,0:0:0:0:0
329,192,152499,1,0,0:0:0:0:0
329,192,152592,1,0,0:0:0:0:0
329,192,152684,1,0,0:0:0:0:0
109,192,152777,1,0,0:0:0:0:0
109,192,152869,1,0,0:0:0:0:0
182,192,152962,1,0,0:0:0:0:0
256,192,152962,1,0,0:0:0:0:0
182,192,153054,1,0,0:0:0:0:0
256,192,153054,1,0,0:0:0:0:0
182,192,153147,1,0,0:0:0:0:0
256,192,153147,1,0,0:0:0:0:0
182,192,153240,1,0,0:0:0:0:0
256,192,153240,1,0,0:0:0:0:0
475,192,153332,5,0,0:0:0:0:0
402,192,153332,1,0,0:0:0:0:0
475,192,153425,1,0,0:0:0:0:0
402,192,153425,1,0,0:0:0:0:0
475,192,153517,1,0,0:0:0:0:0
402,192,153517,1,0,0:0:0:0:0
475,192,153610,1,0,0:0:0:0:0
402,192,153610,1,0,0:0:0:0:0
36,192,153703,1,0,0:0:0:0:0
109,192,153703,1,0,0:0:0:0:0
36,192,153795,1,0,0:0:0:0:0
109,192,153795,1,0,0:0:0:0:0
36,192,153888,1,0,0:0:0:0:0
109,192,153888,1,0,0:0:0:0:0
36,192,153980,1,0,0:0:0:0:0
109,192,153980,1,0,0:0:0:0:0
329,192,154073,1,0,0:0:0:0:0
402,192,154073,1,0,0:0:0:0:0
475,192,154073,1,0,0:0:0:0:0
256,192,154073,1,0,0:0:0:0:0
256,192,154443,1,0,0:0:0:0:0
329,192,154443,1,0,0:0:0:0:0
402,192,154443,1,0,0:0:0:0:0
402,192,154536,1,0,0:0:0:0:0
329,192,154536,1,0,0:0:0:0:0
256,192,154536,1,0,0:0:0:0:0
36,192,154629,5,0,0:0:0:0:0
109,192,154629,1,0,0:0:0:0:0
182,192,154629,1,0,0:0:0:0:0
182,192,154721,1,0,0:0:0:0:0
109,192,154721,1,0,0:0:0:0:0
36,192,154721,1,0,0:0:0:0:0
475,192,154814,1,0,0:0:0:0:0
402,192,154814,1,0,0:0:0:0:0
329,192,154814,1,0,0:0:0:0:0
475,192,154906,1,0,0:0:0:0:0
402,192,154906,1,0,0:0:0:0:0
329,192,154906,1,0,0:0:0:0:0
36,192,154999,1,0,0:0:0:0:0
182,192,154999,1,0,0:0:0:0:0
256,192,154999,1,0,0:0:0:0:0
256,192,155092,1,0,0:0:0:0:0
182,192,155092,1,0,0:0:0:0:0
36,192,155092,1,0,0:0:0:0:0
109,192,155184,1,0,0:0:0:0:0
402,192,155184,1,0,0:0:0:0:0
329,192,155184,1,0,0:0:0:0:0
402,192,155277,1,0,0:0:0:0:0
329,192,155277,1,0,0:0:0:0:0
109,192,155277,1,0,0:0:0:0:
475,192,155369,1,0,0:0:0:0:0
182,192,155369,1,0,0:0:0:0:0
36,192,155369,1,0,0:0:0:0:0
36,192,155462,1,0,0:0:0:0:0
182,192,155462,1,0,0:0:0:0:0
475,192,155462,1,0,0:0:0:0:0
256,192,155554,1,0,0:0:0:0:0
329,192,155554,1,0,0:0:0:0:0
402,192,155554,1,0,0:0:0:0:0
402,192,155647,1,0,0:0:0:0:0
329,192,155647,1,0,0:0:0:0:0
256,192,155647,1,0,0:0:0:0:0
182,192,155740,1,0,0:0:0:0:0
36,192,155740,1,0,0:0:0:0:0
109,192,155740,1,0,0:0:0:0:0
182,192,155832,1,0,0:0:0:0:0
109,192,155832,1,0,0:0:0:0:0
36,192,155832,1,0,0:0:0:0:0
329,192,155925,1,0,0:0:0:0:0
402,192,155925,1,0,0:0:0:0:0
475,192,155925,1,0,0:0:0:0:0
329,192,156017,1,0,0:0:0:0:0
402,192,156017,1,0,0:0:0:0:0
475,192,156017,1,0,0:0:0:0:0
109,192,156110,1,0,0:0:0:0:0
182,192,156110,1,0,0:0:0:0:0
36,192,156110,1,0,0:0:0:0:0
182,192,156203,1,0,0:0:0:0:0
109,192,156203,1,0,0:0:0:0:0
36,192,156203,1,0,0:0:0:0:0
475,192,156295,1,0,0:0:0:0:0
329,192,156295,1,0,0:0:0:0:0
256,192,156295,1,0,0:0:0:0:0
256,192,156388,1,0,0:0:0:0:0
329,192,156388,1,0,0:0:0:0:0
475,192,156388,1,0,0:0:0:0:0
36,192,156480,1,0,0:0:0:0:0
109,192,156480,1,0,0:0:0:0:0
402,192,156480,1,0,0:0:0:0:0
402,192,156573,1,0,0:0:0:0:0
109,192,156573,1,0,0:0:0:0:0
36,192,156573,1,0,0:0:0:0:0
182,192,156666,1,0,0:0:0:0:0
256,192,156666,1,0,0:0:0:0:0
329,192,156666,1,0,0:0:0:0:0
329,192,156758,1,0,0:0:0:0:0
256,192,156758,1,0,0:0:0:0:0
182,192,156758,1,0,0:0:0:0:0
475,192,156851,1,0,0:0:0:0:0
36,192,156851,1,0,0:0:0:0:0
402,192,156851,1,0,0:0:0:0:0
36,192,156943,1,0,0:0:0:0:0
402,192,156943,1,0,0:0:0:0:0
475,192,156943,1,0,0:0:0:0:0
109,192,157036,1,0,0:0:0:0:0
182,192,157036,1,0,0:0:0:0:0
256,192,157036,1,0,0:0:0:0:0
256,192,157129,1,0,0:0:0:0:0
182,192,157129,1,0,0:0:0:0:0
109,192,157129,1,0,0:0:0:0:0
329,192,157221,1,0,0:0:0:0:0
475,192,157221,1,0,0:0:0:0:0
402,192,157221,1,0,0:0:0:0:0
329,192,157314,1,0,0:0:0:0:0
402,192,157314,1,0,0:0:0:0:0
475,192,157314,1,0,0:0:0:0:0
36,192,157406,1,0,0:0:0:0:0
109,192,157406,1,0,0:0:0:0:0
182,192,157406,1,0,0:0:0:0:0
182,192,157499,1,0,0:0:0:0:0
109,192,157499,1,0,0:0:0:0:0
36,192,157499,1,0,0:0:0:0:0
256,192,157592,1,0,0:0:0:0:0
329,192,157592,1,0,0:0:0:0:0
402,192,157592,1,0,0:0:0:0:0
256,192,157684,1,0,0:0:0:0:0
329,192,157684,1,0,0:0:0:0:0
402,192,157684,1,0,0:0:0:0:0
36,192,157777,1,0,0:0:0:0:0
475,192,157777,1,0,0:0:0:0:0
109,192,157777,1,0,0:0:0:0:0
36,192,157869,1,0,0:0:0:0:0
109,192,157869,1,0,0:0:0:0:0
475,192,157869,1,0,0:0:0:0:0
182,192,157962,1,0,0:0:0:0:0
256,192,157962,1,0,0:0:0:0:0
402,192,157962,1,0,0:0:0:0:0
36,192,158147,1,0,0:0:0:0:0
109,192,158147,1,0,0:0:0:0:0
182,192,158147,1,0,0:0:0:0:0
256,192,158147,1,0,0:0:0:0:0
329,192,158147,1,0,0:0:0:0:0
402,192,158147,1,0,0:0:0:0:0
475,192,158147,1,0,0:0:0:0:0
109,192,158240,1,0,0:0:0:0:0
402,192,158332,1,0,0:0:0:0:0
329,192,158332,1,0,0:0:0:0:
402,192,158425,1,0,0:0:0:0:0
329,192,158425,1,0,0:0:0:0:
329,192,158517,1,0,0:0:0:0:0
402,192,158517,1,0,0:0:0:0:
329,192,158610,1,0,0:0:0:0:0
402,192,158610,1,0,0:0:0:0:
256,192,158703,1,0,0:0:0:0:0
256,192,158795,1,0,0:0:0:0:0
182,192,158888,1,0,0:0:0:0:0
109,192,158888,1,0,0:0:0:0:0
182,192,158980,1,0,0:0:0:0:0
109,192,158980,1,0,0:0:0:0:0
182,192,159073,1,0,0:0:0:0:0
109,192,159073,1,0,0:0:0:0:0
182,192,159166,1,0,0:0:0:0:0
109,192,159166,1,0,0:0:0:0:0
402,192,159258,1,0,0:0:0:0:0
329,192,159258,1,0,0:0:0:0:0
402,192,159351,1,0,0:0:0:0:0
329,192,159351,1,0,0:0:0:0:0
402,192,159443,1,0,0:0:0:0:0
329,192,159443,1,0,0:0:0:0:0
402,192,159536,1,0,0:0:0:0:0
329,192,159536,1,0,0:0:0:0:0
109,192,159629,1,0,0:0:0:0:0
182,192,159629,1,0,0:0:0:0:0
109,192,159721,1,0,0:0:0:0:0
182,192,159721,1,0,0:0:0:0:0
109,192,159814,1,0,0:0:0:0:0
182,192,159814,1,0,0:0:0:0:0
109,192,159906,1,0,0:0:0:0:0
182,192,159906,1,0,0:0:0:0:0
256,192,159999,1,0,0:0:0:0:0
329,192,159999,1,0,0:0:0:0:0
402,192,159999,1,0,0:0:0:0:0
475,192,159999,1,0,0:0:0:0:0
475,192,160369,1,0,0:0:0:0:0
402,192,160369,1,0,0:0:0:0:0
475,192,160462,1,0,0:0:0:0:0
402,192,160462,1,0,0:0:0:0:0
109,192,160554,1,0,0:0:0:0:0
109,192,160647,1,0,0:0:0:0:0
329,192,160740,1,0,0:0:0:0:0
402,192,160740,1,0,0:0:0:0:0
329,192,160832,1,0,0:0:0:0:0
402,192,160832,1,0,0:0:0:0:0
256,192,160925,1,0,0:0:0:0:0
256,192,161017,1,0,0:0:0:0:0
182,192,161110,1,0,0:0:0:0:0
109,192,161110,1,0,0:0:0:0:0
182,192,161203,1,0,0:0:0:0:0
109,192,161203,1,0,0:0:0:0:0
329,192,161295,1,0,0:0:0:0:0
402,192,161295,1,0,0:0:0:0:0
329,192,161388,1,0,0:0:0:0:0
402,192,161388,1,0,0:0:0:0:0
329,192,161480,1,0,0:0:0:0:0
402,192,161480,1,0,0:0:0:0:0
329,192,161573,1,0,0:0:0:0:0
402,192,161573,1,0,0:0:0:0:0
109,192,161666,1,0,0:0:0:0:0
109,192,161758,1,0,0:0:0:0:0
182,192,161851,1,0,0:0:0:0:0
256,192,161851,1,0,0:0:0:0:0
182,192,161943,1,0,0:0:0:0:0
256,192,161943,1,0,0:0:0:0:0
182,192,162036,1,0,0:0:0:0:0
256,192,162036,1,0,0:0:0:0:0
182,192,162129,1,0,0:0:0:0:0
256,192,162129,1,0,0:0:0:0:0
475,192,162221,1,0,0:0:0:0:0
402,192,162221,1,0,0:0:0:0:0
475,192,162314,1,0,0:0:0:0:0
402,192,162314,1,0,0:0:0:0:0
475,192,162406,1,0,0:0:0:0:0
402,192,162406,1,0,0:0:0:0:0
475,192,162499,1,0,0:0:0:0:0
402,192,162499,1,0,0:0:0:0:0
36,192,162592,1,0,0:0:0:0:0
182,192,162592,1,0,0:0:0:0:0
36,192,162684,1,0,0:0:0:0:0
182,192,162684,1,0,0:0:0:0:0
36,192,162777,1,0,0:0:0:0:0
182,192,162777,1,0,0:0:0:0:0
36,192,162869,1,0,0:0:0:0:0
182,192,162869,1,0,0:0:0:0:0
256,192,162962,1,0,0:0:0:0:0
329,192,162962,1,0,0:0:0:0:0
402,192,162962,1,0,0:0:0:0:0
475,192,162962,1,0,0:0:0:0:0
475,192,163332,1,0,0:0:0:0:0
402,192,163332,1,0,0:0:0:0:0
475,192,163425,1,0,0:0:0:0:0
402,192,163425,1,0,0:0:0:0:0
109,192,163517,1,0,0:0:0:0:0
109,192,163610,1,0,0:0:0:0:0
329,192,163703,1,0,0:0:0:0:0
402,192,163703,1,0,0:0:0:0:0
329,192,163795,1,0,0:0:0:0:0
402,192,163795,1,0,0:0:0:0:0
256,192,163888,1,0,0:0:0:0:0
256,192,163980,1,0,0:0:0:0:0
182,192,164073,1,0,0:0:0:0:0
109,192,164073,1,0,0:0:0:0:0
182,192,164166,1,0,0:0:0:0:0
109,192,164166,1,0,0:0:0:0:0
329,192,164258,1,0,0:0:0:0:0
402,192,164258,1,0,0:0:0:0:0
329,192,164351,1,0,0:0:0:0:0
402,192,164351,1,0,0:0:0:0:0
329,192,164443,1,0,0:0:0:0:0
402,192,164443,1,0,0:0:0:0:0
329,192,164536,1,0,0:0:0:0:0
402,192,164536,1,0,0:0:0:0:0
109,192,164629,1,0,0:0:0:0:0
109,192,164721,1,0,0:0:0:0:0
182,192,164814,1,0,0:0:0:0:0
256,192,164814,1,0,0:0:0:0:0
182,192,164906,1,0,0:0:0:0:0
256,192,164906,1,0,0:0:0:0:0
182,192,164999,1,0,0:0:0:0:0
256,192,164999,1,0,0:0:0:0:0
182,192,165092,1,0,0:0:0:0:0
256,192,165092,1,0,0:0:0:0:0
475,192,165184,1,0,0:0:0:0:0
402,192,165184,1,0,0:0:0:0:0
475,192,165277,1,0,0:0:0:0:0
402,192,165277,1,0,0:0:0:0:0
475,192,165369,1,0,0:0:0:0:0
402,192,165369,1,0,0:0:0:0:0
475,192,165462,1,0,0:0:0:0:0
402,192,165462,1,0,0:0:0:0:0
36,192,165554,1,0,0:0:0:0:0
182,192,165554,1,0,0:0:0:0:0
36,192,165647,1,0,0:0:0:0:0
182,192,165647,1,0,0:0:0:0:0
36,192,165740,1,0,0:0:0:0:0
182,192,165740,1,0,0:0:0:0:0
36,192,165832,1,0,0:0:0:0:0
182,192,165832,1,0,0:0:0:0:0
256,192,165925,1,0,0:0:0:0:0
329,192,165925,1,0,0:0:0:0:0
402,192,165925,1,0,0:0:0:0:0
475,192,165925,1,0,0:0:0:0:0
256,192,166295,1,0,0:0:0:0:0
329,192,166295,1,0,0:0:0:0:0
256,192,166388,1,0,0:0:0:0:0
329,192,166388,1,0,0:0:0:0:0
182,192,166480,1,0,0:0:0:0:0
182,192,166573,1,0,0:0:0:0:0
329,192,166666,1,0,0:0:0:0:0
402,192,166666,1,0,0:0:0:0:0
329,192,166758,1,0,0:0:0:0:0
402,192,166758,1,0,0:0:0:0:0
475,192,166851,1,0,0:0:0:0:0
475,192,166943,1,0,0:0:0:0:0
109,192,167036,1,0,0:0:0:0:0
182,192,167036,1,0,0:0:0:0:0
109,192,167129,1,0,0:0:0:0:0
182,192,167129,1,0,0:0:0:0:0
402,192,167221,1,0,0:0:0:0:0
329,192,167221,1,0,0:0:0:0:
402,192,167314,1,0,0:0:0:0:0
329,192,167314,1,0,0:0:0:0:
329,192,167406,1,0,0:0:0:0:0
402,192,167406,1,0,0:0:0:0:
329,192,167499,1,0,0:0:0:0:0
402,192,167499,1,0,0:0:0:0:
256,192,167592,1,0,0:0:0:0:0
256,192,167684,1,0,0:0:0:0:0
182,192,167777,1,0,0:0:0:0:0
36,192,167777,1,0,0:0:0:0:0
182,192,167869,1,0,0:0:0:0:0
36,192,167869,1,0,0:0:0:0:0
182,192,167962,1,0,0:0:0:0:0
36,192,167962,1,0,0:0:0:0:0
182,192,168054,1,0,0:0:0:0:0
36,192,168054,1,0,0:0:0:0:0
402,192,168147,1,0,0:0:0:0:0
329,192,168147,1,0,0:0:0:0:0
402,192,168240,1,0,0:0:0:0:0
329,192,168240,1,0,0:0:0:0:0
402,192,168332,1,0,0:0:0:0:0
329,192,168332,1,0,0:0:0:0:0
36,192,168517,1,0,0:0:0:0:0
109,192,168517,1,0,0:0:0:0:0
182,192,168517,1,0,0:0:0:0:0
256,192,168517,1,0,0:0:0:0:0
329,192,168517,1,0,0:0:0:0:0
402,192,168517,1,0,0:0:0:0:0
475,192,168517,1,0,0:0:0:0:0
109,192,168703,1,0,0:0:0:0:0
256,192,168703,1,0,0:0:0:0:0
182,192,169073,1,0,0:0:0:0:0
329,192,169073,1,0,0:0:0:0:0
256,192,169443,1,0,0:0:0:0:0
402,192,169443,1,0,0:0:0:0:0
329,192,169629,1,0,0:0:0:0:0
475,192,169629,1,0,0:0:0:0:0
182,192,169721,1,0,0:0:0:0:0
402,192,169814,1,0,0:0:0:0:0
256,192,169814,1,0,0:0:0:0:0
109,192,169906,1,0,0:0:0:0:0
329,192,169999,1,0,0:0:0:0:0
182,192,169999,1,0,0:0:0:0:0
475,192,169999,1,0,0:0:0:0:0
402,192,169999,1,0,0:0:0:0:0
36,192,170184,1,0,0:0:0:0:0
256,192,170184,1,0,0:0:0:0:0
109,192,170277,1,0,0:0:0:0:0
475,192,170369,1,0,0:0:0:0:0
182,192,170369,1,0,0:0:0:0:0
402,192,170554,1,0,0:0:0:0:0
109,192,170554,1,0,0:0:0:0:0
329,192,170647,1,0,0:0:0:0:0
36,192,170740,1,0,0:0:0:0:0
475,192,170740,1,0,0:0:0:0:0
256,192,170740,1,0,0:0:0:0:0
109,192,170925,1,0,0:0:0:0:0
402,192,170925,1,0,0:0:0:0:0
182,192,171017,1,0,0:0:0:0:0
256,192,171110,1,0,0:0:0:0:0
36,192,171110,1,0,0:0:0:0:0
402,192,171295,1,0,0:0:0:0:0
109,192,171295,1,0,0:0:0:0:0
329,192,171388,1,0,0:0:0:0:0
475,192,171480,1,0,0:0:0:0:0
109,192,171480,1,0,0:0:0:0:0
36,192,171480,1,0,0:0:0:0:0
256,192,171480,1,0,0:0:0:0:0
402,192,171666,1,0,0:0:0:0:0
182,192,171666,1,0,0:0:0:0:0
256,192,171758,1,0,0:0:0:0:0
329,192,171851,1,0,0:0:0:0:0
475,192,171851,1,0,0:0:0:0:0
402,192,172036,1,0,0:0:0:0:0
109,192,172036,1,0,0:0:0:0:0
329,192,172129,1,0,0:0:0:0:0
256,192,172221,1,0,0:0:0:0:0
36,192,172221,1,0,0:0:0:0:0
475,192,172221,1,0,0:0:0:0:0
109,192,172406,1,0,0:0:0:0:0
402,192,172406,1,0,0:0:0:0:0
182,192,172499,1,0,0:0:0:0:0
256,192,172592,1,0,0:0:0:0:0
475,192,172592,1,0,0:0:0:0:0
402,192,172777,1,0,0:0:0:0:0
109,192,172777,1,0,0:0:0:0:0
329,192,172869,1,0,0:0:0:0:0
256,192,172962,1,0,0:0:0:0:0
36,192,172962,1,0,0:0:0:0:0
475,192,172962,1,0,0:0:0:0:0
182,192,172962,1,0,0:0:0:0:0
402,192,173147,1,0,0:0:0:0:0
109,192,173147,1,0,0:0:0:0:0
182,192,173240,1,0,0:0:0:0:0
256,192,173332,1,0,0:0:0:0:0
475,192,173332,1,0,0:0:0:0:0
329,192,173517,1,0,0:0:0:0:0
109,192,173517,1,0,0:0:0:0:0
256,192,173610,1,0,0:0:0:0:0
182,192,173703,1,0,0:0:0:0:0
475,192,173703,1,0,0:0:0:0:0
36,192,173703,1,0,0:0:0:0:0
109,192,173888,1,0,0:0:0:0:0
402,192,173888,1,0,0:0:0:0:0
182,192,173980,1,0,0:0:0:0:0
256,192,174073,1,0,0:0:0:0:0
402,192,174258,1,0,0:0:0:0:0
109,192,174258,1,0,0:0:0:0:0
329,192,174351,1,0,0:0:0:0:0
256,192,174443,1,0,0:0:0:0:0
36,192,174443,1,0,0:0:0:0:0
475,192,174443,1,0,0:0:0:0:0
182,192,174443,1,0,0:0:0:0:0
329,192,174629,1,0,0:0:0:0:0
109,192,174629,1,0,0:0:0:0:0
182,192,174721,1,0,0:0:0:0:0
256,192,174814,1,0,0:0:0:0:0
402,192,174814,1,0,0:0:0:0:0
475,192,174999,1,0,0:0:0:0:0
109,192,174999,1,0,0:0:0:0:0
402,192,175092,1,0,0:0:0:0:0
329,192,175184,1,0,0:0:0:0:0
182,192,175184,1,0,0:0:0:0:0
36,192,175184,1,0,0:0:0:0:0
109,192,175369,1,0,0:0:0:0:0
475,192,175369,1,0,0:0:0:0:0
182,192,175462,1,0,0:0:0:0:0
256,192,175554,1,0,0:0:0:0:0
402,192,175554,1,0,0:0:0:0:0
36,192,175740,1,0,0:0:0:0:0
329,192,175740,1,0,0:0:0:0:0
109,192,175832,1,0,0:0:0:0:0
475,192,175925,5,0,0:0:0:0:0
402,192,175925,1,0,0:0:0:0:0
329,192,175925,1,0,0:0:0:0:0
182,192,175925,1,0,0:0:0:0:0
475,192,176017,1,0,0:0:0:0:0
402,192,176017,1,0,0:0:0:0:0
329,192,176017,1,0,0:0:0:0:0
475,192,176110,1,0,0:0:0:0:0
402,192,176110,1,0,0:0:0:0:0
329,192,176110,1,0,0:0:0:0:0
329,192,176203,1,0,0:0:0:0:0
402,192,176203,1,0,0:0:0:0:0
475,192,176203,1,0,0:0:0:0:0
329,192,176295,1,0,0:0:0:0:0
402,192,176295,1,0,0:0:0:0:0
475,192,176295,1,0,0:0:0:0:0
475,192,176388,1,0,0:0:0:0:0
329,192,176388,1,0,0:0:0:0:0
402,192,176388,1,0,0:0:0:0:0
475,192,176480,1,0,0:0:0:0:0
402,192,176480,1,0,0:0:0:0:0
329,192,176480,1,0,0:0:0:0:0
475,192,176573,1,0,0:0:0:0:0
402,192,176573,1,0,0:0:0:0:0
329,192,176573,1,0,0:0:0:0:0
182,192,176666,1,0,0:0:0:0:0
109,192,176666,1,0,0:0:0:0:0
36,192,176666,1,0,0:0:0:0:0
182,192,176758,1,0,0:0:0:0:0
109,192,176758,1,0,0:0:0:0:0
36,192,176758,1,0,0:0:0:0:0
329,192,176851,1,0,0:0:0:0:0
402,192,176851,1,0,0:0:0:0:0
475,192,176851,1,0,0:0:0:0:0
475,192,176943,1,0,0:0:0:0:0
402,192,176943,1,0,0:0:0:0:0
329,192,176943,1,0,0:0:0:0:0
182,192,177036,1,0,0:0:0:0:0
109,192,177036,1,0,0:0:0:0:0
36,192,177036,1,0,0:0:0:0:0
182,192,177129,1,0,0:0:0:0:0
109,192,177129,1,0,0:0:0:0:0
36,192,177129,1,0,0:0:0:0:0
329,192,177221,1,0,0:0:0:0:0
402,192,177221,1,0,0:0:0:0:0
475,192,177221,1,0,0:0:0:0:0
475,192,177314,1,0,0:0:0:0:0
402,192,177314,1,0,0:0:0:0:0
329,192,177314,1,0,0:0:0:0:0
182,192,177406,1,0,0:0:0:0:0
109,192,177406,1,0,0:0:0:0:0
36,192,177406,1,0,0:0:0:0:0
182,192,177499,1,0,0:0:0:0:0
109,192,177499,1,0,0:0:0:0:0
36,192,177499,1,0,0:0:0:0:0
36,192,177592,1,0,0:0:0:0:0
182,192,177592,1,0,0:0:0:0:0
109,192,177592,1,0,0:0:0:0:0
182,192,177684,1,0,0:0:0:0:0
36,192,177684,1,0,0:0:0:0:0
109,192,177684,1,0,0:0:0:0:0
109,192,177777,1,0,0:0:0:0:0
36,192,177777,1,0,0:0:0:0:0
182,192,177777,1,0,0:0:0:0:0
182,192,177869,1,0,0:0:0:0:0
36,192,177869,1,0,0:0:0:0:0
109,192,177869,1,0,0:0:0:0:0
182,192,177962,1,0,0:0:0:0:0
109,192,177962,1,0,0:0:0:0:0
36,192,177962,1,0,0:0:0:0:0
36,192,178054,1,0,0:0:0:0:0
109,192,178054,1,0,0:0:0:0:0
182,192,178054,1,0,0:0:0:0:0
329,192,178147,1,0,0:0:0:0:0
402,192,178147,1,0,0:0:0:0:0
475,192,178147,1,0,0:0:0:0:0
475,192,178240,1,0,0:0:0:0:0
402,192,178240,1,0,0:0:0:0:0
329,192,178240,1,0,0:0:0:0:0
182,192,178332,1,0,0:0:0:0:0
109,192,178332,1,0,0:0:0:0:0
36,192,178332,1,0,0:0:0:0:0
36,192,178425,1,0,0:0:0:0:0
109,192,178425,1,0,0:0:0:0:0
182,192,178425,1,0,0:0:0:0:0
329,192,178517,1,0,0:0:0:0:0
402,192,178517,1,0,0:0:0:0:0
475,192,178517,1,0,0:0:0:0:0
475,192,178610,1,0,0:0:0:0:0
402,192,178610,1,0,0:0:0:0:0
329,192,178610,1,0,0:0:0:0:0
182,192,178703,1,0,0:0:0:0:0
109,192,178703,1,0,0:0:0:0:0
36,192,178703,1,0,0:0:0:0:0
36,192,178795,1,0,0:0:0:0:0
109,192,178795,1,0,0:0:0:0:0
182,192,178795,1,0,0:0:0:0:0
402,192,178888,1,0,0:0:0:0:0
475,192,178888,1,0,0:0:0:0:0
329,192,178888,1,0,0:0:0:0:0
329,192,178980,1,0,0:0:0:0:0
475,192,178980,1,0,0:0:0:0:0
402,192,178980,1,0,0:0:0:0:0
402,192,179073,1,0,0:0:0:0:0
475,192,179073,1,0,0:0:0:0:0
329,192,179073,1,0,0:0:0:0:0
402,192,179166,1,0,0:0:0:0:0
329,192,179166,1,0,0:0:0:0:0
475,192,179166,1,0,0:0:0:0:0
475,192,179258,1,0,0:0:0:0:0
402,192,179258,1,0,0:0:0:0:0
329,192,179258,1,0,0:0:0:0:0
475,192,179351,1,0,0:0:0:0:0
402,192,179351,1,0,0:0:0:0:0
329,192,179351,1,0,0:0:0:0:0
475,192,179443,1,0,0:0:0:0:0
329,192,179443,1,0,0:0:0:0:0
402,192,179443,1,0,0:0:0:0:0
329,192,179536,1,0,0:0:0:0:0
402,192,179536,1,0,0:0:0:0:0
475,192,179536,1,0,0:0:0:0:0
182,192,179629,1,0,0:0:0:0:0
36,192,179629,1,0,0:0:0:0:0
109,192,179629,1,0,0:0:0:0:0
182,192,179721,1,0,0:0:0:0:0
109,192,179721,1,0,0:0:0:0:0
36,192,179721,1,0,0:0:0:0:0
329,192,179814,1,0,0:0:0:0:0
402,192,179814,1,0,0:0:0:0:0
475,192,179814,1,0,0:0:0:0:0
475,192,179906,1,0,0:0:0:0:0
402,192,179906,1,0,0:0:0:0:0
329,192,179906,1,0,0:0:0:0:0
109,192,179999,1,0,0:0:0:0:0
36,192,179999,1,0,0:0:0:0:0
182,192,179999,1,0,0:0:0:0:0
182,192,180092,1,0,0:0:0:0:0
109,192,180092,1,0,0:0:0:0:0
36,192,180092,1,0,0:0:0:0:0
329,192,180184,1,0,0:0:0:0:0
402,192,180184,1,0,0:0:0:0:0
475,192,180184,1,0,0:0:0:0:0
475,192,180277,1,0,0:0:0:0:0
402,192,180277,1,0,0:0:0:0:0
329,192,180277,1,0,0:0:0:0:0
182,192,180369,1,0,0:0:0:0:0
109,192,180369,1,0,0:0:0:0:0
36,192,180369,1,0,0:0:0:0:0
182,192,180462,1,0,0:0:0:0:0
109,192,180462,1,0,0:0:0:0:0
36,192,180462,1,0,0:0:0:0:0
36,192,180554,1,0,0:0:0:0:0
182,192,180554,1,0,0:0:0:0:0
109,192,180554,1,0,0:0:0:0:0
182,192,180647,1,0,0:0:0:0:0
36,192,180647,1,0,0:0:0:0:0
109,192,180647,1,0,0:0:0:0:0
109,192,180740,1,0,0:0:0:0:0
36,192,180740,1,0,0:0:0:0:0
182,192,180740,1,0,0:0:0:0:0
182,192,180832,1,0,0:0:0:0:0
36,192,180832,1,0,0:0:0:0:0
109,192,180832,1,0,0:0:0:0:0
182,192,180925,1,0,0:0:0:0:0
109,192,180925,1,0,0:0:0:0:0
36,192,180925,1,0,0:0:0:0:0
36,192,181017,1,0,0:0:0:0:0
109,192,181017,1,0,0:0:0:0:0
182,192,181017,1,0,0:0:0:0:0
329,192,181110,1,0,0:0:0:0:0
402,192,181110,1,0,0:0:0:0:0
475,192,181110,1,0,0:0:0:0:0
475,192,181203,1,0,0:0:0:0:0
402,192,181203,1,0,0:0:0:0:0
329,192,181203,1,0,0:0:0:0:0
182,192,181295,1,0,0:0:0:0:0
109,192,181295,1,0,0:0:0:0:0
36,192,181295,1,0,0:0:0:0:0
36,192,181388,1,0,0:0:0:0:0
109,192,181388,1,0,0:0:0:0:0
182,192,181388,1,0,0:0:0:0:0
329,192,181480,1,0,0:0:0:0:0
402,192,181480,1,0,0:0:0:0:0
475,192,181480,1,0,0:0:0:0:0
475,192,181573,1,0,0:0:0:0:0
402,192,181573,1,0,0:0:0:0:0
329,192,181573,1,0,0:0:0:0:0
182,192,181666,1,0,0:0:0:0:0
109,192,181666,1,0,0:0:0:0:0
36,192,181666,1,0,0:0:0:0:0
36,192,181758,1,0,0:0:0:0:0
109,192,181758,1,0,0:0:0:0:0
182,192,181758,1,0,0:0:0:0:0
402,192,181851,1,0,0:0:0:0:0
475,192,181851,1,0,0:0:0:0:0
329,192,181851,1,0,0:0:0:0:0
329,192,181943,1,0,0:0:0:0:0
475,192,181943,1,0,0:0:0:0:0
402,192,181943,1,0,0:0:0:0:0
402,192,182036,1,0,0:0:0:0:0
475,192,182036,1,0,0:0:0:0:0
329,192,182036,1,0,0:0:0:0:0
402,192,182129,1,0,0:0:0:0:0
329,192,182129,1,0,0:0:0:0:0
475,192,182129,1,0,0:0:0:0:0
475,192,182221,1,0,0:0:0:0:0
402,192,182221,1,0,0:0:0:0:0
329,192,182221,1,0,0:0:0:0:0
475,192,182314,1,0,0:0:0:0:0
402,192,182314,1,0,0:0:0:0:0
329,192,182314,1,0,0:0:0:0:0
475,192,182406,1,0,0:0:0:0:0
329,192,182406,1,0,0:0:0:0:0
402,192,182406,1,0,0:0:0:0:0
329,192,182499,1,0,0:0:0:0:0
402,192,182499,1,0,0:0:0:0:0
475,192,182499,1,0,0:0:0:0:0
182,192,182592,1,0,0:0:0:0:0
36,192,182592,1,0,0:0:0:0:0
109,192,182592,1,0,0:0:0:0:0
182,192,182684,1,0,0:0:0:0:0
109,192,182684,1,0,0:0:0:0:0
36,192,182684,1,0,0:0:0:0:0
329,192,182777,1,0,0:0:0:0:0
402,192,182777,1,0,0:0:0:0:0
475,192,182777,1,0,0:0:0:0:0
475,192,182869,1,0,0:0:0:0:0
402,192,182869,1,0,0:0:0:0:0
329,192,182869,1,0,0:0:0:0:0
109,192,182962,1,0,0:0:0:0:0
36,192,182962,1,0,0:0:0:0:0
182,192,182962,1,0,0:0:0:0:0
182,192,183054,1,0,0:0:0:0:0
109,192,183054,1,0,0:0:0:0:0
36,192,183054,1,0,0:0:0:0:0
329,192,183147,1,0,0:0:0:0:0
402,192,183147,1,0,0:0:0:0:0
475,192,183147,1,0,0:0:0:0:0
475,192,183240,1,0,0:0:0:0:0
402,192,183240,1,0,0:0:0:0:0
329,192,183240,1,0,0:0:0:0:0
36,192,183332,1,0,0:0:0:0:0
109,192,183332,1,0,0:0:0:0:0
182,192,183332,1,0,0:0:0:0:0
36,192,183425,1,0,0:0:0:0:0
109,192,183425,1,0,0:0:0:0:0
182,192,183425,1,0,0:0:0:0:0
109,192,183517,1,0,0:0:0:0:0
182,192,183517,1,0,0:0:0:0:0
36,192,183517,1,0,0:0:0:0:0
109,192,183610,1,0,0:0:0:0:0
36,192,183610,1,0,0:0:0:0:0
182,192,183610,1,0,0:0:0:0:0
182,192,183703,1,0,0:0:0:0:0
36,192,183703,1,0,0:0:0:0:0
109,192,183703,1,0,0:0:0:0:0
109,192,183795,1,0,0:0:0:0:0
36,192,183795,1,0,0:0:0:0:0
182,192,183795,1,0,0:0:0:0:0
36,192,183888,1,0,0:0:0:0:0
109,192,183888,1,0,0:0:0:0:0
182,192,183888,1,0,0:0:0:0:0
182,192,183980,1,0,0:0:0:0:0
109,192,183980,1,0,0:0:0:0:0
36,192,183980,1,0,0:0:0:0:0
475,192,184073,1,0,0:0:0:0:0
402,192,184073,1,0,0:0:0:0:0
329,192,184073,1,0,0:0:0:0:0
329,192,184166,1,0,0:0:0:0:0
402,192,184166,1,0,0:0:0:0:0
475,192,184166,1,0,0:0:0:0:0
36,192,184258,1,0,0:0:0:0:0
109,192,184258,1,0,0:0:0:0:0
182,192,184258,1,0,0:0:0:0:0
182,192,184351,1,0,0:0:0:0:0
109,192,184351,1,0,0:0:0:0:0
36,192,184351,1,0,0:0:0:0:0
475,192,184443,1,0,0:0:0:0:0
402,192,184443,1,0,0:0:0:0:0
329,192,184443,1,0,0:0:0:0:0
329,192,184536,1,0,0:0:0:0:0
402,192,184536,1,0,0:0:0:0:0
475,192,184536,1,0,0:0:0:0:0
36,192,184629,1,0,0:0:0:0:0
109,192,184629,1,0,0:0:0:0:0
182,192,184629,1,0,0:0:0:0:0
182,192,184721,1,0,0:0:0:0:0
109,192,184721,1,0,0:0:0:0:0
36,192,184721,1,0,0:0:0:0:0
329,192,184814,1,0,0:0:0:0:0
475,192,184814,1,0,0:0:0:0:0
402,192,184814,1,0,0:0:0:0:0
402,192,184906,1,0,0:0:0:0:0
475,192,184906,1,0,0:0:0:0:0
329,192,184906,1,0,0:0:0:0:0
329,192,184999,1,0,0:0:0:0:0
475,192,184999,1,0,0:0:0:0:0
402,192,184999,1,0,0:0:0:0:0
475,192,185092,1,0,0:0:0:0:0
329,192,185092,1,0,0:0:0:0:0
402,192,185092,1,0,0:0:0:0:0
329,192,185184,1,0,0:0:0:0:0
402,192,185184,1,0,0:0:0:0:0
475,192,185184,1,0,0:0:0:0:0
329,192,185277,1,0,0:0:0:0:0
402,192,185277,1,0,0:0:0:0:0
475,192,185277,1,0,0:0:0:0:0
402,192,185369,1,0,0:0:0:0:0
329,192,185369,1,0,0:0:0:0:0
475,192,185369,1,0,0:0:0:0:0
475,192,185462,1,0,0:0:0:0:0
402,192,185462,1,0,0:0:0:0:0
329,192,185462,1,0,0:0:0:0:0
109,192,185554,1,0,0:0:0:0:0
36,192,185554,1,0,0:0:0:0:0
182,192,185554,1,0,0:0:0:0:0
36,192,185647,1,0,0:0:0:0:0
109,192,185647,1,0,0:0:0:0:0
182,192,185647,1,0,0:0:0:0:0
475,192,185740,1,0,0:0:0:0:0
402,192,185740,1,0,0:0:0:0:0
329,192,185740,1,0,0:0:0:0:0
329,192,185832,1,0,0:0:0:0:0
402,192,185832,1,0,0:0:0:0:0
475,192,185832,1,0,0:0:0:0:0
182,192,185925,1,0,0:0:0:0:0
36,192,185925,1,0,0:0:0:0:0
109,192,185925,1,0,0:0:0:0:0
36,192,186017,1,0,0:0:0:0:0
109,192,186017,1,0,0:0:0:0:0
182,192,186017,1,0,0:0:0:0:0
475,192,186110,1,0,0:0:0:0:0
402,192,186110,1,0,0:0:0:0:0
329,192,186110,1,0,0:0:0:0:0
329,192,186203,1,0,0:0:0:0:0
402,192,186203,1,0,0:0:0:0:0
475,192,186203,1,0,0:0:0:0:0
182,192,186295,1,0,0:0:0:0:0
109,192,186295,1,0,0:0:0:0:0
36,192,186295,1,0,0:0:0:0:0
182,192,186388,1,0,0:0:0:0:0
109,192,186388,1,0,0:0:0:0:0
36,192,186388,1,0,0:0:0:0:0
36,192,186480,1,0,0:0:0:0:0
182,192,186480,1,0,0:0:0:0:0
109,192,186480,1,0,0:0:0:0:0
182,192,186573,1,0,0:0:0:0:0
36,192,186573,1,0,0:0:0:0:0
109,192,186573,1,0,0:0:0:0:0
109,192,186666,1,0,0:0:0:0:0
36,192,186666,1,0,0:0:0:0:0
182,192,186666,1,0,0:0:0:0:0
182,192,186758,1,0,0:0:0:0:0
36,192,186758,1,0,0:0:0:0:0
109,192,186758,1,0,0:0:0:0:0
182,192,186851,1,0,0:0:0:0:0
109,192,186851,1,0,0:0:0:0:0
36,192,186851,1,0,0:0:0:0:0
36,192,186943,1,0,0:0:0:0:0
109,192,186943,1,0,0:0:0:0:0
182,192,186943,1,0,0:0:0:0:0
329,192,187036,1,0,0:0:0:0:0
402,192,187036,1,0,0:0:0:0:0
475,192,187036,1,0,0:0:0:0:0
475,192,187129,1,0,0:0:0:0:0
402,192,187129,1,0,0:0:0:0:0
329,192,187129,1,0,0:0:0:0:0
182,192,187221,1,0,0:0:0:0:0
109,192,187221,1,0,0:0:0:0:0
36,192,187221,1,0,0:0:0:0:0
36,192,187314,1,0,0:0:0:0:0
109,192,187314,1,0,0:0:0:0:0
182,192,187314,1,0,0:0:0:0:0
329,192,187406,1,0,0:0:0:0:0
402,192,187406,1,0,0:0:0:0:0
475,192,187406,1,0,0:0:0:0:0
475,192,187499,1,0,0:0:0:0:0
402,192,187499,1,0,0:0:0:0:0
329,192,187499,1,0,0:0:0:0:0
182,192,187592,1,0,0:0:0:0:0
109,192,187592,1,0,0:0:0:0:0
36,192,187592,1,0,0:0:0:0:0
36,192,187684,1,0,0:0:0:0:0
109,192,187684,1,0,0:0:0:0:0
182,192,187684,1,0,0:0:0:0:0
256,192,187777,128,0,189258:0:0:0:0:
329,192,187777,128,0,189629:0:0:0:0:
402,192,187777,128,0,189999:0:0:0:0:
475,192,187777,128,0,190369:0:0:0:0:
