osu file format v14

[General]
AudioFilename: CG901B.mp3
AudioLeadIn: 0
PreviewTime: 65775
Countdown: 0
SampleSet: Normal
StackLeniency: 0.7
Mode: 3
LetterboxInBreaks: 0
SpecialStyle: 0
WidescreenStoryboard: 1

[Editor]
DistanceSpacing: 0.8
BeatDivisor: 4
GridSize: 8
TimelineZoom: 3.899999

[Metadata]
Title:CUNUJOY MEGAPACK
TitleUnicode:CUNUJOY MEGAPACK
Artist:Various Artists
ArtistUnicode:Various Artists
Creator:Elementaires
Version:CG901B
Source:BMS
Tags:
BeatmapID:2349474
BeatmapSetID:945425

[Difficulty]
HPDrainRate:8
CircleSize:7
OverallDifficulty:8
ApproachRate:5
SliderMultiplier:1.4
SliderTickRate:1

[Events]
//Background and Video events
0,0,"cg901b.png",0,0
//Break Periods
//Storyboard Layer 0 (Background)
//Storyboard Layer 1 (Fail)
//Storyboard Layer 2 (Pass)
//Storyboard Layer 3 (Foreground)
//Storyboard Layer 4 (Overlay)
//Storyboard Sound Samples

[TimingPoints]
-2,444.444444444444,4,1,0,0,1,0

[HitObjects]
109,192,1775,5,0,0:0:0:0:
109,192,1886,1,0,0:0:0:0:
256,192,1997,1,0,0:0:0:0:
256,192,2109,1,0,0:0:0:0:
402,192,2220,1,0,0:0:0:0:
402,192,2331,1,0,0:0:0:0:
329,192,2442,1,0,0:0:0:0:
329,192,2553,1,0,0:0:0:0:
256,192,2664,1,0,0:0:0:0:
256,192,2775,1,0,0:0:0:0:
182,192,2886,1,0,0:0:0:0:
475,192,2997,1,0,0:0:0:0:
475,192,3109,1,0,0:0:0:0:
475,192,3220,1,0,0:0:0:0:
109,192,3331,1,0,0:0:0:0:
109,192,3442,1,0,0:0:0:0:
36,192,3553,1,0,0:0:0:0:
36,192,3664,1,0,0:0:0:0:
36,192,3775,1,0,0:0:0:0:
256,192,3886,1,0,0:0:0:0:
256,192,3997,1,0,0:0:0:0:
256,192,4109,1,0,0:0:0:0:
402,192,4220,1,0,0:0:0:0:
402,192,4331,1,0,0:0:0:0:
182,192,4442,1,0,0:0:0:0:
182,192,4553,1,0,0:0:0:0:
182,192,4664,1,0,0:0:0:0:
182,192,4775,1,0,0:0:0:0:
182,192,4886,1,0,0:0:0:0:
182,192,4997,1,0,0:0:0:0:
182,192,5109,1,0,0:0:0:0:
402,192,5109,1,0,0:0:0:0:
475,192,5109,1,0,0:0:0:0:
182,192,5220,1,0,0:0:0:0:
182,192,5331,1,0,0:0:0:0:
256,192,5331,1,0,0:0:0:0:
329,192,5331,1,0,0:0:0:0:
402,192,5331,1,0,0:0:0:0:
475,192,5331,1,0,0:0:0:0:
182,192,5442,1,0,0:0:0:0:
182,192,5553,1,0,0:0:0:0:
36,192,5553,1,0,0:0:0:0:
182,192,5664,1,0,0:0:0:0:
36,192,5664,1,0,0:0:0:0:
182,192,5775,1,0,0:0:0:0:
36,192,5775,1,0,0:0:0:0:
402,192,5886,1,0,0:0:0:0:
475,192,5886,1,0,0:0:0:0:
402,192,5997,1,0,0:0:0:0:
475,192,5997,1,0,0:0:0:0:
402,192,6109,1,0,0:0:0:0:
475,192,6109,1,0,0:0:0:0:
182,192,6220,1,0,0:0:0:0:
109,192,6220,1,0,0:0:0:0:
109,192,6331,1,0,0:0:0:0:
182,192,6331,1,0,0:0:0:0:
109,192,6442,1,0,0:0:0:0:
182,192,6442,1,0,0:0:0:0:
256,192,6553,1,0,0:0:0:0:
402,192,6553,1,0,0:0:0:0:
256,192,6664,1,0,0:0:0:0:
402,192,6664,1,0,0:0:0:0:
402,192,6775,1,0,0:0:0:0:
256,192,6775,1,0,0:0:0:0:
329,192,6886,1,0,0:0:0:0:
182,192,6886,1,0,0:0:0:0:
36,192,6886,1,0,0:0:0:0:
475,192,6886,1,0,0:0:0:0:
182,192,6997,1,0,0:0:0:0:
329,192,6997,1,0,0:0:0:0:
36,192,6997,1,0,0:0:0:0:
475,192,6997,1,0,0:0:0:0:
329,192,7109,1,0,0:0:0:0:
182,192,7109,1,0,0:0:0:0:
36,192,7109,1,0,0:0:0:0:
475,192,7109,1,0,0:0:0:0:
256,192,7220,1,0,0:0:0:0:
402,192,7220,1,0,0:0:0:0:
182,192,7331,1,0,0:0:0:0:
36,192,7331,1,0,0:0:0:0:
109,192,7331,1,0,0:0:0:0:
109,192,7442,1,0,0:0:0:0:
182,192,7442,1,0,0:0:0:0:
36,192,7442,1,0,0:0:0:0:
402,192,7553,1,0,0:0:0:0:
475,192,7553,1,0,0:0:0:0:
329,192,7553,1,0,0:0:0:0:
36,192,7664,1,0,0:0:0:0:
109,192,7664,1,0,0:0:0:0:
182,192,7664,1,0,0:0:0:0:
182,192,7775,1,0,0:0:0:0:
109,192,7775,1,0,0:0:0:0:
36,192,7775,1,0,0:0:0:0:
329,192,7775,1,0,0:0:0:0:
402,192,7775,1,0,0:0:0:0:
475,192,7775,1,0,0:0:0:0:
109,192,7886,1,0,0:0:0:0:
182,192,7886,1,0,0:0:0:0:
36,192,7886,1,0,0:0:0:0:
329,192,7997,1,0,0:0:0:0:
256,192,7997,1,0,0:0:0:0:
402,192,7997,1,0,0:0:0:0:
475,192,7997,1,0,0:0:0:0:
402,192,8109,1,0,0:0:0:0:
475,192,8109,1,0,0:0:0:0:
329,192,8109,1,0,0:0:0:0:
109,192,8220,1,0,0:0:0:0:
36,192,8220,1,0,0:0:0:0:
182,192,8220,1,0,0:0:0:0:
182,192,8331,1,0,0:0:0:0:
109,192,8331,1,0,0:0:0:0:
36,192,8331,1,0,0:0:0:0:
109,192,8442,1,0,0:0:0:0:
36,192,8442,1,0,0:0:0:0:
182,192,8442,1,0,0:0:0:0:
182,192,8553,1,0,0:0:0:0:
36,192,8553,1,0,0:0:0:0:
109,192,8553,1,0,0:0:0:0:
402,192,8664,1,0,0:0:0:0:
182,192,8664,1,0,0:0:0:0:
109,192,8664,1,0,0:0:0:0:
36,192,8664,1,0,0:0:0:0:
329,192,8664,1,0,0:0:0:0:
256,192,8664,1,0,0:0:0:0:
475,192,8664,1,0,0:0:0:0:
182,192,8886,1,0,0:0:0:0:
109,192,8886,1,0,0:0:0:0:
36,192,8886,1,0,0:0:0:0:
329,192,8886,1,0,0:0:0:0:
402,192,8886,1,0,0:0:0:0:
475,192,8886,1,0,0:0:0:0:
256,192,8886,1,0,0:0:0:0:
402,192,8997,1,0,0:0:0:0:
475,192,8997,1,0,0:0:0:0:
36,192,9109,1,0,0:0:0:0:
109,192,9109,1,0,0:0:0:0:
36,192,9220,1,0,0:0:0:0:
109,192,9220,1,0,0:0:0:0:
256,192,9331,1,0,0:0:0:0:
402,192,9331,1,0,0:0:0:0:
256,192,9442,1,0,0:0:0:0:
402,192,9442,1,0,0:0:0:0:
182,192,9553,1,0,0:0:0:0:
109,192,9553,1,0,0:0:0:0:
36,192,9553,1,0,0:0:0:0:
36,192,9664,1,0,0:0:0:0:
182,192,9664,1,0,0:0:0:0:
109,192,9664,1,0,0:0:0:0:
36,192,9775,1,0,0:0:0:0:
109,192,9775,1,0,0:0:0:0:
182,192,9775,1,0,0:0:0:0:
182,192,9886,1,0,0:0:0:0:
36,192,9886,1,0,0:0:0:0:
109,192,9886,1,0,0:0:0:0:
36,192,9997,1,0,0:0:0:0:
182,192,9997,1,0,0:0:0:0:
109,192,9997,1,0,0:0:0:0:
182,192,10109,1,0,0:0:0:0:
109,192,10109,1,0,0:0:0:0:
36,192,10109,1,0,0:0:0:0:
182,192,10220,1,0,0:0:0:0:
109,192,10220,1,0,0:0:0:0:
36,192,10220,1,0,0:0:0:0:
109,192,10331,1,0,0:0:0:0:
182,192,10331,1,0,0:0:0:0:
36,192,10331,1,0,0:0:0:0:
36,192,10442,1,0,0:0:0:0:
109,192,10442,1,0,0:0:0:0:
182,192,10442,1,0,0:0:0:0:
182,192,10553,1,0,0:0:0:0:
109,192,10553,1,0,0:0:0:0:
36,192,10553,1,0,0:0:0:0:
475,192,10664,1,0,0:0:0:0:
256,192,10664,1,0,0:0:0:0:
256,192,10775,1,0,0:0:0:0:
475,192,10775,1,0,0:0:0:0:
329,192,10886,1,0,0:0:0:0:
402,192,10886,1,0,0:0:0:0:
329,192,10997,1,0,0:0:0:0:
402,192,10997,1,0,0:0:0:0:
109,192,11109,1,0,0:0:0:0:
36,192,11109,1,0,0:0:0:0:
36,192,11220,1,0,0:0:0:0:
109,192,11220,1,0,0:0:0:0:
329,192,11331,1,0,0:0:0:0:
402,192,11331,1,0,0:0:0:0:
475,192,11331,1,0,0:0:0:0:
329,192,11442,1,0,0:0:0:0:
475,192,11442,1,0,0:0:0:0:
402,192,11442,1,0,0:0:0:0:
402,192,11553,1,0,0:0:0:0:
475,192,11553,1,0,0:0:0:0:
329,192,11553,1,0,0:0:0:0:
329,192,11664,1,0,0:0:0:0:
402,192,11664,1,0,0:0:0:0:
475,192,11664,1,0,0:0:0:0:
329,192,11775,1,0,0:0:0:0:
402,192,11775,1,0,0:0:0:0:
475,192,11775,1,0,0:0:0:0:
329,192,11886,1,0,0:0:0:0:
402,192,11886,1,0,0:0:0:0:
475,192,11886,1,0,0:0:0:0:
329,192,11997,1,0,0:0:0:0:
402,192,11997,1,0,0:0:0:0:
475,192,11997,1,0,0:0:0:0:
329,192,12109,1,0,0:0:0:0:
402,192,12109,1,0,0:0:0:0:
475,192,12109,1,0,0:0:0:0:
329,192,12220,1,0,0:0:0:0:
475,192,12220,1,0,0:0:0:0:
402,192,12220,1,0,0:0:0:0:
329,192,12331,1,0,0:0:0:0:
402,192,12331,1,0,0:0:0:0:
475,192,12331,1,0,0:0:0:0:
182,192,12442,1,0,0:0:0:0:
36,192,12442,1,0,0:0:0:0:
36,192,12553,1,0,0:0:0:0:
182,192,12553,1,0,0:0:0:0:
109,192,12664,1,0,0:0:0:0:
475,192,12664,1,0,0:0:0:0:
109,192,12775,1,0,0:0:0:0:
475,192,12775,1,0,0:0:0:0:
256,192,12886,1,0,0:0:0:0:
402,192,12886,1,0,0:0:0:0:
256,192,12997,1,0,0:0:0:0:
402,192,12997,1,0,0:0:0:0:
329,192,13109,1,0,0:0:0:0:
182,192,13109,1,0,0:0:0:0:
36,192,13109,1,0,0:0:0:0:
36,192,13220,1,0,0:0:0:0:
182,192,13220,1,0,0:0:0:0:
329,192,13220,1,0,0:0:0:0:
329,192,13331,1,0,0:0:0:0:
182,192,13331,1,0,0:0:0:0:
36,192,13331,1,0,0:0:0:0:
36,192,13442,1,0,0:0:0:0:
182,192,13442,1,0,0:0:0:0:
329,192,13442,1,0,0:0:0:0:
329,192,13553,1,0,0:0:0:0:
182,192,13553,1,0,0:0:0:0:
36,192,13553,1,0,0:0:0:0:
36,192,13664,1,0,0:0:0:0:
182,192,13664,1,0,0:0:0:0:
329,192,13664,1,0,0:0:0:0:
329,192,13775,1,0,0:0:0:0:
182,192,13775,1,0,0:0:0:0:
36,192,13775,1,0,0:0:0:0:
36,192,13886,1,0,0:0:0:0:
182,192,13886,1,0,0:0:0:0:
329,192,13886,1,0,0:0:0:0:
329,192,13997,1,0,0:0:0:0:
182,192,13997,1,0,0:0:0:0:
36,192,13997,1,0,0:0:0:0:
36,192,14109,1,0,0:0:0:0:
182,192,14109,1,0,0:0:0:0:
329,192,14109,1,0,0:0:0:0:
256,192,14220,1,0,0:0:0:0:
402,192,14220,1,0,0:0:0:0:
256,192,14331,1,0,0:0:0:0:
402,192,14331,1,0,0:0:0:0:
36,192,14442,1,0,0:0:0:0:
109,192,14442,1,0,0:0:0:0:
36,192,14553,1,0,0:0:0:0:
109,192,14553,1,0,0:0:0:0:
182,192,14664,1,0,0:0:0:0:
329,192,14664,1,0,0:0:0:0:
182,192,14775,1,0,0:0:0:0:
329,192,14775,1,0,0:0:0:0:
256,192,14886,1,0,0:0:0:0:
402,192,14886,1,0,0:0:0:0:
475,192,14886,1,0,0:0:0:0:
256,192,14997,1,0,0:0:0:0:
475,192,14997,1,0,0:0:0:0:
402,192,14997,1,0,0:0:0:0:
256,192,15109,1,0,0:0:0:0:
402,192,15109,1,0,0:0:0:0:
475,192,15109,1,0,0:0:0:0:
475,192,15220,1,0,0:0:0:0:
402,192,15220,1,0,0:0:0:0:
256,192,15220,1,0,0:0:0:0:
256,192,15331,1,0,0:0:0:0:
402,192,15331,1,0,0:0:0:0:
475,192,15331,1,0,0:0:0:0:
475,192,15442,1,0,0:0:0:0:
402,192,15442,1,0,0:0:0:0:
256,192,15442,1,0,0:0:0:0:
256,192,15553,1,0,0:0:0:0:
402,192,15553,1,0,0:0:0:0:
475,192,15553,1,0,0:0:0:0:
475,192,15664,1,0,0:0:0:0:
402,192,15664,1,0,0:0:0:0:
256,192,15664,1,0,0:0:0:0:
256,192,15775,1,0,0:0:0:0:
402,192,15775,1,0,0:0:0:0:
475,192,15775,1,0,0:0:0:0:
475,192,15886,1,0,0:0:0:0:
402,192,15886,1,0,0:0:0:0:
256,192,15886,1,0,0:0:0:0:
329,192,15997,1,0,0:0:0:0:
36,192,15997,1,0,0:0:0:0:
36,192,16109,1,0,0:0:0:0:
329,192,16109,1,0,0:0:0:0:
109,192,16220,1,0,0:0:0:0:
402,192,16220,1,0,0:0:0:0:
109,192,16331,1,0,0:0:0:0:
402,192,16331,1,0,0:0:0:0:
182,192,16442,1,0,0:0:0:0:
475,192,16442,1,0,0:0:0:0:
182,192,16553,1,0,0:0:0:0:
475,192,16553,1,0,0:0:0:0:
329,192,16664,1,0,0:0:0:0:
402,192,16664,1,0,0:0:0:0:
36,192,16664,1,0,0:0:0:0:
329,192,16775,1,0,0:0:0:0:
402,192,16775,1,0,0:0:0:0:
36,192,16775,1,0,0:0:0:0:
36,192,16886,1,0,0:0:0:0:
329,192,16886,1,0,0:0:0:0:
402,192,16886,1,0,0:0:0:0:
402,192,16997,1,0,0:0:0:0:
329,192,16997,1,0,0:0:0:0:
36,192,16997,1,0,0:0:0:0:
36,192,17109,1,0,0:0:0:0:
329,192,17109,1,0,0:0:0:0:
402,192,17109,1,0,0:0:0:0:
402,192,17220,1,0,0:0:0:0:
329,192,17220,1,0,0:0:0:0:
36,192,17220,1,0,0:0:0:0:
36,192,17331,1,0,0:0:0:0:
329,192,17331,1,0,0:0:0:0:
402,192,17331,1,0,0:0:0:0:
402,192,17442,1,0,0:0:0:0:
329,192,17442,1,0,0:0:0:0:
36,192,17442,1,0,0:0:0:0:
36,192,17553,1,0,0:0:0:0:
329,192,17553,1,0,0:0:0:0:
402,192,17553,1,0,0:0:0:0:
402,192,17664,1,0,0:0:0:0:
36,192,17664,1,0,0:0:0:0:
329,192,17664,1,0,0:0:0:0:
109,192,17775,1,0,0:0:0:0:
182,192,17775,1,0,0:0:0:0:
109,192,17886,1,0,0:0:0:0:
182,192,17886,1,0,0:0:0:0:
402,192,17997,1,0,0:0:0:0:
475,192,17997,1,0,0:0:0:0:
402,192,18109,1,0,0:0:0:0:
475,192,18109,1,0,0:0:0:0:
109,192,18220,1,0,0:0:0:0:
36,192,18220,1,0,0:0:0:0:
109,192,18331,1,0,0:0:0:0:
36,192,18331,1,0,0:0:0:0:
182,192,18442,1,0,0:0:0:0:
256,192,18442,1,0,0:0:0:0:
329,192,18442,1,0,0:0:0:0:
182,192,18553,1,0,0:0:0:0:
256,192,18553,1,0,0:0:0:0:
329,192,18553,1,0,0:0:0:0:
182,192,18664,1,0,0:0:0:0:
256,192,18664,1,0,0:0:0:0:
329,192,18664,1,0,0:0:0:0:
182,192,18775,1,0,0:0:0:0:
256,192,18775,1,0,0:0:0:0:
329,192,18775,1,0,0:0:0:0:
329,192,18886,1,0,0:0:0:0:
256,192,18886,1,0,0:0:0:0:
182,192,18886,1,0,0:0:0:0:
182,192,18997,1,0,0:0:0:0:
256,192,18997,1,0,0:0:0:0:
329,192,18997,1,0,0:0:0:0:
182,192,19109,1,0,0:0:0:0:
256,192,19109,1,0,0:0:0:0:
329,192,19109,1,0,0:0:0:0:
329,192,19220,1,0,0:0:0:0:
256,192,19220,1,0,0:0:0:0:
182,192,19220,1,0,0:0:0:0:
182,192,19331,1,0,0:0:0:0:
256,192,19331,1,0,0:0:0:0:
329,192,19331,1,0,0:0:0:0:
182,192,19442,1,0,0:0:0:0:
256,192,19442,1,0,0:0:0:0:
329,192,19442,1,0,0:0:0:0:
36,192,19553,1,0,0:0:0:0:
475,192,19553,1,0,0:0:0:0:
36,192,19664,1,0,0:0:0:0:
475,192,19664,1,0,0:0:0:0:
182,192,19775,1,0,0:0:0:0:
329,192,19775,1,0,0:0:0:0:
182,192,19886,1,0,0:0:0:0:
329,192,19886,1,0,0:0:0:0:
109,192,19997,1,0,0:0:0:0:
402,192,19997,1,0,0:0:0:0:
109,192,20109,1,0,0:0:0:0:
402,192,20109,1,0,0:0:0:0:
182,192,20220,1,0,0:0:0:0:
329,192,20220,1,0,0:0:0:0:
475,192,20220,1,0,0:0:0:0:
182,192,20331,1,0,0:0:0:0:
329,192,20331,1,0,0:0:0:0:
475,192,20331,1,0,0:0:0:0:
329,192,20442,1,0,0:0:0:0:
182,192,20442,1,0,0:0:0:0:
475,192,20442,1,0,0:0:0:0:
475,192,20553,1,0,0:0:0:0:
329,192,20553,1,0,0:0:0:0:
182,192,20553,1,0,0:0:0:0:
329,192,20664,1,0,0:0:0:0:
182,192,20664,1,0,0:0:0:0:
475,192,20664,1,0,0:0:0:0:
182,192,20775,1,0,0:0:0:0:
329,192,20775,1,0,0:0:0:0:
475,192,20775,1,0,0:0:0:0:
475,192,20886,5,0,0:0:0:0:
329,192,20886,1,0,0:0:0:0:
182,192,20886,1,0,0:0:0:0:
182,192,20997,1,0,0:0:0:0:
329,192,20997,1,0,0:0:0:0:
475,192,20997,1,0,0:0:0:0:
475,192,21109,1,0,0:0:0:0:
329,192,21109,1,0,0:0:0:0:
182,192,21109,1,0,0:0:0:0:
182,192,21220,1,0,0:0:0:0:
329,192,21220,1,0,0:0:0:0:
475,192,21220,1,0,0:0:0:0:
109,192,21331,1,0,0:0:0:0:
36,192,21331,1,0,0:0:0:0:
36,192,21442,1,0,0:0:0:0:
109,192,21442,1,0,0:0:0:0:
402,192,21553,1,0,0:0:0:0:
475,192,21553,1,0,0:0:0:0:
402,192,21664,1,0,0:0:0:0:
475,192,21664,1,0,0:0:0:0:
109,192,21775,1,0,0:0:0:0:
36,192,21775,1,0,0:0:0:0:
36,192,21886,1,0,0:0:0:0:
109,192,21886,1,0,0:0:0:0:
402,192,21997,1,0,0:0:0:0:
475,192,21997,1,0,0:0:0:0:
109,192,22109,1,0,0:0:0:0:
36,192,22109,1,0,0:0:0:0:
256,192,22220,1,0,0:0:0:0:
329,192,22220,1,0,0:0:0:0:
475,192,22220,1,0,0:0:0:0:
402,192,22220,1,0,0:0:0:0:
402,192,22331,1,0,0:0:0:0:
256,192,22331,1,0,0:0:0:0:
329,192,22331,1,0,0:0:0:0:
475,192,22331,1,0,0:0:0:0:
256,192,22442,1,0,0:0:0:0:
329,192,22442,1,0,0:0:0:0:
475,192,22442,1,0,0:0:0:0:
402,192,22442,1,0,0:0:0:0:
402,192,22553,1,0,0:0:0:0:
329,192,22553,1,0,0:0:0:0:
256,192,22553,1,0,0:0:0:0:
475,192,22553,1,0,0:0:0:0:
256,192,22664,1,0,0:0:0:0:
329,192,22664,1,0,0:0:0:0:
475,192,22664,1,0,0:0:0:0:
402,192,22664,1,0,0:0:0:0:
256,192,22775,1,0,0:0:0:0:
329,192,22775,1,0,0:0:0:0:
402,192,22775,1,0,0:0:0:0:
475,192,22775,1,0,0:0:0:0:
256,192,22886,1,0,0:0:0:0:
402,192,22886,1,0,0:0:0:0:
475,192,22886,1,0,0:0:0:0:
329,192,22886,1,0,0:0:0:0:
329,192,22997,1,0,0:0:0:0:
256,192,22997,1,0,0:0:0:0:
402,192,22997,1,0,0:0:0:0:
475,192,22997,1,0,0:0:0:0:
256,192,23109,1,0,0:0:0:0:
402,192,23109,1,0,0:0:0:0:
475,192,23109,1,0,0:0:0:0:
329,192,23109,1,0,0:0:0:0:
182,192,23109,1,0,0:0:0:0:
109,192,23109,1,0,0:0:0:0:
36,192,23109,1,0,0:0:0:0:
402,192,23442,1,0,0:0:0:0:
109,192,23553,1,0,0:0:0:0:
36,192,23553,1,0,0:0:0:0:
475,192,23775,1,0,0:0:0:0:
182,192,23886,1,0,0:0:0:0:
36,192,23886,1,0,0:0:0:0:
256,192,23997,1,0,0:0:0:0:
182,192,24109,1,0,0:0:0:0:
256,192,24220,1,0,0:0:0:0:
36,192,24220,1,0,0:0:0:0:
36,192,24442,1,0,0:0:0:0:
36,192,24886,1,0,0:0:0:0:
109,192,24886,1,0,0:0:0:0:
256,192,24886,1,0,0:0:0:0:
329,192,24886,1,0,0:0:0:0:
475,192,24886,1,0,0:0:0:0:
402,192,25220,1,0,0:0:0:0:
475,192,25553,1,0,0:0:0:0:
182,192,25775,1,0,0:0:0:0:
36,192,25886,1,0,0:0:0:0:
182,192,25997,1,0,0:0:0:0:
36,192,26220,1,0,0:0:0:0:
109,192,26442,1,0,0:0:0:0:
36,192,26664,1,0,0:0:0:0:
182,192,26664,1,0,0:0:0:0:
256,192,26664,1,0,0:0:0:0:
329,192,26664,1,0,0:0:0:0:
402,192,26664,1,0,0:0:0:0:
475,192,26664,1,0,0:0:0:0:
256,192,26997,1,0,0:0:0:0:
402,192,27109,1,0,0:0:0:0:
109,192,27109,1,0,0:0:0:0:
182,192,27331,1,0,0:0:0:0:
36,192,27442,1,0,0:0:0:0:
475,192,27442,1,0,0:0:0:0:
329,192,27553,1,0,0:0:0:0:
256,192,27664,1,0,0:0:0:0:
329,192,27775,1,0,0:0:0:0:
36,192,27775,1,0,0:0:0:0:
36,192,27997,1,0,0:0:0:0:
329,192,28331,1,0,0:0:0:0:
109,192,28442,1,0,0:0:0:0:
402,192,28442,1,0,0:0:0:0:
402,192,28775,1,0,0:0:0:0:
182,192,29331,1,0,0:0:0:0:
36,192,29553,1,0,0:0:0:0:
182,192,29553,1,0,0:0:0:0:
36,192,29775,1,0,0:0:0:0:
36,192,30220,1,0,0:0:0:0:
182,192,30220,1,0,0:0:0:0:
256,192,30220,1,0,0:0:0:0:
329,192,30220,1,0,0:0:0:0:
475,192,30220,1,0,0:0:0:0:
402,192,30553,1,0,0:0:0:0:
109,192,30664,1,0,0:0:0:0:
36,192,30664,1,0,0:0:0:0:
475,192,30886,1,0,0:0:0:0:
256,192,30997,1,0,0:0:0:0:
36,192,30997,1,0,0:0:0:0:
109,192,31109,1,0,0:0:0:0:
329,192,31220,1,0,0:0:0:0:
109,192,31331,1,0,0:0:0:0:
36,192,31331,1,0,0:0:0:0:
36,192,31553,1,0,0:0:0:0:
109,192,31775,1,0,0:0:0:0:
182,192,31886,1,0,0:0:0:0:
109,192,31997,1,0,0:0:0:0:
36,192,31997,1,0,0:0:0:0:
256,192,31997,1,0,0:0:0:0:
475,192,31997,1,0,0:0:0:0:
329,192,31997,1,0,0:0:0:0:
402,192,32442,1,0,0:0:0:0:
475,192,32664,1,0,0:0:0:0:
256,192,32886,1,0,0:0:0:0:
182,192,32997,1,0,0:0:0:0:
256,192,33109,1,0,0:0:0:0:
36,192,33331,1,0,0:0:0:0:
256,192,33553,1,0,0:0:0:0:
256,192,33664,1,0,0:0:0:0:
36,192,33775,1,0,0:0:0:0:
109,192,33775,1,0,0:0:0:0:
329,192,33775,1,0,0:0:0:0:
256,192,33775,1,0,0:0:0:0:
475,192,33775,1,0,0:0:0:0:
182,192,33775,1,0,0:0:0:0:
402,192,33775,1,0,0:0:0:0:
256,192,34220,1,0,0:0:0:0:
36,192,34220,1,0,0:0:0:0:
36,192,34553,1,0,0:0:0:0:
329,192,34553,1,0,0:0:0:0:
402,192,34664,1,0,0:0:0:0:
36,192,34886,1,0,0:0:0:0:
402,192,34886,1,0,0:0:0:0:
36,192,35109,1,0,0:0:0:0:
256,192,35331,1,0,0:0:0:0:
256,192,35442,1,0,0:0:0:0:
36,192,35553,1,0,0:0:0:0:
256,192,35553,1,0,0:0:0:0:
329,192,35553,1,0,0:0:0:0:
475,192,35553,1,0,0:0:0:0:
402,192,35553,1,0,0:0:0:0:
109,192,35553,1,0,0:0:0:0:
182,192,35553,1,0,0:0:0:0:
182,192,35664,1,0,0:0:0:0:
109,192,35664,1,0,0:0:0:0:
36,192,35664,1,0,0:0:0:0:
36,192,35775,1,0,0:0:0:0:
109,192,35775,1,0,0:0:0:0:
182,192,35775,1,0,0:0:0:0:
182,192,35886,1,0,0:0:0:0:
109,192,35886,1,0,0:0:0:0:
36,192,35886,1,0,0:0:0:0:
402,192,35997,1,0,0:0:0:0:
256,192,35997,1,0,0:0:0:0:
329,192,35997,1,0,0:0:0:0:
475,192,35997,1,0,0:0:0:0:
475,192,36109,1,0,0:0:0:0:
402,192,36109,1,0,0:0:0:0:
329,192,36109,1,0,0:0:0:0:
256,192,36109,1,0,0:0:0:0:
402,192,36220,1,0,0:0:0:0:
256,192,36220,1,0,0:0:0:0:
329,192,36220,1,0,0:0:0:0:
475,192,36220,1,0,0:0:0:0:
475,192,36331,1,0,0:0:0:0:
402,192,36331,1,0,0:0:0:0:
329,192,36331,1,0,0:0:0:0:
256,192,36331,1,0,0:0:0:0:
182,192,36442,1,0,0:0:0:0:
36,192,36442,1,0,0:0:0:0:
109,192,36442,1,0,0:0:0:0:
109,192,36553,1,0,0:0:0:0:
182,192,36553,1,0,0:0:0:0:
36,192,36553,1,0,0:0:0:0:
182,192,36664,1,0,0:0:0:0:
109,192,36664,1,0,0:0:0:0:
36,192,36664,1,0,0:0:0:0:
109,192,36775,1,0,0:0:0:0:
36,192,36775,1,0,0:0:0:0:
182,192,36775,1,0,0:0:0:0:
256,192,36886,1,0,0:0:0:0:
402,192,36886,1,0,0:0:0:0:
329,192,36886,1,0,0:0:0:0:
475,192,36886,1,0,0:0:0:0:
475,192,36997,1,0,0:0:0:0:
402,192,36997,1,0,0:0:0:0:
329,192,36997,1,0,0:0:0:0:
256,192,36997,1,0,0:0:0:0:
256,192,37109,1,0,0:0:0:0:
402,192,37109,1,0,0:0:0:0:
329,192,37109,1,0,0:0:0:0:
475,192,37109,1,0,0:0:0:0:
329,192,37220,1,0,0:0:0:0:
256,192,37220,1,0,0:0:0:0:
402,192,37220,1,0,0:0:0:0:
475,192,37220,1,0,0:0:0:0:
109,192,37331,1,0,0:0:0:0:
36,192,37331,1,0,0:0:0:0:
256,192,37331,1,0,0:0:0:0:
402,192,37331,1,0,0:0:0:0:
329,192,37331,1,0,0:0:0:0:
475,192,37331,1,0,0:0:0:0:
182,192,37331,1,0,0:0:0:0:
475,192,37442,1,0,0:0:0:0:
329,192,37553,1,0,0:0:0:0:
36,192,37664,1,0,0:0:0:0:
329,192,37997,1,0,0:0:0:0:
36,192,37997,1,0,0:0:0:0:
475,192,37997,1,0,0:0:0:0:
475,192,38109,1,0,0:0:0:0:
329,192,38442,1,0,0:0:0:0:
475,192,38664,1,0,0:0:0:0:
475,192,38775,1,0,0:0:0:0:
329,192,38886,1,0,0:0:0:0:
475,192,38886,1,0,0:0:0:0:
475,192,38997,1,0,0:0:0:0:
109,192,39109,1,0,0:0:0:0:
256,192,39109,1,0,0:0:0:0:
329,192,39331,1,0,0:0:0:0:
36,192,39331,1,0,0:0:0:0:
109,192,39442,1,0,0:0:0:0:
36,192,39442,1,0,0:0:0:0:
36,192,39553,1,0,0:0:0:0:
329,192,39775,1,0,0:0:0:0:
109,192,39775,1,0,0:0:0:0:
36,192,39775,1,0,0:0:0:0:
36,192,39886,1,0,0:0:0:0:
329,192,40220,1,0,0:0:0:0:
36,192,40331,1,0,0:0:0:0:
36,192,40442,1,0,0:0:0:0:
36,192,40553,1,0,0:0:0:0:
329,192,40664,1,0,0:0:0:0:
36,192,40664,1,0,0:0:0:0:
36,192,40775,1,0,0:0:0:0:
475,192,40886,1,0,0:0:0:0:
329,192,41109,1,0,0:0:0:0:
182,192,41220,1,0,0:0:0:0:
182,192,41331,1,0,0:0:0:0:
182,192,41442,1,0,0:0:0:0:
329,192,41553,1,0,0:0:0:0:
182,192,41553,1,0,0:0:0:0:
182,192,41664,1,0,0:0:0:0:
402,192,41775,1,0,0:0:0:0:
36,192,41775,1,0,0:0:0:0:
329,192,41997,1,0,0:0:0:0:
402,192,41997,1,0,0:0:0:0:
402,192,42109,1,0,0:0:0:0:
402,192,42220,1,0,0:0:0:0:
402,192,42331,1,0,0:0:0:0:
329,192,42442,1,0,0:0:0:0:
402,192,42442,1,0,0:0:0:0:
402,192,42553,1,0,0:0:0:0:
182,192,42664,1,0,0:0:0:0:
36,192,42664,1,0,0:0:0:0:
109,192,42775,1,0,0:0:0:0:
329,192,42886,1,0,0:0:0:0:
109,192,42886,1,0,0:0:0:0:
109,192,42997,1,0,0:0:0:0:
109,192,43109,1,0,0:0:0:0:
109,192,43220,1,0,0:0:0:0:
329,192,43331,1,0,0:0:0:0:
109,192,43331,1,0,0:0:0:0:
109,192,43442,1,0,0:0:0:0:
109,192,43553,1,0,0:0:0:0:
36,192,43553,1,0,0:0:0:0:
329,192,43775,1,0,0:0:0:0:
475,192,43775,1,0,0:0:0:0:
475,192,43886,1,0,0:0:0:0:
256,192,43997,1,0,0:0:0:0:
402,192,43997,1,0,0:0:0:0:
109,192,43997,1,0,0:0:0:0:
475,192,43997,1,0,0:0:0:0:
475,192,44109,1,0,0:0:0:0:
329,192,44220,1,0,0:0:0:0:
475,192,44220,1,0,0:0:0:0:
475,192,44331,1,0,0:0:0:0:
182,192,44442,1,0,0:0:0:0:
36,192,44442,1,0,0:0:0:0:
256,192,44553,1,0,0:0:0:0:
329,192,44664,1,0,0:0:0:0:
256,192,44664,1,0,0:0:0:0:
182,192,44775,1,0,0:0:0:0:
256,192,44775,1,0,0:0:0:0:
256,192,44997,1,0,0:0:0:0:
329,192,45109,1,0,0:0:0:0:
182,192,45109,1,0,0:0:0:0:
256,192,45109,1,0,0:0:0:0:
256,192,45220,1,0,0:0:0:0:
256,192,45442,1,0,0:0:0:0:
329,192,45553,1,0,0:0:0:0:
256,192,45553,1,0,0:0:0:0:
256,192,45664,1,0,0:0:0:0:
256,192,45775,1,0,0:0:0:0:
256,192,45886,1,0,0:0:0:0:
329,192,45997,1,0,0:0:0:0:
256,192,45997,1,0,0:0:0:0:
256,192,46109,1,0,0:0:0:0:
256,192,46220,1,0,0:0:0:0:
402,192,46220,1,0,0:0:0:0:
36,192,46331,1,0,0:0:0:0:
329,192,46442,1,0,0:0:0:0:
36,192,46442,1,0,0:0:0:0:
402,192,46553,1,0,0:0:0:0:
36,192,46553,1,0,0:0:0:0:
36,192,46664,1,0,0:0:0:0:
36,192,46775,1,0,0:0:0:0:
329,192,46886,1,0,0:0:0:0:
402,192,46886,1,0,0:0:0:0:
36,192,46886,1,0,0:0:0:0:
36,192,46997,1,0,0:0:0:0:
182,192,47220,1,0,0:0:0:0:
329,192,47331,1,0,0:0:0:0:
182,192,47331,1,0,0:0:0:0:
182,192,47442,1,0,0:0:0:0:
182,192,47664,1,0,0:0:0:0:
329,192,47775,1,0,0:0:0:0:
182,192,47775,1,0,0:0:0:0:
182,192,47886,1,0,0:0:0:0:
36,192,47997,1,0,0:0:0:0:
182,192,47997,1,0,0:0:0:0:
256,192,48109,1,0,0:0:0:0:
329,192,48220,1,0,0:0:0:0:
109,192,48220,1,0,0:0:0:0:
402,192,48220,1,0,0:0:0:0:
256,192,48220,1,0,0:0:0:0:
256,192,48331,1,0,0:0:0:0:
256,192,48442,1,0,0:0:0:0:
256,192,48553,1,0,0:0:0:0:
329,192,48664,1,0,0:0:0:0:
256,192,48664,1,0,0:0:0:0:
256,192,48775,1,0,0:0:0:0:
475,192,48886,1,0,0:0:0:0:
182,192,48886,1,0,0:0:0:0:
256,192,48886,1,0,0:0:0:0:
109,192,48886,1,0,0:0:0:0:
109,192,48997,1,0,0:0:0:0:
329,192,49109,1,0,0:0:0:0:
109,192,49109,1,0,0:0:0:0:
36,192,49220,1,0,0:0:0:0:
256,192,49220,1,0,0:0:0:0:
109,192,49220,1,0,0:0:0:0:
402,192,49220,1,0,0:0:0:0:
402,192,49331,1,0,0:0:0:0:
402,192,49442,1,0,0:0:0:0:
36,192,49553,1,0,0:0:0:0:
402,192,49553,1,0,0:0:0:0:
256,192,49553,1,0,0:0:0:0:
402,192,49664,1,0,0:0:0:0:
256,192,49664,1,0,0:0:0:0:
36,192,49775,1,0,0:0:0:0:
329,192,49775,1,0,0:0:0:0:
402,192,49775,1,0,0:0:0:0:
475,192,49775,1,0,0:0:0:0:
182,192,49775,1,0,0:0:0:0:
109,192,49775,1,0,0:0:0:0:
256,192,49775,1,0,0:0:0:0:
182,192,49886,1,0,0:0:0:0:
109,192,49886,1,0,0:0:0:0:
36,192,49886,1,0,0:0:0:0:
36,192,49997,1,0,0:0:0:0:
109,192,49997,1,0,0:0:0:0:
182,192,49997,1,0,0:0:0:0:
109,192,50109,1,0,0:0:0:0:
182,192,50109,1,0,0:0:0:0:
36,192,50109,1,0,0:0:0:0:
402,192,50220,1,0,0:0:0:0:
256,192,50220,1,0,0:0:0:0:
329,192,50220,1,0,0:0:0:0:
475,192,50220,1,0,0:0:0:0:
256,192,50331,1,0,0:0:0:0:
329,192,50331,1,0,0:0:0:0:
402,192,50331,1,0,0:0:0:0:
475,192,50331,1,0,0:0:0:0:
329,192,50442,1,0,0:0:0:0:
475,192,50442,1,0,0:0:0:0:
402,192,50442,1,0,0:0:0:0:
256,192,50442,1,0,0:0:0:0:
402,192,50553,1,0,0:0:0:0:
256,192,50553,1,0,0:0:0:0:
329,192,50553,1,0,0:0:0:0:
475,192,50553,1,0,0:0:0:0:
109,192,50664,1,0,0:0:0:0:
36,192,50664,1,0,0:0:0:0:
182,192,50664,1,0,0:0:0:0:
256,192,50664,1,0,0:0:0:0:
329,192,50664,1,0,0:0:0:0:
475,192,50664,1,0,0:0:0:0:
402,192,50664,1,0,0:0:0:0:
182,192,50775,1,0,0:0:0:0:
109,192,50775,1,0,0:0:0:0:
36,192,50775,1,0,0:0:0:0:
256,192,50775,1,0,0:0:0:0:
329,192,50775,1,0,0:0:0:0:
402,192,50775,1,0,0:0:0:0:
475,192,50775,1,0,0:0:0:0:
36,192,50886,1,0,0:0:0:0:
109,192,50886,1,0,0:0:0:0:
182,192,50886,1,0,0:0:0:0:
329,192,50886,1,0,0:0:0:0:
256,192,50886,1,0,0:0:0:0:
402,192,50886,1,0,0:0:0:0:
475,192,50886,1,0,0:0:0:0:
109,192,50997,1,0,0:0:0:0:
36,192,50997,1,0,0:0:0:0:
182,192,50997,1,0,0:0:0:0:
256,192,50997,1,0,0:0:0:0:
329,192,50997,1,0,0:0:0:0:
402,192,50997,1,0,0:0:0:0:
475,192,50997,1,0,0:0:0:0:
36,192,51109,1,0,0:0:0:0:
402,192,51109,1,0,0:0:0:0:
475,192,51109,1,0,0:0:0:0:
109,192,51109,1,0,0:0:0:0:
182,192,51109,1,0,0:0:0:0:
256,192,51109,1,0,0:0:0:0:
329,192,51109,1,0,0:0:0:0:
256,192,51220,1,0,0:0:0:0:
329,192,51220,1,0,0:0:0:0:
182,192,51220,1,0,0:0:0:0:
109,192,51220,1,0,0:0:0:0:
36,192,51220,1,0,0:0:0:0:
402,192,51220,1,0,0:0:0:0:
475,192,51220,1,0,0:0:0:0:
109,192,51331,1,0,0:0:0:0:
182,192,51331,1,0,0:0:0:0:
36,192,51331,1,0,0:0:0:0:
475,192,51331,1,0,0:0:0:0:
256,192,51331,1,0,0:0:0:0:
329,192,51331,1,0,0:0:0:0:
402,192,51331,1,0,0:0:0:0:
402,192,51442,1,0,0:0:0:0:
329,192,51442,1,0,0:0:0:0:
256,192,51442,1,0,0:0:0:0:
182,192,51442,1,0,0:0:0:0:
36,192,51442,1,0,0:0:0:0:
109,192,51442,1,0,0:0:0:0:
475,192,51442,1,0,0:0:0:0:
256,192,51553,1,0,0:0:0:0:
109,192,51553,1,0,0:0:0:0:
36,192,51553,1,0,0:0:0:0:
475,192,51553,1,0,0:0:0:0:
182,192,51553,1,0,0:0:0:0:
329,192,51553,1,0,0:0:0:0:
402,192,51553,1,0,0:0:0:0:
182,192,51664,1,0,0:0:0:0:
329,192,51775,1,0,0:0:0:0:
256,192,51886,1,0,0:0:0:0:
475,192,51886,1,0,0:0:0:0:
182,192,51997,1,0,0:0:0:0:
109,192,51997,1,0,0:0:0:0:
36,192,51997,1,0,0:0:0:0:
402,192,52109,1,0,0:0:0:0:
182,192,52220,1,0,0:0:0:0:
329,192,52220,1,0,0:0:0:0:
475,192,52220,1,0,0:0:0:0:
256,192,52331,1,0,0:0:0:0:
109,192,52442,1,0,0:0:0:0:
36,192,52442,1,0,0:0:0:0:
402,192,52553,1,0,0:0:0:0:
329,192,52664,1,0,0:0:0:0:
182,192,52775,1,0,0:0:0:0:
256,192,52886,1,0,0:0:0:0:
109,192,52886,1,0,0:0:0:0:
36,192,52886,1,0,0:0:0:0:
475,192,52997,1,0,0:0:0:0:
402,192,53109,1,0,0:0:0:0:
329,192,53109,1,0,0:0:0:0:
256,192,53220,1,0,0:0:0:0:
109,192,53331,1,0,0:0:0:0:
36,192,53331,1,0,0:0:0:0:
475,192,53331,1,0,0:0:0:0:
402,192,53442,1,0,0:0:0:0:
329,192,53553,1,0,0:0:0:0:
256,192,53664,1,0,0:0:0:0:
182,192,53664,1,0,0:0:0:0:
109,192,53775,1,0,0:0:0:0:
36,192,53775,1,0,0:0:0:0:
402,192,53775,1,0,0:0:0:0:
475,192,53886,1,0,0:0:0:0:
402,192,53997,1,0,0:0:0:0:
329,192,53997,1,0,0:0:0:0:
182,192,53997,1,0,0:0:0:0:
475,192,54109,1,0,0:0:0:0:
256,192,54220,1,0,0:0:0:0:
36,192,54220,1,0,0:0:0:0:
109,192,54331,1,0,0:0:0:0:
402,192,54442,1,0,0:0:0:0:
329,192,54553,1,0,0:0:0:0:
182,192,54664,1,0,0:0:0:0:
36,192,54664,1,0,0:0:0:0:
475,192,54664,1,0,0:0:0:0:
256,192,54775,1,0,0:0:0:0:
109,192,54886,1,0,0:0:0:0:
402,192,54886,1,0,0:0:0:0:
475,192,54997,1,0,0:0:0:0:
329,192,55109,1,0,0:0:0:0:
182,192,55109,1,0,0:0:0:0:
36,192,55109,1,0,0:0:0:0:
256,192,55220,1,0,0:0:0:0:
109,192,55331,1,0,0:0:0:0:
402,192,55442,1,0,0:0:0:0:
475,192,55442,1,0,0:0:0:0:
256,192,55553,1,0,0:0:0:0:
109,192,55553,1,0,0:0:0:0:
36,192,55553,1,0,0:0:0:0:
182,192,55664,1,0,0:0:0:0:
256,192,55775,1,0,0:0:0:0:
329,192,55775,1,0,0:0:0:0:
475,192,55775,1,0,0:0:0:0:
182,192,55886,1,0,0:0:0:0:
109,192,55997,1,0,0:0:0:0:
36,192,55997,1,0,0:0:0:0:
402,192,56109,1,0,0:0:0:0:
475,192,56220,1,0,0:0:0:0:
329,192,56331,1,0,0:0:0:0:
402,192,56442,1,0,0:0:0:0:
475,192,56442,1,0,0:0:0:0:
36,192,56442,1,0,0:0:0:0:
256,192,56553,1,0,0:0:0:0:
182,192,56664,1,0,0:0:0:0:
329,192,56664,1,0,0:0:0:0:
109,192,56775,1,0,0:0:0:0:
36,192,56886,1,0,0:0:0:0:
402,192,56886,1,0,0:0:0:0:
475,192,56886,1,0,0:0:0:0:
256,192,56997,1,0,0:0:0:0:
329,192,57109,1,0,0:0:0:0:
402,192,57220,1,0,0:0:0:0:
475,192,57331,1,0,0:0:0:0:
109,192,57331,1,0,0:0:0:0:
36,192,57331,1,0,0:0:0:0:
402,192,57442,1,0,0:0:0:0:
329,192,57553,1,0,0:0:0:0:
256,192,57553,1,0,0:0:0:0:
109,192,57664,1,0,0:0:0:0:
36,192,57775,1,0,0:0:0:0:
402,192,57775,1,0,0:0:0:0:
475,192,57775,1,0,0:0:0:0:
182,192,57886,1,0,0:0:0:0:
329,192,57997,1,0,0:0:0:0:
402,192,58109,1,0,0:0:0:0:
475,192,58220,1,0,0:0:0:0:
256,192,58220,1,0,0:0:0:0:
109,192,58220,1,0,0:0:0:0:
36,192,58220,1,0,0:0:0:0:
402,192,58331,1,0,0:0:0:0:
256,192,58442,1,0,0:0:0:0:
182,192,58442,1,0,0:0:0:0:
36,192,58442,1,0,0:0:0:0:
329,192,58553,1,0,0:0:0:0:
36,192,58664,1,0,0:0:0:0:
402,192,58664,1,0,0:0:0:0:
475,192,58664,1,0,0:0:0:0:
109,192,58775,1,0,0:0:0:0:
256,192,58886,1,0,0:0:0:0:
182,192,58997,1,0,0:0:0:0:
329,192,58997,1,0,0:0:0:0:
256,192,59109,1,0,0:0:0:0:
109,192,59109,1,0,0:0:0:0:
36,192,59109,1,0,0:0:0:0:
475,192,59220,1,0,0:0:0:0:
402,192,59331,1,0,0:0:0:0:
329,192,59331,1,0,0:0:0:0:
182,192,59331,1,0,0:0:0:0:
475,192,59442,1,0,0:0:0:0:
256,192,59553,1,0,0:0:0:0:
36,192,59553,1,0,0:0:0:0:
109,192,59664,1,0,0:0:0:0:
182,192,59775,1,0,0:0:0:0:
329,192,59886,1,0,0:0:0:0:
402,192,59997,1,0,0:0:0:0:
109,192,59997,1,0,0:0:0:0:
36,192,59997,1,0,0:0:0:0:
256,192,60109,1,0,0:0:0:0:
475,192,60220,1,0,0:0:0:0:
182,192,60220,1,0,0:0:0:0:
329,192,60331,1,0,0:0:0:0:
402,192,60442,1,0,0:0:0:0:
475,192,60442,1,0,0:0:0:0:
36,192,60442,1,0,0:0:0:0:
109,192,60553,1,0,0:0:0:0:
256,192,60664,1,0,0:0:0:0:
182,192,60775,1,0,0:0:0:0:
329,192,60775,1,0,0:0:0:0:
402,192,60886,1,0,0:0:0:0:
109,192,60886,1,0,0:0:0:0:
36,192,60886,1,0,0:0:0:0:
475,192,60997,1,0,0:0:0:0:
402,192,61109,1,0,0:0:0:0:
329,192,61109,1,0,0:0:0:0:
256,192,61109,1,0,0:0:0:0:
475,192,61220,1,0,0:0:0:0:
182,192,61331,1,0,0:0:0:0:
36,192,61331,1,0,0:0:0:0:
329,192,61442,1,0,0:0:0:0:
256,192,61553,1,0,0:0:0:0:
475,192,61664,1,0,0:0:0:0:
402,192,61775,1,0,0:0:0:0:
109,192,61775,1,0,0:0:0:0:
36,192,61775,1,0,0:0:0:0:
329,192,61886,1,0,0:0:0:0:
256,192,61997,1,0,0:0:0:0:
475,192,61997,1,0,0:0:0:0:
329,192,62109,1,0,0:0:0:0:
182,192,62220,1,0,0:0:0:0:
109,192,62220,1,0,0:0:0:0:
36,192,62220,1,0,0:0:0:0:
475,192,62331,1,0,0:0:0:0:
329,192,62442,1,0,0:0:0:0:
402,192,62553,1,0,0:0:0:0:
182,192,62553,1,0,0:0:0:0:
109,192,62664,1,0,0:0:0:0:
36,192,62664,1,0,0:0:0:0:
256,192,62664,1,0,0:0:0:0:
475,192,62775,1,0,0:0:0:0:
402,192,62886,1,0,0:0:0:0:
329,192,62886,1,0,0:0:0:0:
256,192,62886,1,0,0:0:0:0:
475,192,62997,1,0,0:0:0:0:
109,192,63109,1,0,0:0:0:0:
36,192,63109,1,0,0:0:0:0:
402,192,63220,1,0,0:0:0:0:
475,192,63331,1,0,0:0:0:0:
329,192,63442,1,0,0:0:0:0:
256,192,63553,1,0,0:0:0:0:
109,192,63553,1,0,0:0:0:0:
36,192,63553,1,0,0:0:0:0:
182,192,63664,1,0,0:0:0:0:
329,192,63775,1,0,0:0:0:0:
402,192,63775,1,0,0:0:0:0:
109,192,63886,1,0,0:0:0:0:
256,192,63997,1,0,0:0:0:0:
402,192,63997,1,0,0:0:0:0:
329,192,63997,1,0,0:0:0:0:
475,192,63997,1,0,0:0:0:0:
182,192,64109,1,0,0:0:0:0:
36,192,64109,1,0,0:0:0:0:
109,192,64109,1,0,0:0:0:0:
109,192,64220,1,0,0:0:0:0:
182,192,64220,1,0,0:0:0:0:
36,192,64220,1,0,0:0:0:0:
109,192,64331,1,0,0:0:0:0:
182,192,64331,1,0,0:0:0:0:
36,192,64331,1,0,0:0:0:0:
475,192,64442,1,0,0:0:0:0:
329,192,64442,1,0,0:0:0:0:
402,192,64442,1,0,0:0:0:0:
256,192,64442,1,0,0:0:0:0:
182,192,64553,1,0,0:0:0:0:
109,192,64553,1,0,0:0:0:0:
36,192,64553,1,0,0:0:0:0:
109,192,64664,1,0,0:0:0:0:
182,192,64664,1,0,0:0:0:0:
36,192,64664,1,0,0:0:0:0:
36,192,64775,1,0,0:0:0:0:
109,192,64775,1,0,0:0:0:0:
182,192,64775,1,0,0:0:0:0:
402,192,64886,1,0,0:0:0:0:
475,192,64886,1,0,0:0:0:0:
329,192,64886,1,0,0:0:0:0:
256,192,64886,1,0,0:0:0:0:
109,192,64997,1,0,0:0:0:0:
36,192,64997,1,0,0:0:0:0:
182,192,64997,1,0,0:0:0:0:
182,192,65109,1,0,0:0:0:0:
109,192,65109,1,0,0:0:0:0:
36,192,65109,1,0,0:0:0:0:
256,192,65109,1,0,0:0:0:0:
329,192,65109,1,0,0:0:0:0:
402,192,65109,1,0,0:0:0:0:
475,192,65109,1,0,0:0:0:0:
109,192,65220,1,0,0:0:0:0:
36,192,65220,1,0,0:0:0:0:
182,192,65220,1,0,0:0:0:0:
256,192,65220,1,0,0:0:0:0:
329,192,65220,1,0,0:0:0:0:
402,192,65220,1,0,0:0:0:0:
475,192,65220,1,0,0:0:0:0:
182,192,65331,1,0,0:0:0:0:
36,192,65331,1,0,0:0:0:0:
109,192,65331,1,0,0:0:0:0:
256,192,65331,1,0,0:0:0:0:
329,192,65331,1,0,0:0:0:0:
402,192,65331,1,0,0:0:0:0:
475,192,65331,1,0,0:0:0:0:
402,192,65442,1,0,0:0:0:0:
182,192,65442,1,0,0:0:0:0:
109,192,65442,1,0,0:0:0:0:
36,192,65442,1,0,0:0:0:0:
329,192,65442,1,0,0:0:0:0:
256,192,65442,1,0,0:0:0:0:
475,192,65442,1,0,0:0:0:0:
36,192,65553,1,0,0:0:0:0:
109,192,65553,1,0,0:0:0:0:
182,192,65553,1,0,0:0:0:0:
329,192,65553,1,0,0:0:0:0:
256,192,65553,1,0,0:0:0:0:
402,192,65553,1,0,0:0:0:0:
475,192,65553,1,0,0:0:0:0:
475,192,65664,1,0,0:0:0:0:
402,192,65664,1,0,0:0:0:0:
329,192,65664,1,0,0:0:0:0:
256,192,65664,1,0,0:0:0:0:
182,192,65664,1,0,0:0:0:0:
109,192,65664,1,0,0:0:0:0:
36,192,65664,1,0,0:0:0:0:
109,192,65775,1,0,0:0:0:0:
36,192,65775,1,0,0:0:0:0:
329,192,65775,1,0,0:0:0:0:
256,192,65775,1,0,0:0:0:0:
475,192,65775,1,0,0:0:0:0:
182,192,65775,1,0,0:0:0:0:
402,192,65775,1,0,0:0:0:0:
109,192,65886,1,0,0:0:0:0:
36,192,65886,1,0,0:0:0:0:
402,192,65997,1,0,0:0:0:0:
475,192,65997,1,0,0:0:0:0:
402,192,66109,1,0,0:0:0:0:
475,192,66109,1,0,0:0:0:0:
182,192,66220,1,0,0:0:0:0:
109,192,66220,1,0,0:0:0:0:
36,192,66220,1,0,0:0:0:0:
256,192,66220,1,0,0:0:0:0:
329,192,66220,1,0,0:0:0:0:
402,192,66220,1,0,0:0:0:0:
475,192,66220,1,0,0:0:0:0:
109,192,66331,1,0,0:0:0:0:
36,192,66331,1,0,0:0:0:0:
256,192,66442,1,0,0:0:0:0:
475,192,66442,1,0,0:0:0:0:
256,192,66553,1,0,0:0:0:0:
475,192,66553,1,0,0:0:0:0:
109,192,66664,1,0,0:0:0:0:
329,192,66664,1,0,0:0:0:0:
109,192,66775,1,0,0:0:0:0:
329,192,66775,1,0,0:0:0:0:
256,192,66886,1,0,0:0:0:0:
36,192,66886,1,0,0:0:0:0:
182,192,66997,1,0,0:0:0:0:
402,192,66997,1,0,0:0:0:0:
36,192,67109,1,0,0:0:0:0:
109,192,67109,1,0,0:0:0:0:
182,192,67109,1,0,0:0:0:0:
256,192,67109,1,0,0:0:0:0:
329,192,67109,1,0,0:0:0:0:
402,192,67109,1,0,0:0:0:0:
475,192,67109,1,0,0:0:0:0:
182,192,67220,1,0,0:0:0:0:
402,192,67220,1,0,0:0:0:0:
182,192,67331,1,0,0:0:0:0:
402,192,67331,1,0,0:0:0:0:
182,192,67442,1,0,0:0:0:0:
402,192,67442,1,0,0:0:0:0:
36,192,67553,1,0,0:0:0:0:
329,192,67553,1,0,0:0:0:0:
36,192,67664,1,0,0:0:0:0:
329,192,67664,1,0,0:0:0:0:
36,192,67775,1,0,0:0:0:0:
329,192,67775,1,0,0:0:0:0:
109,192,67886,1,0,0:0:0:0:
182,192,67886,1,0,0:0:0:0:
36,192,67997,1,0,0:0:0:0:
109,192,67997,1,0,0:0:0:0:
182,192,67997,1,0,0:0:0:0:
256,192,67997,1,0,0:0:0:0:
329,192,67997,1,0,0:0:0:0:
402,192,67997,1,0,0:0:0:0:
475,192,67997,1,0,0:0:0:0:
109,192,68109,1,0,0:0:0:0:
182,192,68109,1,0,0:0:0:0:
402,192,68220,1,0,0:0:0:0:
475,192,68220,1,0,0:0:0:0:
402,192,68331,1,0,0:0:0:0:
475,192,68331,1,0,0:0:0:0:
329,192,68442,1,0,0:0:0:0:
182,192,68442,1,0,0:0:0:0:
182,192,68553,1,0,0:0:0:0:
329,192,68553,1,0,0:0:0:0:
182,192,68664,1,0,0:0:0:0:
329,192,68664,1,0,0:0:0:0:
182,192,68775,1,0,0:0:0:0:
329,192,68775,1,0,0:0:0:0:
36,192,68886,1,0,0:0:0:0:
109,192,68886,1,0,0:0:0:0:
182,192,68886,1,0,0:0:0:0:
256,192,68886,1,0,0:0:0:0:
329,192,68886,1,0,0:0:0:0:
402,192,68886,1,0,0:0:0:0:
475,192,68886,1,0,0:0:0:0:
182,192,68997,1,0,0:0:0:0:
329,192,68997,1,0,0:0:0:0:
182,192,69109,1,0,0:0:0:0:
329,192,69109,1,0,0:0:0:0:
182,192,69220,1,0,0:0:0:0:
329,192,69220,1,0,0:0:0:0:
36,192,69331,1,0,0:0:0:0:
109,192,69331,1,0,0:0:0:0:
36,192,69442,1,0,0:0:0:0:
109,192,69442,1,0,0:0:0:0:
475,192,69553,1,0,0:0:0:0:
256,192,69553,1,0,0:0:0:0:
475,192,69664,1,0,0:0:0:0:
256,192,69664,1,0,0:0:0:0:
36,192,69775,1,0,0:0:0:0:
109,192,69775,1,0,0:0:0:0:
182,192,69775,1,0,0:0:0:0:
256,192,69775,1,0,0:0:0:0:
402,192,69775,1,0,0:0:0:0:
475,192,69775,1,0,0:0:0:0:
329,192,69775,1,0,0:0:0:0:
329,192,69886,1,0,0:0:0:0:
402,192,69886,1,0,0:0:0:0:
329,192,69997,1,0,0:0:0:0:
402,192,69997,1,0,0:0:0:0:
329,192,70109,1,0,0:0:0:0:
402,192,70109,1,0,0:0:0:0:
109,192,70220,1,0,0:0:0:0:
182,192,70220,1,0,0:0:0:0:
109,192,70331,1,0,0:0:0:0:
182,192,70331,1,0,0:0:0:0:
256,192,70442,1,0,0:0:0:0:
402,192,70442,1,0,0:0:0:0:
475,192,70553,1,0,0:0:0:0:
36,192,70553,1,0,0:0:0:0:
36,192,70664,1,0,0:0:0:0:
109,192,70664,1,0,0:0:0:0:
256,192,70664,1,0,0:0:0:0:
329,192,70664,1,0,0:0:0:0:
182,192,70664,1,0,0:0:0:0:
402,192,70664,1,0,0:0:0:0:
475,192,70664,1,0,0:0:0:0:
475,192,70775,1,0,0:0:0:0:
36,192,70775,1,0,0:0:0:0:
329,192,70886,1,0,0:0:0:0:
402,192,70886,1,0,0:0:0:0:
329,192,70997,1,0,0:0:0:0:
402,192,70997,1,0,0:0:0:0:
109,192,71109,1,0,0:0:0:0:
182,192,71109,1,0,0:0:0:0:
109,192,71220,1,0,0:0:0:0:
182,192,71220,1,0,0:0:0:0:
109,192,71331,1,0,0:0:0:0:
182,192,71331,1,0,0:0:0:0:
256,192,71442,1,0,0:0:0:0:
329,192,71442,1,0,0:0:0:0:
36,192,71553,1,0,0:0:0:0:
109,192,71553,1,0,0:0:0:0:
182,192,71553,1,0,0:0:0:0:
256,192,71553,1,0,0:0:0:0:
329,192,71553,1,0,0:0:0:0:
475,192,71553,1,0,0:0:0:0:
402,192,71553,1,0,0:0:0:0:
256,192,71664,1,0,0:0:0:0:
329,192,71664,1,0,0:0:0:0:
36,192,71775,1,0,0:0:0:0:
402,192,71775,1,0,0:0:0:0:
36,192,71886,1,0,0:0:0:0:
402,192,71886,1,0,0:0:0:0:
109,192,71997,1,0,0:0:0:0:
329,192,71997,1,0,0:0:0:0:
109,192,72109,1,0,0:0:0:0:
329,192,72109,1,0,0:0:0:0:
109,192,72220,1,0,0:0:0:0:
329,192,72220,1,0,0:0:0:0:
109,192,72331,1,0,0:0:0:0:
329,192,72331,1,0,0:0:0:0:
36,192,72442,1,0,0:0:0:0:
109,192,72442,1,0,0:0:0:0:
256,192,72442,1,0,0:0:0:0:
182,192,72442,1,0,0:0:0:0:
329,192,72442,1,0,0:0:0:0:
402,192,72442,1,0,0:0:0:0:
475,192,72442,1,0,0:0:0:0:
109,192,72553,1,0,0:0:0:0:
329,192,72553,1,0,0:0:0:0:
109,192,72664,1,0,0:0:0:0:
329,192,72664,1,0,0:0:0:0:
256,192,72664,1,0,0:0:0:0:
109,192,72775,1,0,0:0:0:0:
329,192,72775,1,0,0:0:0:0:
36,192,72886,1,0,0:0:0:0:
109,192,72886,1,0,0:0:0:0:
182,192,72886,1,0,0:0:0:0:
256,192,72886,1,0,0:0:0:0:
329,192,72886,1,0,0:0:0:0:
402,192,72886,1,0,0:0:0:0:
475,192,72886,1,0,0:0:0:0:
182,192,72997,1,0,0:0:0:0:
402,192,72997,1,0,0:0:0:0:
256,192,73109,1,0,0:0:0:0:
475,192,73109,1,0,0:0:0:0:
256,192,73220,1,0,0:0:0:0:
475,192,73220,1,0,0:0:0:0:
109,192,73331,1,0,0:0:0:0:
36,192,73331,1,0,0:0:0:0:
182,192,73331,1,0,0:0:0:0:
256,192,73331,1,0,0:0:0:0:
329,192,73331,1,0,0:0:0:0:
402,192,73331,1,0,0:0:0:0:
475,192,73331,1,0,0:0:0:0:
329,192,73442,1,0,0:0:0:0:
402,192,73442,1,0,0:0:0:0:
182,192,73553,1,0,0:0:0:0:
36,192,73553,1,0,0:0:0:0:
36,192,73664,1,0,0:0:0:0:
182,192,73664,1,0,0:0:0:0:
256,192,73775,1,0,0:0:0:0:
475,192,73775,1,0,0:0:0:0:
256,192,73886,1,0,0:0:0:0:
475,192,73886,1,0,0:0:0:0:
182,192,73997,1,0,0:0:0:0:
109,192,73997,1,0,0:0:0:0:
329,192,74109,1,0,0:0:0:0:
402,192,74109,1,0,0:0:0:0:
36,192,74220,1,0,0:0:0:0:
109,192,74220,1,0,0:0:0:0:
256,192,74220,1,0,0:0:0:0:
182,192,74220,1,0,0:0:0:0:
329,192,74220,1,0,0:0:0:0:
402,192,74220,1,0,0:0:0:0:
475,192,74220,1,0,0:0:0:0:
329,192,74331,1,0,0:0:0:0:
402,192,74331,1,0,0:0:0:0:
256,192,74442,1,0,0:0:0:0:
36,192,74442,1,0,0:0:0:0:
36,192,74553,1,0,0:0:0:0:
256,192,74553,1,0,0:0:0:0:
109,192,74664,1,0,0:0:0:0:
402,192,74664,1,0,0:0:0:0:
109,192,74775,1,0,0:0:0:0:
402,192,74775,1,0,0:0:0:0:
109,192,74886,1,0,0:0:0:0:
402,192,74886,1,0,0:0:0:0:
182,192,74997,1,0,0:0:0:0:
329,192,74997,1,0,0:0:0:0:
36,192,75109,1,0,0:0:0:0:
109,192,75109,1,0,0:0:0:0:
182,192,75109,1,0,0:0:0:0:
256,192,75109,1,0,0:0:0:0:
329,192,75109,1,0,0:0:0:0:
402,192,75109,1,0,0:0:0:0:
475,192,75109,1,0,0:0:0:0:
182,192,75220,1,0,0:0:0:0:
329,192,75220,1,0,0:0:0:0:
109,192,75331,1,0,0:0:0:0:
402,192,75331,1,0,0:0:0:0:
109,192,75442,1,0,0:0:0:0:
402,192,75442,1,0,0:0:0:0:
36,192,75553,1,0,0:0:0:0:
475,192,75553,1,0,0:0:0:0:
475,192,75664,1,0,0:0:0:0:
36,192,75664,1,0,0:0:0:0:
36,192,75775,1,0,0:0:0:0:
475,192,75775,1,0,0:0:0:0:
475,192,75886,1,0,0:0:0:0:
36,192,75886,1,0,0:0:0:0:
36,192,75997,1,0,0:0:0:0:
109,192,75997,1,0,0:0:0:0:
182,192,75997,1,0,0:0:0:0:
256,192,75997,1,0,0:0:0:0:
329,192,75997,1,0,0:0:0:0:
402,192,75997,1,0,0:0:0:0:
475,192,75997,1,0,0:0:0:0:
36,192,76109,1,0,0:0:0:0:
475,192,76109,1,0,0:0:0:0:
329,192,76220,1,0,0:0:0:0:
402,192,76220,1,0,0:0:0:0:
329,192,76331,1,0,0:0:0:0:
402,192,76331,1,0,0:0:0:0:
109,192,76442,1,0,0:0:0:0:
182,192,76442,1,0,0:0:0:0:
109,192,76553,1,0,0:0:0:0:
182,192,76553,1,0,0:0:0:0:
109,192,76664,1,0,0:0:0:0:
182,192,76664,1,0,0:0:0:0:
109,192,76775,1,0,0:0:0:0:
182,192,76775,1,0,0:0:0:0:
36,192,76886,1,0,0:0:0:0:
109,192,76886,1,0,0:0:0:0:
182,192,76886,1,0,0:0:0:0:
256,192,76886,1,0,0:0:0:0:
329,192,76886,1,0,0:0:0:0:
402,192,76886,1,0,0:0:0:0:
475,192,76886,1,0,0:0:0:0:
109,192,76997,1,0,0:0:0:0:
182,192,76997,1,0,0:0:0:0:
256,192,77109,1,0,0:0:0:0:
475,192,77109,1,0,0:0:0:0:
256,192,77220,1,0,0:0:0:0:
475,192,77220,1,0,0:0:0:0:
109,192,77331,1,0,0:0:0:0:
36,192,77331,1,0,0:0:0:0:
36,192,77442,1,0,0:0:0:0:
109,192,77442,1,0,0:0:0:0:
36,192,77553,1,0,0:0:0:0:
109,192,77553,1,0,0:0:0:0:
329,192,77664,1,0,0:0:0:0:
402,192,77664,1,0,0:0:0:0:
36,192,77775,1,0,0:0:0:0:
109,192,77775,1,0,0:0:0:0:
182,192,77775,1,0,0:0:0:0:
256,192,77775,1,0,0:0:0:0:
329,192,77775,1,0,0:0:0:0:
402,192,77775,1,0,0:0:0:0:
475,192,77775,1,0,0:0:0:0:
329,192,77886,1,0,0:0:0:0:
402,192,77886,1,0,0:0:0:0:
109,192,77997,1,0,0:0:0:0:
182,192,77997,1,0,0:0:0:0:
109,192,78109,1,0,0:0:0:0:
182,192,78109,1,0,0:0:0:0:
256,192,78220,1,0,0:0:0:0:
475,192,78220,1,0,0:0:0:0:
256,192,78331,1,0,0:0:0:0:
475,192,78331,1,0,0:0:0:0:
256,192,78442,1,0,0:0:0:0:
475,192,78442,1,0,0:0:0:0:
182,192,78553,1,0,0:0:0:0:
109,192,78553,1,0,0:0:0:0:
36,192,78664,1,0,0:0:0:0:
109,192,78664,1,0,0:0:0:0:
182,192,78664,1,0,0:0:0:0:
256,192,78664,1,0,0:0:0:0:
329,192,78664,1,0,0:0:0:0:
402,192,78664,1,0,0:0:0:0:
475,192,78664,1,0,0:0:0:0:
109,192,78775,1,0,0:0:0:0:
182,192,78775,1,0,0:0:0:0:
402,192,78886,1,0,0:0:0:0:
475,192,78886,1,0,0:0:0:0:
402,192,78997,1,0,0:0:0:0:
475,192,78997,1,0,0:0:0:0:
109,192,79109,1,0,0:0:0:0:
36,192,79109,1,0,0:0:0:0:
36,192,79220,1,0,0:0:0:0:
109,192,79220,1,0,0:0:0:0:
36,192,79331,1,0,0:0:0:0:
109,192,79331,1,0,0:0:0:0:
109,192,79442,1,0,0:0:0:0:
36,192,79442,1,0,0:0:0:0:
36,192,79553,1,0,0:0:0:0:
109,192,79553,1,0,0:0:0:0:
182,192,79553,1,0,0:0:0:0:
256,192,79553,1,0,0:0:0:0:
402,192,79553,1,0,0:0:0:0:
329,192,79553,1,0,0:0:0:0:
475,192,79553,1,0,0:0:0:0:
329,192,79664,1,0,0:0:0:0:
475,192,79664,1,0,0:0:0:0:
329,192,79775,1,0,0:0:0:0:
475,192,79775,1,0,0:0:0:0:
36,192,79775,1,0,0:0:0:0:
329,192,79886,1,0,0:0:0:0:
475,192,79886,1,0,0:0:0:0:
329,192,79997,1,0,0:0:0:0:
402,192,79997,1,0,0:0:0:0:
475,192,79997,1,0,0:0:0:0:
256,192,79997,1,0,0:0:0:0:
182,192,79997,1,0,0:0:0:0:
109,192,79997,1,0,0:0:0:0:
36,192,79997,1,0,0:0:0:0:
182,192,80109,1,0,0:0:0:0:
402,192,80109,1,0,0:0:0:0:
256,192,80220,1,0,0:0:0:0:
109,192,80220,1,0,0:0:0:0:
256,192,80331,1,0,0:0:0:0:
109,192,80331,1,0,0:0:0:0:
329,192,80442,1,0,0:0:0:0:
402,192,80442,1,0,0:0:0:0:
475,192,80442,1,0,0:0:0:0:
256,192,80442,1,0,0:0:0:0:
182,192,80442,1,0,0:0:0:0:
109,192,80442,1,0,0:0:0:0:
36,192,80442,1,0,0:0:0:0:
402,192,80553,1,0,0:0:0:0:
475,192,80553,1,0,0:0:0:0:
256,192,80664,1,0,0:0:0:0:
36,192,80664,1,0,0:0:0:0:
256,192,80775,1,0,0:0:0:0:
36,192,80775,1,0,0:0:0:0:
402,192,80886,1,0,0:0:0:0:
182,192,80886,1,0,0:0:0:0:
402,192,80997,1,0,0:0:0:0:
182,192,80997,1,0,0:0:0:0:
256,192,81109,1,0,0:0:0:0:
475,192,81109,1,0,0:0:0:0:
329,192,81220,1,0,0:0:0:0:
109,192,81220,1,0,0:0:0:0:
475,192,81331,1,0,0:0:0:0:
402,192,81331,1,0,0:0:0:0:
329,192,81331,1,0,0:0:0:0:
256,192,81331,1,0,0:0:0:0:
182,192,81331,1,0,0:0:0:0:
109,192,81331,1,0,0:0:0:0:
36,192,81331,1,0,0:0:0:0:
329,192,81442,1,0,0:0:0:0:
109,192,81442,1,0,0:0:0:0:
329,192,81553,1,0,0:0:0:0:
109,192,81553,1,0,0:0:0:0:
329,192,81664,1,0,0:0:0:0:
109,192,81664,1,0,0:0:0:0:
475,192,81775,1,0,0:0:0:0:
182,192,81775,1,0,0:0:0:0:
475,192,81886,1,0,0:0:0:0:
182,192,81886,1,0,0:0:0:0:
475,192,81997,1,0,0:0:0:0:
182,192,81997,1,0,0:0:0:0:
402,192,82109,1,0,0:0:0:0:
329,192,82109,1,0,0:0:0:0:
475,192,82220,1,0,0:0:0:0:
402,192,82220,1,0,0:0:0:0:
329,192,82220,1,0,0:0:0:0:
256,192,82220,1,0,0:0:0:0:
182,192,82220,1,0,0:0:0:0:
109,192,82220,1,0,0:0:0:0:
36,192,82220,1,0,0:0:0:0:
402,192,82331,1,0,0:0:0:0:
329,192,82331,1,0,0:0:0:0:
109,192,82442,1,0,0:0:0:0:
36,192,82442,1,0,0:0:0:0:
109,192,82553,1,0,0:0:0:0:
36,192,82553,1,0,0:0:0:0:
182,192,82664,1,0,0:0:0:0:
329,192,82664,1,0,0:0:0:0:
329,192,82775,1,0,0:0:0:0:
182,192,82775,1,0,0:0:0:0:
329,192,82886,1,0,0:0:0:0:
182,192,82886,1,0,0:0:0:0:
329,192,82997,1,0,0:0:0:0:
182,192,82997,1,0,0:0:0:0:
475,192,83109,1,0,0:0:0:0:
402,192,83109,1,0,0:0:0:0:
329,192,83109,1,0,0:0:0:0:
256,192,83109,1,0,0:0:0:0:
182,192,83109,1,0,0:0:0:0:
109,192,83109,1,0,0:0:0:0:
36,192,83109,1,0,0:0:0:0:
329,192,83220,1,0,0:0:0:0:
182,192,83220,1,0,0:0:0:0:
329,192,83331,1,0,0:0:0:0:
182,192,83331,1,0,0:0:0:0:
329,192,83442,1,0,0:0:0:0:
182,192,83442,1,0,0:0:0:0:
475,192,83553,1,0,0:0:0:0:
402,192,83553,1,0,0:0:0:0:
475,192,83664,1,0,0:0:0:0:
402,192,83664,1,0,0:0:0:0:
36,192,83775,1,0,0:0:0:0:
256,192,83775,1,0,0:0:0:0:
36,192,83886,1,0,0:0:0:0:
256,192,83886,1,0,0:0:0:0:
475,192,83997,1,0,0:0:0:0:
402,192,83997,1,0,0:0:0:0:
329,192,83997,1,0,0:0:0:0:
256,192,83997,1,0,0:0:0:0:
109,192,83997,1,0,0:0:0:0:
36,192,83997,1,0,0:0:0:0:
182,192,83997,1,0,0:0:0:0:
182,192,84109,1,0,0:0:0:0:
109,192,84109,1,0,0:0:0:0:
402,192,84220,1,0,0:0:0:0:
475,192,84220,1,0,0:0:0:0:
475,192,84331,1,0,0:0:0:0:
402,192,84331,1,0,0:0:0:0:
109,192,84442,1,0,0:0:0:0:
36,192,84442,1,0,0:0:0:0:
109,192,84553,1,0,0:0:0:0:
36,192,84553,1,0,0:0:0:0:
109,192,84664,1,0,0:0:0:0:
36,192,84664,1,0,0:0:0:0:
402,192,84775,1,0,0:0:0:0:
475,192,84775,1,0,0:0:0:0:
475,192,84886,1,0,0:0:0:0:
402,192,84886,1,0,0:0:0:0:
256,192,84886,1,0,0:0:0:0:
182,192,84886,1,0,0:0:0:0:
329,192,84886,1,0,0:0:0:0:
109,192,84886,1,0,0:0:0:0:
36,192,84886,1,0,0:0:0:0:
475,192,84997,1,0,0:0:0:0:
402,192,84997,1,0,0:0:0:0:
402,192,85109,1,0,0:0:0:0:
475,192,85109,1,0,0:0:0:0:
475,192,85220,1,0,0:0:0:0:
402,192,85220,1,0,0:0:0:0:
109,192,85331,1,0,0:0:0:0:
36,192,85331,1,0,0:0:0:0:
109,192,85442,1,0,0:0:0:0:
36,192,85442,1,0,0:0:0:0:
109,192,85553,1,0,0:0:0:0:
36,192,85553,1,0,0:0:0:0:
256,192,85664,1,0,0:0:0:0:
182,192,85664,1,0,0:0:0:0:
475,192,85775,1,0,0:0:0:0:
402,192,85775,1,0,0:0:0:0:
329,192,85775,1,0,0:0:0:0:
256,192,85775,1,0,0:0:0:0:
182,192,85775,1,0,0:0:0:0:
36,192,85775,1,0,0:0:0:0:
109,192,85775,1,0,0:0:0:0:
256,192,85886,1,0,0:0:0:0:
182,192,85886,1,0,0:0:0:0:
475,192,85997,1,0,0:0:0:0:
109,192,85997,1,0,0:0:0:0:
475,192,86109,1,0,0:0:0:0:
109,192,86109,1,0,0:0:0:0:
402,192,86220,1,0,0:0:0:0:
182,192,86220,1,0,0:0:0:0:
402,192,86331,1,0,0:0:0:0:
182,192,86331,1,0,0:0:0:0:
402,192,86442,1,0,0:0:0:0:
182,192,86442,1,0,0:0:0:0:
402,192,86553,1,0,0:0:0:0:
182,192,86553,1,0,0:0:0:0:
475,192,86664,1,0,0:0:0:0:
402,192,86664,1,0,0:0:0:0:
256,192,86664,1,0,0:0:0:0:
329,192,86664,1,0,0:0:0:0:
182,192,86664,1,0,0:0:0:0:
109,192,86664,1,0,0:0:0:0:
36,192,86664,1,0,0:0:0:0:
402,192,86775,1,0,0:0:0:0:
182,192,86775,1,0,0:0:0:0:
402,192,86886,1,0,0:0:0:0:
182,192,86886,1,0,0:0:0:0:
256,192,86886,1,0,0:0:0:0:
402,192,86997,1,0,0:0:0:0:
182,192,86997,1,0,0:0:0:0:
475,192,87109,1,0,0:0:0:0:
402,192,87109,1,0,0:0:0:0:
329,192,87109,1,0,0:0:0:0:
256,192,87109,1,0,0:0:0:0:
182,192,87109,1,0,0:0:0:0:
109,192,87109,1,0,0:0:0:0:
36,192,87109,1,0,0:0:0:0:
329,192,87220,1,0,0:0:0:0:
109,192,87220,1,0,0:0:0:0:
256,192,87331,1,0,0:0:0:0:
36,192,87331,1,0,0:0:0:0:
256,192,87442,1,0,0:0:0:0:
36,192,87442,1,0,0:0:0:0:
402,192,87553,1,0,0:0:0:0:
475,192,87553,1,0,0:0:0:0:
329,192,87553,1,0,0:0:0:0:
256,192,87553,1,0,0:0:0:0:
182,192,87553,1,0,0:0:0:0:
109,192,87553,1,0,0:0:0:0:
36,192,87553,1,0,0:0:0:0:
182,192,87664,1,0,0:0:0:0:
109,192,87664,1,0,0:0:0:0:
329,192,87775,1,0,0:0:0:0:
475,192,87775,1,0,0:0:0:0:
475,192,87886,1,0,0:0:0:0:
329,192,87886,1,0,0:0:0:0:
256,192,87997,1,0,0:0:0:0:
36,192,87997,1,0,0:0:0:0:
256,192,88109,1,0,0:0:0:0:
36,192,88109,1,0,0:0:0:0:
329,192,88220,1,0,0:0:0:0:
402,192,88220,1,0,0:0:0:0:
182,192,88331,1,0,0:0:0:0:
109,192,88331,1,0,0:0:0:0:
475,192,88442,1,0,0:0:0:0:
402,192,88442,1,0,0:0:0:0:
256,192,88442,1,0,0:0:0:0:
329,192,88442,1,0,0:0:0:0:
182,192,88442,1,0,0:0:0:0:
109,192,88442,1,0,0:0:0:0:
36,192,88442,1,0,0:0:0:0:
182,192,88553,1,0,0:0:0:0:
109,192,88553,1,0,0:0:0:0:
256,192,88664,1,0,0:0:0:0:
475,192,88664,1,0,0:0:0:0:
475,192,88775,1,0,0:0:0:0:
256,192,88775,1,0,0:0:0:0:
402,192,88886,1,0,0:0:0:0:
109,192,88886,1,0,0:0:0:0:
402,192,88997,1,0,0:0:0:0:
109,192,88997,1,0,0:0:0:0:
402,192,89109,1,0,0:0:0:0:
109,192,89109,1,0,0:0:0:0:
329,192,89220,1,0,0:0:0:0:
182,192,89220,1,0,0:0:0:0:
475,192,89331,1,0,0:0:0:0:
402,192,89331,1,0,0:0:0:0:
329,192,89331,1,0,0:0:0:0:
256,192,89331,1,0,0:0:0:0:
182,192,89331,1,0,0:0:0:0:
109,192,89331,1,0,0:0:0:0:
36,192,89331,1,0,0:0:0:0:
329,192,89442,1,0,0:0:0:0:
182,192,89442,1,0,0:0:0:0:
402,192,89553,1,0,0:0:0:0:
109,192,89553,1,0,0:0:0:0:
402,192,89664,1,0,0:0:0:0:
109,192,89664,1,0,0:0:0:0:
475,192,89775,1,0,0:0:0:0:
36,192,89775,1,0,0:0:0:0:
36,192,89886,1,0,0:0:0:0:
475,192,89886,1,0,0:0:0:0:
475,192,89997,1,0,0:0:0:0:
36,192,89997,1,0,0:0:0:0:
36,192,90109,1,0,0:0:0:0:
475,192,90109,1,0,0:0:0:0:
475,192,90220,1,0,0:0:0:0:
402,192,90220,1,0,0:0:0:0:
329,192,90220,1,0,0:0:0:0:
256,192,90220,1,0,0:0:0:0:
182,192,90220,1,0,0:0:0:0:
109,192,90220,1,0,0:0:0:0:
36,192,90220,1,0,0:0:0:0:
475,192,90331,1,0,0:0:0:0:
36,192,90331,1,0,0:0:0:0:
182,192,90442,1,0,0:0:0:0:
109,192,90442,1,0,0:0:0:0:
182,192,90553,1,0,0:0:0:0:
109,192,90553,1,0,0:0:0:0:
402,192,90664,1,0,0:0:0:0:
329,192,90664,1,0,0:0:0:0:
402,192,90775,1,0,0:0:0:0:
329,192,90775,1,0,0:0:0:0:
402,192,90886,1,0,0:0:0:0:
329,192,90886,1,0,0:0:0:0:
402,192,90997,1,0,0:0:0:0:
329,192,90997,1,0,0:0:0:0:
475,192,91109,1,0,0:0:0:0:
402,192,91109,1,0,0:0:0:0:
329,192,91109,1,0,0:0:0:0:
256,192,91109,1,0,0:0:0:0:
182,192,91109,1,0,0:0:0:0:
109,192,91109,1,0,0:0:0:0:
36,192,91109,1,0,0:0:0:0:
402,192,91220,1,0,0:0:0:0:
329,192,91220,1,0,0:0:0:0:
256,192,91331,1,0,0:0:0:0:
36,192,91331,1,0,0:0:0:0:
256,192,91442,1,0,0:0:0:0:
36,192,91442,1,0,0:0:0:0:
402,192,91553,1,0,0:0:0:0:
475,192,91553,1,0,0:0:0:0:
475,192,91664,1,0,0:0:0:0:
402,192,91664,1,0,0:0:0:0:
475,192,91775,1,0,0:0:0:0:
402,192,91775,1,0,0:0:0:0:
182,192,91886,1,0,0:0:0:0:
109,192,91886,1,0,0:0:0:0:
475,192,91997,1,0,0:0:0:0:
402,192,91997,1,0,0:0:0:0:
329,192,91997,1,0,0:0:0:0:
256,192,91997,1,0,0:0:0:0:
182,192,91997,1,0,0:0:0:0:
109,192,91997,1,0,0:0:0:0:
36,192,91997,1,0,0:0:0:0:
182,192,92109,1,0,0:0:0:0:
109,192,92109,1,0,0:0:0:0:
402,192,92220,1,0,0:0:0:0:
329,192,92220,1,0,0:0:0:0:
402,192,92331,1,0,0:0:0:0:
329,192,92331,1,0,0:0:0:0:
256,192,92442,1,0,0:0:0:0:
36,192,92442,1,0,0:0:0:0:
256,192,92553,1,0,0:0:0:0:
36,192,92553,1,0,0:0:0:0:
256,192,92664,1,0,0:0:0:0:
36,192,92664,1,0,0:0:0:0:
329,192,92775,1,0,0:0:0:0:
402,192,92775,1,0,0:0:0:0:
475,192,92886,1,0,0:0:0:0:
402,192,92886,1,0,0:0:0:0:
329,192,92886,1,0,0:0:0:0:
256,192,92886,1,0,0:0:0:0:
182,192,92886,1,0,0:0:0:0:
109,192,92886,1,0,0:0:0:0:
36,192,92886,1,0,0:0:0:0:
402,192,92997,1,0,0:0:0:0:
329,192,92997,1,0,0:0:0:0:
109,192,93109,1,0,0:0:0:0:
36,192,93109,1,0,0:0:0:0:
109,192,93220,5,0,0:0:0:0:
36,192,93220,1,0,0:0:0:0:
402,192,93331,1,0,0:0:0:0:
475,192,93331,1,0,0:0:0:0:
475,192,93442,1,0,0:0:0:0:
402,192,93442,1,0,0:0:0:0:
475,192,93553,1,0,0:0:0:0:
402,192,93553,1,0,0:0:0:0:
402,192,93664,1,0,0:0:0:0:
475,192,93664,1,0,0:0:0:0:
475,192,93775,1,0,0:0:0:0:
402,192,93775,1,0,0:0:0:0:
329,192,93775,1,0,0:0:0:0:
256,192,93775,1,0,0:0:0:0:
109,192,93775,1,0,0:0:0:0:
182,192,93775,1,0,0:0:0:0:
36,192,93775,1,0,0:0:0:0:
402,192,93886,1,0,0:0:0:0:
475,192,93886,1,0,0:0:0:0:
109,192,93997,1,0,0:0:0:0:
182,192,93997,1,0,0:0:0:0:
109,192,94109,1,0,0:0:0:0:
182,192,94109,1,0,0:0:0:0:
329,192,94220,128,0,95997:0:0:0:0:
256,192,94220,128,0,95997:0:0:0:0:
36,192,96220,1,0,0:0:0:0:
182,192,96220,1,0,0:0:0:0:
329,192,96331,1,0,0:0:0:0:
475,192,96331,1,0,0:0:0:0:
109,192,96442,1,0,0:0:0:0:
182,192,96442,1,0,0:0:0:0:
329,192,96553,1,0,0:0:0:0:
402,192,96553,1,0,0:0:0:0:
36,192,96664,1,0,0:0:0:0:
109,192,96664,1,0,0:0:0:0:
182,192,96664,1,0,0:0:0:0:
256,192,96664,1,0,0:0:0:0:
109,192,97109,1,0,0:0:0:0:
182,192,97109,1,0,0:0:0:0:
256,192,97109,1,0,0:0:0:0:
329,192,97109,1,0,0:0:0:0:
182,192,97553,1,0,0:0:0:0:
256,192,97553,1,0,0:0:0:0:
329,192,97553,1,0,0:0:0:0:
402,192,97553,1,0,0:0:0:0:
109,192,99553,1,0,0:0:0:0:
402,192,99553,1,0,0:0:0:0:
475,192,99553,1,0,0:0:0:0:
182,192,99553,1,0,0:0:0:0:
329,192,100220,1,0,0:0:0:0:
182,192,100220,1,0,0:0:0:0:
36,192,100886,1,0,0:0:0:0:
256,192,100886,1,0,0:0:0:0:
329,192,100886,1,0,0:0:0:0:
402,192,100886,1,0,0:0:0:0:
36,192,101109,1,0,0:0:0:0:
36,192,101331,1,0,0:0:0:0:
109,192,101331,1,0,0:0:0:0:
182,192,101331,1,0,0:0:0:0:
256,192,101331,1,0,0:0:0:0:
109,192,102220,1,0,0:0:0:0:
182,192,102220,1,0,0:0:0:0:
256,192,102220,1,0,0:0:0:0:
329,192,102220,1,0,0:0:0:0:
402,192,102220,1,0,0:0:0:0:
182,192,103109,1,0,0:0:0:0:
256,192,103109,1,0,0:0:0:0:
329,192,103109,1,0,0:0:0:0:
402,192,103109,1,0,0:0:0:0:
475,192,103109,1,0,0:0:0:0:
36,192,103997,1,0,0:0:0:0:
109,192,103997,1,0,0:0:0:0:
182,192,103997,1,0,0:0:0:0:
256,192,103997,1,0,0:0:0:0:
329,192,103997,1,0,0:0:0:0:
402,192,103997,1,0,0:0:0:0:
36,192,104886,1,0,0:0:0:0:
109,192,104886,1,0,0:0:0:0:
182,192,104886,1,0,0:0:0:0:
256,192,104886,1,0,0:0:0:0:
329,192,104886,1,0,0:0:0:0:
402,192,104886,1,0,0:0:0:0:
475,192,104886,1,0,0:0:0:0:
256,192,105331,1,0,0:0:0:0:
256,192,105553,1,0,0:0:0:0:
256,192,105997,1,0,0:0:0:0:
256,192,106442,1,0,0:0:0:0:
256,192,106664,1,0,0:0:0:0:
182,192,106886,5,0,0:0:0:0:
109,192,106886,1,0,0:0:0:0:
36,192,106886,1,0,0:0:0:0:
36,192,106997,1,0,0:0:0:0:
109,192,106997,1,0,0:0:0:0:
182,192,106997,1,0,0:0:0:0:
256,192,107109,1,0,0:0:0:0:
475,192,107109,1,0,0:0:0:0:
329,192,107109,1,0,0:0:0:0:
402,192,107109,1,0,0:0:0:0:
182,192,107220,1,0,0:0:0:0:
109,192,107220,1,0,0:0:0:0:
36,192,107220,1,0,0:0:0:0:
182,192,107331,1,0,0:0:0:0:
109,192,107331,1,0,0:0:0:0:
36,192,107331,1,0,0:0:0:0:
109,192,107442,1,0,0:0:0:0:
182,192,107442,1,0,0:0:0:0:
36,192,107442,1,0,0:0:0:0:
256,192,107553,1,0,0:0:0:0:
402,192,107553,1,0,0:0:0:0:
475,192,107553,1,0,0:0:0:0:
329,192,107553,1,0,0:0:0:0:
109,192,107664,1,0,0:0:0:0:
182,192,107664,1,0,0:0:0:0:
36,192,107664,1,0,0:0:0:0:
256,192,107775,1,0,0:0:0:0:
475,192,107775,1,0,0:0:0:0:
329,192,107775,1,0,0:0:0:0:
402,192,107775,1,0,0:0:0:0:
182,192,107886,1,0,0:0:0:0:
109,192,107886,1,0,0:0:0:0:
36,192,107886,1,0,0:0:0:0:
256,192,107997,1,0,0:0:0:0:
329,192,107997,1,0,0:0:0:0:
402,192,107997,1,0,0:0:0:0:
475,192,107997,1,0,0:0:0:0:
182,192,108109,1,0,0:0:0:0:
109,192,108109,1,0,0:0:0:0:
36,192,108109,1,0,0:0:0:0:
182,192,108220,1,0,0:0:0:0:
109,192,108220,1,0,0:0:0:0:
36,192,108220,1,0,0:0:0:0:
36,192,108331,1,0,0:0:0:0:
109,192,108331,1,0,0:0:0:0:
182,192,108331,1,0,0:0:0:0:
36,192,108442,1,0,0:0:0:0:
256,192,108442,1,0,0:0:0:0:
402,192,108442,1,0,0:0:0:0:
475,192,108442,1,0,0:0:0:0:
182,192,108442,1,0,0:0:0:0:
109,192,108442,1,0,0:0:0:0:
329,192,108442,1,0,0:0:0:0:
329,192,108553,1,0,0:0:0:0:
402,192,108553,1,0,0:0:0:0:
475,192,108553,1,0,0:0:0:0:
329,192,108664,1,0,0:0:0:0:
402,192,108664,1,0,0:0:0:0:
475,192,108664,1,0,0:0:0:0:
329,192,108775,1,0,0:0:0:0:
402,192,108775,1,0,0:0:0:0:
475,192,108775,1,0,0:0:0:0:
182,192,108886,1,0,0:0:0:0:
109,192,108886,1,0,0:0:0:0:
36,192,108886,1,0,0:0:0:0:
36,192,108997,1,0,0:0:0:0:
109,192,108997,1,0,0:0:0:0:
182,192,108997,1,0,0:0:0:0:
256,192,109109,1,0,0:0:0:0:
329,192,109109,1,0,0:0:0:0:
402,192,109109,1,0,0:0:0:0:
256,192,109220,1,0,0:0:0:0:
329,192,109220,1,0,0:0:0:0:
402,192,109220,1,0,0:0:0:0:
109,192,109331,1,0,0:0:0:0:
182,192,109331,1,0,0:0:0:0:
475,192,109331,1,0,0:0:0:0:
109,192,109442,1,0,0:0:0:0:
182,192,109442,1,0,0:0:0:0:
475,192,109442,1,0,0:0:0:0:
36,192,109553,1,0,0:0:0:0:
329,192,109553,1,0,0:0:0:0:
402,192,109553,1,0,0:0:0:0:
475,192,109664,1,0,0:0:0:0:
256,192,109664,1,0,0:0:0:0:
182,192,109664,1,0,0:0:0:0:
182,192,109775,1,0,0:0:0:0:
256,192,109775,1,0,0:0:0:0:
475,192,109775,1,0,0:0:0:0:
256,192,109886,1,0,0:0:0:0:
182,192,109886,1,0,0:0:0:0:
475,192,109886,1,0,0:0:0:0:
109,192,109997,1,0,0:0:0:0:
36,192,109997,1,0,0:0:0:0:
329,192,109997,1,0,0:0:0:0:
36,192,110109,1,0,0:0:0:0:
109,192,110109,1,0,0:0:0:0:
329,192,110109,1,0,0:0:0:0:
256,192,110220,1,0,0:0:0:0:
402,192,110220,1,0,0:0:0:0:
475,192,110220,1,0,0:0:0:0:
256,192,110331,1,0,0:0:0:0:
402,192,110331,1,0,0:0:0:0:
475,192,110331,1,0,0:0:0:0:
256,192,110442,1,0,0:0:0:0:
402,192,110442,1,0,0:0:0:0:
475,192,110442,1,0,0:0:0:0:
109,192,110553,1,0,0:0:0:0:
182,192,110553,1,0,0:0:0:0:
329,192,110553,1,0,0:0:0:0:
109,192,110664,1,0,0:0:0:0:
182,192,110664,1,0,0:0:0:0:
329,192,110664,1,0,0:0:0:0:
109,192,110775,1,0,0:0:0:0:
329,192,110775,1,0,0:0:0:0:
182,192,110775,1,0,0:0:0:0:
36,192,110886,1,0,0:0:0:0:
256,192,110886,1,0,0:0:0:0:
475,192,110886,1,0,0:0:0:0:
36,192,110997,1,0,0:0:0:0:
256,192,110997,1,0,0:0:0:0:
475,192,110997,1,0,0:0:0:0:
109,192,111109,1,0,0:0:0:0:
182,192,111109,1,0,0:0:0:0:
402,192,111109,1,0,0:0:0:0:
109,192,111220,1,0,0:0:0:0:
182,192,111220,1,0,0:0:0:0:
402,192,111220,1,0,0:0:0:0:
109,192,111331,1,0,0:0:0:0:
182,192,111331,1,0,0:0:0:0:
402,192,111331,1,0,0:0:0:0:
182,192,111442,1,0,0:0:0:0:
109,192,111442,1,0,0:0:0:0:
402,192,111442,1,0,0:0:0:0:
109,192,111553,1,0,0:0:0:0:
182,192,111553,1,0,0:0:0:0:
402,192,111553,1,0,0:0:0:0:
182,192,111664,1,0,0:0:0:0:
109,192,111664,1,0,0:0:0:0:
402,192,111664,1,0,0:0:0:0:
109,192,111775,1,0,0:0:0:0:
182,192,111775,1,0,0:0:0:0:
402,192,111775,1,0,0:0:0:0:
109,192,111886,1,0,0:0:0:0:
182,192,111886,1,0,0:0:0:0:
402,192,111886,1,0,0:0:0:0:
256,192,111997,1,0,0:0:0:0:
36,192,111997,1,0,0:0:0:0:
329,192,111997,1,0,0:0:0:0:
256,192,112109,1,0,0:0:0:0:
329,192,112109,1,0,0:0:0:0:
36,192,112109,1,0,0:0:0:0:
182,192,112220,1,0,0:0:0:0:
402,192,112220,1,0,0:0:0:0:
475,192,112220,1,0,0:0:0:0:
182,192,112331,1,0,0:0:0:0:
402,192,112331,1,0,0:0:0:0:
475,192,112331,1,0,0:0:0:0:
109,192,112442,1,0,0:0:0:0:
36,192,112442,1,0,0:0:0:0:
256,192,112442,1,0,0:0:0:0:
256,192,112553,1,0,0:0:0:0:
109,192,112553,1,0,0:0:0:0:
36,192,112553,1,0,0:0:0:0:
329,192,112664,1,0,0:0:0:0:
402,192,112664,1,0,0:0:0:0:
475,192,112664,1,0,0:0:0:0:
329,192,112775,1,0,0:0:0:0:
402,192,112775,1,0,0:0:0:0:
475,192,112775,1,0,0:0:0:0:
182,192,112886,1,0,0:0:0:0:
109,192,112886,1,0,0:0:0:0:
36,192,112886,1,0,0:0:0:0:
36,192,112997,1,0,0:0:0:0:
182,192,112997,1,0,0:0:0:0:
109,192,112997,1,0,0:0:0:0:
36,192,113109,1,0,0:0:0:0:
182,192,113109,1,0,0:0:0:0:
109,192,113109,1,0,0:0:0:0:
256,192,113220,1,0,0:0:0:0:
329,192,113220,1,0,0:0:0:0:
402,192,113220,1,0,0:0:0:0:
256,192,113331,1,0,0:0:0:0:
329,192,113331,1,0,0:0:0:0:
402,192,113331,1,0,0:0:0:0:
256,192,113442,1,0,0:0:0:0:
329,192,113442,1,0,0:0:0:0:
402,192,113442,1,0,0:0:0:0:
36,192,113553,1,0,0:0:0:0:
182,192,113553,1,0,0:0:0:0:
475,192,113553,1,0,0:0:0:0:
182,192,113664,1,0,0:0:0:0:
36,192,113664,1,0,0:0:0:0:
475,192,113664,1,0,0:0:0:0:
36,192,113775,1,0,0:0:0:0:
182,192,113775,1,0,0:0:0:0:
109,192,113775,1,0,0:0:0:0:
36,192,113886,1,0,0:0:0:0:
109,192,113886,1,0,0:0:0:0:
182,192,113886,1,0,0:0:0:0:
36,192,113997,1,0,0:0:0:0:
109,192,113997,1,0,0:0:0:0:
182,192,113997,1,0,0:0:0:0:
329,192,114109,1,0,0:0:0:0:
402,192,114109,1,0,0:0:0:0:
475,192,114109,1,0,0:0:0:0:
329,192,114220,1,0,0:0:0:0:
402,192,114220,1,0,0:0:0:0:
475,192,114220,1,0,0:0:0:0:
329,192,114331,1,0,0:0:0:0:
402,192,114331,1,0,0:0:0:0:
475,192,114331,1,0,0:0:0:0:
36,192,114442,1,0,0:0:0:0:
256,192,114442,1,0,0:0:0:0:
182,192,114442,1,0,0:0:0:0:
36,192,114553,1,0,0:0:0:0:
182,192,114553,1,0,0:0:0:0:
256,192,114553,1,0,0:0:0:0:
109,192,114664,1,0,0:0:0:0:
329,192,114664,1,0,0:0:0:0:
402,192,114664,1,0,0:0:0:0:
329,192,114775,1,0,0:0:0:0:
402,192,114775,1,0,0:0:0:0:
109,192,114775,1,0,0:0:0:0:
109,192,114886,1,0,0:0:0:0:
329,192,114886,1,0,0:0:0:0:
402,192,114886,1,0,0:0:0:0:
329,192,114997,1,0,0:0:0:0:
402,192,114997,1,0,0:0:0:0:
109,192,114997,1,0,0:0:0:0:
109,192,115109,1,0,0:0:0:0:
329,192,115109,1,0,0:0:0:0:
402,192,115109,1,0,0:0:0:0:
109,192,115220,1,0,0:0:0:0:
329,192,115220,1,0,0:0:0:0:
402,192,115220,1,0,0:0:0:0:
109,192,115331,1,0,0:0:0:0:
402,192,115331,1,0,0:0:0:0:
329,192,115331,1,0,0:0:0:0:
109,192,115442,1,0,0:0:0:0:
329,192,115442,1,0,0:0:0:0:
402,192,115442,1,0,0:0:0:0:
256,192,115553,1,0,0:0:0:0:
182,192,115553,1,0,0:0:0:0:
475,192,115553,1,0,0:0:0:0:
182,192,115664,1,0,0:0:0:0:
256,192,115664,1,0,0:0:0:0:
475,192,115664,1,0,0:0:0:0:
329,192,115775,1,0,0:0:0:0:
109,192,115775,1,0,0:0:0:0:
36,192,115775,1,0,0:0:0:0:
36,192,115886,1,0,0:0:0:0:
109,192,115886,1,0,0:0:0:0:
329,192,115886,1,0,0:0:0:0:
402,192,115997,1,0,0:0:0:0:
475,192,115997,1,0,0:0:0:0:
182,192,115997,1,0,0:0:0:0:
182,192,116109,1,0,0:0:0:0:
402,192,116109,1,0,0:0:0:0:
475,192,116109,1,0,0:0:0:0:
109,192,116220,1,0,0:0:0:0:
36,192,116220,1,0,0:0:0:0:
329,192,116220,1,0,0:0:0:0:
109,192,116331,1,0,0:0:0:0:
36,192,116331,1,0,0:0:0:0:
329,192,116331,1,0,0:0:0:0:
182,192,116442,1,0,0:0:0:0:
109,192,116442,1,0,0:0:0:0:
36,192,116442,1,0,0:0:0:0:
36,192,116553,1,0,0:0:0:0:
109,192,116553,1,0,0:0:0:0:
182,192,116553,1,0,0:0:0:0:
256,192,116664,1,0,0:0:0:0:
329,192,116664,1,0,0:0:0:0:
402,192,116664,1,0,0:0:0:0:
329,192,116775,1,0,0:0:0:0:
402,192,116775,1,0,0:0:0:0:
475,192,116775,1,0,0:0:0:0:
329,192,116886,1,0,0:0:0:0:
402,192,116886,1,0,0:0:0:0:
475,192,116886,1,0,0:0:0:0:
329,192,116997,1,0,0:0:0:0:
402,192,116997,1,0,0:0:0:0:
475,192,116997,1,0,0:0:0:0:
329,192,117109,1,0,0:0:0:0:
402,192,117109,1,0,0:0:0:0:
475,192,117109,1,0,0:0:0:0:
329,192,117220,1,0,0:0:0:0:
402,192,117220,1,0,0:0:0:0:
475,192,117220,1,0,0:0:0:0:
36,192,117331,1,0,0:0:0:0:
109,192,117331,1,0,0:0:0:0:
256,192,117331,1,0,0:0:0:0:
256,192,117442,1,0,0:0:0:0:
109,192,117442,1,0,0:0:0:0:
36,192,117442,1,0,0:0:0:0:
256,192,117553,1,0,0:0:0:0:
109,192,117553,1,0,0:0:0:0:
36,192,117553,1,0,0:0:0:0:
182,192,117664,1,0,0:0:0:0:
402,192,117664,1,0,0:0:0:0:
475,192,117664,1,0,0:0:0:0:
182,192,117775,1,0,0:0:0:0:
402,192,117775,1,0,0:0:0:0:
475,192,117775,1,0,0:0:0:0:
182,192,117886,1,0,0:0:0:0:
402,192,117886,1,0,0:0:0:0:
475,192,117886,1,0,0:0:0:0:
109,192,117997,1,0,0:0:0:0:
36,192,117997,1,0,0:0:0:0:
329,192,117997,1,0,0:0:0:0:
329,192,118109,1,0,0:0:0:0:
36,192,118109,1,0,0:0:0:0:
109,192,118109,1,0,0:0:0:0:
182,192,118220,1,0,0:0:0:0:
256,192,118220,1,0,0:0:0:0:
475,192,118220,1,0,0:0:0:0:
182,192,118331,1,0,0:0:0:0:
256,192,118331,1,0,0:0:0:0:
475,192,118331,1,0,0:0:0:0:
475,192,118442,1,0,0:0:0:0:
256,192,118442,1,0,0:0:0:0:
182,192,118442,1,0,0:0:0:0:
182,192,118553,1,0,0:0:0:0:
256,192,118553,1,0,0:0:0:0:
475,192,118553,1,0,0:0:0:0:
475,192,118664,1,0,0:0:0:0:
256,192,118664,1,0,0:0:0:0:
182,192,118664,1,0,0:0:0:0:
182,192,118775,1,0,0:0:0:0:
256,192,118775,1,0,0:0:0:0:
475,192,118775,1,0,0:0:0:0:
36,192,118886,1,0,0:0:0:0:
109,192,118886,1,0,0:0:0:0:
402,192,118886,1,0,0:0:0:0:
109,192,118997,1,0,0:0:0:0:
36,192,118997,1,0,0:0:0:0:
402,192,118997,1,0,0:0:0:0:
182,192,119109,1,0,0:0:0:0:
329,192,119109,1,0,0:0:0:0:
256,192,119109,1,0,0:0:0:0:
182,192,119220,1,0,0:0:0:0:
329,192,119220,1,0,0:0:0:0:
256,192,119220,1,0,0:0:0:0:
182,192,119331,1,0,0:0:0:0:
329,192,119331,1,0,0:0:0:0:
256,192,119331,1,0,0:0:0:0:
256,192,119442,1,0,0:0:0:0:
182,192,119442,1,0,0:0:0:0:
329,192,119442,1,0,0:0:0:0:
329,192,119553,1,0,0:0:0:0:
256,192,119553,1,0,0:0:0:0:
182,192,119553,1,0,0:0:0:0:
182,192,119664,1,0,0:0:0:0:
256,192,119664,1,0,0:0:0:0:
329,192,119664,1,0,0:0:0:0:
36,192,119775,1,0,0:0:0:0:
402,192,119775,1,0,0:0:0:0:
109,192,119775,1,0,0:0:0:0:
109,192,119886,1,0,0:0:0:0:
36,192,119886,1,0,0:0:0:0:
402,192,119886,1,0,0:0:0:0:
182,192,119997,1,0,0:0:0:0:
329,192,119997,1,0,0:0:0:0:
475,192,119997,1,0,0:0:0:0:
182,192,120109,1,0,0:0:0:0:
329,192,120109,1,0,0:0:0:0:
475,192,120109,1,0,0:0:0:0:
182,192,120220,1,0,0:0:0:0:
329,192,120220,1,0,0:0:0:0:
475,192,120220,1,0,0:0:0:0:
109,192,120331,1,0,0:0:0:0:
256,192,120331,1,0,0:0:0:0:
402,192,120331,1,0,0:0:0:0:
109,192,120442,1,0,0:0:0:0:
256,192,120442,1,0,0:0:0:0:
402,192,120442,1,0,0:0:0:0:
402,192,120553,1,0,0:0:0:0:
256,192,120553,1,0,0:0:0:0:
109,192,120553,1,0,0:0:0:0:
329,192,120664,1,0,0:0:0:0:
182,192,120664,1,0,0:0:0:0:
36,192,120664,1,0,0:0:0:0:
36,192,120775,1,0,0:0:0:0:
182,192,120775,1,0,0:0:0:0:
329,192,120775,1,0,0:0:0:0:
109,192,120886,1,0,0:0:0:0:
402,192,120886,1,0,0:0:0:0:
475,192,120886,1,0,0:0:0:0:
109,192,120997,1,0,0:0:0:0:
402,192,120997,1,0,0:0:0:0:
475,192,120997,1,0,0:0:0:0:
109,192,121109,1,0,0:0:0:0:
402,192,121109,1,0,0:0:0:0:
475,192,121109,1,0,0:0:0:0:
182,192,121220,1,0,0:0:0:0:
256,192,121220,1,0,0:0:0:0:
329,192,121220,1,0,0:0:0:0:
182,192,121331,1,0,0:0:0:0:
256,192,121331,1,0,0:0:0:0:
329,192,121331,1,0,0:0:0:0:
182,192,121442,1,0,0:0:0:0:
256,192,121442,1,0,0:0:0:0:
329,192,121442,1,0,0:0:0:0:
182,192,121553,1,0,0:0:0:0:
256,192,121553,1,0,0:0:0:0:
329,192,121553,1,0,0:0:0:0:
109,192,121553,1,0,0:0:0:0:
402,192,121553,1,0,0:0:0:0:
182,192,121664,1,0,0:0:0:0:
256,192,121664,1,0,0:0:0:0:
329,192,121664,1,0,0:0:0:0:
109,192,121664,1,0,0:0:0:0:
402,192,121664,1,0,0:0:0:0:
109,192,121775,1,0,0:0:0:0:
182,192,121775,1,0,0:0:0:0:
256,192,121775,1,0,0:0:0:0:
329,192,121775,1,0,0:0:0:0:
402,192,121775,1,0,0:0:0:0:
36,192,121775,1,0,0:0:0:0:
402,192,121886,1,0,0:0:0:0:
329,192,121886,1,0,0:0:0:0:
256,192,121886,1,0,0:0:0:0:
182,192,121886,1,0,0:0:0:0:
109,192,121886,1,0,0:0:0:0:
36,192,121886,1,0,0:0:0:0:
109,192,121997,1,0,0:0:0:0:
182,192,121997,1,0,0:0:0:0:
256,192,121997,1,0,0:0:0:0:
402,192,121997,1,0,0:0:0:0:
329,192,121997,1,0,0:0:0:0:
36,192,121997,1,0,0:0:0:0:
329,192,122109,1,0,0:0:0:0:
402,192,122109,1,0,0:0:0:0:
256,192,122109,1,0,0:0:0:0:
182,192,122109,1,0,0:0:0:0:
109,192,122109,1,0,0:0:0:0:
36,192,122109,1,0,0:0:0:0:
36,192,122220,1,0,0:0:0:0:
109,192,122220,1,0,0:0:0:0:
182,192,122220,1,0,0:0:0:0:
256,192,122220,1,0,0:0:0:0:
329,192,122220,1,0,0:0:0:0:
402,192,122220,1,0,0:0:0:0:
475,192,122220,1,0,0:0:0:0:
475,192,122331,1,0,0:0:0:0:
402,192,122331,1,0,0:0:0:0:
329,192,122331,1,0,0:0:0:0:
256,192,122331,1,0,0:0:0:0:
182,192,122331,1,0,0:0:0:0:
109,192,122331,1,0,0:0:0:0:
36,192,122331,1,0,0:0:0:0:
36,192,122442,1,0,0:0:0:0:
109,192,122442,1,0,0:0:0:0:
475,192,122442,1,0,0:0:0:0:
402,192,122442,1,0,0:0:0:0:
329,192,122442,1,0,0:0:0:0:
256,192,122442,1,0,0:0:0:0:
182,192,122442,1,0,0:0:0:0:
36,192,122553,1,0,0:0:0:0:
109,192,122553,1,0,0:0:0:0:
182,192,122553,1,0,0:0:0:0:
256,192,122553,1,0,0:0:0:0:
329,192,122553,1,0,0:0:0:0:
475,192,122553,1,0,0:0:0:0:
402,192,122553,1,0,0:0:0:0:
109,192,122664,1,0,0:0:0:0:
182,192,122664,1,0,0:0:0:0:
329,192,122664,1,0,0:0:0:0:
475,192,122664,1,0,0:0:0:0:
402,192,122664,1,0,0:0:0:0:
256,192,122664,1,0,0:0:0:0:
36,192,122664,1,0,0:0:0:0:
