osu file format v14

[General]
AudioFilename: audio.mp3
AudioLeadIn: 0
PreviewTime: 136261
Countdown: 0
SampleSet: Soft
StackLeniency: 0.3
Mode: 0
LetterboxInBreaks: 0
WidescreenStoryboard: 1

[Editor]
Bookmarks: 189766
DistanceSpacing: 2
BeatDivisor: 4
GridSize: 16
TimelineZoom: 1.500001

[Metadata]
Title:CC: Gauntlet Compilation
TitleUnicode:CC: Gauntlet Compilation
Artist:Various Artists
ArtistUnicode:Various Artists
Creator:YokesPai
Version:CS6 cuz chocobo
Source:
Tags:gauntlet mix corgi cup spelunker oddloop megalovania chocobo kikoku doukoku jigokuraku astrosexy reflux
BeatmapID:1408219
BeatmapSetID:624631

[Difficulty]
HPDrainRate:0
CircleSize:6
OverallDifficulty:6
ApproachRate:6
SliderMultiplier:1.8
SliderTickRate:1

[Events]
//Background and Video events
0,0,"GAUNTLETmap1.png",0,0
//Break Periods
2,136367,137387
2,181073,187966
//Storyboard Layer 0 (Background)
//Storyboard Layer 1 (Fail)
//Storyboard Layer 2 (Pass)
//Storyboard Layer 3 (Foreground)
//Storyboard Sound Samples

[TimingPoints]
136,397.350993377483,4,2,0,100,1,0
530,-66.6666666666667,4,1,1,50,0,0
1722,-100,4,1,1,50,0,0
2119,-66.6666666666667,4,1,1,50,0,0
2417,-66.6666666666667,4,1,1,5,0,0
2616,99.3377483443709,4,1,1,50,1,0
2616,-50,4,1,1,50,0,0
3311,397.350993377483,4,1,1,50,1,0
3708,-66.6666666666667,4,1,1,50,0,0
5297,176.600441501104,4,1,1,50,1,0
5695,397.350993377483,4,1,1,50,1,0
6887,-66.6666666666667,4,1,1,50,0,0
8079,198.675496688742,4,1,1,50,1,0
8079,-66.6666666666667,4,1,1,50,0,0
8476,397.350993377483,4,1,1,50,1,0
8476,-66.6666666666667,4,1,1,50,0,0
9668,-100,4,1,1,50,0,0
10065,-66.6666666666667,4,1,1,50,0,0
11654,176.600441501104,4,1,1,50,1,0
12052,198.675496688742,4,1,1,50,1,0
12250,-50,4,1,1,50,0,0
12797,400,4,1,1,100,1,0
12797,-52.9411764706,4,1,1,40,0,0
13997,-105.882352941,4,1,1,80,0,0
14397,-26.4705882353,4,1,1,80,0,0
15197,-30.2521008403,4,1,1,80,0,0
15997,-35.2941176471,4,1,1,80,0,0
17597,-26.4705882353,4,1,1,80,0,0
18397,-52.9100529100529,4,1,1,80,0,0
19997,-30.2521008403,4,1,1,80,0,0
20797,-105.882352941,4,1,1,80,0,0
21097,-26.4705882353,4,1,1,80,0,0
21397,-26.4705882353,4,1,1,80,0,0
21597,-35.2941176471,4,1,1,80,0,0
22197,-70.5882352941,4,1,1,80,0,0
23197,-35.2941176471,4,1,1,80,0,0
23997,-70.5882352941,4,1,1,80,0,0
24797,-35.2941176471,4,1,1,80,0,0
25597,-42.3529411765,4,1,1,80,0,0
26197,-105.882352941,4,1,1,80,0,0
26697,-70.5882352941,4,1,1,80,0,0
26797,-105.882352941,4,1,1,80,0,0
27197,-26.4705882353,4,1,1,80,0,0
28797,-35.2941176471,4,1,1,80,0,0
30397,-70.5882352941,4,1,1,80,0,0
30797,-26.4705882353,4,1,1,80,0,0
31197,-52.9100529100529,4,1,1,80,0,0
32797,-30.2521008403,4,1,1,80,0,0
33597,-17.6470588235,4,1,1,80,0,0
34197,-105.882352941,4,1,1,80,0,0
34397,-17.6470588235,4,1,1,80,0,0
34997,-105.882352941,4,1,1,80,0,0
35197,-17.6470588235,4,1,1,80,0,0
35797,-105.882352941,4,1,1,80,0,0
35997,-70.5882352941,4,1,1,80,0,0
36797,-35.2941176471,4,1,1,80,0,0
37197,-26.4705882353,4,1,1,80,0,0
40005,387.096774193548,4,1,1,50,1,0
40972,387.096774193548,4,1,1,70,1,0
40972,-29.032258064,4,1,1,80,0,1
65746,-38.709677419,4,1,1,80,0,0
78133,-58.064516129,4,1,1,50,0,0
81347,250,4,1,1,100,1,0
81454,250,4,1,1,100,1,1
113580,352.941176470588,4,1,1,50,1,0
113580,-90,4,1,1,50,0,0
136571,348.837209302326,4,1,1,100,1,0
138877,-120,4,1,1,100,0,1
143063,-120,4,1,1,100,0,1
149865,-180,4,1,1,100,0,1
150388,-120,4,1,1,100,0,1
155970,-240,4,1,1,100,0,1
157016,-360,4,1,1,100,0,1
161377,-360,4,1,1,100,0,0
181766,500,4,1,1,70,1,0
189766,-72,4,1,1,70,0,0
240118,250,4,1,1,100,1,0

[HitObjects]
348,49,133,6,0,P|406:79|435:139,1,135,2|2,0:0|0:0,0:0:0:0:
436,140,530,2,0,P|407:80|348:49,1,135,0|2,0:0|0:0,0:0:0:0:
256,148,927,1,0,0:0:0:0:
324,264,1126,1,2,0:0:0:0:
256,148,1325,1,0,0:0:0:0:
324,264,1523,1,2,0:0:0:0:
456,300,1722,6,0,P|416:360|352:368,1,135,0|2,0:0|0:0,0:0:0:0:
357,369,2119,2,0,P|421:356|456:300,2,135,0|2|0,0:0|0:0|0:0,0:0:0:0:
64,24,2715,6,0,B|52:204|52:204|64:24|64:24|52:204|52:204|64:24,1,720,0|0,0:0|0:0,0:0:0:0:
240,64,3311,6,0,L|376:72,1,135,2|2,0:0|0:0,0:0:0:0:
240,64,3708,2,0,L|376:72,2,135,0|2|0,0:0|0:0|0:0,0:0:0:0:
374,71,4304,2,0,L|240:64,1,135,2|0,0:0|0:0,0:0:0:0:
374,71,4701,1,2,0:0:0:0:
240,64,4900,6,0,L|252:267,1,180,0|2,0:0|0:0,0:0:0:0:
240,64,5297,2,0,L|252:268,1,180,0|2,0:0|0:0,0:0:0:0:
240,64,5893,1,0,0:0:0:0:
251,266,6092,1,0,0:0:0:0:
251,266,6291,1,0,0:0:0:0:
240,64,6489,6,0,L|104:52,1,135,2|2,0:0|0:0,0:0:0:0:
196,144,6887,2,0,L|60:132,1,135,0|2,0:0|0:0,0:0:0:0:
152,224,7284,2,0,L|16:212,2,135,0|2|2,0:0|0:0|0:0,0:0:0:0:
272,64,8079,2,0,L|408:52,2,135,2|0|2,0:0|0:0|0:0,0:0:0:0:
316,144,8476,2,0,L|452:132,1,135,2|0,0:0|0:0,0:0:0:0:
316,144,8873,1,2,0:0:0:0:
450,132,9072,2,0,L|316:144,1,135,0|0,0:0|0:0,0:0:0:0:
360,224,9668,6,0,L|496:212,1,135,2|2,0:0|0:0,0:0:0:0:
494,212,10065,2,0,L|484:346,1,135,0|2,0:0|0:0,0:0:0:0:
360,224,10462,1,0,0:0:0:0:
484,348,10661,1,2,0:0:0:0:
492,212,10860,1,0,0:0:0:0:
484,348,11058,1,2,0:0:0:0:
360,224,11257,6,0,B|492:212|492:212|504:144,1,180,0|2,0:0|0:0,0:0:0:0:
360,224,11654,6,0,B|492:212|492:212|504:144,1,180,0|2,0:0|0:0,0:0:0:0:
248,56,12250,6,0,B|156:48|156:48|248:56|248:56|72:40,1,360,0|2,0:0|0:0,0:0:0:0:
55,336,12797,5,6,0:0:0:0:
123,300,12997,1,2,0:0:0:0:
195,332,13197,1,2,0:0:0:0:
263,296,13397,1,2,0:0:0:0:
337,329,13597,1,2,0:0:0:0:
406,291,13797,1,2,0:0:0:0:
479,324,13997,6,0,L|472:368,1,42.4999988079071,2|0,2:0|2:0,0:0:0:0:
427,140,14197,2,0,L|420:184,1,42.4999988079071,2|0,2:0|2:0,0:0:0:0:
132,197,14397,6,6,B|256:253|400:209|400:209|364:181|320:165,1,339.999990463257,6|0,0:0|2:0,0:0:0:0:
92,120,14697,1,0,0:0:0:0:
160,72,14797,2,2,B|224:128|224:272|128:328|128:328|96:324|76:296,1,339.999990463257,2|0,0:0|0:0,0:0:0:0:
24,172,15097,1,0,0:0:0:0:
16,160,15197,6,0,P|188:168|416:24,2,446.249991738796,4|0|0,2:0|0:0|0:0,0:0:0:0:
300,160,15897,1,0,0:0:0:0:
492,68,15997,6,0,P|472:124|460:196,1,127.50000128746,0|0,0:0|2:0,0:0:0:0:
424,368,16197,2,0,P|413:305|392:245,1,127.50000128746,0|0,0:0|2:0,0:0:0:0:
245,56,16397,6,0,P|180:56|112:80,1,127.50000128746
163,348,16597,2,0,P|92:344|36:324,1,127.50000128746
43,109,16797,6,0,P|184:96|328:156,1,255.000002574921
356,79,17097,2,0,P|408:187|420:323,1,255.000002574921
488,363,17397,2,0,P|424:344|364:340,1,127.50000128746
106,241,17597,6,0,B|208:172|332:199|332:199|324:256|252:272,1,339.999990463257,2|0,0:0|0:0,0:0:0:0:
38,188,17897,1,0,0:0:0:0:
13,106,17997,2,0,B|5:62|29:38|29:38|64:64|96:64|96:64|128:128|200:152|264:96,1,339.999990463257,2|0,0:0|0:0,0:0:0:0:
192,28,18297,1,0,0:0:0:0:
192,28,18397,6,0,P|153:37|104:40,1,84.9999976158143
431,67,18597,2,0,P|389:60|351:43,1,84.9999976158143
119,119,18797,6,0,P|79:115|35:95,1,84.9999976158143
492,125,18997,2,0,P|456:141|396:149,1,84.9999976158143
92,198,19197,6,0,P|52:212|8:214,1,84.9999976158143
411,230,19397,2,0,P|448:246|492:250,1,84.9999976158143
32,310,19597,6,0,P|68:300|112:276,1,84.9999976158143
469,340,19797,2,0,P|429:332|389:308,1,84.9999976158143
168,211,19997,6,0,P|152:260|150:335,1,127.50000128746
201,16,20197,2,0,P|217:64|218:139,1,127.50000128746
377,202,20397,2,0,P|328:218|253:219,1,127.50000128746
11,119,20597,2,0,P|75:117|136:136,1,127.50000128746
108,206,20797,6,0,P|56:204|16:192,1,84.9999976158143,2|0,0:0|0:0,0:0:0:0:
158,270,21097,2,0,B|288:300|422:237|422:237|448:260|444:300,1,339.999990463257,2|0,0:0|0:0,0:0:0:0:
511,342,21397,2,0,B|472:336|444:299|444:299|408:320|360:312,1,169.999995231629,4|0,1:0|2:0,0:0:0:0:
144,184,21597,6,0,P|296:192|400:156,1,255.000002574921
158,270,21897,2,0,P|88:134|5:62,1,255.000002574921,0|0,0:0|2:0,0:0:0:0:
228,216,22197,6,0,P|191:267|176:329,1,127.50000128746
314,226,22497,2,0,P|328:292|360:344,1,127.50000128746
390,178,22797,2,0,P|428:208|512:228,1,127.50000128746,0|0,0:0|2:0,0:0:0:0:
500,236,23063,1,0,0:0:0:0:
497,244,23130,1,0,0:0:0:0:
494,252,23197,2,0,P|432:236|368:240,1,127.50000128746
210,223,23397,1,0,0:0:0:0:
484,328,23497,6,0,P|420:331|359:315,1,127.50000128746
210,223,23697,2,0,P|148:207|84:211,1,127.50000128746
369,239,23897,1,0,0:0:0:0:
200,299,23997,6,0,P|161:248|140:188,1,127.50000128746,2|0,0:0|0:0,0:0:0:0:
124,192,24263,1,0,0:0:0:0:
104,200,24330,1,0,0:0:0:0:
85,210,24397,2,0,P|109:151|114:87,1,127.50000128746,2|0,0:0|0:0,0:0:0:0:
100,64,24663,1,0,0:0:0:0:
76,52,24730,1,0,0:0:0:0:
47,51,24797,6,2,P|228:104|400:30,1,382.500003862381,0|0,0:0|0:0,0:0:0:0:
412,8,25197,1,0,0:0:0:0:
492,47,25397,2,0,P|488:70|480:91,3,42.4999988079071
512,244,25597,6,0,P|392:196|116:276,1,424.999988079071,2|0,0:0|0:0,0:0:0:0:
445,326,26197,2,2,P|460:324|492:332,1,42.4999988079071,2|0,1:0|2:0,0:0:0:0:
152,24,26397,5,0,0:0:0:0:
152,24,26497,1,2,0:0:0:0:
445,326,26697,2,2,P|459:332|475:334,1,31.8750003218651,2|0,1:0|2:0,0:0:0:0:
152,24,26797,6,0,P|148:44|156:76,1,42.4999988079071
232,44,26997,1,2,1:0:0:0:
48,148,27197,6,2,L|388:120,1,339.999990463257,4|0,2:0|0:0,0:0:0:0:
232,44,27497,1,0,1:0:0:0:
151,65,27597,2,0,B|112:152|126:280|172:336|172:336|192:312|196:284,1,339.999990463257,2|0,0:0|0:0,0:0:0:0:
475,268,27897,1,0,0:0:0:0:
480,280,27997,6,0,P|284:192|52:212,2,446.249991738796
224,148,28697,1,0,0:0:0:0:
100,96,28797,6,0,P|116:156|112:224,1,127.50000128746,0|0,0:0|2:0,0:0:0:0:
55,362,28997,2,0,P|39:302|43:234,1,127.50000128746,0|0,0:0|2:0,0:0:0:0:
200,16,29197,6,0,P|268:16|328:32,1,127.50000128746
260,336,29397,2,0,P|336:336|392:320,1,127.50000128746
480,280,29597,6,0,P|380:248|228:252,1,255.000002574921
184,328,29897,2,0,B|124:348|64:340|64:340|24:284|36:208,1,255.000002574921
68,132,30197,2,0,P|72:192|60:260,1,127.50000128746
32,48,30397,6,0,P|88:48|160:68,1,127.50000128746,0|2,0:0|0:0,0:0:0:0:
220,116,30663,1,0,0:0:0:0:
220,116,30730,1,0,0:0:0:0:
220,116,30797,2,2,B|328:132|412:76|412:76|380:148|388:224,1,339.999990463257,0|0,0:0|0:0,0:0:0:0:
456,256,31097,1,0,0:0:0:0:
476,284,31197,6,0,P|432:288|388:304,1,84.9999976158143,4|0,0:0|0:0,0:0:0:0:
52,212,31397,2,0,P|96:224|136:223,1,84.9999976158143
480,204,31597,6,0,P|436:192|392:192,1,84.9999976158143
36,128,31797,2,0,P|76:124|120:108,1,84.9999976158143
492,120,31997,6,0,P|456:112|412:88,1,84.9999976158143
24,288,32197,2,0,P|68:280|104:264,1,84.9999976158143
476,284,32397,6,0,P|436:300|388:304,1,84.9999976158143,4|0,0:0|0:0,0:0:0:0:
28,188,32597,2,0,P|68:192|112:184,1,84.9999976158143
373,20,32797,6,0,P|373:83|355:144,1,127.50000128746
316,336,32997,2,0,P|300:287|299:212,1,127.50000128746
141,150,33197,2,0,P|189:134|264:133,1,127.50000128746
506,258,33397,2,0,P|440:256|380:236,1,127.50000128746
215,52,33597,6,2,B|72:68|72:68|88:180|88:180|64:296|64:296|200:284,1,510.000005149842,4|0,1:0|2:0,0:0:0:0:
166,141,33897,2,2,B|295:125|295:125|355:156|355:156|483:144|483:144|459:227|459:227|347:239,1,510.000005149842,2|0,0:0|2:0,0:0:0:0:
278,209,34197,2,0,B|281:256,1,42.4999988079071
125,316,34397,6,2,B|89:312|89:312|62:324|62:324|65:184|65:184|193:196|193:196|205:376,1,510.000005149842,4|0,0:0|2:0,0:0:0:0:
290,368,34697,2,2,B|270:120|270:120|110:100|110:100|162:68|162:68|214:72,1,510.000005149842,2|0,0:0|2:0,0:0:0:0:
351,125,34997,2,0,B|355:171,1,42.4999988079071
476,236,35197,6,2,B|408:228|408:228|324:264|324:264|112:240|112:240|160:288|160:288|236:296,1,510.000005149842,4|0,0:0|2:0,0:0:0:0:
424,308,35497,2,2,B|472:313|472:313|486:160|486:160|397:151|397:151|313:185|313:185|249:177|249:177|222:115,1,510.000005149842,2|0,0:0|2:0,0:0:0:0:
301,108,35797,2,0,B|343:91,1,42.4999988079071
52,180,35997,6,2,B|64:76|64:76|78:55|78:55|39:36|39:36|120:28,2,191.250001931191,0|0|0,0:0|0:0|0:0,0:0:0:0:
112,240,36697,1,0,0:0:0:0:
31,263,36797,6,0,B|71:260|71:260|112:240|112:240|168:336|168:336|196:284,1,255.000002574921,4|0,2:0|0:0,0:0:0:0:
272,240,37097,1,0,0:0:0:0:
272,240,37197,2,0,P|336:248|272:276,1,169.999995231629,2|0,0:0|0:0,0:0:0:0:
396,336,37397,2,0,P|408:360|424:372,2,42.4999988079071
256,148,37597,2,0,P|321:140|380:164,1,127.50000128746
436,248,37797,6,0,P|470:248|444:232,1,84.9999976158143,2|0,0:0|0:0,0:0:0:0:
72,188,38197,2,0,L|28:180,3,42.4999988079071
24,12,38397,6,0,L|60:272,1,254.999992847443,4|0,2:0|0:0,0:0:0:0:
28,344,38697,1,0,0:0:0:0:
16,336,38797,6,0,P|88:228|98:357,1,339.999990463257,2|0,0:0|0:0,0:0:0:0:
58,264,39063,1,0,0:0:0:0:
64,272,39130,1,0,0:0:0:0:
64,284,39197,6,0,P|74:154|146:262,1,339.999990463257,2|0,0:0|0:0,0:0:0:0:
278,187,39497,2,0,P|288:316|360:208,1,339.999990463257,2|0,0:0|0:0,0:0:0:0:
464,273,39797,2,0,P|496:221|496:293,1,169.999995231629,2|0,0:0|2:0,0:0:0:0:
352,377,40005,5,0,0:0:0:0:
24,361,40199,1,0,0:0:0:0:
318,251,40392,1,0,0:0:0:0:
110,286,40586,1,0,0:0:0:0:
432,176,40780,1,0,0:0:0:0:
147,170,40974,6,0,B|96:164|8:107|9:24|9:24|185:111|397:108|514:52|514:52|398:-17|84:-1|15:156|-11:258|22:368|22:368|143:176|249:140|523:129|517:270|517:270|311:307|115:368|115:368|243:177|507:198|476:327|467:352|467:352|352:377,1,3100,12|4,0:1|0:0,0:0:0:0:
353,377,43103,1,8,0:0:0:0:
352,376,43296,5,2,0:0:0:0:
471,346,43490,1,8,0:0:0:0:
476,192,43683,1,6,0:0:0:0:
325,40,43877,1,8,0:0:0:0:
74,34,44070,6,0,B|107:186|237:366|303:346|303:346|340:244|311:47|160:24|160:24|312:275|192:380|192:380|84:287|23:115|23:115|8:323|69:377|69:377|150:133|324:143|476:189|476:189|463:291|378:367|378:367|416:242|385:98|324:39|324:39|416:62|500:54|500:54|500:98|494:120,1,3100,2|6,0:0|0:0,0:0:0:0:
494,120,46199,1,8,0:0:0:0:
494,120,46393,5,2,0:0:0:0:
379,168,46586,1,8,0:0:0:0:
221,149,46780,1,6,0:0:0:0:
74,34,46974,1,8,0:0:0:0:
109,263,47167,6,0,B|211:363|369:386|515:366|515:366|399:270|258:272|19:369|19:369|5:241|66:132|243:54|243:54|155:11|74:34,1,1550,2|8,0:0|0:0,0:0:0:0:
74,33,48328,1,6,0:0:0:0:
474,254,48522,1,8,0:0:0:0:
328,108,48716,6,0,B|213:149|160:200|160:200|201:234|201:234|283:213|405:225|474:256|474:256|457:192|406:161|406:161|436:105|415:39|356:18|356:18|386:0|443:2|465:16,1,930,2|8,0:0|0:0,0:0:0:0:
244,54,49490,2,0,B|1:167|21:367|21:367|161:309|219:309,1,620,2|6,0:0|0:0,0:0:0:0:
456,372,49974,2,0,B|373:331|301:308|301:308|359:252|375:188,1,310
448,21,50264,6,0,B|474:8|514:17|514:17|473:64|419:105|229:143|154:37|154:37|244:9|394:21|516:178|516:178|257:167|-10:199|-10:199|120:311|470:449|508:260|508:260|264:190|197:411|0:356|0:356|128:290|217:176|40:15|40:15|-2:64|2:127,1,3100,2|6,0:0|0:0,0:0:0:0:
2,126,52393,1,8,0:0:0:0:
2,126,52586,5,2,0:0:0:0:
68,312,52780,1,8,0:0:0:0:
283,270,52974,1,6,0:0:0:0:
206,42,53167,1,8,1:2:0:0:
376,205,53361,6,0,B|350:237|303:280|194:309|148:297|148:297|81:29|319:7|319:7|226:111|236:196|236:196|172:220|35:238|5:101|5:101|149:207|518:-91|493:308|481:363|481:363|276:339|238:98|450:17|450:17|589:255|233:439|20:360|20:360|37:329|68:313,1,3100,6|6,0:1|0:0,0:0:0:0:
68,312,55490,1,8,0:0:0:0:
68,312,55683,5,2,0:0:0:0:
148,180,55877,1,8,0:0:0:0:
333,160,56070,1,6,0:0:0:0:
356,375,56264,1,8,0:0:0:0:
132,281,56457,6,0,B|71:230|77:36|142:11|142:11|144:123|280:284|177:373|177:373|59:384|-21:198|16:51|16:51|61:212|267:251|377:297|377:297|360:208|290:31|217:22|217:22|268:112|283:310|341:373|341:373|486:377|516:278|519:78|473:16|473:16|426:202|426:202|382:73|336:24,1,3100,2|6,0:0|0:0,0:0:0:0:
337,24,58586,1,8,0:0:0:0:
337,24,58780,5,2,0:0:0:0:
313,145,58974,1,8,0:0:0:0:
175,213,59167,1,6,0:0:0:0:
14,121,59361,1,8,0:0:0:0:
215,23,59554,6,0,B|320:131|330:375|330:375|263:297|194:264|194:264|225:229|225:229|171:191|4:213|4:213|88:133|300:69|386:77|386:77|436:177|442:342|442:342|411:320,1,1550,2|8,0:0|0:0,0:0:0:0:
412,320,60716,1,6,0:0:0:0:
257,205,60909,1,8,0:0:0:0:
163,361,61103,6,0,B|132:373|104:367|104:367|172:233|61:16|61:16|3:118|4:213|4:213|50:169|168:107|270:91,1,930,2|8,0:0|0:0,0:0:0:0:
12,302,61877,2,0,B|111:196|306:129|490:152|490:152|492:206|476:252,1,620,2|6,0:0|0:0,0:0:0:0:
307,367,62361,2,0,B|218:337|217:190|269:92,1,310
477,26,62651,6,0,B|497:86|502:175|481:271|443:358|443:358|418:95|362:17|362:17|153:12|45:159|45:159|92:178|92:178|39:235|16:358|16:358|94:270|170:250|245:271|245:271|214:294|192:327|192:327|268:326|368:364|368:364|356:189|323:114|323:114|305:142|257:187|257:187|216:147|176:164|176:164|159:31|40:25,1,2480,2|6,0:0|0:1,0:0:0:0:
248,99,64393,5,8,0:0:0:0:
46,159,64587,1,0,0:0:0:0:
46,159,64684,1,0,0:0:0:0:
352,15,64877,1,2,0:0:0:0:
371,365,65071,1,2,0:0:0:0:
371,365,65168,1,10,0:0:0:0:
477,27,65361,1,2,0:0:0:0:
256,187,65555,1,2,1:2:0:0:
256,187,65652,1,2,0:0:0:0:
179,163,65748,6,0,B|170:246|259:282|259:282|333:261|340:138|340:138|417:99|460:290|328:353|259:371|259:371|144:341|90:240|86:137|86:137|5:105|1:257|20:245,1,1162.50004434586,6|8,0:1|0:0,0:0:0:0:
325,64,66909,2,0,B|392:29|470:98|481:192,1,232.500008869171,6|8,0:0|0:0,0:0:0:0:
46,352,67296,6,0,B|117:311|85:131|85:131|87:66|52:30|52:30|126:0|164:36,1,465.000017738343,2|6,0:0|0:0,0:0:0:0:
237,104,67780,2,0,B|241:82|241:82|194:75|163:35,1,116.250004434586,0|8,0:0|0:0,0:0:0:0:
172,264,68071,2,0,P|278:218|392:196,1,232.500008869171,2|8,0:0|0:0,0:0:0:0:
237,104,68457,2,0,B|283:212|217:348|217:348|181:314|172:264,1,348.750013303757,6|0,0:0|0:0,0:0:0:0:
180,173,68845,6,0,B|279:211|296:356|296:356|381:340|437:353|437:353|374:277|367:226|367:226|411:222|485:197|485:197|443:155|362:109|321:110|321:110|359:42|388:35,2,930.000035476686,2|2|2,0:0|0:0|0:0,0:0:0:0:
388,35,70587,5,8,0:0:0:0:
368,228,70781,1,6,0:0:0:0:
368,228,70877,1,0,0:0:0:0:
180,173,71071,1,0,0:0:0:0:
46,352,71264,1,0,0:0:0:0:
46,352,71361,1,8,0:0:0:0:
13,81,71554,2,0,B|14:58|30:40|30:40|81:102|68:180|68:180|90:190|105:187,1,232.500008869171,6|8,0:0|0:0,0:0:0:0:
442,364,71941,6,0,B|517:305|539:225|495:96|418:37|266:68|211:178|243:288|320:352|405:319|441:263,1,697.500026607514,6|10,0:1|0:0,0:0:0:0:
429,21,72716,2,0,B|227:36|138:173|206:309|239:334,1,465.000017738343,2|6,0:0|0:0,0:0:0:0:
317,373,73199,2,0,B|338:323|298:226|198:201,1,232.500008869171,0|0,1:0|0:0,0:0:0:0:
179,300,73490,6,0,B|210:406|23:406|-11:229|15:34|97:58,1,465.000017738343,2|6,0:0|0:0,0:0:0:0:
156,102,73974,2,0,B|228:25|363:-10|356:82,1,232.500008869171
429,21,74264,2,0,B|516:111|507:298|187:270|217:127|294:115,1,465.000017738343,2|6,0:0|0:0,0:0:0:0:
370,140,74748,2,0,B|348:264|376:352|439:304,1,232.500008869171,0|0,1:0|0:0,0:0:0:0:
495,240,75038,6,0,B|476:31|205:15|76:110|76:110|81:292|345:354|404:306|404:306|477:96|213:118|166:144|166:144|360:206|345:247|345:247|315:254|282:240,1,1627.5000620842,6|10,0:1|0:0,0:0:0:0:
92,355,76586,6,0,B|30:304|17:260|17:260|114:281|114:281|66:175|89:44|89:44|125:152|179:184|179:184|198:103|297:9|297:9|277:118|289:165|289:165|347:114|480:80|480:80|416:178|379:332|379:332|305:309|282:241,1,1627.5000620842,6|10,0:1|0:0,0:0:0:0:
476,273,78135,6,0,B|495:255|488:190|488:190|432:222|432:222|403:189|360:165|360:165|361:228|378:268|378:268|300:253|300:253|319:320|406:363|406:363|350:370|261:358|261:358|213:267|213:267|183:341|183:341|145:326|145:326|94:331|40:360|40:360|32:280|93:235|93:235|135:252|135:252|157:195|157:195|233:188|274:168|274:168|258:86|258:86|369:73|443:135|443:135|495:120|470:71|470:71|397:-20|153:0|41:79|41:79|114:79|156:109|156:109|117:133|64:152,1,2480,6|0,0:3|3:0,0:0:0:0:
132,56,81454,5,4,0:0:0:0:
108,144,81579,1,0,0:0:0:0:
196,120,81704,6,0,P|240:108|284:112,1,90,10|0,0:0|0:0,0:0:0:0:
388,212,81954,2,0,B|292:236|308:176|212:200,1,180,2|8,0:0|0:0,0:0:0:0:
288,288,82329,6,0,P|332:300|376:296,1,90,2|0,0:0|0:0,0:0:0:0:
212,240,82579,2,0,P|179:272|161:312,1,90,2|8,0:0|0:0,0:0:0:0:
292,196,82829,2,0,P|280:151|254:115,1,90,2|0,0:0|0:0,0:0:0:0:
161,311,83079,5,0,0:0:0:0:
375,296,83204,1,10,0:0:0:0:
255,115,83329,1,2,0:0:0:0:
161,311,83454,6,0,L|256:324,1,90
228,236,83704,2,0,L|133:223,1,90,10|0,0:0|0:0,0:0:0:0:
161,311,83954,2,0,B|252:324|252:324|292:304|292:304|340:340,1,180,2|8,0:0|0:0,0:0:0:0:
404,280,84329,6,0,L|328:224,1,90,2|0,0:0|0:0,0:0:0:0:
496,148,84579,2,0,L|485:241,1,90,2|8,0:0|0:0,0:0:0:0:
340,132,84829,2,0,L|426:94,1,90,2|0,0:0|0:0,0:0:0:0:
404,280,85079,5,0,0:0:0:0:
340,132,85204,1,10,0:0:0:0:
496,148,85329,1,2,0:0:0:0:
404,280,85454,6,0,L|312:288,1,90
138,243,85704,2,0,L|230:235,1,90,10|0,0:0|0:0,0:0:0:0:
376,336,85954,2,0,B|308:344|308:344|268:328|268:328|200:336,1,180,2|8,0:0|0:0,0:0:0:0:
116,368,86329,6,0,B|72:360|72:360|36:328,1,90,2|0,0:0|0:0,0:0:0:0:
200,232,86579,2,8,B|215:274|215:274|205:321,1,90,2|8,0:0|0:0,0:0:0:0:
32,232,86829,2,0,B|60:197|60:197|106:182,1,90,2|0,0:0|0:0,0:0:0:0:
116,368,87079,5,0,0:0:0:0:
32,232,87204,1,10,0:0:0:0:
200,232,87329,1,2,0:0:0:0:
116,368,87454,6,0,L|16:348,1,90
200,232,87704,2,0,L|300:212,1,90,10|0,0:0|0:0,0:0:0:0:
496,332,87954,2,0,P|440:348|344:272,1,180,2|8,0:0|0:0,0:0:0:0:
376,196,88329,1,2,0:0:0:0:
432,264,88454,5,12,0:0:0:0:
347,282,88579,1,0,0:0:0:0:
376,196,88704,1,0,0:0:0:0:
403,350,88829,5,12,0:0:0:0:
318,368,88954,1,0,0:0:0:0:
347,282,89079,1,0,0:0:0:0:
403,350,89204,5,12,0:0:0:0:
260,300,89329,1,0,0:0:0:0:
376,196,89454,6,0,L|464:180,1,90,4|0,0:0|0:0,0:0:0:0:
424,100,89704,2,0,L|336:116,1,90,10|0,0:0|0:0,0:0:0:0:
116,204,89954,2,0,P|192:224|292:188,1,180,2|8,0:0|0:0,0:0:0:0:
44,56,90329,6,0,L|36:148,1,90,2|0,0:0|0:0,0:0:0:0:
116,204,90579,2,0,L|199:164,1,90,2|8,0:0|0:0,0:0:0:0:
208,68,90829,2,0,L|132:15,1,90,2|0,0:0|0:0,0:0:0:0:
44,56,91079,5,0,0:0:0:0:
116,204,91204,1,10,0:0:0:0:
208,68,91329,1,2,0:0:0:0:
44,56,91454,6,0,P|32:104|36:148,1,90
108,196,91704,2,0,P|120:148|116:104,1,90,10|0,0:0|0:0,0:0:0:0:
32,232,91954,2,0,B|96:240|96:240|144:212|144:212|208:220,1,180,2|8,0:0|0:0,0:0:0:0:
280,268,92329,6,0,L|272:360,1,90,2|0,0:0|0:0,0:0:0:0:
203,219,92579,2,0,L|127:166,1,90,2|8,0:0|0:0,0:0:0:0:
288,176,92829,2,0,L|371:136,1,90,2|0,0:0|0:0,0:0:0:0:
203,219,93079,5,0,0:0:0:0:
288,176,93204,1,10,0:0:0:0:
280,268,93329,1,2,0:0:0:0:
200,308,93454,6,0,P|156:320|120:344,1,90
64,272,93704,2,0,P|34:307|19:347,1,90,10|0,0:0|0:0,0:0:0:0:
287,322,93954,2,0,P|156:320|120:344,1,180,2|8,0:0|0:0,0:0:0:0:
368,364,94329,6,0,L|464:360,1,90,2|0,0:0|0:0,0:0:0:0:
287,322,94579,2,0,L|191:318,1,90,2|8,0:0|0:0,0:0:0:0:
368,364,94829,2,0,L|464:360,1,90,2|0,0:0|0:0,0:0:0:0:
276,236,95079,5,0,0:0:0:0:
288,324,95204,1,10,0:0:0:0:
368,364,95329,1,2,0:0:0:0:
356,276,95454,6,0,P|368:232|392:196,1,90
429,114,95704,2,0,P|417:157|392:194,1,90,10|0,0:0|0:0,0:0:0:0:
356,276,95954,2,0,B|356:216|432:172|428:112,1,180,2|8,0:0|0:0,0:0:0:0:
388,36,96329,1,0,0:0:0:0:
300,12,96454,6,0,L|208:20,1,90,12|0,0:0|0:0,0:0:0:0:
340,108,96704,1,0,0:0:0:0:
210,19,96829,2,0,L|300:12,1,90,12|0,0:0|0:0,0:0:0:0:
184,116,97079,1,0,0:0:0:0:
300,12,97204,2,0,L|210:19,1,90,12|0,0:0|0:0,0:0:0:0:
17,76,97454,6,0,P|81:116|184:116,1,180,6|10,0:0|0:0,0:0:0:0:
17,76,97829,2,0,P|52:104|96:120,1,90,2|0,0:0|0:0,0:0:0:0:
184,116,98079,2,0,P|136:124|96:120,1,90,2|8,0:0|0:0,0:0:0:0:
8,172,98329,6,0,L|24:360,1,180,2|2,0:0|0:0,0:0:0:0:
23,351,98704,1,8,0:0:0:0:
94,119,98829,2,0,L|110:307,1,180,2|0,0:0|0:0,0:0:0:0:
109,298,99204,1,8,0:0:0:0:
280,352,99454,6,0,P|344:312|447:312,1,180,2|10,0:0|0:0,0:0:0:0:
357,308,99829,2,0,P|314:324|280:352,1,90,2|0,0:0|0:0,0:0:0:0:
358,308,100079,2,0,P|402:304|447:312,1,90,2|8,0:0|0:0,0:0:0:0:
358,308,100329,6,0,L|340:216,1,90,2|0,0:0|0:0,0:0:0:0:
288,60,100579,5,0,0:0:0:0:
288,60,100641,1,0,0:0:0:0:
288,60,100704,1,10,0:0:0:0:
276,148,100829,1,0,0:0:0:0:
288,60,100954,1,2,0:0:0:0:
276,148,101079,1,0,0:0:0:0:
204,96,101204,2,0,L|104:92,1,90,8|0,0:0|0:0,0:0:0:0:
56,160,101454,6,0,L|48:344,1,180,2|10,0:0|0:0,0:0:0:0:
56,160,101829,2,0,L|52:256,1,90,2|0,0:0|0:0,0:0:0:0:
48,339,102079,2,0,L|51:249,1,90,2|8,0:0|0:0,0:0:0:0:
56,160,102329,6,0,L|48:344,1,180,2|2,0:0|0:0,0:0:0:0:
48,339,102704,1,8,0:0:0:0:
148,132,102829,2,0,L|140:316,1,180,2|2,0:0|0:0,0:0:0:0:
140,311,103204,1,8,0:0:0:0:
220,348,103329,1,0,0:0:0:0:
304,320,103454,6,0,L|308:228,1,90,2|0,0:0|0:0,0:0:0:0:
304,320,103704,2,0,L|308:228,1,90,10|0,0:0|0:0,0:0:0:0:
307,230,103954,1,2,0:0:0:0:
304,320,104079,1,0,0:0:0:0:
307,230,104204,1,10,0:0:0:0:
304,320,104329,1,0,0:0:0:0:
440,292,104454,6,0,L|432:200,1,90,12|0,0:0|0:0,0:0:0:0:
304,320,104704,1,0,0:0:0:0:
432,202,104829,2,0,L|440:292,1,90,12|0,0:0|0:0,0:0:0:0:
307,230,105079,1,0,0:0:0:0:
440,292,105204,2,0,L|432:202,1,90,12|0,0:0|0:0,0:0:0:0:
391,120,105454,6,0,P|303:127|221:92,1,180,6|10,0:0|0:0,0:0:0:0:
156,32,105829,2,0,L|64:40,1,90,2|0,0:0|0:0,0:0:0:0:
221,93,106079,2,0,L|313:101,1,90,2|8,0:0|0:0,0:0:0:0:
156,32,106329,6,0,B|64:40|64:40|20:116,1,180,2|2,0:0|0:0,0:0:0:0:
20,115,106704,1,8,0:0:0:0:
356,176,106829,2,0,B|312:100|312:100|220:92,1,180,2|0,0:0|0:0,0:0:0:0:
220,92,107204,1,8,0:0:0:0:
48,316,107454,6,0,B|120:320|120:320|156:296|156:296|224:300,1,180,2|10,0:0|0:0,0:0:0:0:
300,340,107829,2,0,L|392:348,1,90,2|0,0:0|0:0,0:0:0:0:
224,204,108079,2,0,L|132:212,1,90,2|8,0:0|0:0,0:0:0:0:
300,340,108329,6,0,B|392:348|392:348|452:284,1,180,2|2,0:0|0:0,0:0:0:0:
451,284,108704,1,8,0:0:0:0:
224,204,108829,2,0,B|132:212|132:212|72:148,1,180,2|0,0:0|0:0,0:0:0:0:
72,148,109204,1,10,0:0:0:0:
116,68,109329,1,0,0:0:0:0:
200,36,109454,6,0,L|296:44,1,90,2|0,0:0|0:0,0:0:0:0:
200,36,109704,2,0,L|296:44,1,90,10|0,0:0|0:0,0:0:0:0:
200,36,109954,2,0,L|296:44,1,90,2|0,0:0|0:0,0:0:0:0:
289,43,110204,2,0,L|200:36,1,90,10|0,0:0|0:0,0:0:0:0:
328,128,110454,6,0,L|424:120,1,90,2|0,0:0|0:0,0:0:0:0:
328,128,110704,2,0,L|424:120,1,90,10|0,0:0|0:0,0:0:0:0:
417,120,110954,2,0,L|328:128,1,90,2|0,0:0|0:0,0:0:0:0:
417,120,111204,2,0,L|327:127,1,90,10|0,0:0|0:0,0:0:0:0:
188,196,111454,6,0,L|284:204,1,90,2|0,0:0|0:0,0:0:0:0:
188,196,111704,1,8,0:0:0:0:
277,203,111829,2,0,L|188:196,1,90,2|0,0:0|0:0,0:0:0:0:
187,195,112079,2,0,L|277:203,1,90,2|8,0:0|0:0,0:0:0:0:
188,196,112329,1,2,0:0:0:0:
277,203,112454,6,0,L|269:299,1,90,12|0,0:0|0:0,0:0:0:0:
368,212,112704,1,0,0:0:0:0:
277,203,112829,2,0,L|269:292,1,90,12|0,0:0|0:0,0:0:0:0:
368,212,113079,1,0,0:0:0:0:
269,292,113204,2,0,L|277:203,1,90,12|0,0:0|0:0,0:0:0:0:
232,104,113580,6,2,B|152:144|152:216|240:256,1,200
304,296,114109,1,2,0:0:0:0:
384,288,114285,1,0,0:0:0:0:
448,240,114462,1,2,0:0:0:0:
456,160,114638,1,0,0:0:0:0:
424,88,114815,1,2,0:0:0:0:
360,40,114991,1,2,0:0:0:0:
56,112,115344,1,2,0:0:0:0:
184,360,115697,1,2,0:0:0:0:
472,288,116050,1,6,0:0:0:0:
392,264,116227,5,0,0:0:0:0:
312,280,116403,1,2,0:0:0:0:
232,272,116580,1,0,0:0:0:0:
232,272,116668,1,0,0:0:0:0:
232,272,116756,1,2,0:0:0:0:
152,296,116932,1,0,0:0:0:0:
72,288,117109,2,2,B|32:200|72:88,1,200
104,24,117638,5,0,0:0:0:0:
168,64,117815,1,2,0:0:0:0:
200,136,117991,1,0,0:0:0:0:
200,136,118080,1,0,0:0:0:0:
200,136,118168,1,2,0:0:0:0:
192,216,118344,1,0,0:0:0:0:
144,280,118521,2,0,C|64:280|64:184,1,150,2|0,0:0|0:0,0:0:0:0:
61,213,118874,2,0,B|152:168,1,100,2|0,0:0|0:0,0:0:0:0:
200,320,119227,6,2,C|432:320,1,200,6|2,0:0|0:0,0:0:0:0:
504,208,119756,1,2,0:0:0:0:
408,96,119932,1,0,0:0:0:0:
304,208,120109,1,2,0:0:0:0:
400,320,120285,1,0,0:0:0:0:
504,208,120462,1,2,0:0:0:0:
408,96,120638,1,2,0:0:0:0:
32,144,120991,1,2,0:0:0:0:
424,256,121344,1,2,0:0:0:0:
72,344,121697,1,4,0:0:0:0:
144,320,121874,5,0,0:0:0:0:
120,240,122050,1,2,0:0:0:0:
48,272,122227,1,0,0:0:0:0:
48,272,122315,1,0,0:0:0:0:
48,272,122403,1,2,0:0:0:0:
72,344,122580,1,0,0:0:0:0:
144,320,122756,2,2,B|240:280|344:320,1,200
416,344,123285,5,0,0:0:0:0:
488,312,123462,1,2,0:0:0:0:
448,240,123638,1,0,0:0:0:0:
448,240,123727,1,0,0:0:0:0:
448,240,123815,1,2,0:0:0:0:
376,272,123991,1,0,0:0:0:0:
416,344,124168,2,0,B|432:264|408:152,1,150,2|0,0:0|0:0,0:0:0:0:
415,194,124521,2,0,B|432:80,1,100,2|0,0:0|0:0,0:0:0:0:
224,288,124874,6,2,B|200:200|224:80,1,200
96,24,125403,1,2,0:0:0:0:
16,152,125579,1,0,0:0:0:0:
96,280,125756,1,2,0:0:0:0:
248,272,125932,1,0,0:0:0:0:
320,136,126109,1,2,0:0:0:0:
232,16,126285,1,2,0:0:0:0:
296,360,126638,1,2,0:0:0:0:
40,224,126991,1,2,0:0:0:0:
472,160,127344,1,4,0:0:0:0:
472,240,127521,5,0,0:0:0:0:
472,320,127697,1,2,0:0:0:0:
384,48,128050,1,2,0:0:0:0:
240,80,128227,1,2,0:0:0:0:
296,216,128403,1,0,0:0:0:0:
448,184,128580,1,2,0:0:0:0:
384,48,128756,1,0,0:0:0:0:
240,80,128932,1,2,0:0:0:0:
296,216,129109,5,2,0:0:0:0:
448,184,129285,1,0,0:0:0:0:
448,184,129374,1,0,0:0:0:0:
448,184,129462,1,2,0:0:0:0:
384,48,129638,1,0,0:0:0:0:
240,80,129815,2,0,B|176:144|168:232,1,150,2|0,0:0|0:0,0:0:0:0:
170,210,130168,2,0,B|40:208,1,100,2|0,0:0|0:0,0:0:0:0:
152,352,130521,6,2,B|360:352,1,200
432,352,131050,1,2,0:0:0:0:
456,272,131227,1,0,0:0:0:0:
416,200,131403,1,2,0:0:0:0:
440,120,131580,1,0,0:0:0:0:
416,40,131756,1,2,0:0:0:0:
336,16,131932,1,2,0:0:0:0:
40,168,132285,1,2,0:0:0:0:
232,360,132638,1,2,0:0:0:0:
464,216,132991,1,4,0:0:0:0:
384,216,133168,5,0,0:0:0:0:
304,216,133344,1,2,0:0:0:0:
224,216,133521,1,0,0:0:0:0:
224,216,133609,1,0,0:0:0:0:
224,216,133697,1,2,0:0:0:0:
144,216,133874,1,0,0:0:0:0:
64,216,134050,2,2,C|64:312|168:328,1,200
240,328,134580,5,0,0:0:0:0:
320,328,134756,1,2,0:0:0:0:
344,248,134932,1,0,0:0:0:0:
344,248,135021,1,0,0:0:0:0:
344,248,135109,1,2,0:0:0:0:
344,168,135285,1,0,0:0:0:0:
328,88,135462,2,0,B|224:56|128:88,2,200,2|2|0,0:0|0:0|0:0,0:0:0:0:
32,32,139187,5,0,0:0:0:0:
32,88,139274,1,0,0:0:0:0:
32,144,139361,1,0,0:0:0:0:
144,88,139536,5,0,0:0:0:0:
144,144,139623,1,0,0:0:0:0:
144,200,139710,1,0,0:0:0:0:
256,144,139885,5,0,0:0:0:0:
256,200,139972,1,0,0:0:0:0:
256,256,140059,1,0,0:0:0:0:
368,200,140234,5,0,0:0:0:0:
368,256,140321,1,0,0:0:0:0:
368,312,140408,1,0,0:0:0:0:
480,368,140582,5,0,0:0:0:0:
480,312,140669,1,0,0:0:0:0:
480,256,140757,1,0,0:0:0:0:
480,143,140931,1,0,0:0:0:0:
480,32,141106,1,0,0:0:0:0:
368,32,141280,1,0,0:0:0:0:
480,32,141455,1,0,0:0:0:0:
256,32,141803,5,0,0:0:0:0:
32,32,141978,5,0,0:0:0:0:
256,108,142152,5,0,0:0:0:0:
32,108,142327,5,0,0:0:0:0:
256,184,142501,5,0,0:0:0:0:
32,184,142675,5,0,0:0:0:0:
32,260,142850,5,0,0:0:0:0:
256,260,143024,5,0,0:0:0:0:
32,336,143373,6,0,B|60:361|108:342|95:329|143:310|171:336,1,150.000005722046
216,336,143809,1,0,0:0:0:0:
256,336,143896,1,0,0:0:0:0:
480,336,144071,1,0,0:0:0:0:
424,336,144158,1,0,0:0:0:0:
368,336,144245,1,0,0:0:0:0:
368,220,144594,1,0,0:0:0:0:
480,220,144768,1,0,0:0:0:0:
268,8,145117,5,0,0:0:0:0:
44,8,145466,1,0,0:0:0:0:
44,8,145641,1,0,0:0:0:0:
156,8,145815,1,0,0:0:0:0:
156,120,145989,1,0,0:0:0:0:
44,120,146164,1,0,0:0:0:0:
268,120,146513,5,0,0:0:0:0:
268,232,146687,1,0,0:0:0:0:
344,232,146861,2,0,L|269:232,1,75.000002861023
420,232,147210,1,0,0:0:0:0:
512,232,147559,5,0,0:0:0:0:
512,344,147734,1,0,0:0:0:0:
400,344,147908,1,0,0:0:0:0:
288,344,148082,1,0,0:0:0:0:
176,344,148257,1,0,0:0:0:0:
96,264,148431,1,0,0:0:0:0:
176,184,148605,1,0,0:0:0:0:
176,264,148780,1,0,0:0:0:0:
96,184,148955,1,0,0:0:0:0:
176,104,149129,1,0,0:0:0:0:
176,184,149304,1,0,0:0:0:0:
96,104,149478,1,0,0:0:0:0:
176,24,149652,1,0,0:0:0:0:
176,104,149827,1,0,0:0:0:0:
336,104,150175,2,0,B|336:204,1,93.7500035762787
452,296,150873,5,0,0:0:0:0:
372,296,150960,1,0,0:0:0:0:
292,296,151048,1,0,0:0:0:0:
144,296,151222,1,0,0:0:0:0:
51,203,151396,1,0,0:0:0:0:
144,111,151571,1,0,0:0:0:0:
51,203,151745,6,0,B|79:178|127:197|114:210|162:229|191:202,1,150.000005722046
262,263,152268,1,0,0:0:0:0:
227,115,152443,1,0,0:0:0:0:
191,201,152617,1,0,0:0:0:0:
321,123,152792,1,0,0:0:0:0:
342,214,152966,1,0,0:0:0:0:
342,214,153053,1,0,0:0:0:0:
342,214,153141,1,0,0:0:0:0:
448,320,153315,5,0,0:0:0:0:
448,172,153489,1,0,0:0:0:0:
448,20,153664,1,0,0:0:0:0:
300,20,153838,1,0,0:0:0:0:
448,20,154013,1,0,0:0:0:0:
300,20,154187,1,0,0:0:0:0:
452,96,154536,1,0,0:0:0:0:
300,96,154711,1,0,0:0:0:0:
452,172,155059,1,0,0:0:0:0:
300,172,155234,1,0,0:0:0:0:
75,172,155582,1,0,0:0:0:0:
227,172,155757,6,0,B|202:200|221:248|234:235|253:283|226:312,1,150.000005722046
152,312,156280,2,0,B|48:312,1,75.000002861023
132,232,156803,1,0,0:0:0:0:
52,152,156978,1,0,0:0:0:0:
132,72,157152,1,0,0:0:0:0:
244,72,157327,2,0,L|320:72,1,74.9999999999999
392,72,158024,1,0,0:0:0:0:
472,152,158199,1,0,0:0:0:0:
392,232,158373,1,0,0:0:0:0:
312,312,158548,1,0,0:0:0:0:
472,312,158722,1,0,0:0:0:0:
392,154,159071,5,0,0:0:0:0:
392,154,159158,1,0,0:0:0:0:
392,154,159245,1,0,0:0:0:0:
316,154,159420,5,0,0:0:0:0:
316,154,159594,1,0,0:0:0:0:
316,190,159681,1,0,0:0:0:0:
316,226,159768,1,0,0:0:0:0:
204,154,159943,5,0,0:0:0:0:
204,154,160117,1,0,0:0:0:0:
204,210,160205,1,0,0:0:0:0:
204,266,160292,1,0,0:0:0:0:
54,154,160466,5,0,0:0:0:0:
54,154,160641,1,0,0:0:0:0:
54,228,160728,1,0,0:0:0:0:
54,302,160815,1,0,0:0:0:0:
54,40,160989,5,0,0:0:0:0:
280,40,161338,1,0,0:0:0:0:
356,40,161513,1,0,0:0:0:0:
432,40,161687,1,0,0:0:0:0:
280,40,162036,1,0,0:0:0:0:
280,116,162210,1,0,0:0:0:0:
280,192,162559,1,0,0:0:0:0:
356,192,162734,1,0,0:0:0:0:
432,192,162908,1,0,0:0:0:0:
356,192,163083,1,0,0:0:0:0:
280,192,163257,1,0,0:0:0:0:
432,192,163431,1,0,0:0:0:0:
280,304,164303,5,0,0:0:0:0:
356,304,164478,1,0,0:0:0:0:
280,304,164827,1,0,0:0:0:0:
356,304,165002,1,0,0:0:0:0:
356,304,165350,1,0,0:0:0:0:
280,304,165525,1,0,0:0:0:0:
204,304,165699,1,0,0:0:0:0:
128,304,165873,1,0,0:0:0:0:
16,192,166048,1,0,0:0:0:0:
128,192,166222,1,0,0:0:0:0:
16,304,166396,1,0,0:0:0:0:
128,192,166571,1,0,0:0:0:0:
464,196,167094,5,0,0:0:0:0:
388,196,167268,1,0,0:0:0:0:
388,44,167617,1,0,0:0:0:0:
464,44,167792,1,0,0:0:0:0:
464,120,168141,1,0,0:0:0:0:
388,120,168315,1,0,0:0:0:0:
236,120,168489,1,0,0:0:0:0:
312,120,168664,1,0,0:0:0:0:
84,120,168838,1,0,0:0:0:0:
160,120,169013,1,0,0:0:0:0:
160,308,169885,5,0,0:0:0:0:
236,308,170059,1,0,0:0:0:0:
84,308,170408,1,0,0:0:0:0:
160,308,170582,1,0,0:0:0:0:
236,308,170931,1,0,0:0:0:0:
312,308,171106,1,0,0:0:0:0:
388,308,171280,1,0,0:0:0:0:
464,308,171455,5,0,0:0:0:0:
464,232,171629,1,0,0:0:0:0:
388,232,171803,1,0,0:0:0:0:
464,232,171978,1,0,0:0:0:0:
464,84,172152,1,0,0:0:0:0:
464,160,172327,1,0,0:0:0:0:
388,84,172501,1,0,0:0:0:0:
464,84,172675,1,0,0:0:0:0:
128,84,174245,5,0,0:0:0:0:
280,84,174420,1,0,0:0:0:0:
280,84,174594,1,0,0:0:0:0:
128,84,174768,1,0,0:0:0:0:
128,236,174943,1,0,0:0:0:0:
276,236,175117,1,0,0:0:0:0:
128,84,175292,1,0,0:0:0:0:
128,236,175466,1,0,0:0:0:0:
280,84,175641,1,0,0:0:0:0:
504,84,175989,1,0,0:0:0:0:
352,84,176164,1,0,0:0:0:0:
428,84,176513,1,0,0:0:0:0:
428,236,176687,1,0,0:0:0:0:
428,160,176861,1,0,0:0:0:0:
504,312,177036,1,0,0:0:0:0:
428,312,177210,1,0,0:0:0:0:
352,312,177385,1,0,0:0:0:0:
164,312,178257,5,0,0:0:0:0:
164,236,178431,1,0,0:0:0:0:
164,84,178780,1,0,0:0:0:0:
164,160,178954,1,0,0:0:0:0:
88,160,179303,1,0,0:0:0:0:
164,160,179477,1,0,0:0:0:0:
88,160,179652,1,0,0:0:0:0:
12,160,179827,1,0,0:0:0:0:
12,84,180001,1,0,0:0:0:0:
12,8,180175,1,0,0:0:0:0:
164,8,180350,1,0,0:0:0:0:
88,8,180524,1,0,0:0:0:0:
312,8,180873,1,0,0:0:0:0:
32,192,189766,5,4,0:0:0:0:
480,192,190141,1,4,0:0:0:0:
32,192,190516,1,4,0:0:0:0:
480,192,190891,1,4,0:0:0:0:
256,320,191266,1,8,0:0:0:0:
256,192,191391,1,0,0:0:0:0:
256,64,191516,1,8,0:0:0:0:
480,192,191766,5,4,0:0:0:0:
32,192,192141,1,4,0:0:0:0:
480,192,192516,1,4,0:0:0:0:
32,192,192891,1,4,0:0:0:0:
256,64,193266,1,8,0:0:0:0:
256,192,193391,1,0,0:0:0:0:
256,320,193516,1,8,0:0:0:0:
480,352,193766,5,4,0:0:0:0:
32,32,194141,1,4,0:0:0:0:
480,352,194516,1,4,0:0:0:0:
32,32,194891,1,4,0:0:0:0:
256,352,195266,5,8,0:0:0:0:
256,32,195516,1,8,0:0:0:0:
480,32,195766,1,4,0:0:0:0:
32,352,196141,1,4,0:0:0:0:
480,32,196766,5,4,0:0:0:0:
32,352,197141,1,4,0:0:0:0:
480,192,197766,5,4,0:0:0:0:
32,192,198141,1,4,0:0:0:0:
480,192,198516,1,4,0:0:0:0:
32,192,198891,1,4,0:0:0:0:
256,48,199141,1,0,0:0:0:0:
256,144,199266,1,8,0:0:0:0:
256,240,199391,1,0,0:0:0:0:
256,336,199516,1,8,0:0:0:0:
32,192,199766,5,4,0:0:0:0:
480,192,200141,1,4,0:0:0:0:
32,192,200516,1,4,0:0:0:0:
480,192,200891,1,4,0:0:0:0:
256,320,201266,1,8,0:0:0:0:
256,192,201391,1,0,0:0:0:0:
256,64,201516,1,8,0:0:0:0:
32,32,201766,5,4,0:0:0:0:
480,352,202141,1,4,0:0:0:0:
32,32,202516,1,4,0:0:0:0:
480,352,202891,1,4,0:0:0:0:
256,32,203266,5,8,0:0:0:0:
256,352,203516,1,8,0:0:0:0:
32,352,203766,1,4,0:0:0:0:
480,32,204141,1,4,0:0:0:0:
32,352,204766,5,4,0:0:0:0:
480,32,205141,1,4,0:0:0:0:
64,192,205766,5,4,0:0:0:0:
192,192,206141,1,4,0:0:0:0:
320,192,206516,1,4,0:0:0:0:
448,192,206891,1,4,0:0:0:0:
448,352,207266,1,8,0:0:0:0:
256,352,207391,1,0,0:0:0:0:
64,352,207516,1,8,0:0:0:0:
64,192,207766,5,4,0:0:0:0:
192,128,208016,1,8,0:0:0:0:
192,48,208141,1,8,0:0:0:0:
320,128,208516,1,12,0:0:0:0:
448,192,208891,1,4,0:0:0:0:
448,352,209266,1,8,0:0:0:0:
256,352,209391,1,0,0:0:0:0:
64,352,209516,1,8,0:0:0:0:
448,192,209766,5,4,0:0:0:0:
320,128,210016,1,8,0:0:0:0:
320,48,210141,1,8,0:0:0:0:
192,128,210516,1,4,0:0:0:0:
64,192,210891,1,4,0:0:0:0:
32,352,211266,5,8,0:0:0:0:
480,352,211516,1,8,0:0:0:0:
256,32,211766,2,4,L|256:96,1,62.5
256,352,212141,1,4,0:0:0:0:
256,32,212766,6,4,L|256:96,1,62.5
256,352,213141,1,4,0:0:0:0:
256,192,213766,5,4,0:0:0:0:
32,32,214141,1,4,0:0:0:0:
256,192,214516,1,4,0:0:0:0:
480,352,214891,1,4,0:0:0:0:
480,160,215141,1,0,0:0:0:0:
480,64,215266,1,8,0:0:0:0:
384,64,215391,1,0,0:0:0:0:
384,160,215516,1,8,0:0:0:0:
416,352,215766,5,4,0:0:0:0:
96,352,216141,1,4,0:0:0:0:
416,352,216516,1,4,0:0:0:0:
96,352,216891,1,4,0:0:0:0:
256,128,217266,1,8,0:0:0:0:
256,224,217391,1,0,0:0:0:0:
256,320,217516,1,8,0:0:0:0:
256,128,217766,5,4,0:0:0:0:
96,352,218141,1,4,0:0:0:0:
256,128,218516,1,4,0:0:0:0:
416,352,218891,1,4,0:0:0:0:
416,64,219266,2,8,L|272:64,1,125
96,64,219766,2,12,L|96:256,1,187.5
416,251,220766,2,12,L|416:43,1,187.5
256,96,221766,5,4,0:0:0:0:
160,288,222016,1,0,0:0:0:0:
256,288,222141,1,0,0:0:0:0:
352,288,222266,1,0,0:0:0:0:
352,96,222516,1,0,0:0:0:0:
160,96,222766,1,0,0:0:0:0:
160,192,222891,1,8,0:0:0:0:
352,192,223141,1,0,0:0:0:0:
256,192,223266,1,8,0:0:0:0:
32,352,223766,6,0,L|160:352,1,125
352,352,224266,2,0,L|272:352,1,62.5
416,352,224516,2,0,L|416:288,1,62.5
480,352,224766,2,2,L|480:96,1,250
32,32,225766,5,0,0:0:0:0:
32,224,226016,1,0,0:0:0:0:
224,224,226266,2,0,L|96:224,1,125
96,32,226766,2,0,L|160:32,1,62.5,0|8,0:0|0:0,0:0:0:0:
288,32,227141,2,0,L|224:32,1,62.5,0|8,0:0|0:0,0:0:0:0:
416,32,227516,1,0,0:0:0:0:
416,224,227766,6,0,L|288:224,1,125
192,224,228141,1,0,0:0:0:0:
256,160,228266,2,2,L|512:160,2,250
32,352,229766,5,0,0:0:0:0:
224,352,230016,1,0,0:0:0:0:
144,304,230141,1,0,0:0:0:0:
64,256,230266,1,0,0:0:0:0:
256,256,230516,1,0,0:0:0:0:
448,256,230766,1,0,0:0:0:0:
352,256,230891,1,8,0:0:0:0:
352,64,231141,1,0,0:0:0:0:
352,160,231266,1,8,0:0:0:0:
32,32,231766,6,0,L|176:32,1,125
160,224,232266,1,0,0:0:0:0:
160,128,232391,1,0,0:0:0:0:
64,128,232516,1,0,0:0:0:0:
64,224,232641,1,0,0:0:0:0:
64,320,232766,2,2,L|320:320,1,250
480,32,233766,6,0,L|352:32,1,125
480,96,234266,2,0,L|352:96,1,125
480,160,234766,2,0,L|416:160,1,62.5,0|8,0:0|0:0,0:0:0:0:
288,160,235141,2,0,L|352:160,1,62.5,0|8,0:0|0:0,0:0:0:0:
160,160,235516,1,0,0:0:0:0:
288,288,235766,6,0,L|144:288,1,125
64,288,236141,1,0,0:0:0:0:
64,192,236266,2,0,L|64:128,1,62.5
64,32,236516,2,0,L|128:32,1,62.5
224,32,236766,2,0,L|352:32,2,125,0|0|2,0:0|0:0|0:0,0:0:0:0:
480,352,237766,6,4,L|480:272,1,62.5
208,352,238266,2,4,L|208:288,1,62.5
256,192,238766,12,4,239766,0:0:0:0:
264,248,240118,5,0,0:0:0:0:
256,292,240243,1,0,0:0:0:0:
248,336,240368,1,2,0:0:0:0:
164,364,240618,1,2,0:0:0:0:
56,284,240993,1,2,0:0:0:0:
44,196,241243,1,0,0:0:0:0:
32,108,241493,1,2,0:0:0:0:
20,20,241743,1,0,0:0:0:0:
64,24,241868,1,0,0:0:0:0:
100,52,241993,1,2,0:0:0:0:
116,92,242118,5,0,0:0:0:0:
152,120,242243,1,0,0:0:0:0:
196,124,242368,1,2,0:0:0:0:
280,88,242618,1,2,0:0:0:0:
412,72,242993,1,2,0:0:0:0:
500,92,243243,1,0,0:0:0:0:
480,180,243493,1,2,0:0:0:0:
392,160,243743,1,0,0:0:0:0:
348,164,243868,1,0,0:0:0:0:
312,192,243993,1,2,0:0:0:0:
296,232,244118,5,0,0:0:0:0:
260,260,244243,1,0,0:0:0:0:
216,264,244368,1,2,0:0:0:0:
136,224,244618,1,2,0:0:0:0:
24,300,244993,1,2,0:0:0:0:
104,340,245243,1,0,0:0:0:0:
184,380,245493,1,2,0:0:0:0:
268,352,245743,1,0,0:0:0:0:
312,340,245868,1,0,0:0:0:0:
356,344,245993,1,2,0:0:0:0:
396,360,246118,5,0,0:0:0:0:
440,364,246243,1,0,0:0:0:0:
484,352,246368,1,2,0:0:0:0:
508,264,246618,1,2,0:0:0:0:
484,132,246993,1,2,0:0:0:0:
404,172,247243,1,0,0:0:0:0:
324,212,247493,1,2,0:0:0:0:
240,184,247743,1,0,0:0:0:0:
196,172,247868,1,0,0:0:0:0:
152,176,247993,1,2,0:0:0:0:
112,192,248118,5,0,0:0:0:0:
68,196,248243,1,0,0:0:0:0:
24,184,248368,1,2,0:0:0:0:
0,96,248618,1,2,0:0:0:0:
116,28,248993,1,2,0:0:0:0:
196,68,249243,1,0,0:0:0:0:
276,108,249493,1,2,0:0:0:0:
364,84,249743,1,0,0:0:0:0:
408,80,249868,1,0,0:0:0:0:
448,96,249993,1,2,0:0:0:0:
472,132,250118,5,0,0:0:0:0:
476,176,250243,1,0,0:0:0:0:
456,216,250368,1,2,0:0:0:0:
372,252,250618,1,2,0:0:0:0:
240,224,250993,1,2,0:0:0:0:
212,312,251243,1,0,0:0:0:0:
240,224,251493,1,2,0:0:0:0:
212,312,251743,1,0,0:0:0:0:
228,268,251868,1,0,0:0:0:0:
240,224,251993,1,2,0:0:0:0:
