osu file format v14

[General]
AudioFilename: Butter-fly (Digimon OP) Female Cover 2015.mp3
AudioLeadIn: 0
PreviewTime: 113799
Countdown: 2
SampleSet: Normal
StackLeniency: 0.7
Mode: 0
LetterboxInBreaks: 0
WidescreenStoryboard: 0

[Editor]
Bookmarks: 141432
DistanceSpacing: 1.7
BeatDivisor: 4
GridSize: 4
TimelineZoom: 1

[Metadata]
Title:Butter-fly (Digimon OP) Female Ver.
TitleUnicode:Butter-fly (Digimon OP) Female Ver.
Artist:Various Artists
ArtistUnicode:Various Artists
Creator:A r M i N
Version:Butterfly
Source:Youtube
Tags:Digimon Youtube Girl Cover Vocal osu 2015 Anime Armin Jump Stream
BeatmapID:815281
BeatmapSetID:372231

[Difficulty]
HPDrainRate:7
CircleSize:4
OverallDifficulty:8
ApproachRate:9
SliderMultiplier:1.50000000596046
SliderTickRate:1

[Events]
//Background and Video events
0,0,"0pmz3e1.jpg",0,0
//Break Periods
2,224723,232650
//Storyboard Layer 0 (Background)
//Storyboard Layer 1 (Fail)
//Storyboard Layer 2 (Pass)
//Storyboard Layer 3 (Foreground)
//Storyboard Sound Samples

[TimingPoints]
0,705.882352941176,4,1,0,100,1,0
0,-100,4,2,0,20,0,0
2654,-90.9090909090909,4,2,0,20,0,0
4513,-100,4,2,0,20,0,0
5294,600,4,2,0,20,1,0
6194,857.142857142857,4,2,0,20,1,0
6529,631.578947368421,4,2,0,20,1,0
6529,-66.6666666666667,4,2,0,20,0,0
7402,571.428571428571,4,2,0,20,1,0
9159,545.454545454546,4,2,0,20,1,0
9159,-66.6666666666667,4,2,0,20,0,0
13522,750,4,2,0,20,1,0
16285,363.636363636364,4,2,0,20,1,0
16285,-66.6666666666667,4,2,0,20,0,0
20778,521.739130434783,4,2,0,30,1,0
20778,-83.3333333333333,4,2,0,30,0,0
33169,521.741379310345,4,2,0,30,1,0
33169,-66.6666666666667,4,2,0,30,0,0
37520,521.741379310345,4,2,0,30,1,0
37520,-66.6666666666667,4,2,0,30,0,0
56139,-100,4,1,0,40,0,0
56799,363.636363636364,4,1,0,40,1,0
58705,363.636363636364,4,1,0,50,1,0
67250,-66.6666666666667,4,1,0,50,0,0
68432,-66.6666666666667,4,1,0,50,0,0
70159,-66.6666666666667,4,1,0,50,0,0
77614,-100,4,1,0,50,0,0
85068,-66.6666666666667,4,1,0,50,0,0
86068,-66.6666666666667,4,1,0,50,0,0
92344,-66.6666666666667,4,1,0,50,0,0
107526,-66.6666666666667,4,1,0,50,0,0
108617,-100,4,1,0,50,0,0
113977,-66.6666666666667,4,1,0,50,0,1
125635,-66.6666666666667,4,1,0,50,0,1
131886,-66.6666666666667,4,1,0,50,0,1
133726,-66.6666666666667,4,1,0,50,0,1
137250,-66.6666666666667,4,1,0,50,0,0
186090,-66.6666666666667,4,1,0,50,0,0
186250,-66.6666666666667,4,1,0,50,0,1
192886,-66.6666666666667,4,1,0,50,0,1
195693,-66.6666666666667,4,1,0,50,0,1
197980,-66.6666666666667,4,1,0,50,0,1
198071,-66.6666666666667,4,1,0,50,0,1
198161,-66.6666666666667,4,1,0,50,0,1
204614,-66.6666666666667,4,1,0,50,0,1
210071,-57.1428571428571,4,1,0,50,0,1
215068,-57.1428571428571,4,1,0,50,0,0
218707,-200,4,1,0,50,0,0
225068,-100,4,1,0,50,0,0
225614,-100,4,1,0,50,0,0
250705,-66.6666666666667,4,1,0,50,0,1
259252,-66.6666666666667,4,1,0,50,0,1
262161,-66.6666666666667,4,1,0,50,0,1
262343,-66.6666666666667,4,1,0,50,0,1
268525,-133.333333333333,4,1,0,50,0,1
273798,-133.333333333333,4,1,0,50,0,1
273980,-66.6666666666667,4,1,0,50,0,1
280161,-66.6666666666667,4,1,0,50,0,1
282889,-66.6666666666667,4,1,0,50,0,1
285434,-66.6666666666667,4,1,0,50,0,1
285616,-66.6666666666667,4,1,0,50,0,1
291798,-133.333333333333,4,1,0,50,0,1
292523,-66.6666666666667,4,1,0,50,0,1
297250,-66.6666666666667,4,1,0,50,0,0

[HitObjects]
104,172,705,5,2,0:2:0:0:
248,208,1411,2,0,L|248:156,2,37.5000001490115,0|2|0,0:0|0:2|0:0,0:0:0:0:
308,252,2117,1,2,0:2:0:0:
344,184,2470,1,0,0:0:0:0:
196,128,2823,2,8,P|168:184|232:272,1,165.000005691051,8|2,0:0|0:2,0:0:0:0:
400,272,4941,5,2,0:2:0:0:
256,132,5744,2,0,L|216:152,2,37.5000001490115,0|2|0,0:0|0:2|0:0,0:0:0:0:
256,216,6408,1,2,0:2:0:0:
107,212,6844,2,0,P|111:157|180:96,1,112.500004738569
232,176,7973,1,8,0:2:0:0:
72,304,9295,5,2,0:2:0:0:
340,72,10113,2,0,L|392:124,2,56.2500023692846,0|2|0,0:0|0:2|0:0,0:0:0:0:
180,124,10795,1,2,0:2:0:0:
228,284,11204,2,0,P|275:297|339:261,1,112.500004738569
320,112,12295,1,8,0:2:0:0:
412,288,13709,5,2,0:2:0:0:
120,280,14647,2,0,L|160:248,2,37.5000001490115,0|2|0,0:0|0:2|0:0,0:0:0:0:
232,268,15397,1,2,0:2:0:0:
344,192,15959,1,0,0:0:0:0:
240,116,16375,2,0,L|176:168,2,56.2500023692846,0|2|0,0:0|0:2|0:0,0:0:0:0:
256,192,16739,12,2,20103,0:0:0:0:
128,132,20778,5,0,0:0:0:0:
124,248,21038,2,0,P|172:268|188:308,1,89.9999976110456
364,136,21560,2,0,L|284:236,1,89.9999976110456
156,328,22082,1,0,0:0:0:0:
120,104,22343,1,0,0:0:0:0:
184,224,22604,2,0,L|280:248,1,89.9999976110456
420,324,23125,2,0,P|420:264|388:208,1,89.9999976110456
344,68,23647,1,0,0:0:0:0:
120,72,23908,2,0,P|144:124|128:180,1,89.9999976110456
292,328,24430,1,0,0:0:0:0:
452,176,24691,2,0,L|436:260,2,44.9999988055228
112,260,25212,5,0,0:0:0:0:
108,172,25473,1,0,0:0:0:0:
168,104,25734,1,0,0:0:0:0:
256,92,25995,1,0,0:0:0:0:
312,164,26256,1,0,0:0:0:0:
300,252,26517,1,0,0:0:0:0:
388,276,26778,1,0,0:0:0:0:
264,332,27038,2,0,P|192:328|160:300,1,89.9999976110456
312,76,27560,1,0,0:0:0:0:
76,120,27821,2,0,P|128:76|180:68,1,89.9999976110456
304,312,28343,1,0,0:0:0:0:
368,192,28604,1,0,0:0:0:0:
308,56,28864,1,0,0:0:0:0:
200,132,29125,2,0,P|136:152|96:192,2,89.9999976110456
248,264,29908,5,0,0:0:0:0:
404,292,30169,2,0,P|428:240|416:188,1,89.9999976110456
196,59,30691,2,0,P|160:103|164:151,2,89.9999976110456
63,282,31473,1,0,0:0:0:0:
196,272,31734,1,0,0:0:0:0:
332,264,31995,1,0,0:0:0:0:
464,236,32256,2,0,B|420:164|392:168|360:128|292:156|256:132|224:84,1,269.999992833137
40,152,33299,5,0,0:0:0:0:
132,84,33560,2,0,P|192:92|268:152,1,112.500004738569
228,308,34082,2,0,P|280:276|304:220,1,112.500004738569
104,188,34603,1,0,0:0:0:0:
276,68,34864,2,0,P|352:100|384:148,1,112.500004738569
352,264,35386,2,0,P|292:288|220:256,1,112.500004738569
368,144,35908,1,0,0:0:0:0:
368,144,36169,1,0,0:0:0:0:
132,152,36429,2,0,B|120:208|120:208|176:228,2,112.500004738569
184,100,37780,5,0,0:0:0:0:
184,100,38041,2,0,B|248:100|248:100|296:128,1,112.500000447034
132,260,38563,1,0,0:0:0:0:
392,168,38824,1,0,0:0:0:0:
388,296,39085,2,0,P|320:256|308:212,1,112.500004738569
148,156,39606,1,0,0:0:0:0:
304,60,39867,1,0,0:0:0:0:
352,196,40128,2,0,P|396:156|412:104,1,112.500004738569
212,276,40650,1,0,0:0:0:0:
172,84,40911,2,0,P|244:92|300:120,1,112.500004738569
432,296,41433,2,0,L|424:176,2,112.500004738569
140,136,43520,6,0,B|220:128|220:128|252:176,1,112.500004738569
160,272,44041,1,0,0:0:0:0:
328,264,44302,2,0,P|380:220|412:156,1,112.500004738569
340,56,44824,1,0,0:0:0:0:
340,56,45085,1,0,0:0:0:0:
180,196,45346,2,0,B|152:152|152:152|212:176,2,112.500004738569
308,288,46128,5,0,0:0:0:0:
340,252,46389,1,0,0:0:0:0:
376,220,46650,1,0,0:0:0:0:
400,180,46911,2,0,P|364:140|288:120,1,112.500004738569
132,244,47433,2,0,B|140:204|140:204|136:188|136:188|144:176|144:176|156:108,1,112.500004738569
268,200,47954,1,0,0:0:0:0:
344,84,48215,1,0,0:0:0:0:
224,212,48476,2,0,P|168:140|168:80,1,112.500004738569
384,268,48998,2,0,B|377:277|332:292|264:256|264:256|195:221|134:237|144:240|144:240|134:237,1,225.000009477138
173,316,49780,1,0,0:0:0:0:
192,36,50433,6,2,P|72:192|224:352,1,450.000018954276,2|2,0:3|0:3,0:3:0:0:
184,264,51737,1,0,0:0:0:0:
256,192,51998,1,8,0:3:0:0:
328,120,52259,1,0,0:0:0:0:
336,32,52520,2,2,P|448:188|296:360,1,450.000018954276,2|2,0:3|0:3,0:3:0:0:
92,104,53824,1,0,0:0:0:0:
256,192,54085,1,4,0:3:0:0:
420,104,54346,1,0,0:0:0:0:
256,24,54607,2,2,L|256:364,1,337.500014215707,2|2,0:3|0:3,0:3:0:0:
256,192,55650,12,0,58253,0:0:0:0:
176,144,58705,5,4,0:0:0:0:
176,144,58886,1,0,0:0:0:0:
400,212,59250,2,0,P|364:260|328:276,1,75.000000298023
260,264,59614,1,4,0:2:0:0:
260,264,59795,1,0,0:0:0:0:
144,264,60159,2,0,L|184:200,1,75.000000298023
400,300,60523,1,0,0:0:0:0:
144,72,60705,2,0,P|112:100|96:156,2,75.000000298023,4|0|4,0:0|0:0|0:0,0:0:0:0:
208,304,61250,1,0,0:0:0:0:
396,84,61614,6,0,P|388:136|356:176,1,75.000000298023
112,192,62159,2,0,P|120:244|160:272,1,75.000000298023
296,228,62523,1,0,0:0:0:0:
88,112,62705,1,8,0:0:0:0:
112,100,62795,1,0,0:0:0:0:
136,92,62886,1,0,0:0:0:0:
160,84,62977,1,0,0:0:0:0:
184,76,63068,1,8,0:0:0:0:
208,72,63159,1,0,0:0:0:0:
236,72,63250,1,0,0:0:0:0:
264,76,63341,1,0,0:0:0:0:
288,84,63432,1,8,0:0:0:0:
312,92,63523,1,0,0:0:0:0:
336,100,63614,5,0,0:0:0:0:
360,112,63705,1,0,0:0:0:0:
384,124,63795,1,8,0:0:0:0:
404,140,63886,1,0,0:0:0:0:
420,160,63977,1,0,0:0:0:0:
436,180,64068,1,0,0:0:0:0:
444,204,64159,1,8,0:0:0:0:
448,228,64250,1,0,0:0:0:0:
444,256,64341,1,0,0:0:0:0:
432,280,64432,1,0,0:0:0:0:
408,292,64523,1,4,0:2:0:0:
232,272,64705,1,0,0:0:0:0:
160,220,64886,1,0,0:0:0:0:
104,160,65068,5,0,0:0:0:0:
104,160,65159,1,0,0:0:0:0:
104,160,65250,1,4,0:0:0:0:
324,164,65432,1,0,0:0:0:0:
324,164,65614,1,4,0:0:0:0:
236,336,65795,1,0,0:0:0:0:
312,64,65977,5,4,0:0:0:0:
152,280,66159,1,0,0:0:0:0:
344,328,66341,1,0,0:0:0:0:
280,52,66523,1,4,0:0:0:0:
140,272,66705,1,8,0:0:0:0:
332,324,66886,1,0,0:0:0:0:
140,100,67068,1,8,0:0:0:0:
400,272,67432,5,8,0:0:0:0:
276,64,67614,1,0,0:0:0:0:
276,64,67795,2,0,P|216:72|184:112,1,112.500004738569
184,110,68068,1,0,0:0:0:0:
184,110,68159,1,4,0:0:0:0:
412,148,68341,1,0,0:0:0:0:
412,148,68523,1,4,0:0:0:0:
80,188,68705,5,0,0:0:0:0:
80,188,68886,2,0,P|136:200|192:156,1,112.500004738569
384,188,69250,1,0,0:0:0:0:
148,300,69432,1,4,0:0:0:0:
344,128,69614,1,0,0:0:0:0:
104,244,69795,1,0,0:0:0:0:
312,64,69977,1,0,0:0:0:0:
368,312,70341,5,4,0:1:0:0:
301,121,70523,1,0,0:0:0:0:
301,121,70705,2,0,B|369:113|369:113|433:129,1,112.500004738569
412,124,70977,1,0,0:0:0:0:
412,124,71068,1,4,0:0:0:0:
156,240,71250,1,0,0:0:0:0:
156,240,71432,1,0,0:0:0:0:
320,304,71614,5,4,0:0:0:0:
260,148,71795,2,0,B|224:192|224:192|204:276,1,112.500004738569
416,224,72159,1,0,0:0:0:0:
96,96,72341,1,4,0:0:0:0:
364,56,72523,1,0,0:0:0:0:
216,284,72705,1,4,0:0:0:0:
88,104,72886,1,4,0:0:0:0:
320,144,73250,5,4,0:0:0:0:
273,273,73432,1,0,0:0:0:0:
273,273,73614,2,0,P|349:269|409:293,1,112.500004738569
384,280,73886,1,0,0:0:0:0:
384,280,73977,1,4,0:0:0:0:
300,48,74159,1,0,0:0:0:0:
136,224,74341,1,4,0:0:0:0:
416,196,74523,1,0,0:0:0:0:
212,200,74705,5,0,0:0:0:0:
220,216,74886,1,8,0:0:0:0:
232,236,75068,1,0,0:0:0:0:
244,256,75250,1,8,0:0:0:0:
296,280,75432,5,8,0:0:0:0:
320,254,75523,1,0,0:0:0:0:
332,224,75614,1,8,0:0:0:0:
331,187,75705,1,0,0:0:0:0:
319,154,75795,1,8,0:0:0:0:
299,126,75886,1,0,0:0:0:0:
272,103,75977,1,8,0:0:0:0:
241,88,76068,1,0,0:0:0:0:
207,80,76159,1,8,0:0:0:0:
104,184,76341,5,4,0:0:0:0:
104,184,76432,1,0,0:0:0:0:
104,184,76523,1,4,0:0:0:0:
344,328,76705,1,8,0:0:0:0:
352,96,76886,1,0,0:0:0:0:
352,96,76977,1,0,0:0:0:0:
352,96,77068,1,4,0:0:0:0:
160,112,77250,1,0,0:0:0:0:
204,288,77432,1,8,0:0:0:0:
240,116,77614,1,0,0:0:0:0:
284,288,77795,1,8,0:0:0:0:
376,92,77977,2,0,L|296:152,1,75.000000298023,0|8,0:0|0:0,0:0:0:0:
376,284,78341,2,0,L|312:236,1,75.000000298023,0|8,0:0|0:0,0:0:0:0:
196,192,78705,2,0,L|272:192,1,75.000000298023,0|8,0:0|0:0,0:0:0:0:
136,272,79068,5,2,0:0:0:0:
424,84,79250,1,0,0:0:0:0:
204,324,79432,1,2,0:0:0:0:
316,36,79614,1,0,0:0:0:0:
304,324,79795,1,2,0:0:0:0:
200,32,79977,1,0,0:0:0:0:
380,296,80159,1,2,0:0:0:0:
128,80,80341,1,0,0:0:0:0:
428,216,80523,1,2,0:0:0:0:
108,172,80705,1,0,0:0:0:0:
176,104,80886,2,8,L|224:168,1,75.000000298023
340,108,81250,2,8,L|288:168,1,75.000000298023
220,228,81614,5,4,0:0:0:0:
292,228,81795,1,0,0:0:0:0:
144,228,81977,1,4,0:0:0:0:
368,228,82159,1,0,0:0:0:0:
72,228,82341,1,4,0:0:0:0:
440,228,82523,1,0,0:0:0:0:
184,72,82705,5,0,0:0:0:0:
256,328,82886,1,0,0:0:0:0:
324,72,83068,1,4,0:0:0:0:
256,328,83250,5,0,0:0:0:0:
184,72,83432,1,0,0:0:0:0:
324,72,83614,1,4,0:0:0:0:
128,96,83795,1,4,0:0:0:0:
396,204,83977,1,0,0:0:0:0:
112,200,84159,1,0,0:0:0:0:
396,124,84341,1,0,0:0:0:0:
256,192,84523,1,4,0:0:0:0:
256,192,84705,1,8,0:0:0:0:
256,192,84886,1,4,0:0:0:0:
176,88,85250,6,0,P|116:108|92:164,1,112.500004738569,4|0,0:0|0:0,0:0:0:0:
156,232,85614,1,8,0:0:0:0:
156,272,85705,1,0,0:0:0:0:
156,312,85795,1,8,0:0:0:0:
396,192,85977,1,4,0:0:0:0:
80,36,86159,1,8,0:0:0:0:
112,56,86250,1,0,0:0:0:0:
144,76,86341,2,0,P|212:60|264:72,1,112.500004738569
328,288,86705,1,12,0:0:0:0:
308,256,86795,1,0,0:0:0:0:
288,224,86886,1,8,0:0:0:0:
76,264,87068,1,8,0:0:0:0:
100,232,87159,1,0,0:0:0:0:
123,199,87250,1,8,0:0:0:0:
212,52,87432,5,8,0:0:0:0:
241,71,87523,1,0,0:0:0:0:
268,92,87614,1,8,0:0:0:0:
299,110,87705,1,0,0:0:0:0:
328,129,87795,1,8,0:0:0:0:
236,316,87977,1,8,0:0:0:0:
236,316,88068,1,0,0:0:0:0:
236,316,88159,1,8,0:0:0:0:
60,116,88341,2,8,P|92:80|160:64,1,112.500004738569,8|8,0:2|0:2,0:2:0:0:
152,63,88705,1,0,0:0:0:0:
318,104,88886,1,2,0:2:0:0:
217,201,89068,1,0,0:0:0:0:
212,48,89250,1,0,0:0:0:0:
338,123,89432,1,2,0:2:0:0:
100,288,89614,5,8,0:0:0:0:
100,248,89705,1,0,0:0:0:0:
100,208,89795,1,8,0:0:0:0:
432,56,89977,1,8,0:0:0:0:
392,56,90068,1,0,0:0:0:0:
352,60,90159,1,8,0:0:0:0:
192,112,90341,6,0,P|152:144|132:208,1,112.500004738569
424,292,90705,1,0,0:0:0:0:
424,292,90795,1,0,0:0:0:0:
424,292,90886,1,4,0:0:0:0:
156,220,91068,2,0,L|192:104,1,112.500004738569,0|8,0:0|0:0,0:0:0:0:
384,48,91432,2,0,L|280:112,1,112.500004738569,0|8,0:0|0:0,0:0:0:0:
76,112,91795,2,0,L|64:228,1,112.500004738569,0|8,0:0|0:0,0:0:0:0:
416,336,92159,2,0,L|356:208,1,112.500004738569,0|8,0:0|0:0,0:0:0:0:
144,264,92523,5,8,0:0:0:0:
180,248,92614,1,0,0:0:0:0:
216,232,92705,1,8,0:0:0:0:
412,148,92886,1,8,0:0:0:0:
380,128,92977,1,8,0:0:0:0:
352,104,93068,1,4,0:0:0:0:
188,96,93250,2,0,P|148:120|108:184,1,112.500004738569
276,184,93614,1,0,0:0:0:0:
276,184,93705,1,2,0:2:0:0:
276,184,93795,1,0,0:0:0:0:
88,152,93977,5,0,0:0:0:0:
424,72,94159,1,0,0:0:0:0:
340,308,94341,1,0,0:0:0:0:
93,134,94523,1,0,0:0:0:0:
435,90,94705,1,0,0:0:0:0:
312,316,94886,2,0,P|256:292|172:308,1,112.500004738569
412,232,95250,1,0,0:0:0:0:
148,56,95432,2,0,P|112:112|104:164,1,112.500004738569
168,204,95795,1,0,0:0:0:0:
408,252,95977,1,0,0:0:0:0:
312,100,96159,1,0,0:0:0:0:
184,224,96341,1,0,0:0:0:0:
216,92,96523,5,4,0:0:0:0:
428,88,96886,1,0,0:0:0:0:
320,196,97068,1,4,0:0:0:0:
112,128,97250,1,0,0:0:0:0:
148,108,97341,1,0,0:0:0:0:
184,88,97432,1,4,0:0:0:0:
416,248,97614,1,0,0:0:0:0:
148,208,97795,1,4,0:0:0:0:
104,68,98159,5,8,0:0:0:0:
384,96,98341,1,4,0:0:0:0:
104,152,98523,1,0,0:0:0:0:
380,184,98705,1,12,0:0:0:0:
208,296,98886,1,8,0:0:0:0:
216,263,98977,1,0,0:0:0:0:
224,230,99068,1,8,0:0:0:0:
232,198,99159,1,0,0:0:0:0:
240,165,99250,1,8,0:0:0:0:
248,133,99341,1,0,0:0:0:0:
256,100,99432,1,8,0:0:0:0:
140,204,99614,5,0,0:0:0:0:
116,244,99705,1,0,0:0:0:0:
88,284,99795,1,0,0:0:0:0:
116,72,99977,1,0,0:0:0:0:
336,108,100159,1,0,0:0:0:0:
328,304,100341,1,0,0:0:0:0:
284,284,100432,1,0,0:0:0:0:
240,264,100523,1,0,0:0:0:0:
312,72,100705,2,0,P|368:100|408:176,1,112.500004738569
80,96,101068,2,0,P|44:148|32:212,1,112.500004738569
272,136,101432,2,0,P|320:168|364:224,1,112.500004738569
136,144,101795,2,0,P|100:204|84:264,1,112.500004738569
140,324,102159,5,0,0:0:0:0:
352,192,102341,1,0,0:0:0:0:
356,264,102523,2,0,P|296:260|208:256,1,112.500004738569
308,72,102886,2,0,P|376:92|428:136,1,112.500004738569
152,104,103250,1,0,0:0:0:0:
168,216,103432,1,0,0:0:0:0:
128,228,103614,1,0,0:0:0:0:
136,236,103705,1,0,0:0:0:0:
144,240,103795,1,0,0:0:0:0:
396,176,103977,5,0,0:0:0:0:
68,156,104159,1,0,0:0:0:0:
328,280,104341,1,0,0:0:0:0:
256,44,104523,1,0,0:0:0:0:
356,296,104705,1,0,0:0:0:0:
64,184,104886,1,0,0:0:0:0:
116,84,105068,6,0,L|132:164,1,56.2500023692846
208,144,105250,2,0,L|224:68,1,56.2500023692846
300,92,105432,2,0,L|312:160,1,56.2500023692846
392,148,105614,2,0,L|408:92,1,56.2500023692846
412,280,105795,2,0,L|380:208,1,56.2500023692846
308,236,105977,2,0,L|296:304,1,56.2500023692846
216,292,106159,2,0,L|196:212,1,56.2500023692846
116,240,106341,2,0,L|100:320,1,56.2500023692846
220,72,106523,2,0,L|300:44,1,56.2500023692846
336,248,106705,1,0,0:0:0:0:
64,148,106886,5,0,0:0:0:0:
72,152,106977,1,0,0:0:0:0:
80,156,107068,1,0,0:0:0:0:
256,320,107250,1,0,0:0:0:0:
288,288,107341,1,0,0:0:0:0:
312,252,107432,1,0,0:0:0:0:
436,56,107614,1,0,0:0:0:0:
396,80,107705,1,0,0:0:0:0:
360,108,107795,1,0,0:0:0:0:
184,240,107977,5,0,0:0:0:0:
168,96,108159,2,0,P|240:124|276:168,1,112.500004738569
104,284,108523,1,0,0:0:0:0:
392,172,108705,2,0,P|396:232|340:300,1,150.000000596046
244,72,109250,1,0,0:0:0:0:
100,244,109432,2,0,P|68:176|96:104,1,150.000000596046
432,272,109977,1,0,0:0:0:0:
76,128,110159,2,0,B|128:92|168:128|168:128|208:164|252:132|252:132|300:96|348:136|348:136|384:172|448:128,1,375.000001490115
88,328,111250,5,0,0:0:0:0:
148,40,111432,1,0,0:0:0:0:
432,216,111614,1,0,0:0:0:0:
108,280,111795,1,0,0:0:0:0:
422,135,111977,1,0,0:0:0:0:
72,120,112159,1,0,0:0:0:0:
107,113,112250,1,0,0:0:0:0:
142,109,112341,1,0,0:0:0:0:
178,107,112432,1,0,0:0:0:0:
213,108,112523,1,0,0:0:0:0:
244,320,112705,5,0,0:0:0:0:
244,320,112795,1,0,0:0:0:0:
244,320,112886,1,0,0:0:0:0:
456,48,113068,1,0,0:0:0:0:
456,48,113159,1,0,0:0:0:0:
456,48,113250,1,0,0:0:0:0:
88,252,113432,1,0,0:0:0:0:
119,231,113523,1,0,0:0:0:0:
154,217,113614,1,0,0:0:0:0:
191,212,113705,1,0,0:0:0:0:
228,214,113795,1,0,0:0:0:0:
219,101,113977,5,0,0:0:0:0:
344,88,114159,2,0,P|328:160|304:192,1,112.500000447034
56,236,114523,1,0,0:0:0:0:
412,312,114705,1,0,0:0:0:0:
224,48,114886,1,0,0:0:0:0:
408,184,115068,2,0,B|368:244|356:232|304:248,1,112.500004738569
204,312,115432,6,0,P|168:248|176:172,1,112.500004738569
256,52,115795,1,0,0:0:0:0:
456,160,115977,2,0,P|436:232|376:284,1,112.500004738569
96,72,116341,1,0,0:0:0:0:
424,72,116523,1,0,0:0:0:0:
96,72,116705,1,0,0:0:0:0:
424,72,116886,1,0,0:0:0:0:
64,156,117068,6,0,P|44:224|64:292,1,112.500004738569
236,112,117432,1,0,0:0:0:0:
236,112,117614,1,0,0:0:0:0:
304,256,117795,2,0,P|236:312|176:312,1,112.500004738569
160,60,118159,1,0,0:0:0:0:
312,76,118341,2,0,B|320:120|320:120|356:136|356:136|364:200,1,112.500004738569
72,124,118705,1,0,0:0:0:0:
72,124,118795,1,0,0:0:0:0:
72,124,118886,1,0,0:0:0:0:
144,276,119068,2,0,B|184:276|184:276|216:256|216:256|216:196,1,112.500004738569
388,112,119432,2,0,B|388:144|388:144|424:180|424:180|424:212,1,112.500004738569
216,116,119795,2,0,B|272:116|272:116|232:72,2,112.500004738569
96,152,120341,6,0,B|144:188|144:188|160:260|160:260|248:316,1,225.000009477138
260,208,120886,1,0,0:0:0:0:
348,320,121068,2,0,B|332:252|376:208|376:208|424:160|384:96,1,225.000009477138,4|0,0:2|0:0,0:0:0:0:
192,252,121614,1,0,0:0:0:0:
176,180,121795,2,0,P|232:192|264:272,1,112.500004738569
132,80,122159,5,0,0:0:0:0:
400,92,122341,1,0,0:0:0:0:
236,288,122523,1,0,0:0:0:0:
165,51,122705,5,0,0:0:0:0:
420,132,122886,1,0,0:0:0:0:
211,279,123068,1,0,0:0:0:0:
204,33,123250,5,0,0:0:0:0:
430,177,123432,1,0,0:0:0:0:
190,265,123614,1,0,0:0:0:0:
296,180,123795,1,0,0:0:0:0:
216,76,123977,5,0,0:0:0:0:
224,84,124068,1,0,0:0:0:0:
224,84,124159,1,0,0:0:0:0:
412,232,124341,5,0,0:0:0:0:
412,232,124432,1,0,0:0:0:0:
412,232,124523,1,0,0:0:0:0:
124,192,124705,5,0,0:0:0:0:
124,192,124795,1,0,0:0:0:0:
124,192,124886,1,0,0:0:0:0:
124,192,124977,1,0,0:0:0:0:
124,192,125068,1,0,0:0:0:0:
124,192,125159,1,0,0:0:0:0:
124,192,125250,1,0,0:0:0:0:
124,192,125341,1,0,0:0:0:0:
124,192,125432,1,0,0:0:0:0:
216,44,125614,1,0,0:0:0:0:
376,96,125795,5,0,0:0:0:0:
360,128,125886,1,0,0:0:0:0:
340,160,125977,1,0,0:0:0:0:
72,220,126159,2,0,P|60:168|88:108,1,112.500004738569
280,284,126523,1,0,0:0:0:0:
280,284,126614,1,0,0:0:0:0:
280,284,126705,1,0,0:0:0:0:
176,48,126886,2,0,P|104:96|80:160,1,112.500004738569
380,144,127250,1,0,0:0:0:0:
380,144,127432,1,0,0:0:0:0:
264,296,127614,6,0,P|332:288|380:252,1,112.500004738569
132,112,127977,1,0,0:0:0:0:
272,136,128159,1,0,0:0:0:0:
104,244,128341,1,0,0:0:0:0:
300,336,128523,1,0,0:0:0:0:
200,224,128705,6,0,B|192:168|192:168|228:108,1,112.500004738569
312,160,129068,2,0,B|320:216|320:216|284:276,1,112.500004738569
152,144,129432,2,0,B|96:128|96:128|48:160,1,112.500004738569
320,276,129795,2,0,B|300:216|300:216|328:168,1,112.500004738569
88,252,130159,1,0,0:0:0:0:
336,52,130341,1,0,0:0:0:0:
352,192,130523,2,0,B|364:236|364:236|332:264,2,56.2500023692846
88,76,130886,1,0,0:0:0:0:
144,84,130977,1,0,0:0:0:0:
200,92,131068,1,0,0:0:0:0:
240,208,131250,2,0,B|264:232|264:232|240:252,2,56.2500023692846
400,48,131614,2,0,P|436:116|440:176,1,112.500004738569
136,268,131977,6,0,P|80:160|192:120,1,225.000009477138
160,192,132523,1,0,0:0:0:0:
328,112,132705,2,0,B|376:224|376:224|456:108,1,225.000009477138
108,132,133250,1,0,0:0:0:0:
296,280,133432,1,0,0:0:0:0:
296,280,133523,1,0,0:0:0:0:
296,280,133614,1,0,0:0:0:0:
336,116,133795,1,0,0:0:0:0:
132,144,133977,1,0,0:0:0:0:
240,288,134159,1,0,0:0:0:0:
124,64,134341,5,0,0:0:0:0:
156,60,134432,1,0,0:0:0:0:
188,60,134523,1,0,0:0:0:0:
220,64,134614,1,0,0:0:0:0:
252,76,134705,1,0,0:0:0:0:
284,88,134795,1,0,0:0:0:0:
312,108,134886,1,0,0:0:0:0:
340,128,134977,1,0,0:0:0:0:
356,160,135068,2,0,L|352:232,6,56.2500023692846
340,248,135705,5,0,0:0:0:0:
308,264,135795,1,0,0:0:0:0:
272,276,135886,1,0,0:0:0:0:
232,276,135977,1,0,0:0:0:0:
192,272,136068,1,0,0:0:0:0:
156,260,136159,1,0,0:0:0:0:
120,244,136250,1,0,0:0:0:0:
92,216,136341,1,0,0:0:0:0:
84,176,136432,2,0,L|112:124,7,56.2500023692846
376,168,137250,1,0,0:0:0:0:
256,192,137341,12,0,139795,0:0:0:0:
180,68,140159,5,0,0:0:0:0:
132,248,140341,1,0,0:0:0:0:
380,120,140523,1,0,0:0:0:0:
328,304,140705,1,0,0:0:0:0:
328,304,140795,1,0,0:0:0:0:
328,304,140886,1,0,0:0:0:0:
128,168,141068,2,0,P|168:136|252:168,1,112.500004738569
192,208,141432,1,0,0:0:0:0:
292,76,141614,2,0,P|344:124|356:176,1,112.500004738569
192,296,141977,1,0,0:0:0:0:
348,228,142159,2,0,P|396:276|396:332,1,112.500004738569
144,48,142523,1,0,0:0:0:0:
144,48,142705,1,0,0:0:0:0:
248,328,143068,6,0,B|168:328|168:328|140:284,1,112.500004738569
336,120,143432,1,0,0:0:0:0:
152,212,143614,1,0,0:0:0:0:
152,212,143705,1,0,0:0:0:0:
152,212,143795,1,0,0:0:0:0:
380,288,143977,1,0,0:0:0:0:
296,96,144159,2,0,P|272:160|224:180,1,112.500004738569
88,92,144523,5,0,0:0:0:0:
88,92,144705,1,0,0:0:0:0:
76,340,144886,1,0,0:0:0:0:
268,212,145068,2,0,B|292:188|292:188|328:188|328:188|360:140,1,112.500004738569
468,336,145432,1,0,0:0:0:0:
160,136,145614,2,0,P|100:192|144:216,1,112.500004738569
400,80,145977,5,4,0:0:0:0:
48,232,146159,1,0,0:0:0:0:
48,232,146341,1,0,0:0:0:0:
368,296,146523,2,0,B|332:292|332:292|336:328,2,56.2500023692846
272,64,146886,1,0,0:0:0:0:
472,200,147068,1,0,0:0:0:0:
208,312,147250,1,0,0:0:0:0:
43,69,147432,5,4,0:0:0:0:
94,91,147614,1,0,0:0:0:0:
145,112,147795,1,0,0:0:0:0:
195,137,147977,1,0,0:0:0:0:
229,139,148159,1,4,0:2:0:0:
263,131,148250,1,0,0:0:0:0:
299,120,148341,1,4,0:2:0:0:
337,111,148432,1,0,0:0:0:0:
376,111,148523,1,4,0:2:0:0:
410,130,148614,1,0,0:0:0:0:
436,159,148705,1,4,0:2:0:0:
446,196,148795,1,0,0:0:0:0:
448,235,148886,1,4,0:2:0:0:
96,264,149068,5,0,0:0:0:0:
96,264,149159,1,0,0:0:0:0:
96,264,149250,1,0,0:0:0:0:
312,292,149432,1,0,0:0:0:0:
312,292,149523,1,0,0:0:0:0:
312,292,149614,1,0,0:0:0:0:
144,100,149795,1,0,0:0:0:0:
248,104,149977,2,0,P|312:120|344:160,1,112.500004738569
120,64,150341,1,0,0:0:0:0:
56,232,150523,6,0,P|48:168|96:116,1,112.500004738569
156,208,150886,2,0,P|224:232|244:304,1,112.500004738569
344,216,151250,1,0,0:0:0:0:
252,76,151432,2,0,P|332:64|383:113,1,112.500004738569
444,216,151795,2,0,P|436:280|388:316,1,112.500004738569
88,160,152159,1,0,0:0:0:0:
88,160,152250,1,0,0:0:0:0:
88,160,152341,1,0,0:0:0:0:
144,344,152523,1,0,0:0:0:0:
144,344,152614,1,0,0:0:0:0:
144,344,152705,1,0,0:0:0:0:
276,304,152886,6,0,B|276:268|276:268|256:232|256:232|256:196,1,112.500004738569
204,80,153250,1,0,0:0:0:0:
204,80,153432,1,0,0:0:0:0:
176,244,153614,2,0,P|120:196|120:132,1,112.500004738569
420,200,153977,1,0,0:0:0:0:
420,200,154068,1,0,0:0:0:0:
420,200,154159,1,0,0:0:0:0:
144,184,154341,2,0,B|108:136|108:136|100:200,2,112.500004738569
256,104,154886,2,0,B|296:104|296:104|296:132|296:132|296:184,1,112.500004738569
160,120,155250,5,0,0:0:0:0:
352,324,155432,1,0,0:0:0:0:
132,324,155614,1,0,0:0:0:0:
368,68,155795,1,0,0:0:0:0:
236,160,155977,2,0,B|216:196|216:196|228:228|228:228|208:268|208:268,1,112.500004738569
72,168,156341,1,0,0:0:0:0:
196,52,156523,1,0,0:0:0:0:
168,220,156705,2,0,B|208:260|208:260|200:280|200:280|232:312,1,112.500004738569
80,60,157068,1,0,0:0:0:0:
132,68,157159,1,0,0:0:0:0:
176,92,157250,1,0,0:0:0:0:
208,132,157341,1,0,0:0:0:0:
212,184,157432,1,0,0:0:0:0:
424,284,157614,1,0,0:0:0:0:
392,40,157977,5,0,0:0:0:0:
68,220,158159,1,0,0:0:0:0:
368,168,158341,1,0,0:0:0:0:
332,132,158432,1,0,0:0:0:0:
320,84,158523,1,0,0:0:0:0:
276,288,158705,2,0,P|224:312|152:304,1,112.500004738569
44,56,159068,1,0,0:0:0:0:
420,120,159250,1,0,0:0:0:0:
84,296,159432,5,0,0:0:0:0:
84,296,159523,1,0,0:0:0:0:
84,296,159614,1,0,0:0:0:0:
356,48,159795,1,0,0:0:0:0:
356,48,159886,1,0,0:0:0:0:
356,48,159977,1,0,0:0:0:0:
360,208,160159,2,0,B|368:236|368:236|348:264,2,56.2500023692846
104,120,160523,5,0,0:0:0:0:
304,308,160705,1,0,0:0:0:0:
356,300,160795,1,0,0:0:0:0:
400,276,160886,1,0,0:0:0:0:
156,252,161068,2,0,P|152:188|184:132,1,112.500004738569
404,152,161432,1,0,0:0:0:0:
360,128,161523,1,0,0:0:0:0:
312,112,161614,1,0,0:0:0:0:
40,276,161795,1,0,0:0:0:0:
56,44,161977,1,0,0:0:0:0:
416,336,162159,1,0,0:0:0:0:
264,168,162341,6,0,P|216:212|192:272,1,112.500004738569
332,56,162705,2,0,P|396:100|416:160,1,112.500004738569
220,96,163068,5,0,0:0:0:0:
140,96,163250,1,0,0:0:0:0:
292,156,163432,1,0,0:0:0:0:
372,156,163614,1,0,0:0:0:0:
152,232,163795,2,0,P|200:264|196:332,1,112.500004738569
136,300,164159,1,0,0:0:0:0:
304,268,164341,2,0,P|368:252|416:212,1,112.500004738569
340,164,164705,1,0,0:0:0:0:
256,56,164886,1,0,0:0:0:0:
172,164,165068,1,0,0:0:0:0:
72,108,165250,6,0,B|104:128|104:128|104:168,2,56.2500023692846
388,76,165614,1,0,0:0:0:0:
356,116,165705,1,0,0:0:0:0:
316,148,165795,1,0,0:0:0:0:
24,256,165977,1,0,0:0:0:0:
56,216,166068,1,0,0:0:0:0:
96,184,166159,1,0,0:0:0:0:
248,76,166341,6,0,P|176:56|112:76,1,112.500004738569
168,312,166705,1,0,0:0:0:0:
424,180,166886,1,0,0:0:0:0:
124,104,167068,1,0,0:0:0:0:
216,332,167250,1,0,0:0:0:0:
412,152,167432,1,0,0:0:0:0:
60,260,167614,6,0,P|108:220|144:160,1,112.500004738569
488,236,167977,1,0,0:0:0:0:
160,80,168159,1,0,0:0:0:0:
184,200,168341,6,0,B|152:216|152:216|152:252|152:252|116:272,1,112.500004738569
332,80,168705,1,0,0:0:0:0:
380,100,168795,1,0,0:0:0:0:
404,144,168886,1,0,0:0:0:0:
124,152,169068,1,0,0:0:0:0:
300,340,169250,1,0,0:0:0:0:
232,48,169614,5,0,0:0:0:0:
312,260,169795,1,0,0:0:0:0:
44,224,169977,1,0,0:0:0:0:
92,212,170068,1,0,0:0:0:0:
144,216,170159,1,0,0:0:0:0:
232,48,170341,1,0,0:0:0:0:
312,260,170523,1,0,0:0:0:0:
360,276,170614,1,0,0:0:0:0:
412,268,170705,1,0,0:0:0:0:
40,192,170886,1,0,0:0:0:0:
412,68,171068,1,0,0:0:0:0:
424,116,171159,1,0,0:0:0:0:
436,164,171250,1,0,0:0:0:0:
148,184,171432,1,0,0:0:0:0:
120,228,171523,1,0,0:0:0:0:
92,268,171614,1,0,0:0:0:0:
284,80,171795,5,0,0:0:0:0:
284,80,171886,1,0,0:0:0:0:
284,80,171977,1,0,0:0:0:0:
284,80,172068,1,0,0:0:0:0:
284,80,172159,1,0,0:0:0:0:
64,64,172341,1,0,0:0:0:0:
64,64,172432,1,0,0:0:0:0:
64,64,172523,1,0,0:0:0:0:
196,248,172705,2,0,B|228:224|228:224|240:192|240:192|272:168,1,112.500004738569
360,48,173068,5,0,0:0:0:0:
424,200,173250,1,0,0:0:0:0:
120,240,173432,1,0,0:0:0:0:
156,348,173614,1,0,0:0:0:0:
158,78,173795,2,0,B|74:98|74:98|58:122,1,112.500004738569
60,120,174068,1,0,0:0:0:0:
60,120,174159,1,0,0:0:0:0:
292,140,174341,1,0,0:0:0:0:
292,140,174432,1,0,0:0:0:0:
292,140,174523,1,0,0:0:0:0:
328,244,174705,6,0,B|344:272|344:272|332:300,2,56.2500023692846
128,60,175068,1,0,0:0:0:0:
240,328,175250,1,0,0:0:0:0:
236,180,175432,1,0,0:0:0:0:
52,152,175614,1,0,0:0:0:0:
328,44,175795,1,0,0:0:0:0:
408,176,175977,1,0,0:0:0:0:
408,176,176068,1,0,0:0:0:0:
408,176,176159,1,0,0:0:0:0:
176,240,176341,6,0,B|204:204|204:204|236:192|236:192|264:144,1,112.500004738569
328,268,176705,2,0,P|376:232|344:188,1,112.500004738569
328,268,177068,2,0,P|289:283|249:235,1,112.500004738569
88,47,177432,6,0,L|108:119,1,56.2500023692846
185,104,177614,2,0,L|200:49,1,56.2500023692846
285,45,177795,2,0,L|301:100,1,56.2500023692846
398,104,177977,1,0,0:0:0:0:
116,264,178159,5,0,0:0:0:0:
116,264,178250,1,0,0:0:0:0:
116,264,178341,1,0,0:0:0:0:
256,196,178523,2,0,B|312:200|312:200|328:264,1,112.500004738569
104,192,178886,2,0,P|116:132|168:88,1,112.500004738569
252,336,179250,1,0,0:0:0:0:
360,208,179432,1,0,0:0:0:0:
136,132,179614,2,0,B|164:76|164:76|136:28,1,112.500004738569
244,172,179977,2,0,P|196:212|200:288,1,112.500004738569
260,244,180341,2,0,B|288:260|288:260|320:236|320:236|360:260,1,112.500004738569
144,68,180705,5,0,0:0:0:0:
416,104,180886,2,0,P|436:164|424:232,1,112.500004738569,4|0,0:0|0:0,0:0:0:0:
108,304,181250,1,0,0:0:0:0:
408,236,181432,2,0,P|416:296|376:348,1,112.500004738569,4|0,0:0|0:0,0:0:0:0:
232,40,181795,1,0,0:0:0:0:
400,236,181977,2,0,P|340:272|268:264,1,112.500004738569,4|0,0:0|0:0,0:0:0:0:
164,112,182341,2,0,B|148:148|148:148|160:192|160:192|132:244,1,112.500004738569,4|0,0:0|0:0,0:0:0:0:
304,332,182705,1,0,0:0:0:0:
336,48,182886,2,0,P|400:112|408:148,1,112.500004738569,4|0,0:0|0:0,0:0:0:0:
120,264,183250,1,0,0:0:0:0:
64,80,183432,2,0,P|120:48|192:64,1,112.500004738569,4|0,0:0|0:0,0:0:0:0:
392,292,183795,5,4,0:0:0:0:
44,184,183977,1,0,0:0:0:0:
268,44,184159,1,4,0:0:0:0:
296,344,184341,1,0,0:0:0:0:
440,76,184523,1,4,0:0:0:0:
52,44,184705,1,0,0:0:0:0:
140,328,184886,1,4,0:0:0:0:
152,316,184977,1,0,0:0:0:0:
164,304,185068,1,4,0:0:0:0:
176,292,185159,1,0,0:0:0:0:
188,280,185250,2,0,P|200:200|240:176,1,112.500004738569,4|0,0:0|0:0,0:0:0:0:
140,72,185614,2,2,B|140:124|140:124|144:136|144:136|136:140|136:140|144:148|144:148|136:152|136:152|144:160|144:160|136:164|136:164|144:172|144:172|136:176|136:176|144:184|144:184|136:188|136:188|144:192|144:192|136:200|136:200|144:208|144:208|140:216|140:216|140:252,1,225.000009477138
432,112,186159,5,0,0:0:0:0:
432,112,186250,1,0,0:0:0:0:
432,112,186341,1,0,0:0:0:0:
100,248,186523,1,0,0:0:0:0:
308,52,186705,1,0,0:0:0:0:
412,320,186886,1,0,0:0:0:0:
32,52,187068,1,0,0:0:0:0:
208,336,187250,2,0,B|232:292|232:292|228:256|228:256|244:220,1,112.500004738569
128,120,187614,1,0,0:0:0:0:
340,168,187795,2,0,P|340:248|308:280,1,112.500004738569
400,284,188159,2,0,B|452:264|452:264|452:236|452:236|432:192,1,112.500004738569
72,304,188523,1,0,0:0:0:0:
96,36,188705,6,0,P|132:108|124:164,1,112.500004738569
268,236,189068,2,0,B|288:264|288:264|280:292,2,56.2500023692846
420,60,189432,1,0,0:0:0:0:
404,108,189523,1,0,0:0:0:0:
408,160,189614,1,0,0:0:0:0:
116,216,189795,2,0,B|144:160|144:160|168:188|168:188|224:176,1,112.500004738569
376,248,190159,2,0,B|376:280|376:280|256:288,1,112.500004738569
52,328,190523,5,0,0:0:0:0:
240,36,190705,1,0,0:0:0:0:
60,168,190886,2,0,P|56:96|92:48,1,112.500004738569
204,292,191250,1,0,0:0:0:0:
204,292,191341,1,0,0:0:0:0:
204,292,191432,1,0,0:0:0:0:
380,232,191614,2,0,P|408:172|404:124,1,112.500004738569
76,312,191977,1,0,0:0:0:0:
152,56,192159,1,0,0:0:0:0:
152,56,192250,1,0,0:0:0:0:
152,56,192341,1,0,0:0:0:0:
320,284,192523,2,0,B|276:328|276:328|228:288,1,112.500004738569
336,116,192886,5,0,0:0:0:0:
76,88,193068,2,0,P|156:144|128:288,1,225.000009477138
264,72,193614,1,0,0:0:0:0:
432,300,193795,2,0,B|392:300|392:300|260:244|260:244|188:244,1,225.000009477138,4|0,0:0|0:0,0:0:0:0:
244,316,194341,1,0,0:0:0:0:
408,108,194523,1,0,0:0:0:0:
408,108,194614,1,0,0:0:0:0:
408,108,194705,1,0,0:0:0:0:
44,284,194886,5,0,0:0:0:0:
120,20,195068,1,0,0:0:0:0:
336,300,195250,1,0,0:0:0:0:
344,24,195432,1,4,0:0:0:0:
32,156,195614,1,0,0:0:0:0:
332,224,195795,6,0,P|396:172|408:128,1,112.500004738569
136,56,196159,1,0,0:0:0:0:
148,316,196341,1,0,0:0:0:0:
192,292,196432,1,0,0:0:0:0:
228,256,196523,1,0,0:0:0:0:
424,72,196705,1,0,0:0:0:0:
196,136,196886,2,0,P|232:80|304:56,1,112.500004738569,4|0,0:0|0:0,0:0:0:0:
404,312,197250,2,0,P|448:244|448:192,1,112.500004738569,4|0,0:0|0:0,0:0:0:0:
124,88,197614,5,2,0:2:0:0:
124,88,197705,1,0,0:0:0:0:
124,88,197795,1,2,0:2:0:0:
124,88,197886,1,0,0:0:0:0:
124,88,197977,1,2,0:2:0:0:
208,312,198159,5,0,0:0:0:0:
208,312,198250,1,0,0:0:0:0:
208,312,198341,1,4,0:0:0:0:
252,120,198523,2,0,P|320:188|340:236,1,112.500004738569
60,248,198886,1,0,0:0:0:0:
352,272,199068,2,0,B|372:248|372:248|380:184|380:184|404:148,1,112.500004738569
308,212,199432,2,0,P|228:204|184:200,1,112.500004738569
116,60,199795,5,4,0:0:0:0:
88,144,199977,1,0,0:0:0:0:
108,232,200159,1,0,0:0:0:0:
152,312,200341,1,0,0:0:0:0:
268,108,200523,2,0,L|372:160,1,112.500004738569
48,328,200886,1,0,0:0:0:0:
308,44,201068,1,0,0:0:0:0:
400,336,201250,1,4,0:0:0:0:
468,56,201432,1,0,0:0:0:0:
100,236,201614,6,0,B|156:268|156:268|176:320,1,112.500004738569
408,176,201977,2,0,L|360:72,1,112.500004738569
108,88,202341,1,0,0:0:0:0:
108,88,202432,1,0,0:0:0:0:
108,88,202523,1,0,0:0:0:0:
328,308,202705,1,4,0:0:0:0:
328,308,202795,1,0,0:0:0:0:
328,308,202886,1,0,0:0:0:0:
120,236,203068,2,0,B|148:240|148:240|144:208,2,56.2500023692846
232,92,203432,6,0,B|232:116|232:116|292:180|292:180|292:204,1,112.500004738569
196,184,203795,2,0,B|168:232|188:256|188:256|192:272|144:304,1,112.500004738569
416,292,204159,1,4,0:0:0:0:
56,60,204341,1,0,0:0:0:0:
136,328,204523,1,0,0:0:0:0:
392,256,204705,6,0,B|324:224|324:224|376:172|376:172|280:120,1,225.000009477138
60,192,205250,5,0,0:0:0:0:
260,248,205432,2,0,P|288:308|148:336,1,225.000009477138,4|0,0:0|0:0,0:0:0:0:
52,48,205977,5,0,0:0:0:0:
240,72,206159,2,0,B|200:132|200:132|228:172|228:172|172:200|172:200|184:280,1,225.000009477138,4|0,0:0|0:0,0:0:0:0:
284,132,206705,1,0,0:0:0:0:
372,104,206886,1,0,0:0:0:0:
460,72,207068,5,4,0:0:0:0:
388,304,207250,1,0,0:0:0:0:
336,72,207432,1,8,0:0:0:0:
264,304,207614,1,0,0:0:0:0:
220,72,207795,1,8,0:0:0:0:
148,304,207977,1,0,0:0:0:0:
68,76,208159,1,8,0:0:0:0:
68,76,208341,1,0,0:0:0:0:
68,200,208523,5,4,0:0:0:0:
148,128,208705,1,8,0:0:0:0:
132,260,208886,1,4,0:0:0:0:
212,188,209068,1,8,0:0:0:0:
296,188,209250,1,4,0:0:0:0:
368,268,209432,1,8,0:0:0:0:
360,132,209614,1,4,0:0:0:0:
432,216,209795,1,8,0:0:0:0:
432,216,209886,1,8,0:2:0:0:
432,216,209977,1,4,0:0:0:0:
256,192,210159,12,0,212159,0:0:0:0:
352,296,212886,5,4,0:0:0:0:
376,68,213068,2,0,P|296:88|264:136,1,131.250001773238
64,324,213432,1,0,0:0:0:0:
132,64,213614,1,0,0:0:0:0:
132,64,213705,1,0,0:0:0:0:
132,64,213795,1,4,0:0:0:0:
144,260,213977,2,0,P|220:288|248:332,1,131.250001773238
156,164,214341,1,0,0:0:0:0:
396,304,214523,1,0,0:0:0:0:
384,48,214705,1,4,0:0:0:0:
80,196,214886,1,0,0:0:0:0:
404,188,215068,1,4,0:0:0:0:
176,152,215705,6,0,B|175:153|175:153|178:160|178:160|169:159|169:159|175:165|175:165|166:165|166:165|171:171|171:171|163:171|163:171|169:177|169:177|161:176|161:176|167:180|167:180|159:180|159:180|165:185|165:185|157:184|157:184|164:190|164:190|155:189|155:189|163:195|163:195|154:198|154:198|165:200|165:200|157:205|157:205|171:205|171:205|163:212|163:212|176:209|176:209|170:217|170:217|179:213|179:213|173:220|173:220|182:216|182:216|177:223|177:223|185:220|185:220|180:226|180:226|188:223|188:223|185:229|186:229|186:228|186:228|195:226|195:226|190:232|190:232|200:227|200:227|196:235|196:235|206:229|206:229|204:238|204:238|213:232|213:232|213:240|213:240|220:233|220:233|220:242|220:242|227:235|227:235|227:244|227:244|232:236|232:236|233:245|233:245|238:237|238:237|240:246|240:246|243:238|243:238|246:246|246:246|250:238|250:238|253:246|253:246|256:238|256:238|262:246|262:246|263:236|263:236|272:244|272:244|271:234|271:234|278:242|278:242|279:232|279:232|287:239|287:239|288:229|288:229|295:237|295:237|295:226|295:226|304:232|304:232|301:223|301:223|308:232|308:232|307:220|307:220|315:230|315:230|315:218|315:218|323:226|323:226|319:214|319:214|327:222|327:222|327:210|327:210|331:222|331:222|331:210|331:210|335:218|335:218|335:206|335:206|344:216|344:216|341:202|341:202|352:212|352:212|347:199|347:199|355:206|355:206|352:195|352:195|363:202|363:202|357:191|357:191|367:198|367:198|361:188|361:188|371:194|371:194|365:185|365:185|375:190|375:190|370:180|370:180|379:186|379:186|375:175|375:175|382:179|381:179|381:179|407:160|407:160|409:155|409:155,1,918.750012412665
172,88,217432,6,0,P|136:155|168:251,1,131.250001773238,4|0,0:2|0:2,0:2:0:0:
140,208,217705,2,0,P|220:184|272:208,1,131.250001773238,0|0,0:3|0:3,0:3:0:0:
262,200,217977,2,4,P|284:136|340:92,1,131.250001773238,4|4,0:3|0:3,0:3:0:0:
330,96,218250,2,0,P|388:168|404:216,1,131.250001773238
401,204,218523,2,0,B|400:240|400:240|340:284|340:284|336:320,1,131.250001773238
337,304,218795,2,2,B|292:300|292:300|268:284|268:284|264:296|264:296|260:284|260:284|256:296|256:296|252:284|252:284|248:296|248:296|244:284|244:284|240:296|240:296|236:284|236:284|232:296|232:296|228:284|228:284|224:296|224:296|220:284|220:284|216:296|216:296|212:284|212:284|208:296|208:296|180:284,1,281.250001117586
256,192,220341,12,0,221614,0:0:0:0:
256,192,221705,12,0,224523,0:0:0:0:
256,192,233250,12,0,238341,0:0:0:0:
104,80,239068,5,4,0:0:0:0:
96,288,239432,5,8,0:2:0:0:
128,268,239523,1,0,0:0:0:0:
156,240,239614,1,0,0:0:0:0:
176,208,239705,1,0,0:0:0:0:
188,172,239795,1,8,0:2:0:0:
188,136,239886,1,0,0:0:0:0:
184,100,239977,1,0,0:0:0:0:
204,68,240068,1,0,0:0:0:0:
240,80,240159,1,8,0:2:0:0:
276,76,240250,1,0,0:0:0:0:
312,64,240341,1,0,0:0:0:0:
348,52,240432,1,0,0:0:0:0:
384,48,240523,5,8,0:0:0:0:
420,48,240614,1,0,0:0:0:0:
456,60,240705,1,0,0:0:0:0:
472,92,240795,1,0,0:0:0:0:
472,128,240886,1,8,0:0:0:0:
456,164,240977,1,0,0:0:0:0:
440,196,241068,1,0,0:0:0:0:
456,228,241159,1,0,0:0:0:0:
460,264,241250,1,8,0:0:0:0:
424,260,241341,1,0,0:0:0:0:
388,248,241432,1,0,0:0:0:0:
352,236,241523,1,0,0:0:0:0:
316,228,241614,5,8,0:0:0:0:
280,224,241705,1,0,0:0:0:0:
244,224,241795,1,0,0:0:0:0:
208,224,241886,1,0,0:0:0:0:
188,256,241977,1,8,0:2:0:0:
184,292,242068,1,0,0:0:0:0:
156,320,242159,1,0,0:0:0:0:
120,312,242250,1,0,0:0:0:0:
96,284,242341,1,8,0:2:0:0:
80,252,242432,1,0,0:0:0:0:
72,216,242523,1,0,0:0:0:0:
68,180,242614,1,0,0:0:0:0:
68,144,242705,5,8,0:2:0:0:
72,108,242795,1,0,0:0:0:0:
96,80,242886,1,0,0:0:0:0:
128,64,242977,1,0,0:0:0:0:
164,64,243068,1,8,0:2:0:0:
200,72,243159,1,0,0:0:0:0:
200,108,243250,1,0,0:0:0:0:
192,144,243341,1,0,0:0:0:0:
204,180,243432,1,8,0:0:0:0:
236,200,243523,1,0,0:0:0:0:
252,232,243614,1,0,0:0:0:0:
276,260,243705,1,0,0:0:0:0:
312,248,243795,5,8,0:0:0:0:
328,212,243886,1,0,0:0:0:0:
324,176,243977,1,0,0:0:0:0:
308,140,244068,1,0,0:0:0:0:
292,108,244159,1,8,0:0:0:0:
296,72,244250,1,0,0:0:0:0:
328,56,244341,1,0,0:0:0:0:
364,52,244432,1,0,0:0:0:0:
396,68,244523,1,8,0:0:0:0:
424,92,244614,1,0,0:0:0:0:
440,124,244705,1,0,0:0:0:0:
444,160,244795,1,0,0:0:0:0:
428,192,244886,5,8,0:2:0:0:
396,208,244977,1,0,0:0:0:0:
360,216,245068,1,0,0:0:0:0:
323,222,245159,1,0,0:0:0:0:
288,216,245250,1,8,0:2:0:0:
252,232,245341,1,0,0:0:0:0:
216,240,245432,1,0,0:0:0:0:
180,248,245523,1,0,0:0:0:0:
148,268,245614,1,8,0:2:0:0:
120,292,245705,1,0,0:0:0:0:
88,272,245795,1,0,0:0:0:0:
64,244,245886,1,0,0:0:0:0:
48,208,245977,5,8,0:2:0:0:
48,172,246068,1,0,0:0:0:0:
64,136,246159,1,0,0:0:0:0:
92,108,246250,1,0,0:0:0:0:
112,76,246341,1,8,0:0:0:0:
144,52,246432,1,0,0:0:0:0:
180,44,246523,1,0,0:0:0:0:
216,40,246614,1,0,0:0:0:0:
252,44,246705,1,8,0:0:0:0:
276,72,246795,1,0,0:0:0:0:
288,108,246886,1,0,0:0:0:0:
296,144,246977,1,0,0:0:0:0:
328,160,247068,5,8,0:0:0:0:
356,132,247159,1,0,0:0:0:0:
372,100,247250,1,0,0:0:0:0:
392,68,247341,1,0,0:0:0:0:
424,84,247432,1,8,0:0:0:0:
448,112,247523,1,0,0:0:0:0:
464,148,247614,1,0,0:0:0:0:
476,184,247705,1,0,0:0:0:0:
472,220,247795,1,4,0:3:0:0:
88,248,247977,5,8,0:0:0:0:
88,248,248159,1,8,0:0:0:0:
192,64,248341,5,8,0:3:0:0:
192,64,248523,1,8,0:0:0:0:
352,308,248705,5,8,0:0:0:0:
352,308,248886,1,8,0:3:0:0:
424,60,249068,5,8,0:0:0:0:
424,60,249250,1,4,0:2:0:0:
68,132,249432,1,8,0:0:0:0:
68,132,249523,1,0,0:0:0:0:
68,132,249614,1,8,0:0:0:0:
436,200,249795,5,4,0:2:0:0:
164,320,249977,1,8,0:0:0:0:
164,320,250068,1,0,0:0:0:0:
164,320,250159,1,8,0:0:0:0:
260,144,250341,1,0,0:0:0:0:
260,144,250523,1,4,0:0:0:0:
360,304,250705,5,4,0:2:0:0:
364,228,250886,2,0,P|304:252|284:316,1,131.25000052154,0|10,0:0|0:0,0:0:0:0:
88,104,251250,1,8,0:2:0:0:
408,152,251432,2,0,B|384:96|388:96|388:96|328:68,1,112.500004738569
76,236,251795,2,0,B|132:208|172:236|172:236|232:272|292:224,1,225.000009477138,0|4,0:0|0:2,0:0:0:0:
368,328,252341,1,0,0:0:0:0:
168,64,252523,1,0,0:0:0:0:
452,52,252705,1,4,0:1:0:0:
72,168,252886,1,0,0:0:0:0:
283,311,253068,1,8,0:0:0:0:
283,311,253159,1,0,0:0:0:0:
283,311,253250,1,8,0:0:0:0:
304,80,253432,2,4,P|368:104|392:144,1,112.500004738569,0|4,0:0|0:2,0:0:0:0:
192,328,253795,5,4,0:0:0:0:
360,208,253977,1,0,0:0:0:0:
308,148,254159,1,4,0:0:0:0:
140,268,254341,1,0,0:0:0:0:
88,208,254523,1,4,0:0:0:0:
256,88,254705,1,0,0:0:0:0:
208,28,254886,1,4,0:1:0:0:
40,148,255068,1,4,0:2:0:0:
432,72,255250,5,2,0:2:0:0:
432,72,255341,1,0,0:0:0:0:
432,72,255432,1,8,0:0:0:0:
72,308,255614,1,8,0:0:0:0:
72,308,255705,1,0,0:0:0:0:
72,308,255795,1,8,0:0:0:0:
272,56,255977,1,8,0:0:0:0:
272,56,256068,1,0,0:0:0:0:
272,56,256159,1,8,0:0:0:0:
476,168,256341,2,0,B|448:228|448:228|400:244,1,112.500004738569,4|4,0:0|0:2,0:0:0:0:
52,128,256705,1,0,0:0:0:0:
164,336,256886,1,0,0:0:0:0:
376,60,257068,6,0,B|320:100|348:160|348:160|380:220|340:272,1,225.000009477138
56,288,257614,1,0,0:0:0:0:
116,96,257795,2,0,B|184:120|184:120|240:192|240:192|296:224,1,225.000009477138,4|0,0:2|0:2,0:2:0:0:
424,288,258341,1,0,0:0:0:0:
244,60,258523,5,8,0:0:0:0:
244,60,258614,1,0,0:0:0:0:
244,60,258705,1,8,0:0:0:0:
120,284,258886,1,0,0:2:0:0:
432,192,259068,1,8,0:0:0:0:
60,120,259250,1,0,0:2:0:0:
324,40,259432,6,0,P|340:124|376:156,1,112.500004738569,12|8,0:2|0:0,0:0:0:0:
88,180,259795,1,0,0:0:0:0:
388,284,259977,1,8,0:0:0:0:
388,284,260068,1,0,0:0:0:0:
388,284,260159,1,8,0:0:0:0:
304,44,260341,1,8,0:0:0:0:
304,44,260432,1,0,0:0:0:0:
304,44,260523,1,8,0:0:0:0:
172,208,260705,2,0,P|152:272|168:324,1,112.500004738569,4|4,0:1|0:2,0:0:0:0:
56,64,261068,5,0,0:0:0:0:
404,120,261250,1,0,0:0:0:0:
112,308,261432,5,8,0:2:0:0:
104,268,261523,1,0,0:0:0:0:
104,228,261614,1,8,0:2:0:0:
112,188,261705,1,0,0:0:0:0:
132,152,261795,1,8,0:2:0:0:
160,124,261886,1,0,0:0:0:0:
192,100,261977,1,8,0:2:0:0:
228,84,262068,1,0,0:0:0:0:
268,76,262159,1,8,0:0:0:0:
308,76,262250,1,0,0:0:0:0:
348,84,262341,1,4,0:2:0:0:
216,320,262523,5,8,0:0:0:0:
216,320,262614,1,0,0:0:0:0:
216,320,262705,1,8,0:0:0:0:
72,84,262886,2,0,P|144:128|184:180,1,112.500004738569,0|8,0:0|0:0,0:0:0:0:
424,288,263250,2,0,P|384:220|384:160,1,112.500004738569,0|8,0:0|0:0,0:0:0:0:
52,272,263614,1,0,0:0:0:0:
440,108,263795,1,4,0:0:0:0:
440,108,263886,1,4,0:2:0:0:
440,108,263977,1,0,0:0:0:0:
180,72,264159,6,0,P|208:128|216:184,1,112.500004738569
176,316,264523,1,0,0:0:0:0:
312,44,264705,1,0,0:0:0:0:
444,328,264886,1,0,0:0:0:0:
84,120,265068,2,8,P|72:184|104:240,1,112.500004738569,0|4,0:0|0:2,0:0:0:0:
384,80,265432,5,0,0:0:0:0:
384,296,265614,1,8,0:0:0:0:
128,80,265795,1,0,0:0:0:0:
128,296,265977,1,8,0:0:0:0:
360,256,266159,5,0,0:0:0:0:
144,256,266341,1,8,0:0:0:0:
360,40,266523,1,0,0:0:0:0:
144,40,266705,1,12,0:0:0:0:
180,52,266795,1,4,0:0:0:0:
212,76,266886,1,8,0:0:0:0:
264,304,267068,6,0,B|280:232|280:232|315:216,1,112.500004738569,0|8,0:0|0:0,0:0:0:0:
436,304,267432,6,0,B|420:232|420:232|384:216,1,112.500004738569,0|8,0:0|0:0,0:0:0:0:
60,228,267795,1,0,0:0:0:0:
396,136,267977,1,0,0:0:0:0:
144,40,268159,1,4,0:0:0:0:
88,304,268341,1,0,0:0:0:0:
328,56,268523,1,0,0:0:0:0:
224,192,268705,6,0,P|208:252|248:304,1,112.500004738569,4|0,0:3|0:0,0:0:0:0:
440,64,269250,1,0,0:0:0:0:
228,96,269432,6,0,P|160:68|112:84,1,112.500004738569,4|0,0:2|0:0,0:0:0:0:
384,60,269977,1,0,0:0:0:0:
412,272,270159,1,4,0:0:0:0:
412,272,270250,1,0,0:0:0:0:
412,272,270341,1,4,0:0:0:0:
64,80,270523,1,0,0:0:0:0:
280,312,270705,1,0,0:0:0:0:
320,44,270886,1,0,0:0:0:0:
80,224,271068,6,8,L|40:288,1,56.2500023692846,8|8,0:3|0:3,0:3:0:0:
144,324,271432,2,8,L|180:260,1,56.2500023692846,8|8,0:3|0:3,0:3:0:0:
360,120,271795,6,8,L|400:168,1,56.2500023692846,8|8,0:3|0:3,0:3:0:0:
480,100,272159,2,0,L|440:52,1,56.2500023692846,0|0,0:3|0:3,0:3:0:0:
216,60,272523,5,8,0:2:0:0:
180,68,272614,1,0,0:0:0:0:
144,80,272705,1,0,0:0:0:0:
112,96,272795,1,0,0:0:0:0:
84,120,272886,1,8,0:2:0:0:
72,156,272977,1,0,0:0:0:0:
84,192,273068,1,0,0:0:0:0:
108,220,273159,1,0,0:0:0:0:
140,236,273250,5,8,0:2:0:0:
176,240,273341,1,0,0:0:0:0:
212,232,273432,1,0,0:0:0:0:
248,220,273523,1,0,0:0:0:0:
296,236,273614,1,8,0:2:0:0:
348,244,273705,1,0,0:0:0:0:
396,232,273795,1,0,0:0:0:0:
432,196,273886,1,0,0:0:0:0:
452,148,273977,1,4,0:0:0:0:
388,72,274159,5,8,0:0:0:0:
388,72,274250,1,0,0:0:0:0:
388,72,274341,1,8,0:0:0:0:
80,120,274523,2,0,P|152:100|204:112,1,112.500004738569,4|0,0:0|0:0,0:0:0:0:
224,292,274886,1,8,0:0:0:0:
296,72,275068,2,0,P|328:128|396:148,1,112.500004738569,0|8,0:0|0:0,0:0:0:0:
340,320,275432,2,0,B|280:284|280:284|240:304,1,112.500004738569,4|8,0:2|0:0,0:0:0:0:
152,52,275795,1,0,0:0:0:0:
168,200,275977,2,0,P|152:264|164:312,1,112.500004738569
408,192,276341,1,8,0:0:0:0:
408,192,276432,1,0,0:0:0:0:
408,192,276523,1,8,0:0:0:0:
228,240,276705,6,0,P|240:172|280:132,1,112.500004738569
400,248,277068,1,0,0:0:0:0:
152,92,277250,2,0,P|120:160|128:240,1,112.500004738569
432,60,277614,1,0,0:0:0:0:
72,100,277795,1,0,0:0:0:0:
264,216,277977,2,0,B|288:256|288:256|268:276,2,56.2500023692846
112,304,278341,5,4,0:2:0:0:
112,304,278432,1,0,0:0:0:0:
112,304,278523,1,4,0:2:0:0:
344,156,278705,2,0,B|356:216|356:216|432:172,1,112.500004738569
120,44,279068,1,0,0:0:0:0:
232,320,279250,1,0,0:0:0:0:
48,184,279432,1,0,0:0:0:0:
404,64,279614,1,0,0:0:0:0:
404,64,279795,1,4,0:2:0:0:
400,288,279977,6,0,P|316:272|280:228,1,112.500004738569
96,104,280341,2,0,B|152:160|164:208|140:260|236:304,1,225.000009477138,4|0,0:3|0:0,0:0:0:0:
300,336,280886,5,0,0:0:0:0:
292,208,281068,2,0,B|244:152|268:108|268:108|224:48|168:116,1,225.000009477138,4|0,0:2|0:0,0:0:0:0:
412,272,281614,1,0,0:0:0:0:
172,288,281795,1,0,0:0:0:0:
96,136,281977,2,0,P|64:204|84:260,1,112.500004738569
70,237,282250,1,0,0:0:0:0:
70,237,282341,1,0,0:0:0:0:
336,92,282523,5,0,0:0:0:0:
336,92,282614,1,0,0:0:0:0:
336,92,282705,1,4,0:2:0:0:
152,76,282886,1,0,0:0:0:0:
260,240,283068,2,0,P|312:316|312:380,1,112.500004738569
52,148,283432,6,0,L|116:164,1,56.2500023692846
106,161,283614,1,0,0:0:0:0:
132,320,283795,1,0,0:0:0:0:
420,204,283977,6,0,L|400:152,1,56.2500023692846
399,151,284159,1,4,0:2:0:0:
240,64,284341,1,0,0:0:0:0:
240,64,284432,1,0,0:0:0:0:
240,64,284523,1,0,0:0:0:0:
56,224,284705,2,0,L|88:276,1,56.2500023692846
85,271,284886,1,0,0:0:0:0:
184,248,285068,1,0,0:0:0:0:
280,248,285250,1,0,0:0:0:0:
316,232,285341,1,0,0:0:0:0:
352,216,285432,1,0,0:0:0:0:
388,200,285523,1,0,0:0:0:0:
424,184,285614,5,4,0:2:0:0:
64,92,285795,1,0,0:0:0:0:
388,72,285977,2,0,P|336:120|272:112,1,112.500004738569
72,228,286341,2,0,L|124:184,1,56.2500023692846
114,191,286523,1,0,0:0:0:0:
444,304,286705,1,0,0:0:0:0:
444,304,286795,1,0,0:0:0:0:
444,304,286886,1,0,0:0:0:0:
232,48,287068,5,4,0:2:0:0:
224,216,287250,2,0,B|216:272|216:272|164:304,1,112.500004738569
52,48,287614,1,0,0:0:0:0:
280,332,287795,1,0,0:0:0:0:
196,120,287977,1,0,0:0:0:0:
132,316,288159,1,0,0:0:0:0:
376,104,288341,2,0,B|424:152|424:152|436:200,2,112.500004738569,0|4|0,0:0|0:2|0:0,0:0:0:0:
68,340,288886,6,0,P|52:280|96:256,1,112.500004738569
352,248,289250,2,0,L|424:340,1,112.500004738569
292,60,289614,1,0,0:0:0:0:
292,60,289705,1,0,0:0:0:0:
292,60,289795,1,0,0:0:0:0:
132,96,289977,5,4,0:2:0:0:
132,316,290159,1,0,0:0:0:0:
380,316,290341,1,0,0:0:0:0:
380,96,290523,1,0,0:0:0:0:
380,96,290705,5,0,0:0:0:0:
380,316,290886,1,0,0:0:0:0:
132,316,291068,1,0,0:0:0:0:
132,96,291250,1,0,0:0:0:0:
256,192,291432,1,4,0:2:0:0:
32,140,291614,2,0,P|56:204|20:252,1,112.500004738569
268,112,291977,6,0,P|336:160|336:208,1,112.500004738569
60,304,292523,5,0,0:0:0:0:
264,192,292705,2,0,P|360:264|412:160,1,225.000009477138
72,76,293250,5,0,0:0:0:0:
388,88,293432,1,0,0:0:0:0:
388,88,293523,1,0,0:0:0:0:
388,88,293614,1,0,0:0:0:0:
172,272,293795,2,0,P|108:236|108:160,1,112.500004738569
168,200,294159,1,0,0:0:0:0:
300,52,294341,5,4,0:0:0:0:
408,256,294523,1,0,0:0:0:0:
152,272,294705,1,4,0:0:0:0:
312,72,294886,2,0,P|368:116|380:172,1,112.500004738569
144,224,295250,1,0,0:0:0:0:
216,104,295432,1,4,0:0:0:0:
328,228,295614,1,0,0:0:0:0:
200,40,295795,5,4,0:0:0:0:
248,252,295977,1,0,0:0:0:0:
108,88,296159,2,0,B|104:128|104:128|124:168|124:168|120:204,1,112.500004738569
100,296,296523,5,8,0:2:0:0:
120,268,296614,1,0,0:0:0:0:
144,244,296705,1,8,0:2:0:0:
168,220,296795,1,0,0:0:0:0:
196,200,296886,1,8,0:2:0:0:
224,184,296977,1,0,0:0:0:0:
256,176,297068,1,8,0:2:0:0:
288,172,297159,1,0,0:0:0:0:
328,176,297250,1,4,0:0:0:0:
256,192,297432,12,4,300159,0:2:0:0:
400,204,300341,6,0,P|352:248|368:316,1,112.500004738569
428,280,300705,1,0,0:0:0:0:
428,280,300795,1,0,0:0:0:0:
428,280,300886,1,0,0:0:0:0:
308,100,301068,1,0,0:0:0:0:
308,220,301250,2,0,P|380:176|404:104,1,112.500004738569
84,192,301614,5,4,0:2:0:0:
84,192,301705,1,0,0:0:0:0:
84,192,301795,1,0,0:0:0:0:
208,52,301977,2,0,P|284:72|328:140,1,112.500004738569
360,344,302341,1,0,0:0:0:0:
48,56,302523,1,0,0:0:0:0:
84,320,302705,1,0,0:0:0:0:
336,192,303068,6,0,P|384:152|392:104,1,112.500004738569,4|0,0:0|0:0,0:0:0:0:
312,116,303432,1,0,0:0:0:0:
104,172,303614,2,0,B|132:196|132:196|128:232,2,56.2500023692846,0|0|8,0:0|0:0|0:0,0:0:0:0:
456,56,303977,1,0,0:0:0:0:
64,56,304159,1,0,0:0:0:0:
128,292,304341,1,0,0:0:0:0:
128,292,304523,1,4,0:0:0:0:
416,184,304705,2,0,P|432:272|400:324,1,112.500004738569
248,60,305068,5,8,0:0:0:0:
284,88,305159,1,0,0:0:0:0:
288,132,305250,1,8,0:0:0:0:
68,184,305432,1,0,0:0:0:0:
340,320,305614,1,0,0:0:0:0:
156,144,305977,5,4,0:2:0:0:
156,144,306068,1,0,0:0:0:0:
156,144,306159,1,4,0:3:0:0:
384,288,306341,5,4,0:2:0:0:
384,288,306432,1,0,0:0:0:0:
384,288,306523,1,4,0:3:0:0:
76,312,306705,5,4,0:2:0:0:
120,304,306795,1,0,0:0:0:0:
160,284,306886,1,4,0:3:0:0:
400,76,307068,5,4,0:2:0:0:
364,100,307159,1,0,0:0:0:0:
320,112,307250,1,4,0:3:0:0:
116,76,307432,5,8,0:0:0:0:
280,324,307977,1,0,0:0:0:0:
440,188,308523,1,0,0:0:0:0:
80,240,308886,5,4,0:2:0:0:
80,240,308977,1,0,0:0:0:0:
80,240,309068,1,4,0:3:0:0:
368,72,309250,5,4,0:2:0:0:
368,72,309341,1,0,0:0:0:0:
368,72,309432,1,4,0:3:0:0:
112,72,309614,5,4,0:2:0:0:
112,72,309705,1,0,0:0:0:0:
112,72,309795,1,4,0:3:0:0:
256,288,309977,5,4,0:2:0:0:
256,288,310068,1,0,0:0:0:0:
256,288,310159,1,4,0:3:0:0:
120,64,310341,5,0,0:0:0:0:
380,324,310523,1,8,0:0:0:0:
48,312,310705,1,0,0:0:0:0:
408,48,310886,1,12,0:2:0:0:
256,192,311068,12,2,311705,0:2:0:0:
