osu file format v14

[General]
AudioFilename: Almagest.mp3
AudioLeadIn: 0
PreviewTime: -1
Countdown: 0
SampleSet: None
StackLeniency: 0.7
Mode: 3
LetterboxInBreaks: 0
SpecialStyle: 1
WidescreenStoryboard: 1

[Editor]
DistanceSpacing: 0.9
BeatDivisor: 4
GridSize: 16
TimelineZoom: 1.2

[Metadata]
Title:Beatmania IIDX Pack vol.1
TitleUnicode:Beatmania IIDX Pack vol.1
Artist:Various Artists
ArtistUnicode:Various Artists
Creator:DE-CADE
Version:7K Hyper (Galdeira - Almagest)
Source:beatmania IIDX
Tags:Humanoid Tatsh TOMOSUKE Galdeira Amuro Killer DJ YOSHITAKA dj Taka seiryu mei 3y3s MENDES Xepher Almagest
BeatmapID:664838
BeatmapSetID:296008

[Difficulty]
HPDrainRate:7
CircleSize:7
OverallDifficulty:7
ApproachRate:5
SliderMultiplier:1.4
SliderTickRate:1

[Events]
//Background and Video events
0,0,"BG.jpg",0,0
//Break Periods
//Storyboard Layer 0 (Background)
//Storyboard Layer 1 (Fail)
//Storyboard Layer 2 (Pass)
//Storyboard Layer 3 (Foreground)
//Storyboard Sound Samples

[TimingPoints]
3182,337.078651685393,4,2,0,20,1,0

[HitObjects]
329,192,3185,5,0,0:0:0:0:
32,192,3185,1,0,0:0:0:0:
480,192,3185,1,0,0:0:0:0:
160,192,3266,1,0,0:0:0:0:
329,192,3350,1,0,0:0:0:0:
109,192,3434,1,0,0:0:0:0:
402,192,3519,1,0,0:0:0:0:
329,192,3603,1,0,0:0:0:0:
256,192,3687,1,0,0:0:0:0:
182,192,3771,1,0,0:0:0:0:
329,192,3856,1,0,0:0:0:0:
182,192,3940,1,0,0:0:0:0:
36,192,4024,1,0,0:0:0:0:
256,192,4108,1,0,0:0:0:0:
352,192,4193,1,0,0:0:0:0:
402,192,4277,1,0,0:0:0:0:
475,192,4361,1,0,0:0:0:0:
329,192,4446,1,0,0:0:0:0:
182,192,4530,1,0,0:0:0:0:
329,192,4614,1,0,0:0:0:0:
109,192,4698,1,0,0:0:0:0:
402,192,4783,1,0,0:0:0:0:
182,192,4867,1,0,0:0:0:0:
329,192,4951,1,0,0:0:0:0:
256,192,5035,1,0,0:0:0:0:
402,192,5120,1,0,0:0:0:0:
109,192,5204,1,0,0:0:0:0:
182,192,5288,1,0,0:0:0:0:
256,192,5373,1,0,0:0:0:0:
329,192,5457,1,0,0:0:0:0:
182,192,5541,1,0,0:0:0:0:
256,192,5625,1,0,0:0:0:0:
329,192,5710,1,0,0:0:0:0:
402,192,5794,1,0,0:0:0:0:
36,191,5878,1,0,0:0:0:0:
182,192,5962,1,0,0:0:0:0:
329,192,6047,1,0,0:0:0:0:
402,192,6131,1,0,0:0:0:0:
329,192,6215,1,0,0:0:0:0:
182,192,6299,1,0,0:0:0:0:
329,192,6384,1,0,0:0:0:0:
109,192,6468,1,0,0:0:0:0:
329,192,6552,1,0,0:0:0:0:
402,192,6637,1,0,0:0:0:0:
475,192,6721,1,0,0:0:0:0:
256,192,6805,1,0,0:0:0:0:
182,192,6889,1,0,0:0:0:0:
109,192,6974,1,0,0:0:0:0:
36,192,7058,1,0,0:0:0:0:
256,192,7142,1,0,0:0:0:0:
329,192,7226,1,0,0:0:0:0:
402,192,7311,1,0,0:0:0:0:
182,192,7395,1,0,0:0:0:0:
329,192,7479,1,0,0:0:0:0:
475,192,7564,1,0,0:0:0:0:
402,192,7648,1,0,0:0:0:0:
329,192,7732,1,0,0:0:0:0:
182,192,7816,1,0,0:0:0:0:
36,192,7901,1,0,0:0:0:0:
109,192,7985,1,0,0:0:0:0:
182,192,8069,1,0,0:0:0:0:
256,192,8153,1,0,0:0:0:0:
182,192,8238,1,0,0:0:0:0:
256,192,8322,1,0,0:0:0:0:
329,192,8406,1,0,0:0:0:0:
402,192,8490,1,0,0:0:0:0:
36,192,8575,1,0,0:0:0:0:
329,192,8575,1,0,0:0:0:0:
182,192,8659,1,0,0:0:0:0:
329,192,8743,1,0,0:0:0:0:
109,192,8828,1,0,0:0:0:0:
402,192,8912,1,0,0:0:0:0:
329,192,8996,1,0,0:0:0:0:
256,192,9080,1,0,0:0:0:0:
182,192,9165,1,0,0:0:0:0:
329,192,9249,1,0,0:0:0:0:
182,192,9333,1,0,0:0:0:0:
36,192,9417,1,0,0:0:0:0:
256,192,9502,1,0,0:0:0:0:
329,192,9586,1,0,0:0:0:0:
402,192,9670,1,0,0:0:0:0:
475,192,9755,1,0,0:0:0:0:
329,192,9839,1,0,0:0:0:0:
182,192,9923,1,0,0:0:0:0:
329,192,10007,1,0,0:0:0:0:
109,192,10092,1,0,0:0:0:0:
402,192,10176,1,0,0:0:0:0:
182,192,10260,1,0,0:0:0:0:
329,192,10344,1,0,0:0:0:0:
256,192,10429,1,0,0:0:0:0:
402,192,10513,1,0,0:0:0:0:
109,192,10597,1,0,0:0:0:0:
182,188,10681,1,0,0:0:0:0:
256,192,10766,1,0,0:0:0:0:
329,192,10850,1,0,0:0:0:0:
182,192,10934,1,0,0:0:0:0:
256,192,11019,1,0,0:0:0:0:
329,192,11103,1,0,0:0:0:0:
402,191,11187,1,0,0:0:0:0:
36,191,11271,1,0,0:0:0:0:
182,191,11356,1,0,0:0:0:0:
329,191,11440,1,0,0:0:0:0:
182,192,11524,1,0,0:0:0:0:
256,192,11608,1,0,0:0:0:0:
329,192,11693,1,0,0:0:0:0:
182,192,11777,1,0,0:0:0:0:
36,192,11861,1,0,0:0:0:0:
109,192,11946,1,0,0:0:0:0:
182,192,12030,1,0,0:0:0:0:
402,192,12114,1,0,0:0:0:0:
109,192,12198,1,0,0:0:0:0:
352,192,12283,1,0,0:0:0:0:
288,192,12367,1,0,0:0:0:0:
160,192,12451,1,0,0:0:0:0:
96,192,12535,1,0,0:0:0:0:
182,192,12620,1,0,0:0:0:0:
480,192,12620,1,0,0:0:0:0:
402,192,12704,1,0,0:0:0:0:
329,192,12788,1,0,0:0:0:0:
256,192,12873,1,0,0:0:0:0:
182,192,12957,1,0,0:0:0:0:
36,192,13041,1,0,0:0:0:0:
256,192,13125,1,0,0:0:0:0:
109,192,13210,1,0,0:0:0:0:
36,192,13294,1,0,0:0:0:0:
329,192,13294,1,0,0:0:0:0:
475,192,13378,1,0,0:0:0:0:
402,192,13462,1,0,0:0:0:0:
329,192,13547,1,0,0:0:0:0:
109,192,13631,1,0,0:0:0:0:
32,192,13631,1,0,0:0:0:0:
182,192,13715,1,0,0:0:0:0:
288,192,13799,1,0,0:0:0:0:
329,192,13884,1,0,0:0:0:0:
160,192,13968,1,0,0:0:0:0:
32,192,13968,1,0,0:0:0:0:
288,192,14052,1,0,0:0:0:0:
329,192,14137,1,0,0:0:0:0:
402,192,14221,1,0,0:0:0:0:
256,192,14305,1,0,0:0:0:0:
182,192,14389,1,0,0:0:0:0:
109,192,14474,1,0,0:0:0:0:
182,192,14558,1,0,0:0:0:0:
329,192,14642,1,0,0:0:0:0:
402,192,14726,1,0,0:0:0:0:
329,192,14811,1,0,0:0:0:0:
256,192,14895,1,0,0:0:0:0:
182,192,14979,1,0,0:0:0:0:
96,192,15064,1,0,0:0:0:0:
256,192,15148,1,0,0:0:0:0:
402,192,15232,1,0,0:0:0:0:
329,192,15316,1,0,0:0:0:0:
256,192,15401,1,0,0:0:0:0:
182,192,15485,1,0,0:0:0:0:
352,192,15569,1,0,0:0:0:0:
475,192,15653,1,0,0:0:0:0:
402,192,15738,1,0,0:0:0:0:
329,192,15822,1,0,0:0:0:0:
256,192,15906,1,0,0:0:0:0:
32,192,15990,1,0,0:0:0:0:
182,192,15990,1,0,0:0:0:0:
329,192,16075,1,0,0:0:0:0:
475,192,16075,1,0,0:0:0:0:
32,192,16243,1,0,0:0:0:0:
256,192,16243,1,0,0:0:0:0:
32,192,16412,1,0,0:0:0:0:
329,192,16412,1,0,0:0:0:0:
32,192,16665,1,0,0:0:0:0:
96,192,16665,1,0,0:0:0:0:
256,192,16665,1,0,0:0:0:0:
475,192,16665,1,0,0:0:0:0:
182,192,16665,1,0,0:0:0:0:
329,192,16833,1,0,0:0:0:0:
32,192,17002,1,0,0:0:0:0:
160,192,17002,1,0,0:0:0:0:
329,192,17170,1,0,0:0:0:0:
109,192,17339,1,0,0:0:0:0:
329,192,17507,1,0,0:0:0:0:
32,192,17676,1,0,0:0:0:0:
160,192,17676,1,0,0:0:0:0:
329,192,17844,1,0,0:0:0:0:
256,192,18013,1,0,0:0:0:0:
109,192,18013,1,0,0:0:0:0:
402,192,18181,1,0,0:0:0:0:
32,192,18350,1,0,0:0:0:0:
160,192,18350,1,0,0:0:0:0:
402,192,18519,1,0,0:0:0:0:
109,192,18687,1,0,0:0:0:0:
402,192,18856,1,0,0:0:0:0:
32,192,19024,1,0,0:0:0:0:
160,192,19024,1,0,0:0:0:0:
256,192,19108,1,0,0:0:0:0:
329,192,19193,1,0,0:0:0:0:
402,192,19277,1,0,0:0:0:0:
329,192,19361,1,0,0:0:0:0:
109,192,19361,1,0,0:0:0:0:
475,192,19530,1,0,0:0:0:0:
32,192,19698,1,0,0:0:0:0:
160,192,19698,1,0,0:0:0:0:
475,192,19867,1,0,0:0:0:0:
109,192,20035,1,0,0:0:0:0:
475,192,20204,1,0,0:0:0:0:
32,192,20373,1,0,0:0:0:0:
160,192,20373,1,0,0:0:0:0:
475,192,20541,1,0,0:0:0:0:
109,192,20710,1,0,0:0:0:0:
352,192,20710,1,0,0:0:0:0:
288,192,20878,1,0,0:0:0:0:
32,192,21047,1,0,0:0:0:0:
402,192,21047,1,0,0:0:0:0:
329,192,21131,1,0,0:0:0:0:
475,192,21215,1,0,0:0:0:0:
288,192,21215,1,0,0:0:0:0:
182,192,21299,1,0,0:0:0:0:
109,192,21384,1,0,0:0:0:0:
182,192,21552,1,0,0:0:0:0:
32,192,21721,1,0,0:0:0:0:
329,192,21721,1,0,0:0:0:0:
256,192,21805,1,0,0:0:0:0:
32,192,21889,1,0,0:0:0:0:
182,192,21889,1,0,0:0:0:0:
329,192,21974,1,0,0:0:0:0:
256,192,22058,1,0,0:0:0:0:
36,192,22058,1,0,0:0:0:0:
475,192,22058,1,0,0:0:0:0:
182,192,22226,1,0,0:0:0:0:
475,192,22395,1,0,0:0:0:0:
329,192,22395,1,0,0:0:0:0:
182,192,22564,1,0,0:0:0:0:
402,192,22732,1,0,0:0:0:0:
182,192,22901,1,0,0:0:0:0:
475,192,23069,1,0,0:0:0:0:
329,192,23069,1,0,0:0:0:0:
182,192,23238,1,0,0:0:0:0:
256,192,23406,1,0,0:0:0:0:
475,192,23406,1,0,0:0:0:0:
109,192,23575,1,0,0:0:0:0:
475,192,23743,1,0,0:0:0:0:
329,192,23743,1,0,0:0:0:0:
109,192,23912,1,0,0:0:0:0:
402,192,24080,1,0,0:0:0:0:
109,192,24249,1,0,0:0:0:0:
475,192,24417,1,0,0:0:0:0:
329,192,24417,1,0,0:0:0:0:
256,192,24502,1,0,0:0:0:0:
182,192,24586,1,0,0:0:0:0:
109,192,24670,1,0,0:0:0:0:
352,192,24755,1,0,0:0:0:0:
182,192,24755,1,0,0:0:0:0:
36,192,24923,1,0,0:0:0:0:
329,192,25092,1,0,0:0:0:0:
475,192,25092,1,0,0:0:0:0:
36,192,25260,1,0,0:0:0:0:
402,192,25429,1,0,0:0:0:0:
36,192,25597,1,0,0:0:0:0:
329,192,25766,1,0,0:0:0:0:
475,192,25766,1,0,0:0:0:0:
182,192,25934,1,0,0:0:0:0:
288,192,25934,1,0,0:0:0:0:
109,192,26103,1,0,0:0:0:0:
402,192,26103,1,0,0:0:0:0:
32,192,26271,1,0,0:0:0:0:
402,192,26271,1,0,0:0:0:0:
32,192,26608,1,0,0:0:0:0:
329,192,26608,1,0,0:0:0:0:
288,192,26608,1,0,0:0:0:0:
109,192,26777,1,0,0:0:0:0:
182,192,26861,1,0,0:0:0:0:
475,192,26946,1,0,0:0:0:0:
256,192,26946,1,0,0:0:0:0:
182,192,27114,1,0,0:0:0:0:
36,192,27114,1,0,0:0:0:0:
329,192,27198,1,0,0:0:0:0:
256,192,27283,1,0,0:0:0:0:
36,192,27283,1,0,0:0:0:0:
109,192,27283,1,0,0:0:0:0:
182,192,27367,1,0,0:0:0:0:
36,192,27451,1,0,0:0:0:0:
256,192,27451,1,0,0:0:0:0:
475,192,27451,1,0,0:0:0:0:
329,192,27451,1,0,0:0:0:0:
109,192,27620,1,0,0:0:0:0:
182,192,27704,1,0,0:0:0:0:
256,192,27788,1,0,0:0:0:0:
329,192,27873,1,0,0:0:0:0:
182,192,27957,1,0,0:0:0:0:
256,192,28041,1,0,0:0:0:0:
329,192,28125,1,0,0:0:0:0:
402,192,28210,1,0,0:0:0:0:
256,192,28294,1,0,0:0:0:0:
109,192,28378,1,0,0:0:0:0:
329,192,28462,1,0,0:0:0:0:
182,192,28547,1,0,0:0:0:0:
402,192,28631,1,0,0:0:0:0:
256,192,28715,1,0,0:0:0:0:
182,192,28799,1,0,0:0:0:0:
475,192,28799,1,0,0:0:0:0:
109,192,28968,1,0,0:0:0:0:
182,192,29052,1,0,0:0:0:0:
288,192,29137,1,0,0:0:0:0:
352,192,29221,1,0,0:0:0:0:
182,192,29305,1,0,0:0:0:0:
256,192,29389,1,0,0:0:0:0:
329,192,29474,1,0,0:0:0:0:
402,192,29558,1,0,0:0:0:0:
288,192,29642,1,0,0:0:0:0:
96,192,29726,1,0,0:0:0:0:
329,192,29811,1,0,0:0:0:0:
182,192,29895,1,0,0:0:0:0:
402,192,29979,1,0,0:0:0:0:
256,192,30064,1,0,0:0:0:0:
329,192,30148,1,0,0:0:0:0:
475,192,30148,1,0,0:0:0:0:
36,192,30316,1,0,0:0:0:0:
109,192,30401,1,0,0:0:0:0:
182,192,30485,1,0,0:0:0:0:
256,192,30569,1,0,0:0:0:0:
109,192,30653,1,0,0:0:0:0:
182,192,30738,1,0,0:0:0:0:
256,192,30822,1,0,0:0:0:0:
329,192,30906,1,0,0:0:0:0:
182,192,30990,1,0,0:0:0:0:
36,192,31075,1,0,0:0:0:0:
256,192,31159,1,0,0:0:0:0:
109,192,31243,1,0,0:0:0:0:
475,192,31328,1,0,0:0:0:0:
329,192,31328,1,0,0:0:0:0:
182,192,31412,1,0,0:0:0:0:
256,192,31496,1,0,0:0:0:0:
36,192,31496,1,0,0:0:0:0:
475,192,31665,1,0,0:0:0:0:
329,192,31665,1,0,0:0:0:0:
109,192,31749,1,0,0:0:0:0:
160,192,31833,1,0,0:0:0:0:
256,192,31917,1,0,0:0:0:0:
352,192,32002,1,0,0:0:0:0:
475,192,32002,1,0,0:0:0:0:
256,192,32086,1,0,0:0:0:0:
182,192,32170,1,0,0:0:0:0:
329,192,32255,1,0,0:0:0:0:
182,192,32339,1,0,0:0:0:0:
329,192,32423,1,0,0:0:0:0:
480,192,32507,1,0,0:0:0:0:
329,192,32592,1,0,0:0:0:0:
402,192,32676,1,0,0:0:0:0:
256,192,32760,1,0,0:0:0:0:
32,192,32844,1,0,0:0:0:0:
475,191,32844,1,0,0:0:0:0:
182,192,32844,1,0,0:0:0:0:
96,192,33013,1,0,0:0:0:0:
160,192,33097,1,0,0:0:0:0:
288,192,33181,1,0,0:0:0:0:
352,192,33266,1,0,0:0:0:0:
182,192,33350,1,0,0:0:0:0:
256,192,33434,1,0,0:0:0:0:
329,192,33519,1,0,0:0:0:0:
402,192,33603,1,0,0:0:0:0:
475,192,33687,1,0,0:0:0:0:
329,192,33771,1,0,0:0:0:0:
182,192,33856,1,0,0:0:0:0:
402,192,33940,1,0,0:0:0:0:
256,192,34024,1,0,0:0:0:0:
109,192,34108,1,0,0:0:0:0:
352,192,34193,1,0,0:0:0:0:
32,192,34193,1,0,0:0:0:0:
475,192,34193,1,0,0:0:0:0:
109,192,34361,1,0,0:0:0:0:
160,192,34446,1,0,0:0:0:0:
256,192,34530,1,0,0:0:0:0:
329,192,34614,1,0,0:0:0:0:
182,192,34698,1,0,0:0:0:0:
256,192,34783,1,0,0:0:0:0:
329,192,34867,1,0,0:0:0:0:
402,192,34951,1,0,0:0:0:0:
256,192,35035,1,0,0:0:0:0:
109,192,35120,1,0,0:0:0:0:
329,192,35204,1,0,0:0:0:0:
160,192,35288,1,0,0:0:0:0:
402,192,35373,1,0,0:0:0:0:
256,192,35457,1,0,0:0:0:0:
182,192,35541,1,0,0:0:0:0:
32,192,35541,1,0,0:0:0:0:
416,192,35541,1,0,0:0:0:0:
329,192,35710,1,0,0:0:0:0:
256,192,35794,1,0,0:0:0:0:
182,192,35878,1,0,0:0:0:0:
109,192,35962,1,0,0:0:0:0:
182,192,36047,1,0,0:0:0:0:
256,192,36131,1,0,0:0:0:0:
475,192,36215,1,0,0:0:0:0:
329,192,36215,1,0,0:0:0:0:
182,192,36299,1,0,0:0:0:0:
475,192,36384,1,0,0:0:0:0:
36,192,36384,1,0,0:0:0:0:
109,192,36468,1,0,0:0:0:0:
182,192,36552,1,0,0:0:0:0:
256,192,36637,1,0,0:0:0:0:
329,192,36721,1,0,0:0:0:0:
109,192,36721,1,0,0:0:0:0:
182,192,36805,1,0,0:0:0:0:
475,192,36889,1,0,0:0:0:0:
256,192,36889,1,0,0:0:0:0:
182,192,37058,1,0,0:0:0:0:
256,192,37142,1,0,0:0:0:0:
329,192,37226,1,0,0:0:0:0:
402,192,37311,1,0,0:0:0:0:
475,192,37395,1,0,0:0:0:0:
329,192,37479,1,0,0:0:0:0:
32,192,37564,1,0,0:0:0:0:
182,192,37564,1,0,0:0:0:0:
256,192,37648,1,0,0:0:0:0:
329,192,37732,1,0,0:0:0:0:
182,192,37816,1,0,0:0:0:0:
109,192,37901,1,0,0:0:0:0:
36,192,37985,1,0,0:0:0:0:
109,192,38069,1,0,0:0:0:0:
182,192,38153,1,0,0:0:0:0:
256,192,38238,128,0,39165:0:0:0:0:
256,192,39249,1,0,0:0:0:0:
32,192,39586,1,0,0:0:0:0:
288,192,39586,1,0,0:0:0:0:
475,192,39586,1,0,0:0:0:0:
416,192,39586,1,0,0:0:0:0:
182,192,39586,1,0,0:0:0:0:
288,192,39755,1,0,0:0:0:0:
416,192,39755,1,0,0:0:0:0:
32,192,39923,1,0,0:0:0:0:
160,192,39923,1,0,0:0:0:0:
352,192,40176,1,0,0:0:0:0:
109,192,40260,1,0,0:0:0:0:
352,192,40513,1,0,0:0:0:0:
32,192,40597,1,0,0:0:0:0:
160,192,40597,1,0,0:0:0:0:
256,192,40934,1,0,0:0:0:0:
109,192,41103,1,0,0:0:0:0:
402,192,41271,1,0,0:0:0:0:
256,192,41356,1,0,0:0:0:0:
352,192,41440,1,0,0:0:0:0:
160,192,41524,1,0,0:0:0:0:
256,192,41608,1,0,0:0:0:0:
109,192,41693,1,0,0:0:0:0:
256,192,41777,1,0,0:0:0:0:
109,192,41861,1,0,0:0:0:0:
475,192,41946,1,0,0:0:0:0:
329,192,41946,1,0,0:0:0:0:
32,192,42283,1,0,0:0:0:0:
288,192,42283,1,0,0:0:0:0:
416,192,42283,1,0,0:0:0:0:
182,192,42283,1,0,0:0:0:0:
288,192,42451,1,0,0:0:0:0:
416,192,42451,1,0,0:0:0:0:
32,192,42620,1,0,0:0:0:0:
160,192,42620,1,0,0:0:0:0:
109,192,42957,1,0,0:0:0:0:
352,192,43041,1,0,0:0:0:0:
32,192,43294,1,0,0:0:0:0:
160,192,43294,1,0,0:0:0:0:
256,192,43462,1,0,0:0:0:0:
416,192,43631,1,0,0:0:0:0:
256,192,43799,1,0,0:0:0:0:
329,192,43968,1,0,0:0:0:0:
182,192,44137,1,0,0:0:0:0:
109,192,44305,1,0,0:0:0:0:
182,192,44389,1,0,0:0:0:0:
256,192,44474,1,0,0:0:0:0:
329,192,44558,1,0,0:0:0:0:
402,192,44642,1,0,0:0:0:0:
256,192,44726,1,0,0:0:0:0:
182,192,44811,1,0,0:0:0:0:
352,192,44895,1,0,0:0:0:0:
32,192,44979,1,0,0:0:0:0:
288,192,44979,1,0,0:0:0:0:
475,192,44979,1,0,0:0:0:0:
416,192,44979,1,0,0:0:0:0:
182,192,44979,1,0,0:0:0:0:
288,192,45148,1,0,0:0:0:0:
416,192,45148,1,0,0:0:0:0:
32,192,45316,1,0,0:0:0:0:
160,192,45316,1,0,0:0:0:0:
352,192,45569,1,0,0:0:0:0:
109,192,45653,1,0,0:0:0:0:
352,192,45906,1,0,0:0:0:0:
32,192,45990,1,0,0:0:0:0:
160,192,45990,1,0,0:0:0:0:
96,192,46328,1,0,0:0:0:0:
182,192,46412,1,0,0:0:0:0:
256,192,46496,1,0,0:0:0:0:
329,192,46580,1,0,0:0:0:0:
109,192,46665,1,0,0:0:0:0:
256,192,46833,1,0,0:0:0:0:
402,192,47002,1,0,0:0:0:0:
109,192,47170,1,0,0:0:0:0:
256,192,47255,1,0,0:0:0:0:
36,192,47339,1,0,0:0:0:0:
182,192,47423,1,0,0:0:0:0:
329,192,47507,1,0,0:0:0:0:
160,192,47676,1,0,0:0:0:0:
32,192,47676,1,0,0:0:0:0:
480,192,47676,1,0,0:0:0:0:
256,192,48013,1,0,0:0:0:0:
96,192,48181,1,0,0:0:0:0:
182,192,48350,1,0,0:0:0:0:
36,192,48434,1,0,0:0:0:0:
109,192,48519,1,0,0:0:0:0:
182,192,48603,1,0,0:0:0:0:
256,192,48687,1,0,0:0:0:0:
475,192,48771,1,0,0:0:0:0:
402,192,48856,1,0,0:0:0:0:
329,192,48940,1,0,0:0:0:0:
256,192,49024,128,0,49951:0:0:0:0:
256,192,50035,1,0,0:0:0:0:
32,192,50373,1,0,0:0:0:0:
288,192,50373,1,0,0:0:0:0:
96,192,50373,1,0,0:0:0:0:
416,192,50373,1,0,0:0:0:0:
480,192,50373,1,0,0:0:0:0:
288,192,50541,1,0,0:0:0:0:
416,192,50541,1,0,0:0:0:0:
32,192,50710,1,0,0:0:0:0:
160,192,50710,1,0,0:0:0:0:
329,192,50794,1,0,0:0:0:0:
256,192,50878,1,0,0:0:0:0:
160,192,50962,1,0,0:0:0:0:
109,192,51047,1,0,0:0:0:0:
475,192,51047,1,0,0:0:0:0:
402,192,51131,1,0,0:0:0:0:
329,192,51215,1,0,0:0:0:0:
256,192,51299,1,0,0:0:0:0:
109,192,51384,1,0,0:0:0:0:
182,192,51468,1,0,0:0:0:0:
329,192,51552,1,0,0:0:0:0:
256,192,51637,1,0,0:0:0:0:
182,192,51721,1,0,0:0:0:0:
109,192,51805,1,0,0:0:0:0:
182,192,51889,1,0,0:0:0:0:
329,192,51974,1,0,0:0:0:0:
32,192,52058,1,0,0:0:0:0:
402,192,52058,1,0,0:0:0:0:
329,192,52142,1,0,0:0:0:0:
256,192,52226,1,0,0:0:0:0:
182,192,52311,1,0,0:0:0:0:
256,192,52395,1,0,0:0:0:0:
329,192,52479,1,0,0:0:0:0:
402,192,52564,1,0,0:0:0:0:
329,192,52648,1,0,0:0:0:0:
109,192,52732,1,0,0:0:0:0:
256,192,52732,1,0,0:0:0:0:
36,192,52816,1,0,0:0:0:0:
109,192,52901,1,0,0:0:0:0:
182,192,52985,1,0,0:0:0:0:
32,192,53069,1,0,0:0:0:0:
288,192,53069,1,0,0:0:0:0:
416,192,53069,1,0,0:0:0:0:
480,192,53069,1,0,0:0:0:0:
288,192,53238,1,0,0:0:0:0:
416,192,53238,1,0,0:0:0:0:
32,192,53406,1,0,0:0:0:0:
160,192,53406,1,0,0:0:0:0:
329,192,53490,1,0,0:0:0:0:
256,192,53575,1,0,0:0:0:0:
160,192,53659,1,0,0:0:0:0:
109,192,53743,1,0,0:0:0:0:
475,192,53743,1,0,0:0:0:0:
402,192,53828,1,0,0:0:0:0:
329,192,53912,1,0,0:0:0:0:
256,192,53996,1,0,0:0:0:0:
109,192,54080,1,0,0:0:0:0:
160,192,54165,1,0,0:0:0:0:
475,192,54249,1,0,0:0:0:0:
329,192,54249,1,0,0:0:0:0:
256,192,54333,1,0,0:0:0:0:
182,192,54417,1,0,0:0:0:0:
109,192,54502,1,0,0:0:0:0:
329,192,54670,1,0,0:0:0:0:
402,192,54755,1,0,0:0:0:0:
352,192,54839,1,0,0:0:0:0:
256,192,54923,1,0,0:0:0:0:
182,192,55007,1,0,0:0:0:0:
256,192,55092,1,0,0:0:0:0:
32,192,55092,1,0,0:0:0:0:
329,192,55176,1,0,0:0:0:0:
402,192,55260,1,0,0:0:0:0:
32,192,55260,1,0,0:0:0:0:
329,192,55344,1,0,0:0:0:0:
256,192,55429,1,0,0:0:0:0:
109,192,55429,1,0,0:0:0:0:
182,192,55513,1,0,0:0:0:0:
329,192,55597,1,0,0:0:0:0:
109,192,55597,1,0,0:0:0:0:
182,192,55681,1,0,0:0:0:0:
109,192,55766,1,0,0:0:0:0:
288,192,55766,1,0,0:0:0:0:
32,192,55766,1,0,0:0:0:0:
416,192,55766,1,0,0:0:0:0:
480,192,55766,1,0,0:0:0:0:
288,192,55934,1,0,0:0:0:0:
416,192,55934,1,0,0:0:0:0:
32,192,56103,1,0,0:0:0:0:
160,192,56103,1,0,0:0:0:0:
256,192,56187,1,0,0:0:0:0:
329,192,56271,1,0,0:0:0:0:
402,192,56356,1,0,0:0:0:0:
32,192,56440,1,0,0:0:0:0:
329,192,56440,1,0,0:0:0:0:
182,192,56524,1,0,0:0:0:0:
329,192,56608,1,0,0:0:0:0:
182,192,56693,1,0,0:0:0:0:
32,192,56777,1,0,0:0:0:0:
160,192,56861,1,0,0:0:0:0:
329,192,56946,1,0,0:0:0:0:
480,192,57030,1,0,0:0:0:0:
109,192,57114,1,0,0:0:0:0:
256,192,57114,1,0,0:0:0:0:
402,192,57114,1,0,0:0:0:0:
329,192,57198,1,0,0:0:0:0:
182,192,57367,1,0,0:0:0:0:
109,192,57451,1,0,0:0:0:0:
480,192,57451,1,0,0:0:0:0:
352,192,57535,1,0,0:0:0:0:
160,192,57620,1,0,0:0:0:0:
416,192,57704,1,0,0:0:0:0:
32,192,57788,1,0,0:0:0:0:
352,192,57788,1,0,0:0:0:0:
288,192,57873,1,0,0:0:0:0:
160,192,57957,1,0,0:0:0:0:
96,192,58041,1,0,0:0:0:0:
32,192,58125,1,0,0:0:0:0:
352,192,58125,1,0,0:0:0:0:
288,192,58210,1,0,0:0:0:0:
160,192,58294,1,0,0:0:0:0:
96,192,58378,1,0,0:0:0:0:
32,192,58462,1,0,0:0:0:0:
416,192,58462,1,0,0:0:0:0:
480,192,58462,1,0,0:0:0:0:
288,192,58547,1,0,0:0:0:0:
416,192,58631,1,0,0:0:0:0:
288,192,58715,1,0,0:0:0:0:
32,192,58799,1,0,0:0:0:0:
402,192,58799,1,0,0:0:0:0:
182,192,58884,1,0,0:0:0:0:
329,192,58968,1,0,0:0:0:0:
182,192,59052,1,0,0:0:0:0:
96,192,59137,1,0,0:0:0:0:
402,192,59137,1,0,0:0:0:0:
160,192,59221,1,0,0:0:0:0:
288,192,59305,1,0,0:0:0:0:
352,192,59389,1,0,0:0:0:0:
32,192,59474,1,0,0:0:0:0:
480,192,59474,1,0,0:0:0:0:
416,192,59558,1,0,0:0:0:0:
36,192,59642,1,0,0:0:0:0:
352,192,59642,1,0,0:0:0:0:
288,192,59726,1,0,0:0:0:0:
402,192,59811,1,0,0:0:0:0:
329,192,59867,1,0,0:0:0:0:
256,192,59923,1,0,0:0:0:0:
160,192,59979,1,0,0:0:0:0:
402,192,60035,1,0,0:0:0:0:
329,192,60092,1,0,0:0:0:0:
256,192,60148,1,0,0:0:0:0:
480,192,60204,1,0,0:0:0:0:
416,192,60260,1,0,0:0:0:0:
352,192,60316,1,0,0:0:0:0:
256,192,60373,1,0,0:0:0:0:
182,192,60429,1,0,0:0:0:0:
109,192,60485,1,0,0:0:0:0:
182,192,60569,1,0,0:0:0:0:
256,192,60653,1,0,0:0:0:0:
329,192,60738,1,0,0:0:0:0:
109,192,60822,1,0,0:0:0:0:
182,192,60906,1,0,0:0:0:0:
256,192,60990,1,0,0:0:0:0:
36,192,60990,1,0,0:0:0:0:
329,192,61075,1,0,0:0:0:0:
36,192,61159,1,0,0:0:0:0:
402,192,61159,1,0,0:0:0:0:
416,192,61328,1,0,0:0:0:0:
256,192,61412,1,0,0:0:0:0:
329,192,61496,1,0,0:0:0:0:
182,192,61580,1,0,0:0:0:0:
109,192,61665,1,0,0:0:0:0:
256,192,61749,1,0,0:0:0:0:
329,192,61833,1,0,0:0:0:0:
352,192,62170,1,0,0:0:0:0:
182,192,62255,1,0,0:0:0:0:
256,192,62339,1,0,0:0:0:0:
96,192,62423,1,0,0:0:0:0:
32,192,62507,1,0,0:0:0:0:
480,192,62507,1,0,0:0:0:0:
416,192,62592,1,0,0:0:0:0:
352,192,62676,1,0,0:0:0:0:
288,192,62760,1,0,0:0:0:0:
160,192,62844,1,0,0:0:0:0:
96,192,62929,1,0,0:0:0:0:
32,192,63013,1,0,0:0:0:0:
182,192,63097,1,0,0:0:0:0:
36,192,63181,1,0,0:0:0:0:
480,192,63181,1,0,0:0:0:0:
416,192,63238,1,0,0:0:0:0:
352,192,63294,1,0,0:0:0:0:
288,192,63350,1,0,0:0:0:0:
160,192,63406,1,0,0:0:0:0:
96,192,63462,1,0,0:0:0:0:
32,192,63519,1,0,0:0:0:0:
402,192,63519,1,0,0:0:0:0:
329,192,63575,1,0,0:0:0:0:
256,192,63631,1,0,0:0:0:0:
182,192,63687,1,0,0:0:0:0:
109,192,63743,1,0,0:0:0:0:
36,192,63799,1,0,0:0:0:0:
109,192,63856,1,0,0:0:0:0:
256,192,63856,1,0,0:0:0:0:
475,192,63856,128,0,65204:0:0:0:0:
329,192,63940,1,0,0:0:0:0:
402,192,64024,1,0,0:0:0:0:
182,192,64108,1,0,0:0:0:0:
36,192,64193,1,0,0:0:0:0:
109,192,64277,1,0,0:0:0:0:
182,192,64361,1,0,0:0:0:0:
329,192,64446,1,0,0:0:0:0:
109,192,64530,1,0,0:0:0:0:
182,192,64614,1,0,0:0:0:0:
256,192,64698,1,0,0:0:0:0:
329,192,64783,1,0,0:0:0:0:
256,192,64867,1,0,0:0:0:0:
36,192,64951,1,0,0:0:0:0:
109,192,65035,1,0,0:0:0:0:
182,192,65120,1,0,0:0:0:0:
256,192,65204,1,0,0:0:0:0:
329,192,65204,128,0,66552:0:0:0:0:
109,192,65288,1,0,0:0:0:0:
182,192,65373,1,0,0:0:0:0:
109,192,65457,1,0,0:0:0:0:
36,192,65541,1,0,0:0:0:0:
109,192,65625,1,0,0:0:0:0:
182,192,65710,1,0,0:0:0:0:
256,192,65794,1,0,0:0:0:0:
475,192,65878,1,0,0:0:0:0:
402,192,65962,1,0,0:0:0:0:
256,192,66047,1,0,0:0:0:0:
36,192,66131,1,0,0:0:0:0:
182,192,66215,1,0,0:0:0:0:
109,192,66299,1,0,0:0:0:0:
36,192,66384,1,0,0:0:0:0:
109,192,66468,1,0,0:0:0:0:
256,192,66552,1,0,0:0:0:0:
182,192,66552,128,0,67901:0:0:0:0:
329,192,66637,1,0,0:0:0:0:
402,192,66721,1,0,0:0:0:0:
475,192,66805,1,0,0:0:0:0:
402,192,66889,1,0,0:0:0:0:
329,192,66974,1,0,0:0:0:0:
402,192,67058,1,0,0:0:0:0:
329,192,67142,1,0,0:0:0:0:
256,192,67226,1,0,0:0:0:0:
36,192,67311,1,0,0:0:0:0:
109,192,67395,1,0,0:0:0:0:
256,192,67479,1,0,0:0:0:0:
329,192,67564,1,0,0:0:0:0:
402,192,67648,1,0,0:0:0:0:
475,192,67732,1,0,0:0:0:0:
402,192,67816,1,0,0:0:0:0:
329,192,67901,1,0,0:0:0:0:
36,189,67901,128,0,68575:0:0:0:0:
256,192,67985,1,0,0:0:0:0:
402,192,68069,1,0,0:0:0:0:
182,192,68153,1,0,0:0:0:0:
256,192,68238,1,0,0:0:0:0:
329,192,68322,1,0,0:0:0:0:
402,192,68406,1,0,0:0:0:0:
475,192,68490,1,0,0:0:0:0:
329,192,68575,1,0,0:0:0:0:
256,192,68575,128,0,69249:0:0:0:0:
402,192,68659,1,0,0:0:0:0:
329,192,68743,1,0,0:0:0:0:
182,192,68828,1,0,0:0:0:0:
109,192,68912,1,0,0:0:0:0:
36,192,68996,1,0,0:0:0:0:
109,192,69080,1,0,0:0:0:0:
182,192,69165,1,0,0:0:0:0:
32,192,69249,1,0,0:0:0:0:
480,192,69249,1,0,0:0:0:0:
416,192,69249,128,0,70597:0:0:0:0:
96,192,69333,1,0,0:0:0:0:
160,192,69417,1,0,0:0:0:0:
288,192,69502,1,0,0:0:0:0:
182,192,69670,1,0,0:0:0:0:
256,192,69755,1,0,0:0:0:0:
329,192,69839,1,0,0:0:0:0:
32,192,69923,1,0,0:0:0:0:
96,192,70007,1,0,0:0:0:0:
160,192,70092,1,0,0:0:0:0:
288,192,70176,1,0,0:0:0:0:
109,192,70260,1,0,0:0:0:0:
36,192,70344,1,0,0:0:0:0:
160,192,70429,1,0,0:0:0:0:
329,192,70513,1,0,0:0:0:0:
288,192,70597,1,0,0:0:0:0:
109,192,70597,128,0,71946:0:0:0:0:
352,192,70681,1,0,0:0:0:0:
402,192,70766,1,0,0:0:0:0:
475,192,70850,1,0,0:0:0:0:
182,192,70934,1,0,0:0:0:0:
288,192,71019,1,0,0:0:0:0:
329,192,71103,1,0,0:0:0:0:
402,192,71187,1,0,0:0:0:0:
288,192,71271,1,0,0:0:0:0:
329,192,71356,1,0,0:0:0:0:
182,192,71440,1,0,0:0:0:0:
256,192,71524,1,0,0:0:0:0:
402,192,71608,1,0,0:0:0:0:
329,192,71693,1,0,0:0:0:0:
182,192,71777,1,0,0:0:0:0:
329,192,71861,1,0,0:0:0:0:
256,192,71946,1,0,0:0:0:0:
416,192,71946,128,0,73294:0:0:0:0:
182,192,72030,1,0,0:0:0:0:
109,192,72114,1,0,0:0:0:0:
36,192,72198,1,0,0:0:0:0:
96,192,72283,1,0,0:0:0:0:
160,192,72367,1,0,0:0:0:0:
288,192,72451,1,0,0:0:0:0:
352,192,72535,1,0,0:0:0:0:
36,192,72620,1,0,0:0:0:0:
160,192,72704,1,0,0:0:0:0:
96,192,72788,1,0,0:0:0:0:
160,192,72873,1,0,0:0:0:0:
288,192,72957,1,0,0:0:0:0:
36,192,73041,1,0,0:0:0:0:
96,192,73125,1,0,0:0:0:0:
182,192,73210,1,0,0:0:0:0:
256,192,73294,1,0,0:0:0:0:
36,192,73294,1,0,0:0:0:0:
329,192,73378,1,0,0:0:0:0:
160,192,73462,1,0,0:0:0:0:
32,192,73462,1,0,0:0:0:0:
256,192,73547,1,0,0:0:0:0:
329,192,73631,1,0,0:0:0:0:
402,192,73715,1,0,0:0:0:0:
36,192,73799,1,0,0:0:0:0:
256,192,73799,1,0,0:0:0:0:
109,192,73884,1,0,0:0:0:0:
160,192,73968,1,0,0:0:0:0:
256,192,74052,1,0,0:0:0:0:
329,192,74137,1,0,0:0:0:0:
32,192,74137,1,0,0:0:0:0:
402,192,74221,1,0,0:0:0:0:
475,192,74305,1,0,0:0:0:0:
402,192,74389,1,0,0:0:0:0:
109,192,74474,1,0,0:0:0:0:
329,192,74474,1,0,0:0:0:0:
256,192,74558,1,0,0:0:0:0:
160,192,74642,1,0,0:0:0:0:
32,192,74642,128,0,75990:0:0:0:0:
288,192,74726,1,0,0:0:0:0:
352,192,74811,1,0,0:0:0:0:
416,192,74895,1,0,0:0:0:0:
329,192,75064,1,0,0:0:0:0:
256,192,75148,1,0,0:0:0:0:
182,192,75232,1,0,0:0:0:0:
256,192,75316,1,0,0:0:0:0:
329,192,75401,1,0,0:0:0:0:
402,192,75485,1,0,0:0:0:0:
475,192,75569,1,0,0:0:0:0:
182,192,75653,1,0,0:0:0:0:
256,192,75738,1,0,0:0:0:0:
329,192,75822,1,0,0:0:0:0:
256,192,75906,1,0,0:0:0:0:
475,192,75990,128,0,77339:0:0:0:0:
109,192,76075,1,0,0:0:0:0:
182,192,76159,1,0,0:0:0:0:
256,192,76243,1,0,0:0:0:0:
329,192,76328,1,0,0:0:0:0:
182,192,76412,1,0,0:0:0:0:
109,192,76496,1,0,0:0:0:0:
36,192,76580,1,0,0:0:0:0:
256,192,76665,1,0,0:0:0:0:
182,192,76749,1,0,0:0:0:0:
109,192,76833,1,0,0:0:0:0:
329,192,77002,1,0,0:0:0:0:
402,192,77086,1,0,0:0:0:0:
329,192,77170,1,0,0:0:0:0:
256,192,77255,1,0,0:0:0:0:
36,192,77339,1,0,0:0:0:0:
160,192,77339,128,0,78687:0:0:0:0:
109,192,77423,1,0,0:0:0:0:
256,192,77507,1,0,0:0:0:0:
329,192,77592,1,0,0:0:0:0:
402,192,77676,1,0,0:0:0:0:
329,192,77760,1,0,0:0:0:0:
402,192,77844,1,0,0:0:0:0:
475,192,77929,1,0,0:0:0:0:
402,192,78013,1,0,0:0:0:0:
329,192,78097,1,0,0:0:0:0:
256,192,78181,1,0,0:0:0:0:
109,192,78266,1,0,0:0:0:0:
256,192,78350,1,0,0:0:0:0:
416,192,78434,1,0,0:0:0:0:
352,192,78519,1,0,0:0:0:0:
288,192,78603,1,0,0:0:0:0:
475,192,78687,128,0,79361:0:0:0:0:
109,192,78771,1,0,0:0:0:0:
182,192,78856,1,0,0:0:0:0:
256,192,78940,1,0,0:0:0:0:
329,192,79024,1,0,0:0:0:0:
256,192,79108,1,0,0:0:0:0:
182,192,79193,1,0,0:0:0:0:
109,192,79277,1,0,0:0:0:0:
402,192,79361,1,0,0:0:0:0:
32,192,79361,128,0,80035:0:0:0:0:
329,192,79446,1,0,0:0:0:0:
256,192,79530,1,0,0:0:0:0:
182,192,79614,1,0,0:0:0:0:
256,192,79698,1,0,0:0:0:0:
475,192,79783,1,0,0:0:0:0:
402,192,79867,1,0,0:0:0:0:
329,192,79951,1,0,0:0:0:0:
160,192,80035,1,0,0:0:0:0:
256,192,80035,128,0,81384:0:0:0:0:
329,192,80120,1,0,0:0:0:0:
402,192,80204,1,0,0:0:0:0:
475,192,80288,1,0,0:0:0:0:
402,192,80457,1,0,0:0:0:0:
329,192,80541,1,0,0:0:0:0:
182,192,80625,1,0,0:0:0:0:
109,192,80710,1,0,0:0:0:0:
329,192,80794,1,0,0:0:0:0:
182,192,80878,1,0,0:0:0:0:
109,192,80962,1,0,0:0:0:0:
36,192,81047,1,0,0:0:0:0:
109,192,81131,1,0,0:0:0:0:
182,192,81215,1,0,0:0:0:0:
329,192,81299,1,0,0:0:0:0:
329,192,81468,1,0,0:0:0:0:
256,192,81552,1,0,0:0:0:0:
182,192,81637,1,0,0:0:0:0:
109,192,81721,1,0,0:0:0:0:
256,192,81805,1,0,0:0:0:0:
182,192,81889,1,0,0:0:0:0:
109,192,81974,1,0,0:0:0:0:
329,192,82058,1,0,0:0:0:0:
256,192,82142,1,0,0:0:0:0:
182,192,82226,1,0,0:0:0:0:
256,192,82395,1,0,0:0:0:0:
109,192,82479,1,0,0:0:0:0:
329,192,82564,1,0,0:0:0:0:
182,192,82648,1,0,0:0:0:0:
402,192,82732,1,0,0:0:0:0:
96,192,82732,128,0,84080:0:0:0:0:
182,192,82816,1,0,0:0:0:0:
256,192,82901,1,0,0:0:0:0:
329,192,82985,1,0,0:0:0:0:
402,192,83069,1,0,0:0:0:0:
182,192,83153,1,0,0:0:0:0:
256,192,83238,1,0,0:0:0:0:
329,192,83322,1,0,0:0:0:0:
402,192,83406,1,0,0:0:0:0:
475,192,83490,1,0,0:0:0:0:
402,192,83575,1,0,0:0:0:0:
329,192,83659,1,0,0:0:0:0:
475,192,83743,1,0,0:0:0:0:
402,192,83828,1,0,0:0:0:0:
329,192,83912,1,0,0:0:0:0:
256,192,83996,1,0,0:0:0:0:
480,192,84080,1,0,0:0:0:0:
416,192,84165,1,0,0:0:0:0:
352,192,84249,1,0,0:0:0:0:
288,192,84333,1,0,0:0:0:0:
329,192,84417,1,0,0:0:0:0:
256,192,84502,1,0,0:0:0:0:
182,192,84586,1,0,0:0:0:0:
96,192,84670,1,0,0:0:0:0:
480,192,84755,1,0,0:0:0:0:
416,192,84811,1,0,0:0:0:0:
352,192,84867,1,0,0:0:0:0:
288,192,84923,1,0,0:0:0:0:
160,192,84979,1,0,0:0:0:0:
96,192,85035,1,0,0:0:0:0:
416,192,85092,1,0,0:0:0:0:
352,192,85148,1,0,0:0:0:0:
288,192,85204,1,0,0:0:0:0:
160,192,85260,1,0,0:0:0:0:
96,192,85316,1,0,0:0:0:0:
32,192,85373,1,0,0:0:0:0:
160,192,85429,1,0,0:0:0:0:
352,192,85429,1,0,0:0:0:0:
480,192,85429,1,0,0:0:0:0:
96,192,85597,1,0,0:0:0:0:
288,192,85681,1,0,0:0:0:0:
416,192,85766,1,0,0:0:0:0:
160,192,85850,1,0,0:0:0:0:
96,192,85934,1,0,0:0:0:0:
32,192,86019,1,0,0:0:0:0:
160,192,86103,1,0,0:0:0:0:
480,192,86187,1,0,0:0:0:0:
352,192,86271,1,0,0:0:0:0:
32,192,86356,1,0,0:0:0:0:
96,192,86440,1,0,0:0:0:0:
288,192,86440,1,0,0:0:0:0:
416,192,86524,1,0,0:0:0:0:
160,192,86608,1,0,0:0:0:0:
96,192,86693,1,0,0:0:0:0:
32,192,86777,1,0,0:0:0:0:
288,192,86861,1,0,0:0:0:0:
96,192,87030,1,0,0:0:0:0:
352,192,87114,1,0,0:0:0:0:
480,192,87114,1,0,0:0:0:0:
288,192,87198,1,0,0:0:0:0:
160,192,87283,1,0,0:0:0:0:
96,192,87367,1,0,0:0:0:0:
32,192,87451,1,0,0:0:0:0:
416,192,87535,1,0,0:0:0:0:
288,192,87620,1,0,0:0:0:0:
96,192,87704,1,0,0:0:0:0:
160,192,87788,1,0,0:0:0:0:
352,192,87788,1,0,0:0:0:0:
32,192,87788,1,0,0:0:0:0:
475,192,87873,1,0,0:0:0:0:
329,192,87957,1,0,0:0:0:0:
182,192,88041,1,0,0:0:0:0:
256,192,88125,1,0,0:0:0:0:
475,192,88125,1,0,0:0:0:0:
36,192,88294,1,0,0:0:0:0:
182,192,88378,1,0,0:0:0:0:
475,192,88462,1,0,0:0:0:0:
329,192,88462,1,0,0:0:0:0:
256,192,88547,1,0,0:0:0:0:
109,192,88631,1,0,0:0:0:0:
182,192,88715,1,0,0:0:0:0:
288,192,88799,1,0,0:0:0:0:
352,192,88884,1,0,0:0:0:0:
160,192,88968,1,0,0:0:0:0:
96,192,89052,1,0,0:0:0:0:
288,192,89137,1,0,0:0:0:0:
416,192,89137,1,0,0:0:0:0:
352,192,89221,1,0,0:0:0:0:
160,192,89305,1,0,0:0:0:0:
96,192,89389,1,0,0:0:0:0:
32,192,89474,1,0,0:0:0:0:
329,192,89558,1,0,0:0:0:0:
160,192,89726,1,0,0:0:0:0:
352,192,89811,1,0,0:0:0:0:
480,192,89811,1,0,0:0:0:0:
288,192,89895,1,0,0:0:0:0:
160,192,89979,1,0,0:0:0:0:
96,192,90064,1,0,0:0:0:0:
32,192,90148,1,0,0:0:0:0:
256,192,90232,1,0,0:0:0:0:
329,192,90316,1,0,0:0:0:0:
402,192,90401,1,0,0:0:0:0:
182,192,90485,1,0,0:0:0:0:
329,192,90485,1,0,0:0:0:0:
109,192,90569,1,0,0:0:0:0:
256,192,90653,1,0,0:0:0:0:
402,192,90738,1,0,0:0:0:0:
32,192,90822,1,0,0:0:0:0:
160,192,90906,1,0,0:0:0:0:
96,192,90990,1,0,0:0:0:0:
160,192,91075,1,0,0:0:0:0:
352,192,91159,1,0,0:0:0:0:
416,192,91159,1,0,0:0:0:0:
160,192,91243,1,0,0:0:0:0:
96,192,91328,1,0,0:0:0:0:
32,192,91412,1,0,0:0:0:0:
160,192,91496,1,0,0:0:0:0:
352,192,91580,1,0,0:0:0:0:
480,192,91665,1,0,0:0:0:0:
416,192,91749,1,0,0:0:0:0:
288,192,91833,1,0,0:0:0:0:
352,192,91833,1,0,0:0:0:0:
160,192,91917,1,0,0:0:0:0:
96,192,92002,1,0,0:0:0:0:
32,192,92086,1,0,0:0:0:0:
160,192,92170,1,0,0:0:0:0:
288,192,92255,1,0,0:0:0:0:
352,192,92339,1,0,0:0:0:0:
416,192,92423,1,0,0:0:0:0:
352,192,92507,1,0,0:0:0:0:
182,192,92507,1,0,0:0:0:0:
96,192,92592,1,0,0:0:0:0:
288,192,92676,1,0,0:0:0:0:
416,192,92760,1,0,0:0:0:0:
32,192,92844,1,0,0:0:0:0:
182,192,92929,1,0,0:0:0:0:
256,192,93013,1,0,0:0:0:0:
109,192,93097,1,0,0:0:0:0:
352,192,93181,1,0,0:0:0:0:
182,192,93181,1,0,0:0:0:0:
475,192,93266,1,0,0:0:0:0:
402,192,93350,1,0,0:0:0:0:
329,192,93434,1,0,0:0:0:0:
160,192,93603,1,0,0:0:0:0:
36,192,93687,1,0,0:0:0:0:
160,192,93771,1,0,0:0:0:0:
352,192,93856,1,0,0:0:0:0:
480,192,93856,1,0,0:0:0:0:
288,192,93940,1,0,0:0:0:0:
160,192,94024,1,0,0:0:0:0:
32,192,94108,1,0,0:0:0:0:
96,192,94193,1,0,0:0:0:0:
288,192,94277,1,0,0:0:0:0:
475,192,94361,1,0,0:0:0:0:
352,192,94446,1,0,0:0:0:0:
402,192,94530,1,0,0:0:0:0:
36,192,94530,1,0,0:0:0:0:
256,192,94614,1,0,0:0:0:0:
182,192,94698,1,0,0:0:0:0:
109,192,94783,1,0,0:0:0:0:
36,192,94867,1,0,0:0:0:0:
96,192,94951,1,0,0:0:0:0:
288,192,95035,1,0,0:0:0:0:
416,192,95120,1,0,0:0:0:0:
109,192,95204,1,0,0:0:0:0:
352,192,95204,1,0,0:0:0:0:
256,192,95288,1,0,0:0:0:0:
160,192,95373,1,0,0:0:0:0:
288,192,95457,1,0,0:0:0:0:
329,192,95541,1,0,0:0:0:0:
480,192,95625,1,0,0:0:0:0:
416,192,95710,1,0,0:0:0:0:
352,192,95794,1,0,0:0:0:0:
32,192,95878,1,0,0:0:0:0:
288,192,95878,1,0,0:0:0:0:
160,192,95962,1,0,0:0:0:0:
352,192,96047,1,0,0:0:0:0:
416,192,96131,1,0,0:0:0:0:
96,192,96215,1,0,0:0:0:0:
32,192,96215,1,0,0:0:0:0:
480,192,96215,1,0,0:0:0:0:
288,192,96299,1,0,0:0:0:0:
416,192,96384,1,0,0:0:0:0:
