osu file format v14

[General]
AudioFilename: 3y3s.mp3
AudioLeadIn: 0
PreviewTime: 98083
Countdown: 0
SampleSet: Soft
StackLeniency: 0.7
Mode: 3
LetterboxInBreaks: 0
SpecialStyle: 0
WidescreenStoryboard: 1

[Editor]
DistanceSpacing: 0.9
BeatDivisor: 4
GridSize: 8
TimelineZoom: 1.8

[Metadata]
Title:Beatmania IIDX Pack vol.1
TitleUnicode:Beatmania IIDX Pack vol.1
Artist:Various Artists
ArtistUnicode:Various Artists
Creator:DE-CADE
Version:4K Another (Seiryu - 3y3s)
Source:beatmania IIDX
Tags:Humanoid Tatsh TOMOSUKE Galdeira Amuro Killer DJ YOSHITAKA dj Taka seiryu mei 3y3s MENDES Xepher Almagest
BeatmapID:664831
BeatmapSetID:296008

[Difficulty]
HPDrainRate:7
CircleSize:4
OverallDifficulty:7
ApproachRate:5
SliderMultiplier:1.4
SliderTickRate:1

[Events]
//Background and Video events
0,0,"BG.jpg",0,0
//Break Periods
//Storyboard Layer 0 (Background)
//Storyboard Layer 1 (Fail)
//Storyboard Layer 2 (Pass)
//Storyboard Layer 3 (Foreground)
//Storyboard Sound Samples

[TimingPoints]
78,314.119679597927,4,2,1,5,1,0
69341,-100,4,2,1,5,0,0
69498,-200,4,2,1,5,0,0
69576,-50,4,2,1,5,0,0
69655,-100,4,2,1,5,0,0
98083,-100,4,2,1,5,0,1
116930,-125,4,2,1,5,0,1
118186,-100,4,2,1,5,0,0

[HitObjects]
64,192,3847,5,0,0:0:0:0:
192,192,4004,1,0,0:0:0:0:
320,192,4161,1,0,0:0:0:0:
64,192,4318,1,0,0:0:0:0:
64,192,4632,1,0,0:0:0:0:
192,192,4789,1,0,0:0:0:0:
320,192,4946,1,0,0:0:0:0:
64,192,5103,1,0,0:0:0:0:
448,192,5418,1,0,0:0:0:0:
192,192,5418,1,0,0:0:0:0:
320,192,5732,1,0,0:0:0:0:
64,192,5732,1,0,0:0:0:0:
448,192,6046,1,0,0:0:0:0:
192,192,6046,1,0,0:0:0:0:
448,192,6360,1,0,0:0:0:0:
320,192,6517,1,0,0:0:0:0:
192,192,6674,1,0,0:0:0:0:
448,192,6831,1,0,0:0:0:0:
448,192,7145,1,0,0:0:0:0:
320,192,7302,1,0,0:0:0:0:
192,192,7459,1,0,0:0:0:0:
448,192,7616,1,0,0:0:0:0:
64,192,7930,1,0,0:0:0:0:
320,192,7930,1,0,0:0:0:0:
192,192,8245,1,0,0:0:0:0:
448,192,8245,1,0,0:0:0:0:
320,192,8559,1,0,0:0:0:0:
448,192,8716,1,0,0:0:0:0:
64,192,8716,1,0,0:0:0:0:
192,192,9030,1,0,0:0:0:0:
320,192,9187,1,0,0:0:0:0:
192,192,9344,1,0,0:0:0:0:
64,192,9658,1,0,0:0:0:0:
320,192,9658,1,0,0:0:0:0:
192,192,9815,1,0,0:0:0:0:
320,192,9972,1,0,0:0:0:0:
448,192,10129,1,0,0:0:0:0:
448,192,10443,1,0,0:0:0:0:
192,192,10443,1,0,0:0:0:0:
320,192,10758,1,0,0:0:0:0:
64,192,10758,1,0,0:0:0:0:
448,192,11072,1,0,0:0:0:0:
64,192,11229,1,0,0:0:0:0:
448,192,11229,1,0,0:0:0:0:
320,192,11857,1,0,0:0:0:0:
320,192,12014,1,0,0:0:0:0:
192,192,12485,1,0,0:0:0:0:
192,192,12642,1,0,0:0:0:0:
192,192,13428,1,0,0:0:0:0:
320,192,13585,1,0,0:0:0:0:
64,192,13742,1,0,0:0:0:0:
64,192,15155,1,0,0:0:0:0:
448,192,15155,1,0,0:0:0:0:
320,192,15234,1,0,0:0:0:0:
192,192,15312,1,0,0:0:0:0:
64,192,15391,1,0,0:0:0:0:
320,192,15469,1,0,0:0:0:0:
448,192,15548,1,0,0:0:0:0:
320,192,15626,1,0,0:0:0:0:
192,192,15705,1,0,0:0:0:0:
448,192,15783,1,0,0:0:0:0:
320,192,15862,1,0,0:0:0:0:
192,192,15941,1,0,0:0:0:0:
64,192,16019,1,0,0:0:0:0:
192,192,16098,1,0,0:0:0:0:
320,192,16176,1,0,0:0:0:0:
448,192,16255,1,0,0:0:0:0:
320,192,16333,1,0,0:0:0:0:
64,192,16412,1,0,0:0:0:0:
192,192,16490,1,0,0:0:0:0:
320,192,16569,1,0,0:0:0:0:
448,192,16647,1,0,0:0:0:0:
192,192,16726,1,0,0:0:0:0:
64,192,16804,1,0,0:0:0:0:
192,192,16883,1,0,0:0:0:0:
320,192,16961,1,0,0:0:0:0:
64,192,17040,1,0,0:0:0:0:
192,192,17118,1,0,0:0:0:0:
320,192,17197,1,0,0:0:0:0:
448,192,17276,1,0,0:0:0:0:
320,192,17354,1,0,0:0:0:0:
192,192,17433,1,0,0:0:0:0:
64,192,17511,1,0,0:0:0:0:
192,192,17590,1,0,0:0:0:0:
448,192,17668,1,0,0:0:0:0:
320,192,17747,1,0,0:0:0:0:
192,192,17825,1,0,0:0:0:0:
64,192,17904,1,0,0:0:0:0:
320,192,17982,1,0,0:0:0:0:
448,192,18061,1,0,0:0:0:0:
320,192,18139,1,0,0:0:0:0:
192,192,18218,1,0,0:0:0:0:
448,192,18296,1,0,0:0:0:0:
320,192,18375,1,0,0:0:0:0:
192,192,18454,1,0,0:0:0:0:
64,192,18532,1,0,0:0:0:0:
192,192,18611,1,0,0:0:0:0:
320,192,18689,1,0,0:0:0:0:
448,192,18768,1,0,0:0:0:0:
320,192,18846,1,0,0:0:0:0:
64,192,18925,1,0,0:0:0:0:
192,192,19003,1,0,0:0:0:0:
320,192,19082,1,0,0:0:0:0:
448,192,19160,1,0,0:0:0:0:
192,192,19239,1,0,0:0:0:0:
64,192,19317,1,0,0:0:0:0:
192,192,19396,1,0,0:0:0:0:
320,192,19474,1,0,0:0:0:0:
64,192,19553,1,0,0:0:0:0:
192,192,19631,1,0,0:0:0:0:
320,192,19710,1,0,0:0:0:0:
448,192,19789,1,0,0:0:0:0:
320,192,19867,1,0,0:0:0:0:
192,192,19946,1,0,0:0:0:0:
64,192,20024,1,0,0:0:0:0:
192,192,20103,1,0,0:0:0:0:
64,192,20181,1,0,0:0:0:0:
448,192,20181,1,0,0:0:0:0:
320,192,20260,1,0,0:0:0:0:
192,192,20338,1,0,0:0:0:0:
64,192,20417,1,0,0:0:0:0:
192,192,20495,1,0,0:0:0:0:
320,192,20495,1,0,0:0:0:0:
448,192,20574,1,0,0:0:0:0:
320,192,20652,1,0,0:0:0:0:
192,192,20731,1,0,0:0:0:0:
64,192,20809,1,0,0:0:0:0:
448,192,20809,1,0,0:0:0:0:
320,192,20888,1,0,0:0:0:0:
192,192,20966,1,0,0:0:0:0:
320,192,21045,1,0,0:0:0:0:
192,192,21124,1,0,0:0:0:0:
448,192,21124,1,0,0:0:0:0:
64,192,21202,1,0,0:0:0:0:
192,192,21281,1,0,0:0:0:0:
320,192,21359,1,0,0:0:0:0:
64,192,21438,1,0,0:0:0:0:
448,192,21438,1,0,0:0:0:0:
192,192,21516,1,0,0:0:0:0:
320,192,21595,1,0,0:0:0:0:
448,192,21673,1,0,0:0:0:0:
320,192,21752,1,0,0:0:0:0:
192,192,21752,1,0,0:0:0:0:
64,192,21830,1,0,0:0:0:0:
192,192,21909,1,0,0:0:0:0:
320,192,21987,1,0,0:0:0:0:
448,192,22066,1,0,0:0:0:0:
64,192,22066,1,0,0:0:0:0:
320,192,22144,1,0,0:0:0:0:
192,192,22223,1,0,0:0:0:0:
320,192,22301,1,0,0:0:0:0:
448,192,22380,1,0,0:0:0:0:
192,192,22380,1,0,0:0:0:0:
64,192,22459,1,0,0:0:0:0:
192,192,22537,1,0,0:0:0:0:
320,192,22616,1,0,0:0:0:0:
64,192,22694,1,0,0:0:0:0:
448,192,22694,1,0,0:0:0:0:
320,192,22773,1,0,0:0:0:0:
192,192,22851,1,0,0:0:0:0:
64,192,22930,1,0,0:0:0:0:
320,192,23008,1,0,0:0:0:0:
192,192,23008,1,0,0:0:0:0:
448,192,23087,1,0,0:0:0:0:
320,192,23165,1,0,0:0:0:0:
192,192,23244,1,0,0:0:0:0:
448,192,23322,1,0,0:0:0:0:
64,192,23322,1,0,0:0:0:0:
320,192,23401,1,0,0:0:0:0:
192,192,23479,1,0,0:0:0:0:
320,192,23558,1,0,0:0:0:0:
192,192,23636,1,0,0:0:0:0:
448,192,23636,1,0,0:0:0:0:
64,192,23715,1,0,0:0:0:0:
320,192,23794,1,0,0:0:0:0:
192,192,23872,1,0,0:0:0:0:
64,192,23951,1,0,0:0:0:0:
448,192,23951,1,0,0:0:0:0:
320,192,23951,1,0,0:0:0:0:
448,192,24265,1,0,0:0:0:0:
448,192,24579,1,0,0:0:0:0:
448,192,24893,1,0,0:0:0:0:
448,192,25207,1,0,0:0:0:0:
64,192,25207,1,0,0:0:0:0:
320,192,25286,1,0,0:0:0:0:
192,192,25364,1,0,0:0:0:0:
64,192,25443,1,0,0:0:0:0:
448,192,25521,1,0,0:0:0:0:
192,192,25600,1,0,0:0:0:0:
64,192,25678,1,0,0:0:0:0:
192,192,25757,1,0,0:0:0:0:
448,192,25835,1,0,0:0:0:0:
64,192,25914,1,0,0:0:0:0:
192,192,25992,1,0,0:0:0:0:
320,192,26071,1,0,0:0:0:0:
448,192,26149,1,0,0:0:0:0:
320,192,26228,1,0,0:0:0:0:
192,192,26306,1,0,0:0:0:0:
320,192,26385,1,0,0:0:0:0:
448,192,26464,1,0,0:0:0:0:
320,192,26542,1,0,0:0:0:0:
192,192,26621,1,0,0:0:0:0:
64,192,26699,1,0,0:0:0:0:
448,192,26778,1,0,0:0:0:0:
192,192,26856,1,0,0:0:0:0:
64,192,26935,1,0,0:0:0:0:
192,192,27013,1,0,0:0:0:0:
448,192,27092,1,0,0:0:0:0:
64,192,27170,1,0,0:0:0:0:
192,192,27249,1,0,0:0:0:0:
320,192,27327,1,0,0:0:0:0:
448,192,27406,1,0,0:0:0:0:
320,192,27484,1,0,0:0:0:0:
192,192,27563,1,0,0:0:0:0:
320,192,27642,1,0,0:0:0:0:
448,192,27720,1,0,0:0:0:0:
320,192,27799,1,0,0:0:0:0:
192,192,27877,1,0,0:0:0:0:
64,192,27956,1,0,0:0:0:0:
448,192,28034,1,0,0:0:0:0:
192,192,28113,1,0,0:0:0:0:
64,192,28191,1,0,0:0:0:0:
192,192,28270,1,0,0:0:0:0:
448,192,28348,1,0,0:0:0:0:
64,192,28427,1,0,0:0:0:0:
192,192,28505,1,0,0:0:0:0:
320,192,28584,1,0,0:0:0:0:
448,192,28662,1,0,0:0:0:0:
320,192,28741,1,0,0:0:0:0:
192,192,28819,1,0,0:0:0:0:
320,192,28898,1,0,0:0:0:0:
448,192,28977,1,0,0:0:0:0:
320,192,29055,1,0,0:0:0:0:
192,192,29134,1,0,0:0:0:0:
64,192,29212,1,0,0:0:0:0:
448,192,29291,1,0,0:0:0:0:
192,192,29369,1,0,0:0:0:0:
64,192,29448,1,0,0:0:0:0:
192,192,29526,1,0,0:0:0:0:
448,192,29605,1,0,0:0:0:0:
64,192,29683,1,0,0:0:0:0:
192,192,29762,1,0,0:0:0:0:
320,192,29840,1,0,0:0:0:0:
448,192,29919,1,0,0:0:0:0:
320,192,29997,1,0,0:0:0:0:
192,192,30076,1,0,0:0:0:0:
320,192,30154,1,0,0:0:0:0:
64,192,30233,1,0,0:0:0:0:
448,192,30233,1,0,0:0:0:0:
192,192,30312,1,0,0:0:0:0:
320,192,30390,1,0,0:0:0:0:
448,192,30469,1,0,0:0:0:0:
64,192,30547,1,0,0:0:0:0:
320,192,30626,1,0,0:0:0:0:
448,192,30704,1,0,0:0:0:0:
320,192,30783,1,0,0:0:0:0:
64,192,30861,1,0,0:0:0:0:
448,192,30940,1,0,0:0:0:0:
320,192,31018,1,0,0:0:0:0:
192,192,31097,1,0,0:0:0:0:
64,192,31175,1,0,0:0:0:0:
192,192,31254,1,0,0:0:0:0:
320,192,31332,1,0,0:0:0:0:
192,192,31411,1,0,0:0:0:0:
64,192,31489,1,0,0:0:0:0:
448,192,31489,1,0,0:0:0:0:
320,192,31568,1,0,0:0:0:0:
192,192,31647,1,0,0:0:0:0:
64,192,31725,1,0,0:0:0:0:
448,192,31804,1,0,0:0:0:0:
192,192,31882,1,0,0:0:0:0:
64,192,31961,1,0,0:0:0:0:
192,192,32039,1,0,0:0:0:0:
448,192,32118,1,0,0:0:0:0:
64,192,32196,1,0,0:0:0:0:
192,192,32275,1,0,0:0:0:0:
320,192,32353,1,0,0:0:0:0:
448,192,32432,1,0,0:0:0:0:
320,192,32510,1,0,0:0:0:0:
192,192,32589,1,0,0:0:0:0:
320,192,32667,1,0,0:0:0:0:
448,192,32746,1,0,0:0:0:0:
64,192,32746,1,0,0:0:0:0:
320,192,32824,1,0,0:0:0:0:
192,192,32903,1,0,0:0:0:0:
64,192,32982,1,0,0:0:0:0:
448,192,33060,1,0,0:0:0:0:
192,192,33139,1,0,0:0:0:0:
64,192,33217,1,0,0:0:0:0:
192,192,33296,1,0,0:0:0:0:
448,192,33374,1,0,0:0:0:0:
64,192,33374,1,0,0:0:0:0:
320,192,33453,1,0,0:0:0:0:
192,192,33531,1,0,0:0:0:0:
320,192,33610,1,0,0:0:0:0:
448,192,33688,1,0,0:0:0:0:
64,192,33688,1,0,0:0:0:0:
192,192,33767,1,0,0:0:0:0:
320,192,33845,1,0,0:0:0:0:
192,192,33924,1,0,0:0:0:0:
64,192,34002,1,0,0:0:0:0:
448,192,34002,1,0,0:0:0:0:
448,192,34317,1,0,0:0:0:0:
448,192,34631,1,0,0:0:0:0:
448,192,34945,1,0,0:0:0:0:
192,192,35259,1,0,0:0:0:0:
64,192,35259,1,0,0:0:0:0:
320,192,35337,1,0,0:0:0:0:
448,192,35337,1,0,0:0:0:0:
192,192,35494,1,0,0:0:0:0:
320,192,35573,1,0,0:0:0:0:
448,192,35573,1,0,0:0:0:0:
192,192,35730,1,0,0:0:0:0:
320,192,35809,1,0,0:0:0:0:
448,192,35809,1,0,0:0:0:0:
192,192,35966,1,0,0:0:0:0:
320,192,36044,1,0,0:0:0:0:
448,192,36044,1,0,0:0:0:0:
64,192,36201,1,0,0:0:0:0:
448,192,36201,1,0,0:0:0:0:
192,192,36201,1,0,0:0:0:0:
64,192,36358,1,0,0:0:0:0:
192,192,36358,1,0,0:0:0:0:
448,192,36358,1,0,0:0:0:0:
320,192,36515,1,0,0:0:0:0:
192,192,36594,1,0,0:0:0:0:
64,192,36594,1,0,0:0:0:0:
320,192,36751,1,0,0:0:0:0:
192,192,36830,1,0,0:0:0:0:
64,192,36830,1,0,0:0:0:0:
320,192,36987,1,0,0:0:0:0:
192,192,37065,1,0,0:0:0:0:
64,192,37065,1,0,0:0:0:0:
320,192,37222,1,0,0:0:0:0:
192,192,37301,1,0,0:0:0:0:
64,192,37301,1,0,0:0:0:0:
448,192,37458,1,0,0:0:0:0:
320,192,37458,1,0,0:0:0:0:
64,192,37458,1,0,0:0:0:0:
64,192,37615,1,0,0:0:0:0:
320,192,37615,1,0,0:0:0:0:
448,192,37615,1,0,0:0:0:0:
64,192,37772,1,0,0:0:0:0:
320,192,37772,1,0,0:0:0:0:
192,192,37850,1,0,0:0:0:0:
448,192,37850,1,0,0:0:0:0:
64,192,38007,1,0,0:0:0:0:
192,192,38086,1,0,0:0:0:0:
448,192,38086,1,0,0:0:0:0:
64,192,38244,1,0,0:0:0:0:
192,192,38322,1,0,0:0:0:0:
448,192,38322,1,0,0:0:0:0:
64,192,38479,1,0,0:0:0:0:
192,192,38557,1,0,0:0:0:0:
448,192,38557,1,0,0:0:0:0:
320,192,38714,1,0,0:0:0:0:
192,192,38714,1,0,0:0:0:0:
64,192,38714,1,0,0:0:0:0:
64,192,38871,1,0,0:0:0:0:
320,192,38871,1,0,0:0:0:0:
192,192,38871,1,0,0:0:0:0:
448,192,39028,1,0,0:0:0:0:
320,192,39107,1,0,0:0:0:0:
64,192,39107,1,0,0:0:0:0:
448,192,39264,1,0,0:0:0:0:
320,192,39342,1,0,0:0:0:0:
64,192,39342,1,0,0:0:0:0:
448,192,39500,1,0,0:0:0:0:
320,192,39578,1,0,0:0:0:0:
64,192,39578,1,0,0:0:0:0:
448,192,39735,1,0,0:0:0:0:
320,192,39814,1,0,0:0:0:0:
64,192,39814,1,0,0:0:0:0:
192,192,39971,1,0,0:0:0:0:
320,192,39971,1,0,0:0:0:0:
448,192,39971,1,0,0:0:0:0:
448,192,40128,1,0,0:0:0:0:
320,192,40128,1,0,0:0:0:0:
192,192,40128,1,0,0:0:0:0:
64,192,40285,1,0,0:0:0:0:
448,192,40285,1,0,0:0:0:0:
192,192,40442,1,0,0:0:0:0:
64,192,40520,1,0,0:0:0:0:
448,192,40599,1,0,0:0:0:0:
320,192,40599,1,0,0:0:0:0:
192,192,40677,1,0,0:0:0:0:
320,192,40756,1,0,0:0:0:0:
64,192,40835,1,0,0:0:0:0:
192,192,40913,1,0,0:0:0:0:
320,192,40992,1,0,0:0:0:0:
448,192,40992,1,0,0:0:0:0:
320,192,41149,1,0,0:0:0:0:
192,192,41227,1,0,0:0:0:0:
64,192,41227,1,0,0:0:0:0:
320,192,41384,1,0,0:0:0:0:
192,192,41463,1,0,0:0:0:0:
64,192,41541,1,0,0:0:0:0:
448,192,41541,1,0,0:0:0:0:
320,192,41698,1,0,0:0:0:0:
448,192,41777,1,0,0:0:0:0:
64,192,41855,1,0,0:0:0:0:
192,192,41855,1,0,0:0:0:0:
320,192,41934,1,0,0:0:0:0:
192,192,42012,1,0,0:0:0:0:
448,192,42091,1,0,0:0:0:0:
320,192,42170,1,0,0:0:0:0:
192,192,42248,1,0,0:0:0:0:
64,192,42248,1,0,0:0:0:0:
448,192,42405,1,0,0:0:0:0:
320,192,42484,1,0,0:0:0:0:
64,192,42484,1,0,0:0:0:0:
192,192,42641,1,0,0:0:0:0:
320,192,42719,1,0,0:0:0:0:
448,192,42798,1,0,0:0:0:0:
64,192,42798,1,0,0:0:0:0:
192,192,42876,1,0,0:0:0:0:
320,192,42955,1,0,0:0:0:0:
64,192,42955,1,0,0:0:0:0:
448,192,43033,1,0,0:0:0:0:
192,192,43112,1,0,0:0:0:0:
320,192,43112,1,0,0:0:0:0:
64,192,43190,1,0,0:0:0:0:
448,192,43269,1,0,0:0:0:0:
192,192,43269,1,0,0:0:0:0:
320,192,43347,1,0,0:0:0:0:
448,192,43426,1,0,0:0:0:0:
64,192,43426,1,0,0:0:0:0:
192,192,43505,1,0,0:0:0:0:
320,192,43583,1,0,0:0:0:0:
64,192,43583,1,0,0:0:0:0:
448,192,43662,1,0,0:0:0:0:
320,192,43740,1,0,0:0:0:0:
192,192,43740,1,0,0:0:0:0:
64,192,43819,1,0,0:0:0:0:
192,192,43897,1,0,0:0:0:0:
448,192,43897,1,0,0:0:0:0:
320,192,43976,1,0,0:0:0:0:
448,192,44054,1,0,0:0:0:0:
64,192,44054,1,0,0:0:0:0:
320,192,44211,1,0,0:0:0:0:
192,192,44211,1,0,0:0:0:0:
64,192,44290,1,0,0:0:0:0:
448,192,44290,1,0,0:0:0:0:
320,192,44368,1,0,0:0:0:0:
192,192,44368,1,0,0:0:0:0:
64,192,44525,1,0,0:0:0:0:
448,192,44525,1,0,0:0:0:0:
192,192,44604,1,0,0:0:0:0:
320,192,44604,1,0,0:0:0:0:
448,192,44682,1,0,0:0:0:0:
64,192,44682,1,0,0:0:0:0:
192,192,44840,1,0,0:0:0:0:
320,192,44840,1,0,0:0:0:0:
448,192,44997,1,0,0:0:0:0:
64,192,44997,1,0,0:0:0:0:
320,192,45075,1,0,0:0:0:0:
192,192,45075,1,0,0:0:0:0:
64,192,45154,1,0,0:0:0:0:
448,192,45154,1,0,0:0:0:0:
320,192,45232,1,0,0:0:0:0:
192,192,45232,1,0,0:0:0:0:
448,192,45311,1,0,0:0:0:0:
64,192,45311,1,0,0:0:0:0:
192,192,45389,1,0,0:0:0:0:
320,192,45468,1,0,0:0:0:0:
448,192,45546,1,0,0:0:0:0:
192,192,45625,1,0,0:0:0:0:
64,192,45625,1,0,0:0:0:0:
320,192,45703,1,0,0:0:0:0:
448,192,45782,1,0,0:0:0:0:
192,192,45860,1,0,0:0:0:0:
320,192,45939,1,0,0:0:0:0:
64,192,45939,1,0,0:0:0:0:
448,192,46018,1,0,0:0:0:0:
192,192,46096,1,0,0:0:0:0:
320,192,46096,1,0,0:0:0:0:
64,192,46175,1,0,0:0:0:0:
448,192,46253,1,0,0:0:0:0:
192,192,46253,1,0,0:0:0:0:
320,192,46332,1,0,0:0:0:0:
64,192,46410,1,0,0:0:0:0:
448,192,46410,1,0,0:0:0:0:
320,192,46489,1,0,0:0:0:0:
192,192,46567,1,0,0:0:0:0:
64,192,46567,1,0,0:0:0:0:
448,192,46646,1,0,0:0:0:0:
320,192,46724,1,0,0:0:0:0:
192,192,46803,1,0,0:0:0:0:
64,192,46881,1,0,0:0:0:0:
448,192,46881,1,0,0:0:0:0:
320,192,46960,1,0,0:0:0:0:
448,192,47038,1,0,0:0:0:0:
320,192,47117,1,0,0:0:0:0:
64,192,47195,1,0,0:0:0:0:
192,192,47195,1,0,0:0:0:0:
448,192,47274,1,0,0:0:0:0:
64,192,47353,1,0,0:0:0:0:
192,192,47353,1,0,0:0:0:0:
448,192,47431,1,0,0:0:0:0:
192,192,47510,1,0,0:0:0:0:
64,192,47510,1,0,0:0:0:0:
320,192,47588,1,0,0:0:0:0:
448,192,47667,1,0,0:0:0:0:
192,192,47745,1,0,0:0:0:0:
64,192,47824,1,0,0:0:0:0:
320,192,47824,1,0,0:0:0:0:
448,192,47902,1,0,0:0:0:0:
192,192,47981,1,0,0:0:0:0:
64,192,48059,1,0,0:0:0:0:
320,192,48138,1,0,0:0:0:0:
448,192,48138,1,0,0:0:0:0:
192,192,48216,1,0,0:0:0:0:
64,192,48295,1,0,0:0:0:0:
320,192,48373,1,0,0:0:0:0:
192,192,48452,1,0,0:0:0:0:
448,192,48452,1,0,0:0:0:0:
64,192,48530,1,0,0:0:0:0:
320,192,48609,1,0,0:0:0:0:
448,192,48609,1,0,0:0:0:0:
192,192,48688,1,0,0:0:0:0:
64,192,48766,1,0,0:0:0:0:
320,192,48766,1,0,0:0:0:0:
448,192,48845,1,0,0:0:0:0:
192,192,48923,1,0,0:0:0:0:
64,192,48923,1,0,0:0:0:0:
320,192,49002,1,0,0:0:0:0:
448,192,49080,1,0,0:0:0:0:
192,192,49080,1,0,0:0:0:0:
64,192,49159,1,0,0:0:0:0:
320,192,49237,1,0,0:0:0:0:
448,192,49237,1,0,0:0:0:0:
192,192,49316,1,0,0:0:0:0:
448,192,49394,1,0,0:0:0:0:
64,192,49394,1,0,0:0:0:0:
320,192,49473,1,0,0:0:0:0:
192,192,49551,1,0,0:0:0:0:
64,192,49551,1,0,0:0:0:0:
320,192,49630,1,0,0:0:0:0:
192,192,49708,1,0,0:0:0:0:
448,192,49708,1,0,0:0:0:0:
64,192,49787,1,0,0:0:0:0:
320,192,49865,1,0,0:0:0:0:
448,192,49865,1,0,0:0:0:0:
192,192,49944,1,0,0:0:0:0:
320,192,50023,1,0,0:0:0:0:
448,192,50023,1,0,0:0:0:0:
64,192,50101,1,0,0:0:0:0:
192,192,50180,1,0,0:0:0:0:
320,192,50258,1,0,0:0:0:0:
64,192,50337,1,0,0:0:0:0:
448,192,50337,1,0,0:0:0:0:
192,192,50415,1,0,0:0:0:0:
448,192,50494,1,0,0:0:0:0:
320,192,50572,1,0,0:0:0:0:
64,192,50651,1,0,0:0:0:0:
192,192,50651,1,0,0:0:0:0:
448,192,50729,1,0,0:0:0:0:
320,192,50808,1,0,0:0:0:0:
192,192,50886,1,0,0:0:0:0:
64,192,50965,1,0,0:0:0:0:
448,192,50965,1,0,0:0:0:0:
320,192,51043,1,0,0:0:0:0:
192,192,51122,1,0,0:0:0:0:
64,192,51122,1,0,0:0:0:0:
320,192,51200,1,0,0:0:0:0:
448,192,51279,1,0,0:0:0:0:
192,192,51279,1,0,0:0:0:0:
64,192,51358,1,0,0:0:0:0:
320,192,51436,1,0,0:0:0:0:
192,192,51515,1,0,0:0:0:0:
320,192,51593,1,0,0:0:0:0:
448,192,51593,1,0,0:0:0:0:
64,192,51672,1,0,0:0:0:0:
192,192,51750,1,0,0:0:0:0:
320,192,51829,1,0,0:0:0:0:
64,192,51907,1,0,0:0:0:0:
448,192,51907,1,0,0:0:0:0:
192,192,51986,1,0,0:0:0:0:
320,192,52064,1,0,0:0:0:0:
448,192,52143,1,0,0:0:0:0:
192,192,52221,1,0,0:0:0:0:
64,192,52221,1,0,0:0:0:0:
320,192,52300,1,0,0:0:0:0:
192,192,52378,1,0,0:0:0:0:
64,192,52378,1,0,0:0:0:0:
320,192,52457,1,0,0:0:0:0:
64,192,52535,1,0,0:0:0:0:
192,192,52535,1,0,0:0:0:0:
448,192,52614,1,0,0:0:0:0:
320,192,52693,1,0,0:0:0:0:
192,192,52771,1,0,0:0:0:0:
448,192,52850,1,0,0:0:0:0:
64,192,52850,1,0,0:0:0:0:
320,192,52928,1,0,0:0:0:0:
192,192,53007,1,0,0:0:0:0:
320,192,53085,1,0,0:0:0:0:
64,192,53164,1,0,0:0:0:0:
192,192,53164,1,0,0:0:0:0:
448,192,53242,1,0,0:0:0:0:
320,192,53321,1,0,0:0:0:0:
64,192,53399,1,0,0:0:0:0:
192,192,53478,1,0,0:0:0:0:
448,192,53478,1,0,0:0:0:0:
320,192,53556,1,0,0:0:0:0:
64,192,53635,1,0,0:0:0:0:
192,192,53713,1,0,0:0:0:0:
64,192,53792,1,0,0:0:0:0:
448,192,53792,1,0,0:0:0:0:
320,192,53792,1,0,0:0:0:0:
192,192,53870,1,0,0:0:0:0:
320,192,53949,1,0,0:0:0:0:
192,192,54028,1,0,0:0:0:0:
448,192,54106,1,0,0:0:0:0:
320,192,54106,1,0,0:0:0:0:
64,192,54106,1,0,0:0:0:0:
448,192,54263,1,0,0:0:0:0:
192,192,54263,1,0,0:0:0:0:
320,192,54342,1,0,0:0:0:0:
64,192,54342,1,0,0:0:0:0:
448,192,54420,1,0,0:0:0:0:
192,192,54420,1,0,0:0:0:0:
64,192,54577,1,0,0:0:0:0:
320,192,54577,1,0,0:0:0:0:
448,192,54734,1,0,0:0:0:0:
192,192,54891,1,0,0:0:0:0:
64,192,54891,1,0,0:0:0:0:
320,192,55048,1,0,0:0:0:0:
448,192,55048,1,0,0:0:0:0:
64,192,55127,1,0,0:0:0:0:
192,192,55127,1,0,0:0:0:0:
320,192,55206,1,0,0:0:0:0:
448,192,55206,1,0,0:0:0:0:
64,192,55284,1,0,0:0:0:0:
192,192,55284,1,0,0:0:0:0:
320,192,55363,1,0,0:0:0:0:
448,192,55363,1,0,0:0:0:0:
64,192,55520,1,0,0:0:0:0:
192,192,55520,1,0,0:0:0:0:
320,192,55677,1,0,0:0:0:0:
192,192,55677,1,0,0:0:0:0:
448,192,55677,1,0,0:0:0:0:
320,192,55834,1,0,0:0:0:0:
448,192,55834,1,0,0:0:0:0:
192,192,55991,1,0,0:0:0:0:
64,192,55991,1,0,0:0:0:0:
448,192,55991,1,0,0:0:0:0:
192,192,56148,1,0,0:0:0:0:
320,192,56148,1,0,0:0:0:0:
64,192,56305,1,0,0:0:0:0:
320,192,56305,1,0,0:0:0:0:
448,192,56305,1,0,0:0:0:0:
192,192,56462,1,0,0:0:0:0:
320,192,56462,1,0,0:0:0:0:
64,192,56619,1,0,0:0:0:0:
448,192,56619,1,0,0:0:0:0:
320,192,56776,1,0,0:0:0:0:
448,192,56776,1,0,0:0:0:0:
192,192,56855,1,0,0:0:0:0:
64,192,56933,1,0,0:0:0:0:
320,192,56933,1,0,0:0:0:0:
448,192,57090,1,0,0:0:0:0:
192,192,57090,1,0,0:0:0:0:
192,192,57247,1,0,0:0:0:0:
64,192,57247,1,0,0:0:0:0:
448,192,57247,1,0,0:0:0:0:
320,192,57404,1,0,0:0:0:0:
64,192,57404,1,0,0:0:0:0:
448,192,57561,1,0,0:0:0:0:
320,192,57561,1,0,0:0:0:0:
192,192,57561,1,0,0:0:0:0:
64,192,57718,1,0,0:0:0:0:
192,192,57876,1,0,0:0:0:0:
448,192,57876,1,0,0:0:0:0:
320,192,57876,1,0,0:0:0:0:
192,192,58033,1,0,0:0:0:0:
64,192,58033,1,0,0:0:0:0:
64,192,58190,1,0,0:0:0:0:
320,192,58190,1,0,0:0:0:0:
448,192,58190,1,0,0:0:0:0:
320,192,58347,1,0,0:0:0:0:
192,192,58347,1,0,0:0:0:0:
192,192,58504,1,0,0:0:0:0:
64,192,58504,1,0,0:0:0:0:
448,192,58504,1,0,0:0:0:0:
320,192,58661,1,0,0:0:0:0:
64,192,58661,1,0,0:0:0:0:
448,192,58818,1,0,0:0:0:0:
320,192,58818,1,0,0:0:0:0:
192,192,58818,1,0,0:0:0:0:
192,192,58975,1,0,0:0:0:0:
448,192,58975,1,0,0:0:0:0:
64,192,59132,1,0,0:0:0:0:
320,192,59132,1,0,0:0:0:0:
192,192,59132,1,0,0:0:0:0:
448,192,59289,1,0,0:0:0:0:
64,192,59289,1,0,0:0:0:0:
320,192,59368,1,0,0:0:0:0:
64,192,59446,1,0,0:0:0:0:
192,192,59446,1,0,0:0:0:0:
448,192,59603,1,0,0:0:0:0:
320,192,59603,1,0,0:0:0:0:
448,192,59760,1,0,0:0:0:0:
64,192,59760,1,0,0:0:0:0:
192,192,59760,1,0,0:0:0:0:
192,192,59917,1,0,0:0:0:0:
320,192,60074,1,0,0:0:0:0:
448,192,60074,1,0,0:0:0:0:
192,192,60153,1,0,0:0:0:0:
64,192,60153,1,0,0:0:0:0:
320,192,60231,1,0,0:0:0:0:
448,192,60231,1,0,0:0:0:0:
192,192,60310,1,0,0:0:0:0:
64,192,60310,1,0,0:0:0:0:
192,192,60388,1,0,0:0:0:0:
448,192,60388,1,0,0:0:0:0:
320,192,60467,1,0,0:0:0:0:
64,192,60467,1,0,0:0:0:0:
448,192,60624,1,0,0:0:0:0:
320,192,60703,1,0,0:0:0:0:
64,192,60703,1,0,0:0:0:0:
448,192,60860,1,0,0:0:0:0:
320,192,60938,1,0,0:0:0:0:
64,192,60938,1,0,0:0:0:0:
448,192,61095,1,0,0:0:0:0:
320,192,61174,1,0,0:0:0:0:
64,192,61174,1,0,0:0:0:0:
192,192,61331,1,0,0:0:0:0:
448,192,61331,1,0,0:0:0:0:
320,192,61331,1,0,0:0:0:0:
64,192,61488,1,0,0:0:0:0:
448,192,61488,1,0,0:0:0:0:
320,192,61488,1,0,0:0:0:0:
320,192,61645,1,0,0:0:0:0:
64,192,61645,1,0,0:0:0:0:
192,192,61723,5,0,0:0:0:0:
448,192,61723,1,0,0:0:0:0:
64,192,61881,1,0,0:0:0:0:
192,192,61959,1,0,0:0:0:0:
448,192,61959,1,0,0:0:0:0:
64,192,62116,1,0,0:0:0:0:
448,192,62195,1,0,0:0:0:0:
192,192,62195,1,0,0:0:0:0:
64,192,62352,1,0,0:0:0:0:
192,192,62430,1,0,0:0:0:0:
448,192,62430,1,0,0:0:0:0:
64,192,62587,1,0,0:0:0:0:
320,192,62587,1,0,0:0:0:0:
448,192,62587,1,0,0:0:0:0:
192,192,62744,1,0,0:0:0:0:
448,192,62744,1,0,0:0:0:0:
320,192,62744,1,0,0:0:0:0:
192,192,62901,5,0,0:0:0:0:
64,192,62901,1,0,0:0:0:0:
320,192,62980,1,0,0:0:0:0:
448,192,62980,1,0,0:0:0:0:
192,192,63058,1,0,0:0:0:0:
64,192,63058,1,0,0:0:0:0:
320,192,63137,1,0,0:0:0:0:
448,192,63137,1,0,0:0:0:0:
64,192,63216,1,0,0:0:0:0:
192,192,63216,1,0,0:0:0:0:
320,192,63294,1,0,0:0:0:0:
448,192,63294,1,0,0:0:0:0:
192,192,63373,1,0,0:0:0:0:
64,192,63373,1,0,0:0:0:0:
320,192,63451,1,0,0:0:0:0:
448,192,63451,1,0,0:0:0:0:
192,192,63530,1,0,0:0:0:0:
64,192,63530,1,0,0:0:0:0:
448,192,63608,1,0,0:0:0:0:
320,192,63608,1,0,0:0:0:0:
192,192,63687,1,0,0:0:0:0:
64,192,63687,1,0,0:0:0:0:
320,192,63765,1,0,0:0:0:0:
448,192,63765,1,0,0:0:0:0:
192,192,63844,1,0,0:0:0:0:
64,192,63844,1,0,0:0:0:0:
320,192,63922,1,0,0:0:0:0:
448,192,63922,1,0,0:0:0:0:
192,192,64001,1,0,0:0:0:0:
64,192,64001,1,0,0:0:0:0:
320,192,64079,1,0,0:0:0:0:
448,192,64079,1,0,0:0:0:0:
64,192,64158,1,0,0:0:0:0:
192,192,64236,1,0,0:0:0:0:
320,192,64315,1,0,0:0:0:0:
448,192,64394,1,0,0:0:0:0:
64,192,64472,1,0,0:0:0:0:
192,192,64551,1,0,0:0:0:0:
320,192,64629,1,0,0:0:0:0:
448,192,64708,1,0,0:0:0:0:
64,192,64786,1,0,0:0:0:0:
192,192,64865,1,0,0:0:0:0:
320,192,64943,1,0,0:0:0:0:
448,192,65022,1,0,0:0:0:0:
64,192,65100,1,0,0:0:0:0:
192,192,65179,1,0,0:0:0:0:
320,192,65257,1,0,0:0:0:0:
448,192,65336,1,0,0:0:0:0:
64,192,65414,1,0,0:0:0:0:
448,192,65493,1,0,0:0:0:0:
320,192,65571,1,0,0:0:0:0:
192,192,65650,1,0,0:0:0:0:
448,192,65729,1,0,0:0:0:0:
64,192,65807,1,0,0:0:0:0:
192,192,65886,1,0,0:0:0:0:
320,192,65964,1,0,0:0:0:0:
64,192,66043,1,0,0:0:0:0:
448,192,66121,1,0,0:0:0:0:
320,192,66200,1,0,0:0:0:0:
192,192,66278,1,0,0:0:0:0:
448,192,66357,1,0,0:0:0:0:
64,192,66435,1,0,0:0:0:0:
192,192,66514,1,0,0:0:0:0:
320,192,66592,1,0,0:0:0:0:
448,192,69341,1,0,0:0:0:0:
448,192,69655,1,0,0:0:0:0:
448,192,69812,1,0,0:0:0:0:
448,192,69969,1,0,0:0:0:0:
320,192,70126,1,0,0:0:0:0:
64,192,70126,1,0,0:0:0:0:
448,192,70440,1,0,0:0:0:0:
64,192,70440,1,0,0:0:0:0:
448,192,70597,1,0,0:0:0:0:
320,192,70754,1,0,0:0:0:0:
192,192,70911,1,0,0:0:0:0:
64,192,71226,1,0,0:0:0:0:
448,192,71383,1,0,0:0:0:0:
320,192,71540,1,0,0:0:0:0:
192,192,71697,1,0,0:0:0:0:
64,192,72011,1,0,0:0:0:0:
320,192,72011,1,0,0:0:0:0:
192,192,72325,1,0,0:0:0:0:
448,192,72325,1,0,0:0:0:0:
64,192,72639,1,0,0:0:0:0:
320,192,72639,1,0,0:0:0:0:
448,192,72953,1,0,0:0:0:0:
64,192,72953,1,0,0:0:0:0:
64,192,73110,1,0,0:0:0:0:
192,192,73267,1,0,0:0:0:0:
320,192,73424,1,0,0:0:0:0:
448,192,73739,1,0,0:0:0:0:
64,192,73896,1,0,0:0:0:0:
192,192,74053,1,0,0:0:0:0:
320,192,74210,1,0,0:0:0:0:
192,192,74524,1,0,0:0:0:0:
448,192,74524,1,0,0:0:0:0:
320,192,74838,1,0,0:0:0:0:
64,192,74838,1,0,0:0:0:0:
448,192,75152,1,0,0:0:0:0:
192,192,75152,1,0,0:0:0:0:
448,192,75309,1,0,0:0:0:0:
64,192,75309,1,0,0:0:0:0:
192,192,75623,1,0,0:0:0:0:
320,192,75780,1,0,0:0:0:0:
192,192,75937,1,0,0:0:0:0:
64,192,76252,1,0,0:0:0:0:
448,192,76409,1,0,0:0:0:0:
320,192,76566,1,0,0:0:0:0:
192,192,76723,1,0,0:0:0:0:
320,192,77037,1,0,0:0:0:0:
64,192,77037,1,0,0:0:0:0:
64,192,77351,1,0,0:0:0:0:
448,192,77351,1,0,0:0:0:0:
64,192,77665,1,0,0:0:0:0:
448,192,77665,1,0,0:0:0:0:
64,192,77822,1,0,0:0:0:0:
448,192,77822,1,0,0:0:0:0:
320,192,78450,1,0,0:0:0:0:
320,192,78607,1,0,0:0:0:0:
192,192,79079,1,0,0:0:0:0:
192,192,79236,1,0,0:0:0:0:
64,192,80021,1,0,0:0:0:0:
192,192,80178,1,0,0:0:0:0:
320,192,80335,1,0,0:0:0:0:
448,192,80492,1,0,0:0:0:0:
64,192,80492,1,0,0:0:0:0:
448,192,80649,1,0,0:0:0:0:
64,192,80806,1,0,0:0:0:0:
320,192,80806,1,0,0:0:0:0:
192,192,80963,1,0,0:0:0:0:
64,192,81120,1,0,0:0:0:0:
448,192,81277,1,0,0:0:0:0:
64,192,81434,1,0,0:0:0:0:
192,192,81434,1,0,0:0:0:0:
320,192,81592,1,0,0:0:0:0:
64,192,81749,1,0,0:0:0:0:
448,192,81749,1,0,0:0:0:0:
64,192,82063,1,0,0:0:0:0:
320,192,82063,1,0,0:0:0:0:
64,192,82377,1,0,0:0:0:0:
448,192,82377,1,0,0:0:0:0:
64,192,82691,1,0,0:0:0:0:
320,192,82691,1,0,0:0:0:0:
64,192,82848,1,0,0:0:0:0:
64,192,83005,1,0,0:0:0:0:
448,192,83005,1,0,0:0:0:0:
320,192,83162,1,0,0:0:0:0:
448,192,83319,1,0,0:0:0:0:
192,192,83319,1,0,0:0:0:0:
64,192,83476,1,0,0:0:0:0:
448,192,83633,1,0,0:0:0:0:
64,192,83790,1,0,0:0:0:0:
320,192,83947,1,0,0:0:0:0:
448,192,83947,1,0,0:0:0:0:
192,192,84105,1,0,0:0:0:0:
64,192,84262,1,0,0:0:0:0:
448,192,84262,1,0,0:0:0:0:
448,192,84576,1,0,0:0:0:0:
192,192,84576,1,0,0:0:0:0:
448,192,84890,1,0,0:0:0:0:
64,192,84890,1,0,0:0:0:0:
448,192,85204,1,0,0:0:0:0:
64,192,85204,1,0,0:0:0:0:
448,192,85361,1,0,0:0:0:0:
192,192,85361,1,0,0:0:0:0:
448,192,85518,1,0,0:0:0:0:
64,192,85518,1,0,0:0:0:0:
320,192,85675,1,0,0:0:0:0:
64,192,85832,1,0,0:0:0:0:
192,192,85832,1,0,0:0:0:0:
320,192,85989,1,0,0:0:0:0:
64,192,86146,1,0,0:0:0:0:
448,192,86303,1,0,0:0:0:0:
64,192,86460,1,0,0:0:0:0:
320,192,86460,1,0,0:0:0:0:
192,192,86617,1,0,0:0:0:0:
448,192,86775,1,0,0:0:0:0:
64,192,86775,1,0,0:0:0:0:
320,192,86775,1,0,0:0:0:0:
448,192,87089,1,0,0:0:0:0:
192,192,87089,1,0,0:0:0:0:
448,192,87403,1,0,0:0:0:0:
64,192,87403,1,0,0:0:0:0:
448,192,87717,1,0,0:0:0:0:
192,192,87717,1,0,0:0:0:0:
448,192,87874,1,0,0:0:0:0:
192,192,87874,1,0,0:0:0:0:
64,192,88031,1,0,0:0:0:0:
448,192,88031,1,0,0:0:0:0:
448,192,88345,1,0,0:0:0:0:
192,192,88345,1,0,0:0:0:0:
64,192,88502,1,0,0:0:0:0:
320,192,88659,1,0,0:0:0:0:
448,192,88659,1,0,0:0:0:0:
64,192,88659,1,0,0:0:0:0:
192,192,88973,1,0,0:0:0:0:
448,192,88973,1,0,0:0:0:0:
320,192,89130,1,0,0:0:0:0:
448,192,89287,1,0,0:0:0:0:
64,192,89287,1,0,0:0:0:0:
320,192,89287,1,0,0:0:0:0:
320,192,89602,1,0,0:0:0:0:
64,192,89602,1,0,0:0:0:0:
192,192,89916,1,0,0:0:0:0:
64,192,89916,1,0,0:0:0:0:
448,192,90073,1,0,0:0:0:0:
64,192,90230,1,0,0:0:0:0:
320,192,90230,1,0,0:0:0:0:
192,192,90387,1,0,0:0:0:0:
448,192,90544,1,0,0:0:0:0:
64,192,90544,1,0,0:0:0:0:
192,192,90858,1,0,0:0:0:0:
448,192,90858,1,0,0:0:0:0:
64,192,91015,1,0,0:0:0:0:
320,192,91172,1,0,0:0:0:0:
448,192,91172,1,0,0:0:0:0:
64,192,91172,1,0,0:0:0:0:
192,192,91486,1,0,0:0:0:0:
448,192,91486,1,0,0:0:0:0:
320,192,91643,1,0,0:0:0:0:
448,192,91800,1,0,0:0:0:0:
64,192,91800,1,0,0:0:0:0:
320,192,92115,1,0,0:0:0:0:
64,192,92115,1,0,0:0:0:0:
448,192,92272,1,0,0:0:0:0:
320,192,92272,1,0,0:0:0:0:
64,192,92429,1,0,0:0:0:0:
192,192,92429,1,0,0:0:0:0:
320,192,92586,1,0,0:0:0:0:
448,192,92586,1,0,0:0:0:0:
64,192,92743,1,0,0:0:0:0:
320,192,92743,1,0,0:0:0:0:
448,192,92900,1,0,0:0:0:0:
320,192,92900,1,0,0:0:0:0:
192,192,93057,5,0,0:0:0:0:
64,192,93057,1,0,0:0:0:0:
320,192,93135,1,0,0:0:0:0:
64,192,93214,1,0,0:0:0:0:
320,192,93293,1,0,0:0:0:0:
192,192,93371,1,0,0:0:0:0:
448,192,93371,1,0,0:0:0:0:
64,192,93450,1,0,0:0:0:0:
448,192,93528,1,0,0:0:0:0:
320,192,93528,1,0,0:0:0:0:
192,192,93607,1,0,0:0:0:0:
448,192,93685,1,0,0:0:0:0:
320,192,93685,1,0,0:0:0:0:
64,192,93764,1,0,0:0:0:0:
448,192,93842,1,0,0:0:0:0:
192,192,93921,1,0,0:0:0:0:
64,192,93999,1,0,0:0:0:0:
320,192,93999,1,0,0:0:0:0:
448,192,94078,1,0,0:0:0:0:
64,192,94156,1,0,0:0:0:0:
192,192,94156,1,0,0:0:0:0:
320,192,94235,1,0,0:0:0:0:
192,192,94313,1,0,0:0:0:0:
64,192,94313,1,0,0:0:0:0:
448,192,94392,1,0,0:0:0:0:
192,192,94470,1,0,0:0:0:0:
320,192,94549,1,0,0:0:0:0:
64,192,94628,1,0,0:0:0:0:
448,192,94628,1,0,0:0:0:0:
192,192,94706,1,0,0:0:0:0:
320,192,94785,1,0,0:0:0:0:
192,192,94863,1,0,0:0:0:0:
64,192,94942,1,0,0:0:0:0:
448,192,94942,1,0,0:0:0:0:
320,192,95020,1,0,0:0:0:0:
192,192,95099,1,0,0:0:0:0:
64,192,95099,1,0,0:0:0:0:
320,192,95177,1,0,0:0:0:0:
192,192,95256,1,0,0:0:0:0:
64,192,95256,1,0,0:0:0:0:
320,192,95334,1,0,0:0:0:0:
192,192,95413,1,0,0:0:0:0:
64,192,95413,1,0,0:0:0:0:
320,192,95491,1,0,0:0:0:0:
448,192,95491,1,0,0:0:0:0:
448,192,97455,128,0,98083:0:0:0:0:
64,192,98083,1,0,0:0:0:0:
192,192,98083,1,0,0:0:0:0:
320,192,98083,1,0,0:0:0:0:
64,192,98240,1,0,0:0:0:0:
320,192,98240,1,0,0:0:0:0:
192,192,98397,1,0,0:0:0:0:
448,192,98397,1,0,0:0:0:0:
64,192,98397,1,0,0:0:0:0:
320,192,98554,1,0,0:0:0:0:
192,192,98554,1,0,0:0:0:0:
448,192,98711,1,0,0:0:0:0:
320,192,98711,1,0,0:0:0:0:
64,192,98868,1,0,0:0:0:0:
192,192,98868,1,0,0:0:0:0:
192,192,99025,1,0,0:0:0:0:
448,192,99025,1,0,0:0:0:0:
64,192,99025,1,0,0:0:0:0:
320,192,99182,1,0,0:0:0:0:
192,192,99182,1,0,0:0:0:0:
448,192,99339,1,0,0:0:0:0:
64,192,99339,1,0,0:0:0:0:
320,192,99339,1,0,0:0:0:0:
192,192,99496,1,0,0:0:0:0:
320,192,99653,1,0,0:0:0:0:
448,192,99653,1,0,0:0:0:0:
64,192,99653,1,0,0:0:0:0:
320,192,99810,1,0,0:0:0:0:
192,192,99968,1,0,0:0:0:0:
64,192,99968,1,0,0:0:0:0:
448,192,99968,1,0,0:0:0:0:
448,192,100125,1,0,0:0:0:0:
320,192,100282,1,0,0:0:0:0:
64,192,100282,1,0,0:0:0:0:
192,192,100282,1,0,0:0:0:0:
320,192,100439,1,0,0:0:0:0:
64,192,100596,1,0,0:0:0:0:
448,192,100596,1,0,0:0:0:0:
192,192,100596,1,0,0:0:0:0:
448,192,100753,1,0,0:0:0:0:
192,192,100753,1,0,0:0:0:0:
320,192,100910,1,0,0:0:0:0:
64,192,100910,1,0,0:0:0:0:
448,192,100910,1,0,0:0:0:0:
192,192,101067,1,0,0:0:0:0:
320,192,101067,1,0,0:0:0:0:
64,192,101224,1,0,0:0:0:0:
448,192,101224,1,0,0:0:0:0:
192,192,101381,1,0,0:0:0:0:
320,192,101381,1,0,0:0:0:0:
320,192,101538,1,0,0:0:0:0:
64,192,101538,1,0,0:0:0:0:
448,192,101538,1,0,0:0:0:0:
192,192,101695,1,0,0:0:0:0:
448,192,101695,1,0,0:0:0:0:
64,192,101852,1,0,0:0:0:0:
320,192,101852,1,0,0:0:0:0:
448,192,101852,1,0,0:0:0:0:
192,192,102009,1,0,0:0:0:0:
64,192,102166,1,0,0:0:0:0:
448,192,102166,1,0,0:0:0:0:
320,192,102166,1,0,0:0:0:0:
320,192,102323,1,0,0:0:0:0:
64,192,102481,1,0,0:0:0:0:
448,192,102481,1,0,0:0:0:0:
192,192,102481,1,0,0:0:0:0:
448,192,102638,1,0,0:0:0:0:
64,192,102795,1,0,0:0:0:0:
192,192,102795,1,0,0:0:0:0:
320,192,102952,1,0,0:0:0:0:
64,192,102952,1,0,0:0:0:0:
64,192,103109,1,0,0:0:0:0:
448,192,103109,1,0,0:0:0:0:
192,192,103109,1,0,0:0:0:0:
320,192,103266,1,0,0:0:0:0:
192,192,103266,1,0,0:0:0:0:
320,192,103423,1,0,0:0:0:0:
448,192,103423,1,0,0:0:0:0:
64,192,103423,1,0,0:0:0:0:
192,192,103580,1,0,0:0:0:0:
320,192,103580,1,0,0:0:0:0:
64,192,103737,1,0,0:0:0:0:
448,192,103737,1,0,0:0:0:0:
192,192,103894,1,0,0:0:0:0:
64,192,103894,1,0,0:0:0:0:
64,192,104051,1,0,0:0:0:0:
320,192,104051,1,0,0:0:0:0:
448,192,104051,1,0,0:0:0:0:
320,192,104208,1,0,0:0:0:0:
192,192,104208,1,0,0:0:0:0:
64,192,104365,1,0,0:0:0:0:
192,192,104365,1,0,0:0:0:0:
448,192,104365,1,0,0:0:0:0:
320,192,104522,1,0,0:0:0:0:
192,192,104679,1,0,0:0:0:0:
64,192,104679,1,0,0:0:0:0:
448,192,104679,1,0,0:0:0:0:
448,192,104836,1,0,0:0:0:0:
320,192,104993,1,0,0:0:0:0:
192,192,104993,1,0,0:0:0:0:
64,192,104993,1,0,0:0:0:0:
64,192,105151,1,0,0:0:0:0:
192,192,105308,1,0,0:0:0:0:
448,192,105308,1,0,0:0:0:0:
192,192,105465,1,0,0:0:0:0:
448,192,105465,1,0,0:0:0:0:
64,192,105622,1,0,0:0:0:0:
448,192,105622,1,0,0:0:0:0:
192,192,105622,1,0,0:0:0:0:
320,192,105779,1,0,0:0:0:0:
64,192,105936,1,0,0:0:0:0:
448,192,105936,1,0,0:0:0:0:
192,192,105936,1,0,0:0:0:0:
64,192,106093,1,0,0:0:0:0:
320,192,106093,1,0,0:0:0:0:
64,192,106250,1,0,0:0:0:0:
448,192,106250,1,0,0:0:0:0:
320,192,106250,1,0,0:0:0:0:
192,192,106407,1,0,0:0:0:0:
448,192,106564,1,0,0:0:0:0:
64,192,106564,1,0,0:0:0:0:
320,192,106564,1,0,0:0:0:0:
448,192,106721,1,0,0:0:0:0:
320,192,106721,1,0,0:0:0:0:
64,192,106878,1,0,0:0:0:0:
192,192,106878,1,0,0:0:0:0:
448,192,106878,1,0,0:0:0:0:
320,192,106878,1,0,0:0:0:0:
64,192,107192,1,0,0:0:0:0:
64,192,107506,1,0,0:0:0:0:
64,192,107821,1,0,0:0:0:0:
64,192,108135,1,0,0:0:0:0:
192,192,108135,1,0,0:0:0:0:
320,192,108135,1,0,0:0:0:0:
448,192,108135,1,0,0:0:0:0:
448,192,108292,1,0,0:0:0:0:
192,192,108292,1,0,0:0:0:0:
320,192,108449,1,0,0:0:0:0:
64,192,108449,1,0,0:0:0:0:
448,192,108449,1,0,0:0:0:0:
192,192,108606,1,0,0:0:0:0:
320,192,108606,1,0,0:0:0:0:
64,192,108763,1,0,0:0:0:0:
192,192,108763,1,0,0:0:0:0:
448,192,108763,1,0,0:0:0:0:
448,192,108920,1,0,0:0:0:0:
320,192,108920,1,0,0:0:0:0:
320,192,109077,1,0,0:0:0:0:
64,192,109077,1,0,0:0:0:0:
448,192,109077,1,0,0:0:0:0:
192,192,109234,1,0,0:0:0:0:
320,192,109234,1,0,0:0:0:0:
64,192,109391,1,0,0:0:0:0:
448,192,109391,1,0,0:0:0:0:
192,192,109391,1,0,0:0:0:0:
320,192,109548,1,0,0:0:0:0:
64,192,109705,1,0,0:0:0:0:
192,192,109705,1,0,0:0:0:0:
448,192,109705,1,0,0:0:0:0:
192,192,109862,1,0,0:0:0:0:
64,192,110019,1,0,0:0:0:0:
320,192,110019,1,0,0:0:0:0:
448,192,110019,1,0,0:0:0:0:
448,192,110176,1,0,0:0:0:0:
192,192,110334,1,0,0:0:0:0:
320,192,110334,1,0,0:0:0:0:
64,192,110334,1,0,0:0:0:0:
320,192,110491,1,0,0:0:0:0:
448,192,110648,1,0,0:0:0:0:
64,192,110648,1,0,0:0:0:0:
192,192,110648,1,0,0:0:0:0:
64,192,110805,1,0,0:0:0:0:
320,192,110805,1,0,0:0:0:0:
192,192,110962,1,0,0:0:0:0:
448,192,110962,1,0,0:0:0:0:
320,192,111119,1,0,0:0:0:0:
192,192,111119,1,0,0:0:0:0:
448,192,111276,1,0,0:0:0:0:
64,192,111276,1,0,0:0:0:0:
320,192,111433,1,0,0:0:0:0:
192,192,111433,1,0,0:0:0:0:
192,192,111590,1,0,0:0:0:0:
448,192,111590,1,0,0:0:0:0:
64,192,111590,1,0,0:0:0:0:
320,192,111747,1,0,0:0:0:0:
64,192,111747,1,0,0:0:0:0:
448,192,111904,1,0,0:0:0:0:
64,192,111904,1,0,0:0:0:0:
192,192,111904,1,0,0:0:0:0:
320,192,112061,1,0,0:0:0:0:
448,192,112218,1,0,0:0:0:0:
64,192,112218,1,0,0:0:0:0:
192,192,112218,1,0,0:0:0:0:
192,192,112375,1,0,0:0:0:0:
64,192,112532,1,0,0:0:0:0:
448,192,112532,1,0,0:0:0:0:
320,192,112532,1,0,0:0:0:0:
320,192,112689,1,0,0:0:0:0:
448,192,112846,1,0,0:0:0:0:
192,192,112846,1,0,0:0:0:0:
320,192,113004,1,0,0:0:0:0:
192,192,113004,1,0,0:0:0:0:
64,192,113161,1,0,0:0:0:0:
448,192,113161,1,0,0:0:0:0:
64,192,113475,1,0,0:0:0:0:
64,192,113789,1,0,0:0:0:0:
64,192,114103,1,0,0:0:0:0:
448,192,114103,1,0,0:0:0:0:
64,192,114417,1,0,0:0:0:0:
192,192,114417,1,0,0:0:0:0:
448,192,114496,1,0,0:0:0:0:
192,192,114574,1,0,0:0:0:0:
320,192,114574,1,0,0:0:0:0:
64,192,114653,1,0,0:0:0:0:
448,192,114731,1,0,0:0:0:0:
320,192,114731,1,0,0:0:0:0:
192,192,114810,1,0,0:0:0:0:
448,192,114888,1,0,0:0:0:0:
64,192,114888,1,0,0:0:0:0:
320,192,114967,1,0,0:0:0:0:
192,192,115045,1,0,0:0:0:0:
64,192,115045,1,0,0:0:0:0:
448,192,115124,1,0,0:0:0:0:
192,192,115202,1,0,0:0:0:0:
320,192,115202,1,0,0:0:0:0:
64,192,115281,1,0,0:0:0:0:
320,192,115359,1,0,0:0:0:0:
448,192,115359,1,0,0:0:0:0:
192,192,115438,1,0,0:0:0:0:
448,192,115516,1,0,0:0:0:0:
64,192,115516,1,0,0:0:0:0:
320,192,115595,1,0,0:0:0:0:
192,192,115674,1,0,0:0:0:0:
64,192,115674,1,0,0:0:0:0:
320,192,115752,1,0,0:0:0:0:
448,192,115831,1,0,0:0:0:0:
192,192,115909,1,0,0:0:0:0:
64,192,115909,1,0,0:0:0:0:
320,192,115988,1,0,0:0:0:0:
448,192,115988,1,0,0:0:0:0:
64,192,116066,1,0,0:0:0:0:
192,192,116145,1,0,0:0:0:0:
320,192,116223,1,0,0:0:0:0:
448,192,116223,1,0,0:0:0:0:
192,192,116302,1,0,0:0:0:0:
64,192,116302,1,0,0:0:0:0:
320,192,116380,1,0,0:0:0:0:
448,192,116459,1,0,0:0:0:0:
192,192,116537,1,0,0:0:0:0:
64,192,116537,1,0,0:0:0:0:
320,192,116616,1,0,0:0:0:0:
448,192,116616,1,0,0:0:0:0:
64,192,116694,1,0,0:0:0:0:
192,192,116773,1,0,0:0:0:0:
320,192,116851,1,0,0:0:0:0:
448,192,116851,1,0,0:0:0:0:
192,192,116930,1,0,0:0:0:0:
64,192,116930,1,0,0:0:0:0:
448,192,117715,1,0,0:0:0:0:
320,192,117872,1,0,0:0:0:0:
192,192,118029,1,0,0:0:0:0:
64,192,118186,1,0,0:0:0:0:
448,192,118186,1,0,0:0:0:0:
