osu file format v14

[General]
AudioFilename: Mei.mp3
AudioLeadIn: 0
PreviewTime: 86610
Countdown: 0
SampleSet: Soft
StackLeniency: 0.7
Mode: 3
LetterboxInBreaks: 0
SpecialStyle: 0
WidescreenStoryboard: 1

[Editor]
DistanceSpacing: 1.1
BeatDivisor: 4
GridSize: 8
TimelineZoom: 3.099999

[Metadata]
Title:Beatmania IIDX Pack vol.1
TitleUnicode:Beatmania IIDX Pack vol.1
Artist:Various Artists
ArtistUnicode:Various Artists
Creator:DE-CADE
Version:4K Another (Amuro Vs Killer - MEI)
Source:beatmania IIDX
Tags:Humanoid Tatsh TOMOSUKE Galdeira Amuro Killer DJ YOSHITAKA dj Taka seiryu mei 3y3s MENDES Xepher Almagest
BeatmapID:665029
BeatmapSetID:296008

[Difficulty]
HPDrainRate:7
CircleSize:4
OverallDifficulty:7
ApproachRate:5
SliderMultiplier:1.4
SliderTickRate:1

[Events]
//Background and Video events
0,0,"BG.jpg",0,0
//Break Periods
//Storyboard Layer 0 (Background)
//Storyboard Layer 1 (Fail)
//Storyboard Layer 2 (Pass)
//Storyboard Layer 3 (Foreground)
//Storyboard Sound Samples

[TimingPoints]
962,300,4,2,0,5,1,0
3362,-200,4,2,0,5,0,0
3512,-100,4,2,0,5,0,0
8162,-200,4,2,0,5,0,0
8312,-100,4,2,0,5,0,0
59762,600,4,2,0,5,1,0
59762,-62.5,4,2,0,5,0,0
69362,545.454545454546,4,2,0,5,1,0
69362,-67.1140939597315,4,2,0,5,0,0
71543,500,4,2,0,5,1,0
71543,-71.4285714285714,4,2,0,5,0,0
73543,461.538461538462,4,2,0,5,1,0
73543,-75.5857898715042,4,2,0,5,0,0
75389,428.571428571429,4,2,0,5,1,0
75389,-79.5544948289578,4,2,0,5,0,0
77103,400,4,2,0,5,1,0
77103,-83.3333333333333,4,2,0,5,0,0
78703,375,4,2,0,5,1,0
78703,-86.9565217391304,4,2,0,5,0,0
80203,352.941176470588,4,2,0,5,1,0
80203,-90.9090909090909,4,2,0,5,0,0
81614,333.333333333333,4,2,0,5,1,0
81614,-94.3396226415094,4,2,0,5,0,0
82947,315.789473684211,4,2,0,5,1,0
82947,-97.0873786407767,4,2,0,5,0,0
84210,300,4,2,0,5,1,0
86610,-100,4,2,0,5,0,1
115410,-100,4,2,0,5,0,0
119910,333.333333333333,4,2,0,5,1,0
120243,342.857142857143,4,2,0,5,1,0
121614,363.636363636364,4,2,0,5,1,0
122341,428.571428571429,4,2,0,5,1,0
122769,600,4,2,0,5,1,0
122769,-78.125,4,2,0,5,0,0
123369,545.454545454546,4,2,0,5,1,0
123369,-95.2380952380952,4,2,0,5,0,0
124050,666.666666666667,4,2,0,5,1,0
124050,-98.0392156862745,4,2,0,5,0,0
124550,909.090909090909,4,2,0,5,1,0
124550,-82.6446280991736,4,2,0,5,0,0

[HitObjects]
192,192,2162,5,0,0:0:0:0:
320,192,2312,1,0,0:0:0:0:
448,192,2462,1,0,0:0:0:0:
64,192,2462,1,0,0:0:0:0:
192,192,2612,1,0,0:0:0:0:
448,192,2612,1,0,0:0:0:0:
320,192,2762,1,0,0:0:0:0:
64,192,2762,1,0,0:0:0:0:
448,192,2912,1,0,0:0:0:0:
320,192,3062,1,0,0:0:0:0:
64,192,3062,1,0,0:0:0:0:
192,192,3212,1,0,0:0:0:0:
64,192,3362,128,0,3662:0:0:0:0:
448,192,3662,1,0,0:0:0:0:
192,192,3662,1,0,0:0:0:0:
192,192,4262,1,0,0:0:0:0:
320,192,4412,1,0,0:0:0:0:
448,192,4562,1,0,0:0:0:0:
64,192,4562,1,0,0:0:0:0:
192,192,4712,1,0,0:0:0:0:
320,192,4862,1,0,0:0:0:0:
64,192,4862,1,0,0:0:0:0:
192,192,5012,1,0,0:0:0:0:
64,192,5162,1,0,0:0:0:0:
192,192,5312,1,0,0:0:0:0:
320,192,5462,1,0,0:0:0:0:
448,192,5462,1,0,0:0:0:0:
192,192,5612,1,0,0:0:0:0:
192,192,6062,1,0,0:0:0:0:
320,192,6662,1,0,0:0:0:0:
448,192,6812,1,0,0:0:0:0:
320,192,6962,1,0,0:0:0:0:
192,192,7112,1,0,0:0:0:0:
64,192,7262,1,0,0:0:0:0:
448,192,7262,1,0,0:0:0:0:
320,192,7412,1,0,0:0:0:0:
64,192,7412,1,0,0:0:0:0:
192,192,7562,1,0,0:0:0:0:
448,192,7562,1,0,0:0:0:0:
64,192,7712,1,0,0:0:0:0:
448,192,7862,1,0,0:0:0:0:
192,192,7862,1,0,0:0:0:0:
320,192,8012,1,0,0:0:0:0:
448,192,8162,128,0,8462:0:0:0:0:
320,192,8462,1,0,0:0:0:0:
64,192,8462,1,0,0:0:0:0:
320,192,9062,1,0,0:0:0:0:
192,192,9212,1,0,0:0:0:0:
320,192,9362,1,0,0:0:0:0:
64,192,9362,1,0,0:0:0:0:
448,192,9512,1,0,0:0:0:0:
320,192,9662,1,0,0:0:0:0:
64,192,9662,1,0,0:0:0:0:
192,192,9812,1,0,0:0:0:0:
64,192,9962,1,0,0:0:0:0:
192,192,10112,1,0,0:0:0:0:
320,192,10262,1,0,0:0:0:0:
64,192,10262,1,0,0:0:0:0:
448,192,10412,1,0,0:0:0:0:
448,192,10862,1,0,0:0:0:0:
192,192,11462,1,0,0:0:0:0:
320,192,11537,1,0,0:0:0:0:
64,192,11612,1,0,0:0:0:0:
192,192,11687,1,0,0:0:0:0:
320,192,11762,1,0,0:0:0:0:
448,192,11762,1,0,0:0:0:0:
448,192,11912,1,0,0:0:0:0:
64,192,12062,1,0,0:0:0:0:
320,192,12062,1,0,0:0:0:0:
192,192,12212,1,0,0:0:0:0:
320,192,12287,1,0,0:0:0:0:
192,192,12362,1,0,0:0:0:0:
448,192,12362,1,0,0:0:0:0:
448,192,12512,1,0,0:0:0:0:
320,192,12662,1,0,0:0:0:0:
64,192,12662,1,0,0:0:0:0:
192,192,12737,1,0,0:0:0:0:
320,192,12812,1,0,0:0:0:0:
448,192,12887,1,0,0:0:0:0:
320,192,12962,1,0,0:0:0:0:
192,192,12962,1,0,0:0:0:0:
192,192,13112,1,0,0:0:0:0:
64,192,13262,1,0,0:0:0:0:
448,192,13262,1,0,0:0:0:0:
320,192,13412,1,0,0:0:0:0:
192,192,13487,1,0,0:0:0:0:
64,192,13562,1,0,0:0:0:0:
192,192,13637,1,0,0:0:0:0:
320,192,13712,1,0,0:0:0:0:
448,192,13712,1,0,0:0:0:0:
192,192,13862,1,0,0:0:0:0:
320,192,13937,1,0,0:0:0:0:
64,192,14012,1,0,0:0:0:0:
192,192,14087,1,0,0:0:0:0:
320,192,14162,1,0,0:0:0:0:
448,192,14162,1,0,0:0:0:0:
448,192,14312,1,0,0:0:0:0:
320,192,14462,1,0,0:0:0:0:
64,192,14462,1,0,0:0:0:0:
192,192,14612,1,0,0:0:0:0:
64,192,14687,1,0,0:0:0:0:
192,192,14762,1,0,0:0:0:0:
320,192,14837,1,0,0:0:0:0:
448,192,14912,1,0,0:0:0:0:
192,192,14912,1,0,0:0:0:0:
448,192,15062,1,0,0:0:0:0:
320,192,15212,1,0,0:0:0:0:
192,192,15287,1,0,0:0:0:0:
64,192,15362,1,0,0:0:0:0:
448,192,15362,1,0,0:0:0:0:
320,192,15437,1,0,0:0:0:0:
192,192,15512,1,0,0:0:0:0:
64,192,15587,1,0,0:0:0:0:
192,192,15662,1,0,0:0:0:0:
448,192,15662,1,0,0:0:0:0:
320,192,15812,1,0,0:0:0:0:
192,192,15887,1,0,0:0:0:0:
448,192,15962,1,0,0:0:0:0:
64,192,15962,1,0,0:0:0:0:
192,192,16037,1,0,0:0:0:0:
320,192,16112,1,0,0:0:0:0:
64,192,16187,1,0,0:0:0:0:
192,192,16262,1,0,0:0:0:0:
320,192,16262,1,0,0:0:0:0:
448,192,16337,1,0,0:0:0:0:
64,192,16412,1,0,0:0:0:0:
192,192,16487,1,0,0:0:0:0:
320,192,16562,1,0,0:0:0:0:
448,192,16562,1,0,0:0:0:0:
448,192,16712,1,0,0:0:0:0:
320,192,16862,1,0,0:0:0:0:
64,192,16862,1,0,0:0:0:0:
192,192,17012,1,0,0:0:0:0:
64,192,17087,1,0,0:0:0:0:
192,192,17162,1,0,0:0:0:0:
448,192,17162,1,0,0:0:0:0:
448,192,17312,1,0,0:0:0:0:
320,192,17462,1,0,0:0:0:0:
64,192,17462,1,0,0:0:0:0:
192,192,17537,1,0,0:0:0:0:
320,192,17612,1,0,0:0:0:0:
192,192,17687,1,0,0:0:0:0:
320,192,17762,1,0,0:0:0:0:
448,192,17762,1,0,0:0:0:0:
448,192,17912,1,0,0:0:0:0:
320,192,18062,1,0,0:0:0:0:
64,192,18062,1,0,0:0:0:0:
192,192,18212,1,0,0:0:0:0:
320,192,18287,1,0,0:0:0:0:
448,192,18362,1,0,0:0:0:0:
192,192,18362,1,0,0:0:0:0:
64,192,18437,1,0,0:0:0:0:
192,192,18512,1,0,0:0:0:0:
320,192,18512,1,0,0:0:0:0:
448,192,18662,1,0,0:0:0:0:
320,192,18737,1,0,0:0:0:0:
192,192,18812,1,0,0:0:0:0:
64,192,18887,1,0,0:0:0:0:
192,192,18962,1,0,0:0:0:0:
448,192,18962,1,0,0:0:0:0:
448,192,19112,1,0,0:0:0:0:
320,192,19262,1,0,0:0:0:0:
64,192,19262,1,0,0:0:0:0:
192,192,19412,1,0,0:0:0:0:
448,192,19412,1,0,0:0:0:0:
320,192,19487,1,0,0:0:0:0:
192,192,19562,1,0,0:0:0:0:
64,192,19637,1,0,0:0:0:0:
192,192,19712,1,0,0:0:0:0:
320,192,19712,1,0,0:0:0:0:
448,192,19862,1,0,0:0:0:0:
64,192,19862,1,0,0:0:0:0:
320,192,19937,1,0,0:0:0:0:
192,192,20012,1,0,0:0:0:0:
64,192,21362,1,0,0:0:0:0:
448,192,21362,1,0,0:0:0:0:
320,192,21362,1,0,0:0:0:0:
192,192,21437,1,0,0:0:0:0:
320,192,21512,1,0,0:0:0:0:
448,192,21587,1,0,0:0:0:0:
192,192,21662,1,0,0:0:0:0:
64,192,21662,1,0,0:0:0:0:
320,192,21737,1,0,0:0:0:0:
192,192,21812,1,0,0:0:0:0:
448,192,21887,1,0,0:0:0:0:
64,192,21962,1,0,0:0:0:0:
192,192,22037,1,0,0:0:0:0:
448,192,22112,1,0,0:0:0:0:
320,192,22112,1,0,0:0:0:0:
192,192,22187,1,0,0:0:0:0:
320,192,22262,1,0,0:0:0:0:
64,192,22262,1,0,0:0:0:0:
448,192,22337,1,0,0:0:0:0:
192,192,22412,1,0,0:0:0:0:
320,192,22487,1,0,0:0:0:0:
448,192,22562,1,0,0:0:0:0:
64,192,22562,1,0,0:0:0:0:
192,192,22637,1,0,0:0:0:0:
320,192,22712,1,0,0:0:0:0:
64,192,22787,1,0,0:0:0:0:
192,192,22862,1,0,0:0:0:0:
448,192,22862,1,0,0:0:0:0:
320,192,22937,1,0,0:0:0:0:
192,192,23012,1,0,0:0:0:0:
64,192,23012,1,0,0:0:0:0:
320,192,23087,1,0,0:0:0:0:
448,192,23162,1,0,0:0:0:0:
64,192,23237,1,0,0:0:0:0:
192,192,23312,1,0,0:0:0:0:
320,192,23312,1,0,0:0:0:0:
448,192,23387,1,0,0:0:0:0:
192,192,23462,1,0,0:0:0:0:
64,192,23462,1,0,0:0:0:0:
320,192,23537,1,0,0:0:0:0:
448,192,23612,1,0,0:0:0:0:
64,192,23612,1,0,0:0:0:0:
192,192,23687,1,0,0:0:0:0:
448,192,23762,1,0,0:0:0:0:
320,192,23762,1,0,0:0:0:0:
64,192,23837,1,0,0:0:0:0:
192,192,23912,1,0,0:0:0:0:
448,192,23987,1,0,0:0:0:0:
320,192,24062,1,0,0:0:0:0:
64,192,24062,1,0,0:0:0:0:
192,192,24137,1,0,0:0:0:0:
448,192,24212,1,0,0:0:0:0:
320,192,24287,1,0,0:0:0:0:
64,192,24362,1,0,0:0:0:0:
192,192,24437,1,0,0:0:0:0:
320,192,24512,1,0,0:0:0:0:
448,192,24512,1,0,0:0:0:0:
192,192,24587,1,0,0:0:0:0:
64,192,24662,1,0,0:0:0:0:
448,192,24662,1,0,0:0:0:0:
320,192,24737,1,0,0:0:0:0:
192,192,24812,1,0,0:0:0:0:
64,192,24887,1,0,0:0:0:0:
448,192,24962,1,0,0:0:0:0:
320,192,24962,1,0,0:0:0:0:
192,192,25037,1,0,0:0:0:0:
320,192,25112,1,0,0:0:0:0:
448,192,25187,1,0,0:0:0:0:
192,192,25262,1,0,0:0:0:0:
64,192,25262,1,0,0:0:0:0:
320,192,25337,1,0,0:0:0:0:
192,192,25412,1,0,0:0:0:0:
64,192,25412,1,0,0:0:0:0:
448,192,25487,1,0,0:0:0:0:
320,192,25562,1,0,0:0:0:0:
64,192,25637,1,0,0:0:0:0:
192,192,25712,1,0,0:0:0:0:
448,192,25712,1,0,0:0:0:0:
320,192,25787,1,0,0:0:0:0:
448,192,25862,1,0,0:0:0:0:
64,192,25862,1,0,0:0:0:0:
192,192,25937,1,0,0:0:0:0:
320,192,26012,1,0,0:0:0:0:
64,192,26012,1,0,0:0:0:0:
448,192,26087,1,0,0:0:0:0:
320,192,26162,1,0,0:0:0:0:
192,192,26162,1,0,0:0:0:0:
64,192,26237,1,0,0:0:0:0:
448,192,26312,1,0,0:0:0:0:
320,192,26387,1,0,0:0:0:0:
192,192,26462,1,0,0:0:0:0:
64,192,26462,1,0,0:0:0:0:
448,192,26537,1,0,0:0:0:0:
320,192,26612,1,0,0:0:0:0:
64,192,26612,1,0,0:0:0:0:
192,192,26687,1,0,0:0:0:0:
448,192,26762,1,0,0:0:0:0:
64,192,26837,1,0,0:0:0:0:
320,192,26912,1,0,0:0:0:0:
192,192,26912,1,0,0:0:0:0:
448,192,26987,1,0,0:0:0:0:
64,192,27062,1,0,0:0:0:0:
320,192,27062,1,0,0:0:0:0:
192,192,27137,1,0,0:0:0:0:
448,192,27212,1,0,0:0:0:0:
64,192,27287,1,0,0:0:0:0:
192,192,27362,1,0,0:0:0:0:
320,192,27362,1,0,0:0:0:0:
448,192,27437,1,0,0:0:0:0:
64,192,27512,1,0,0:0:0:0:
192,192,27587,1,0,0:0:0:0:
320,192,27662,1,0,0:0:0:0:
448,192,27662,1,0,0:0:0:0:
64,192,27737,1,0,0:0:0:0:
320,192,27812,1,0,0:0:0:0:
192,192,27887,1,0,0:0:0:0:
64,192,27962,1,0,0:0:0:0:
448,192,28037,1,0,0:0:0:0:
320,192,28112,1,0,0:0:0:0:
192,192,28112,1,0,0:0:0:0:
64,192,28187,1,0,0:0:0:0:
320,192,28262,1,0,0:0:0:0:
448,192,28262,1,0,0:0:0:0:
192,192,28337,1,0,0:0:0:0:
448,192,28412,1,0,0:0:0:0:
64,192,28412,1,0,0:0:0:0:
320,192,28487,1,0,0:0:0:0:
64,192,28562,1,0,0:0:0:0:
192,192,28562,1,0,0:0:0:0:
448,192,28637,1,0,0:0:0:0:
320,192,28712,1,0,0:0:0:0:
192,192,28787,1,0,0:0:0:0:
320,192,28862,1,0,0:0:0:0:
448,192,28862,1,0,0:0:0:0:
64,192,28937,1,0,0:0:0:0:
192,192,29012,1,0,0:0:0:0:
448,192,29012,1,0,0:0:0:0:
320,192,29087,1,0,0:0:0:0:
64,192,29162,1,0,0:0:0:0:
448,192,29237,1,0,0:0:0:0:
192,192,29312,1,0,0:0:0:0:
320,192,29312,1,0,0:0:0:0:
64,192,29387,1,0,0:0:0:0:
448,192,29462,1,0,0:0:0:0:
192,192,29462,1,0,0:0:0:0:
320,192,29537,1,0,0:0:0:0:
448,192,29612,1,0,0:0:0:0:
64,192,29612,1,0,0:0:0:0:
192,192,29687,1,0,0:0:0:0:
64,192,29762,1,0,0:0:0:0:
320,192,29762,1,0,0:0:0:0:
192,192,29837,1,0,0:0:0:0:
448,192,29912,1,0,0:0:0:0:
192,192,29987,1,0,0:0:0:0:
320,192,30062,1,0,0:0:0:0:
448,192,30062,1,0,0:0:0:0:
64,192,30137,1,0,0:0:0:0:
192,192,30212,1,0,0:0:0:0:
448,192,30287,1,0,0:0:0:0:
192,192,30362,1,0,0:0:0:0:
320,192,30362,1,0,0:0:0:0:
64,192,30437,1,0,0:0:0:0:
448,192,30512,1,0,0:0:0:0:
320,192,30512,1,0,0:0:0:0:
192,192,30587,1,0,0:0:0:0:
448,192,30662,1,0,0:0:0:0:
64,192,30662,1,0,0:0:0:0:
448,192,30812,1,0,0:0:0:0:
64,192,30812,1,0,0:0:0:0:
64,192,30962,1,0,0:0:0:0:
448,192,30962,1,0,0:0:0:0:
192,192,30962,1,0,0:0:0:0:
320,192,31037,1,0,0:0:0:0:
192,192,31112,1,0,0:0:0:0:
320,192,31187,1,0,0:0:0:0:
64,192,31262,1,0,0:0:0:0:
448,192,31262,1,0,0:0:0:0:
192,192,31337,1,0,0:0:0:0:
320,192,31412,1,0,0:0:0:0:
448,192,31412,1,0,0:0:0:0:
64,192,31487,1,0,0:0:0:0:
192,192,31562,1,0,0:0:0:0:
320,192,31637,1,0,0:0:0:0:
192,192,31712,1,0,0:0:0:0:
64,192,31712,1,0,0:0:0:0:
448,192,31787,1,0,0:0:0:0:
320,192,31862,1,0,0:0:0:0:
64,192,31862,1,0,0:0:0:0:
192,192,31937,1,0,0:0:0:0:
448,192,32012,1,0,0:0:0:0:
320,192,32087,1,0,0:0:0:0:
192,192,32162,1,0,0:0:0:0:
64,192,32162,1,0,0:0:0:0:
448,192,32237,1,0,0:0:0:0:
320,192,32312,1,0,0:0:0:0:
64,192,32387,1,0,0:0:0:0:
320,192,32462,1,0,0:0:0:0:
192,192,32462,1,0,0:0:0:0:
448,192,32537,1,0,0:0:0:0:
192,192,32612,1,0,0:0:0:0:
64,192,32612,1,0,0:0:0:0:
320,192,32687,1,0,0:0:0:0:
448,192,32762,1,0,0:0:0:0:
64,192,32837,1,0,0:0:0:0:
192,192,32912,1,0,0:0:0:0:
320,192,32912,1,0,0:0:0:0:
448,192,32987,1,0,0:0:0:0:
320,192,33062,1,0,0:0:0:0:
64,192,33062,1,0,0:0:0:0:
192,192,33137,1,0,0:0:0:0:
448,192,33212,1,0,0:0:0:0:
64,192,33212,1,0,0:0:0:0:
320,192,33287,1,0,0:0:0:0:
192,192,33362,1,0,0:0:0:0:
448,192,33362,1,0,0:0:0:0:
64,192,33437,1,0,0:0:0:0:
320,192,33512,1,0,0:0:0:0:
192,192,33587,1,0,0:0:0:0:
64,192,33662,1,0,0:0:0:0:
448,192,33662,1,0,0:0:0:0:
320,192,33737,1,0,0:0:0:0:
192,192,33812,1,0,0:0:0:0:
448,192,33812,1,0,0:0:0:0:
64,192,33887,1,0,0:0:0:0:
320,192,33962,1,0,0:0:0:0:
192,192,34037,1,0,0:0:0:0:
320,192,34112,1,0,0:0:0:0:
448,192,34112,1,0,0:0:0:0:
192,192,34187,1,0,0:0:0:0:
64,192,34262,1,0,0:0:0:0:
448,192,34262,1,0,0:0:0:0:
320,192,34337,1,0,0:0:0:0:
192,192,34412,1,0,0:0:0:0:
320,192,34487,1,0,0:0:0:0:
64,192,34562,1,0,0:0:0:0:
448,192,34562,1,0,0:0:0:0:
192,192,34637,1,0,0:0:0:0:
320,192,34712,1,0,0:0:0:0:
64,192,34787,1,0,0:0:0:0:
320,192,34862,1,0,0:0:0:0:
448,192,34862,1,0,0:0:0:0:
192,192,34937,1,0,0:0:0:0:
448,192,35012,1,0,0:0:0:0:
64,192,35012,1,0,0:0:0:0:
320,192,35087,1,0,0:0:0:0:
192,192,35162,1,0,0:0:0:0:
64,192,35237,1,0,0:0:0:0:
320,192,35312,1,0,0:0:0:0:
448,192,35312,1,0,0:0:0:0:
192,192,35387,1,0,0:0:0:0:
448,192,35462,1,0,0:0:0:0:
64,192,35462,1,0,0:0:0:0:
320,192,35537,1,0,0:0:0:0:
192,192,35612,1,0,0:0:0:0:
64,192,35612,1,0,0:0:0:0:
320,192,35687,1,0,0:0:0:0:
192,192,35762,1,0,0:0:0:0:
64,192,35762,1,0,0:0:0:0:
448,192,35837,1,0,0:0:0:0:
320,192,35912,1,0,0:0:0:0:
64,192,35987,1,0,0:0:0:0:
192,192,36062,1,0,0:0:0:0:
448,192,36062,1,0,0:0:0:0:
320,192,36137,1,0,0:0:0:0:
64,192,36212,1,0,0:0:0:0:
448,192,36212,1,0,0:0:0:0:
192,192,36287,1,0,0:0:0:0:
320,192,36362,1,0,0:0:0:0:
448,192,36437,1,0,0:0:0:0:
192,192,36512,1,0,0:0:0:0:
64,192,36512,1,0,0:0:0:0:
320,192,36587,1,0,0:0:0:0:
64,192,36662,1,0,0:0:0:0:
448,192,36662,1,0,0:0:0:0:
192,192,36737,1,0,0:0:0:0:
320,192,36812,1,0,0:0:0:0:
192,192,36887,1,0,0:0:0:0:
320,192,36962,1,0,0:0:0:0:
448,192,36962,1,0,0:0:0:0:
64,192,37037,1,0,0:0:0:0:
192,192,37112,1,0,0:0:0:0:
320,192,37187,1,0,0:0:0:0:
448,192,37262,1,0,0:0:0:0:
64,192,37262,1,0,0:0:0:0:
192,192,37337,1,0,0:0:0:0:
320,192,37412,1,0,0:0:0:0:
64,192,37487,1,0,0:0:0:0:
448,192,37562,1,0,0:0:0:0:
320,192,37637,1,0,0:0:0:0:
64,192,37712,1,0,0:0:0:0:
192,192,37712,1,0,0:0:0:0:
320,192,37787,1,0,0:0:0:0:
64,192,37862,1,0,0:0:0:0:
448,192,37862,1,0,0:0:0:0:
192,192,37937,1,0,0:0:0:0:
320,192,38012,1,0,0:0:0:0:
448,192,38012,1,0,0:0:0:0:
192,192,38087,1,0,0:0:0:0:
64,192,38162,1,0,0:0:0:0:
320,192,38162,1,0,0:0:0:0:
448,192,38237,1,0,0:0:0:0:
192,192,38312,1,0,0:0:0:0:
64,192,38387,1,0,0:0:0:0:
320,192,38462,1,0,0:0:0:0:
448,192,38462,1,0,0:0:0:0:
192,192,38537,1,0,0:0:0:0:
448,192,38612,1,0,0:0:0:0:
64,192,38612,1,0,0:0:0:0:
320,192,38687,1,0,0:0:0:0:
192,192,38762,1,0,0:0:0:0:
320,192,38837,1,0,0:0:0:0:
192,192,38912,1,0,0:0:0:0:
64,192,38912,1,0,0:0:0:0:
320,192,38987,1,0,0:0:0:0:
448,192,39062,5,0,0:0:0:0:
64,192,39062,1,0,0:0:0:0:
192,192,39212,1,0,0:0:0:0:
320,192,39212,1,0,0:0:0:0:
192,192,39362,5,0,0:0:0:0:
64,192,39362,1,0,0:0:0:0:
448,192,39362,1,0,0:0:0:0:
320,192,39362,1,0,0:0:0:0:
192,192,39962,5,0,0:0:0:0:
320,192,40037,1,0,0:0:0:0:
192,192,40112,1,0,0:0:0:0:
64,192,40112,1,0,0:0:0:0:
320,192,40187,1,0,0:0:0:0:
448,192,40262,1,0,0:0:0:0:
320,192,40337,1,0,0:0:0:0:
448,192,40412,1,0,0:0:0:0:
320,192,40487,1,0,0:0:0:0:
448,192,40562,5,0,0:0:0:0:
64,192,40562,1,0,0:0:0:0:
192,192,40562,1,0,0:0:0:0:
320,192,40637,1,0,0:0:0:0:
192,192,40712,1,0,0:0:0:0:
320,192,40787,1,0,0:0:0:0:
192,192,40862,1,0,0:0:0:0:
64,192,40937,1,0,0:0:0:0:
448,192,41012,1,0,0:0:0:0:
320,192,41087,1,0,0:0:0:0:
192,192,41162,1,0,0:0:0:0:
320,192,41237,1,0,0:0:0:0:
192,192,41312,1,0,0:0:0:0:
64,192,41387,1,0,0:0:0:0:
448,192,41462,1,0,0:0:0:0:
320,192,41537,1,0,0:0:0:0:
192,192,41612,1,0,0:0:0:0:
320,192,41687,1,0,0:0:0:0:
192,192,41762,1,0,0:0:0:0:
64,192,41837,1,0,0:0:0:0:
448,192,41912,1,0,0:0:0:0:
320,192,41987,1,0,0:0:0:0:
192,192,42062,1,0,0:0:0:0:
320,192,42137,1,0,0:0:0:0:
192,192,42212,1,0,0:0:0:0:
64,192,42287,1,0,0:0:0:0:
448,192,42362,1,0,0:0:0:0:
320,192,42437,1,0,0:0:0:0:
192,192,42512,1,0,0:0:0:0:
64,192,42587,1,0,0:0:0:0:
192,192,42662,1,0,0:0:0:0:
320,192,42737,1,0,0:0:0:0:
448,192,42812,1,0,0:0:0:0:
320,192,42887,1,0,0:0:0:0:
192,192,42962,1,0,0:0:0:0:
64,192,43037,1,0,0:0:0:0:
320,192,43112,1,0,0:0:0:0:
192,192,43187,1,0,0:0:0:0:
448,192,43262,1,0,0:0:0:0:
320,192,43337,1,0,0:0:0:0:
192,192,43412,1,0,0:0:0:0:
64,192,43487,1,0,0:0:0:0:
320,192,43562,1,0,0:0:0:0:
192,192,43637,1,0,0:0:0:0:
64,192,43712,1,0,0:0:0:0:
192,192,43787,1,0,0:0:0:0:
320,192,43862,1,0,0:0:0:0:
448,192,43937,1,0,0:0:0:0:
320,192,44012,1,0,0:0:0:0:
192,192,44087,1,0,0:0:0:0:
64,192,44162,1,0,0:0:0:0:
448,192,44237,1,0,0:0:0:0:
320,192,44312,1,0,0:0:0:0:
192,192,44387,1,0,0:0:0:0:
64,192,44462,1,0,0:0:0:0:
192,192,44537,1,0,0:0:0:0:
320,192,44612,1,0,0:0:0:0:
192,192,44687,1,0,0:0:0:0:
320,192,44762,1,0,0:0:0:0:
448,192,44837,1,0,0:0:0:0:
320,192,44912,1,0,0:0:0:0:
192,192,44987,1,0,0:0:0:0:
64,192,45062,1,0,0:0:0:0:
192,192,45137,1,0,0:0:0:0:
320,192,45212,1,0,0:0:0:0:
448,192,45287,1,0,0:0:0:0:
192,192,45362,1,0,0:0:0:0:
0,0,45437,5,0,0:0:0:0:
192,192,45512,1,0,0:0:0:0:
320,192,45587,1,0,0:0:0:0:
192,192,45662,1,0,0:0:0:0:
320,192,45737,1,0,0:0:0:0:
448,192,45812,1,0,0:0:0:0:
192,192,45887,1,0,0:0:0:0:
64,192,45962,1,0,0:0:0:0:
192,192,46037,1,0,0:0:0:0:
320,192,46112,1,0,0:0:0:0:
192,192,46187,1,0,0:0:0:0:
320,192,46262,1,0,0:0:0:0:
448,192,46337,1,0,0:0:0:0:
192,192,46412,1,0,0:0:0:0:
64,192,46487,1,0,0:0:0:0:
192,192,46562,1,0,0:0:0:0:
320,192,46637,1,0,0:0:0:0:
192,192,46712,1,0,0:0:0:0:
320,192,46787,1,0,0:0:0:0:
448,192,46862,1,0,0:0:0:0:
192,192,46937,1,0,0:0:0:0:
320,192,47012,1,0,0:0:0:0:
64,192,47087,1,0,0:0:0:0:
192,192,47162,1,0,0:0:0:0:
320,192,47237,1,0,0:0:0:0:
448,192,47312,1,0,0:0:0:0:
192,192,47387,1,0,0:0:0:0:
320,192,47462,1,0,0:0:0:0:
64,192,47537,1,0,0:0:0:0:
192,192,47612,1,0,0:0:0:0:
320,192,47687,1,0,0:0:0:0:
448,192,47762,1,0,0:0:0:0:
320,192,47837,1,0,0:0:0:0:
192,192,47912,1,0,0:0:0:0:
320,192,47987,1,0,0:0:0:0:
192,192,48062,1,0,0:0:0:0:
64,192,48137,1,0,0:0:0:0:
320,192,48212,1,0,0:0:0:0:
192,192,48287,1,0,0:0:0:0:
64,192,48362,1,0,0:0:0:0:
192,192,48437,1,0,0:0:0:0:
320,192,48512,1,0,0:0:0:0:
448,192,48587,1,0,0:0:0:0:
320,192,48662,1,0,0:0:0:0:
192,192,48737,1,0,0:0:0:0:
448,192,48812,1,0,0:0:0:0:
320,192,48887,1,0,0:0:0:0:
192,192,48962,1,0,0:0:0:0:
64,192,49037,1,0,0:0:0:0:
320,192,49112,1,0,0:0:0:0:
64,192,49187,1,0,0:0:0:0:
192,192,49262,1,0,0:0:0:0:
320,192,49337,1,0,0:0:0:0:
64,192,49412,1,0,0:0:0:0:
320,192,49487,1,0,0:0:0:0:
448,192,49562,1,0,0:0:0:0:
192,192,49637,1,0,0:0:0:0:
448,192,49712,1,0,0:0:0:0:
320,192,49787,1,0,0:0:0:0:
192,192,49862,1,0,0:0:0:0:
64,192,49862,1,0,0:0:0:0:
448,192,49862,1,0,0:0:0:0:
320,192,49937,1,0,0:0:0:0:
192,192,50012,1,0,0:0:0:0:
64,192,50087,1,0,0:0:0:0:
448,192,50162,1,0,0:0:0:0:
320,192,50162,1,0,0:0:0:0:
192,192,50237,1,0,0:0:0:0:
320,192,50387,1,0,0:0:0:0:
64,192,50462,1,0,0:0:0:0:
448,192,50462,1,0,0:0:0:0:
192,192,50612,1,0,0:0:0:0:
320,192,50687,1,0,0:0:0:0:
192,192,50762,1,0,0:0:0:0:
64,192,50762,1,0,0:0:0:0:
320,192,50987,1,0,0:0:0:0:
64,192,51062,1,0,0:0:0:0:
448,192,51062,1,0,0:0:0:0:
192,192,51212,1,0,0:0:0:0:
320,192,51287,1,0,0:0:0:0:
448,192,51362,1,0,0:0:0:0:
192,192,51362,1,0,0:0:0:0:
64,192,51437,1,0,0:0:0:0:
448,192,51512,1,0,0:0:0:0:
320,192,51512,1,0,0:0:0:0:
192,192,51587,1,0,0:0:0:0:
320,192,51662,1,0,0:0:0:0:
64,192,51662,1,0,0:0:0:0:
448,192,51737,1,0,0:0:0:0:
64,192,51887,1,0,0:0:0:0:
192,192,51962,1,0,0:0:0:0:
448,192,51962,1,0,0:0:0:0:
320,192,52037,1,0,0:0:0:0:
192,192,52112,1,0,0:0:0:0:
64,192,52112,1,0,0:0:0:0:
320,192,52187,1,0,0:0:0:0:
448,192,52262,1,0,0:0:0:0:
192,192,52337,1,0,0:0:0:0:
320,192,52412,1,0,0:0:0:0:
64,192,52487,1,0,0:0:0:0:
192,192,52562,1,0,0:0:0:0:
448,192,52562,1,0,0:0:0:0:
320,192,52712,1,0,0:0:0:0:
64,192,52712,1,0,0:0:0:0:
192,192,52862,1,0,0:0:0:0:
448,192,52862,1,0,0:0:0:0:
64,192,53012,1,0,0:0:0:0:
320,192,53012,1,0,0:0:0:0:
192,192,53162,1,0,0:0:0:0:
448,192,53162,1,0,0:0:0:0:
320,192,53237,1,0,0:0:0:0:
192,192,53312,1,0,0:0:0:0:
320,192,53387,1,0,0:0:0:0:
64,192,53462,1,0,0:0:0:0:
448,192,53462,1,0,0:0:0:0:
192,192,53537,1,0,0:0:0:0:
320,192,53612,1,0,0:0:0:0:
448,192,53612,1,0,0:0:0:0:
192,192,53687,1,0,0:0:0:0:
320,192,53762,1,0,0:0:0:0:
64,192,53762,1,0,0:0:0:0:
448,192,53837,1,0,0:0:0:0:
320,192,53912,1,0,0:0:0:0:
192,192,53987,1,0,0:0:0:0:
64,192,54062,1,0,0:0:0:0:
448,192,54062,1,0,0:0:0:0:
192,192,54137,1,0,0:0:0:0:
320,192,54212,1,0,0:0:0:0:
192,192,54287,1,0,0:0:0:0:
320,192,54362,1,0,0:0:0:0:
64,192,54362,1,0,0:0:0:0:
448,192,54437,1,0,0:0:0:0:
320,192,54512,1,0,0:0:0:0:
448,192,54587,1,0,0:0:0:0:
64,192,54662,1,0,0:0:0:0:
192,192,54662,1,0,0:0:0:0:
320,192,54812,1,0,0:0:0:0:
192,192,54812,1,0,0:0:0:0:
448,192,54962,1,0,0:0:0:0:
320,192,54962,1,0,0:0:0:0:
64,192,54962,1,0,0:0:0:0:
192,192,55112,1,0,0:0:0:0:
64,192,55262,1,0,0:0:0:0:
448,192,55262,1,0,0:0:0:0:
320,192,55412,1,0,0:0:0:0:
448,192,55562,1,0,0:0:0:0:
64,192,55562,1,0,0:0:0:0:
320,192,55637,1,0,0:0:0:0:
192,192,55712,1,0,0:0:0:0:
64,192,55787,1,0,0:0:0:0:
192,192,55862,1,0,0:0:0:0:
448,192,55862,1,0,0:0:0:0:
320,192,55937,1,0,0:0:0:0:
192,192,56012,1,0,0:0:0:0:
64,192,56087,1,0,0:0:0:0:
448,192,56162,1,0,0:0:0:0:
320,192,56162,1,0,0:0:0:0:
192,192,56237,1,0,0:0:0:0:
64,192,56312,1,0,0:0:0:0:
448,192,56387,1,0,0:0:0:0:
192,192,56462,1,0,0:0:0:0:
320,192,56462,1,0,0:0:0:0:
64,192,56537,1,0,0:0:0:0:
448,192,56612,1,0,0:0:0:0:
320,192,56687,1,0,0:0:0:0:
192,192,56762,1,0,0:0:0:0:
64,192,56762,1,0,0:0:0:0:
320,192,56837,1,0,0:0:0:0:
448,192,56912,1,0,0:0:0:0:
64,192,56987,1,0,0:0:0:0:
192,192,57062,1,0,0:0:0:0:
320,192,57062,1,0,0:0:0:0:
448,192,57137,1,0,0:0:0:0:
192,192,57287,1,0,0:0:0:0:
448,192,57362,1,0,0:0:0:0:
64,192,57362,1,0,0:0:0:0:
320,192,57437,1,0,0:0:0:0:
192,192,57587,1,0,0:0:0:0:
64,192,57662,1,0,0:0:0:0:
320,192,57662,1,0,0:0:0:0:
448,192,57812,1,0,0:0:0:0:
192,192,57812,1,0,0:0:0:0:
320,192,57962,1,0,0:0:0:0:
64,192,57962,1,0,0:0:0:0:
448,192,58037,1,0,0:0:0:0:
320,192,58187,1,0,0:0:0:0:
64,192,58262,1,0,0:0:0:0:
192,192,58262,1,0,0:0:0:0:
320,192,58412,1,0,0:0:0:0:
448,192,58487,1,0,0:0:0:0:
64,192,58562,1,0,0:0:0:0:
320,192,58562,1,0,0:0:0:0:
192,192,58637,1,0,0:0:0:0:
448,192,58712,1,0,0:0:0:0:
192,192,58787,1,0,0:0:0:0:
64,192,58862,1,0,0:0:0:0:
192,192,58937,1,0,0:0:0:0:
320,192,59012,1,0,0:0:0:0:
448,192,59087,1,0,0:0:0:0:
320,192,59162,1,0,0:0:0:0:
64,192,59162,1,0,0:0:0:0:
192,192,59237,1,0,0:0:0:0:
320,192,59312,1,0,0:0:0:0:
448,192,59312,1,0,0:0:0:0:
64,192,59387,1,0,0:0:0:0:
192,192,59462,1,0,0:0:0:0:
448,192,59462,1,0,0:0:0:0:
192,192,59612,1,0,0:0:0:0:
320,192,59612,1,0,0:0:0:0:
448,192,59762,5,0,0:0:0:0:
320,192,59762,1,0,0:0:0:0:
64,192,59762,1,0,0:0:0:0:
192,192,59912,1,0,0:0:0:0:
320,192,60062,1,0,0:0:0:0:
448,192,60212,1,0,0:0:0:0:
64,192,60362,1,0,0:0:0:0:
192,192,60512,1,0,0:0:0:0:
448,192,60512,1,0,0:0:0:0:
320,192,60662,1,0,0:0:0:0:
448,192,60662,1,0,0:0:0:0:
192,192,60812,1,0,0:0:0:0:
64,192,60962,1,0,0:0:0:0:
320,192,60962,1,0,0:0:0:0:
448,192,61112,1,0,0:0:0:0:
320,192,61262,1,0,0:0:0:0:
192,192,61412,1,0,0:0:0:0:
448,192,61412,1,0,0:0:0:0:
64,192,61562,1,0,0:0:0:0:
192,192,61712,1,0,0:0:0:0:
320,192,61862,1,0,0:0:0:0:
448,192,61862,1,0,0:0:0:0:
192,192,62012,1,0,0:0:0:0:
448,192,62012,1,0,0:0:0:0:
64,192,62162,1,0,0:0:0:0:
192,192,62312,1,0,0:0:0:0:
320,192,62462,1,0,0:0:0:0:
448,192,62612,1,0,0:0:0:0:
64,192,62762,1,0,0:0:0:0:
192,192,62912,1,0,0:0:0:0:
448,192,62912,1,0,0:0:0:0:
320,192,63062,1,0,0:0:0:0:
448,192,63062,1,0,0:0:0:0:
192,192,63212,1,0,0:0:0:0:
64,192,63362,1,0,0:0:0:0:
448,192,63362,1,0,0:0:0:0:
320,192,63512,1,0,0:0:0:0:
192,192,63662,1,0,0:0:0:0:
64,192,63812,1,0,0:0:0:0:
448,192,63812,1,0,0:0:0:0:
192,192,63962,1,0,0:0:0:0:
448,192,63962,1,0,0:0:0:0:
320,192,64112,1,0,0:0:0:0:
64,192,64262,1,0,0:0:0:0:
192,192,64262,1,0,0:0:0:0:
320,192,64412,1,0,0:0:0:0:
64,192,64412,1,0,0:0:0:0:
448,192,64562,1,0,0:0:0:0:
320,192,64712,1,0,0:0:0:0:
192,192,64862,1,0,0:0:0:0:
64,192,65012,1,0,0:0:0:0:
448,192,65162,1,0,0:0:0:0:
320,192,65312,1,0,0:0:0:0:
64,192,65312,1,0,0:0:0:0:
192,192,65462,1,0,0:0:0:0:
64,192,65462,1,0,0:0:0:0:
320,192,65612,1,0,0:0:0:0:
448,192,65762,1,0,0:0:0:0:
64,192,65762,1,0,0:0:0:0:
192,192,65912,1,0,0:0:0:0:
320,192,66062,1,0,0:0:0:0:
448,192,66212,1,0,0:0:0:0:
64,192,66212,1,0,0:0:0:0:
192,192,66362,1,0,0:0:0:0:
448,192,66362,1,0,0:0:0:0:
320,192,66512,1,0,0:0:0:0:
448,192,66662,1,0,0:0:0:0:
64,192,66662,1,0,0:0:0:0:
320,192,66812,1,0,0:0:0:0:
64,192,66812,1,0,0:0:0:0:
192,192,66962,1,0,0:0:0:0:
448,192,67112,1,0,0:0:0:0:
320,192,67262,1,0,0:0:0:0:
192,192,67412,1,0,0:0:0:0:
64,192,67562,1,0,0:0:0:0:
448,192,67712,1,0,0:0:0:0:
192,192,67712,1,0,0:0:0:0:
320,192,67862,1,0,0:0:0:0:
192,192,67862,1,0,0:0:0:0:
448,192,68012,1,0,0:0:0:0:
320,192,68162,1,0,0:0:0:0:
64,192,68162,1,0,0:0:0:0:
192,192,68312,1,0,0:0:0:0:
64,192,68462,1,0,0:0:0:0:
448,192,68612,1,0,0:0:0:0:
192,192,68612,1,0,0:0:0:0:
320,192,68762,1,0,0:0:0:0:
448,192,68762,1,0,0:0:0:0:
64,192,68912,1,0,0:0:0:0:
192,192,69062,1,0,0:0:0:0:
320,192,69212,1,0,0:0:0:0:
192,192,69362,1,0,0:0:0:0:
64,192,69362,1,0,0:0:0:0:
448,192,69362,1,0,0:0:0:0:
320,192,69498,1,0,0:0:0:0:
192,192,69634,1,0,0:0:0:0:
64,192,69634,1,0,0:0:0:0:
192,192,69771,1,0,0:0:0:0:
320,192,69771,1,0,0:0:0:0:
448,192,69907,1,0,0:0:0:0:
64,192,70043,1,0,0:0:0:0:
320,192,70043,1,0,0:0:0:0:
192,192,70180,1,0,0:0:0:0:
448,192,70180,1,0,0:0:0:0:
320,192,70316,1,0,0:0:0:0:
64,192,70452,1,0,0:0:0:0:
448,192,70452,1,0,0:0:0:0:
192,192,70589,1,0,0:0:0:0:
320,192,70725,1,0,0:0:0:0:
448,192,70862,1,0,0:0:0:0:
64,192,70862,1,0,0:0:0:0:
448,192,70998,1,0,0:0:0:0:
320,192,71134,1,0,0:0:0:0:
192,192,71271,1,0,0:0:0:0:
64,192,71271,1,0,0:0:0:0:
320,192,71407,1,0,0:0:0:0:
192,192,71407,1,0,0:0:0:0:
320,192,71543,1,0,0:0:0:0:
448,192,71543,1,0,0:0:0:0:
64,192,71543,1,0,0:0:0:0:
192,192,71668,1,0,0:0:0:0:
320,192,71793,1,0,0:0:0:0:
448,192,71793,1,0,0:0:0:0:
320,192,71918,1,0,0:0:0:0:
192,192,71918,1,0,0:0:0:0:
64,192,72043,1,0,0:0:0:0:
448,192,72168,1,0,0:0:0:0:
192,192,72168,1,0,0:0:0:0:
320,192,72293,1,0,0:0:0:0:
64,192,72293,1,0,0:0:0:0:
192,192,72418,1,0,0:0:0:0:
448,192,72543,1,0,0:0:0:0:
64,192,72543,1,0,0:0:0:0:
192,192,72668,1,0,0:0:0:0:
320,192,72668,1,0,0:0:0:0:
448,192,72793,1,0,0:0:0:0:
320,192,72918,1,0,0:0:0:0:
64,192,72918,1,0,0:0:0:0:
64,192,73043,1,0,0:0:0:0:
192,192,73168,1,0,0:0:0:0:
448,192,73168,1,0,0:0:0:0:
320,192,73293,1,0,0:0:0:0:
64,192,73293,1,0,0:0:0:0:
192,192,73418,1,0,0:0:0:0:
448,192,73543,1,0,0:0:0:0:
320,192,73543,1,0,0:0:0:0:
64,192,73543,1,0,0:0:0:0:
192,192,73658,1,0,0:0:0:0:
320,192,73773,1,0,0:0:0:0:
448,192,73889,1,0,0:0:0:0:
64,192,74004,1,0,0:0:0:0:
192,192,74119,1,0,0:0:0:0:
448,192,74119,1,0,0:0:0:0:
320,192,74235,1,0,0:0:0:0:
448,192,74235,1,0,0:0:0:0:
192,192,74350,1,0,0:0:0:0:
64,192,74466,1,0,0:0:0:0:
448,192,74466,1,0,0:0:0:0:
320,192,74581,1,0,0:0:0:0:
192,192,74581,1,0,0:0:0:0:
64,192,74696,1,0,0:0:0:0:
448,192,74812,1,0,0:0:0:0:
192,192,74812,1,0,0:0:0:0:
448,192,74927,1,0,0:0:0:0:
320,192,75043,1,0,0:0:0:0:
192,192,75158,1,0,0:0:0:0:
64,192,75158,1,0,0:0:0:0:
320,192,75273,1,0,0:0:0:0:
192,192,75273,1,0,0:0:0:0:
320,192,75389,1,0,0:0:0:0:
448,192,75389,1,0,0:0:0:0:
64,192,75389,1,0,0:0:0:0:
192,192,75496,1,0,0:0:0:0:
320,192,75603,1,0,0:0:0:0:
448,192,75710,1,0,0:0:0:0:
64,192,75817,1,0,0:0:0:0:
192,192,75924,1,0,0:0:0:0:
448,192,75924,1,0,0:0:0:0:
320,192,76031,1,0,0:0:0:0:
448,192,76031,1,0,0:0:0:0:
192,192,76139,1,0,0:0:0:0:
64,192,76246,1,0,0:0:0:0:
448,192,76246,1,0,0:0:0:0:
320,192,76353,1,0,0:0:0:0:
192,192,76353,1,0,0:0:0:0:
448,192,76460,1,0,0:0:0:0:
320,192,76567,1,0,0:0:0:0:
64,192,76567,1,0,0:0:0:0:
64,192,76674,1,0,0:0:0:0:
192,192,76781,1,0,0:0:0:0:
320,192,76889,1,0,0:0:0:0:
448,192,76889,1,0,0:0:0:0:
320,192,76996,1,0,0:0:0:0:
192,192,76996,1,0,0:0:0:0:
64,192,77103,1,0,0:0:0:0:
192,192,77103,1,0,0:0:0:0:
448,192,77103,1,0,0:0:0:0:
320,192,77203,1,0,0:0:0:0:
192,192,77303,1,0,0:0:0:0:
64,192,77403,1,0,0:0:0:0:
448,192,77503,1,0,0:0:0:0:
64,192,77603,1,0,0:0:0:0:
192,192,77703,1,0,0:0:0:0:
320,192,77803,1,0,0:0:0:0:
64,192,77903,1,0,0:0:0:0:
192,192,77903,1,0,0:0:0:0:
448,192,77903,1,0,0:0:0:0:
320,192,78003,1,0,0:0:0:0:
192,192,78103,1,0,0:0:0:0:
64,192,78203,1,0,0:0:0:0:
448,192,78303,1,0,0:0:0:0:
64,192,78403,1,0,0:0:0:0:
192,192,78503,1,0,0:0:0:0:
320,192,78603,1,0,0:0:0:0:
448,192,78703,1,0,0:0:0:0:
192,192,78703,1,0,0:0:0:0:
64,192,78703,1,0,0:0:0:0:
320,192,78796,1,0,0:0:0:0:
192,192,78890,1,0,0:0:0:0:
64,192,78984,1,0,0:0:0:0:
448,192,79078,1,0,0:0:0:0:
64,192,79171,1,0,0:0:0:0:
192,192,79265,1,0,0:0:0:0:
320,192,79359,1,0,0:0:0:0:
448,192,79453,1,0,0:0:0:0:
192,192,79453,1,0,0:0:0:0:
64,192,79453,1,0,0:0:0:0:
320,192,79546,1,0,0:0:0:0:
192,192,79640,1,0,0:0:0:0:
64,192,79734,1,0,0:0:0:0:
448,192,79828,1,0,0:0:0:0:
64,192,79921,1,0,0:0:0:0:
192,192,80015,1,0,0:0:0:0:
320,192,80109,1,0,0:0:0:0:
448,192,80203,1,0,0:0:0:0:
192,192,80203,1,0,0:0:0:0:
64,192,80203,1,0,0:0:0:0:
320,192,80291,1,0,0:0:0:0:
192,192,80379,1,0,0:0:0:0:
64,192,80379,1,0,0:0:0:0:
448,192,80379,1,0,0:0:0:0:
320,192,80467,5,0,0:0:0:0:
448,192,80555,1,0,0:0:0:0:
64,192,80644,1,0,0:0:0:0:
192,192,80732,1,0,0:0:0:0:
448,192,80732,1,0,0:0:0:0:
320,192,80732,1,0,0:0:0:0:
192,192,80908,1,0,0:0:0:0:
320,192,80908,1,0,0:0:0:0:
64,192,80908,1,0,0:0:0:0:
64,192,81085,1,0,0:0:0:0:
448,192,81085,1,0,0:0:0:0:
320,192,81085,1,0,0:0:0:0:
192,192,81173,1,0,0:0:0:0:
448,192,81261,1,0,0:0:0:0:
320,192,81350,1,0,0:0:0:0:
192,192,81438,1,0,0:0:0:0:
448,192,81438,1,0,0:0:0:0:
64,192,81438,1,0,0:0:0:0:
320,192,81526,1,0,0:0:0:0:
448,192,81614,5,0,0:0:0:0:
192,192,81614,1,0,0:0:0:0:
64,192,81614,1,0,0:0:0:0:
320,192,81697,1,0,0:0:0:0:
64,192,81780,1,0,0:0:0:0:
192,192,81864,1,0,0:0:0:0:
64,192,81947,1,0,0:0:0:0:
320,192,81947,1,0,0:0:0:0:
448,192,81947,1,0,0:0:0:0:
192,192,82030,1,0,0:0:0:0:
320,192,82114,1,0,0:0:0:0:
448,192,82197,1,0,0:0:0:0:
320,192,82280,1,0,0:0:0:0:
192,192,82280,1,0,0:0:0:0:
64,192,82280,1,0,0:0:0:0:
448,192,82364,1,0,0:0:0:0:
64,192,82447,1,0,0:0:0:0:
192,192,82530,1,0,0:0:0:0:
320,192,82614,1,0,0:0:0:0:
64,192,82614,1,0,0:0:0:0:
448,192,82614,1,0,0:0:0:0:
192,192,82697,1,0,0:0:0:0:
448,192,82780,1,0,0:0:0:0:
320,192,82864,1,0,0:0:0:0:
64,192,82947,5,0,0:0:0:0:
192,192,82947,1,0,0:0:0:0:
448,192,82947,1,0,0:0:0:0:
448,192,83104,5,0,0:0:0:0:
320,192,83104,1,0,0:0:0:0:
64,192,83104,1,0,0:0:0:0:
448,192,83262,1,0,0:0:0:0:
192,192,83262,1,0,0:0:0:0:
64,192,83262,1,0,0:0:0:0:
320,192,83420,1,0,0:0:0:0:
448,192,83420,1,0,0:0:0:0:
64,192,83420,1,0,0:0:0:0:
448,192,83578,1,0,0:0:0:0:
320,192,83578,1,0,0:0:0:0:
192,192,83578,1,0,0:0:0:0:
320,192,83736,1,0,0:0:0:0:
448,192,83736,1,0,0:0:0:0:
64,192,83736,1,0,0:0:0:0:
448,192,83894,1,0,0:0:0:0:
320,192,83894,1,0,0:0:0:0:
192,192,83894,1,0,0:0:0:0:
320,192,84052,1,0,0:0:0:0:
448,192,84052,1,0,0:0:0:0:
64,192,84052,1,0,0:0:0:0:
448,192,84210,5,0,0:0:0:0:
320,192,84210,1,0,0:0:0:0:
192,192,84285,1,0,0:0:0:0:
64,192,84285,1,0,0:0:0:0:
320,192,84360,1,0,0:0:0:0:
448,192,84360,1,0,0:0:0:0:
192,192,84435,1,0,0:0:0:0:
64,192,84435,1,0,0:0:0:0:
320,192,84510,1,0,0:0:0:0:
448,192,84510,1,0,0:0:0:0:
192,192,84585,1,0,0:0:0:0:
64,192,84585,1,0,0:0:0:0:
320,192,84660,1,0,0:0:0:0:
448,192,84660,1,0,0:0:0:0:
64,192,84735,1,0,0:0:0:0:
192,192,84735,1,0,0:0:0:0:
320,192,84810,1,0,0:0:0:0:
448,192,84810,1,0,0:0:0:0:
192,192,84885,1,0,0:0:0:0:
64,192,84885,1,0,0:0:0:0:
320,192,84960,1,0,0:0:0:0:
448,192,84960,1,0,0:0:0:0:
192,192,85035,1,0,0:0:0:0:
64,192,85035,1,0,0:0:0:0:
320,192,85110,1,0,0:0:0:0:
448,192,85110,1,0,0:0:0:0:
192,192,85185,1,0,0:0:0:0:
64,192,85185,1,0,0:0:0:0:
320,192,85260,1,0,0:0:0:0:
448,192,85260,1,0,0:0:0:0:
192,192,85335,1,0,0:0:0:0:
64,192,85335,1,0,0:0:0:0:
320,192,85410,1,0,0:0:0:0:
448,192,85410,1,0,0:0:0:0:
64,192,85447,1,0,0:0:0:0:
192,192,85485,1,0,0:0:0:0:
320,192,85522,1,0,0:0:0:0:
448,192,85560,1,0,0:0:0:0:
64,192,85597,1,0,0:0:0:0:
192,192,85635,1,0,0:0:0:0:
448,192,85672,1,0,0:0:0:0:
320,192,85710,1,0,0:0:0:0:
64,192,85747,1,0,0:0:0:0:
192,192,85785,1,0,0:0:0:0:
320,192,85822,1,0,0:0:0:0:
448,192,85860,1,0,0:0:0:0:
64,192,85897,1,0,0:0:0:0:
192,192,85935,1,0,0:0:0:0:
448,192,85972,1,0,0:0:0:0:
320,192,86010,1,0,0:0:0:0:
64,192,86047,1,0,0:0:0:0:
192,192,86085,1,0,0:0:0:0:
320,192,86122,1,0,0:0:0:0:
448,192,86160,1,0,0:0:0:0:
64,192,86197,1,0,0:0:0:0:
192,192,86235,1,0,0:0:0:0:
448,192,86272,1,0,0:0:0:0:
320,192,86310,1,0,0:0:0:0:
64,192,86347,1,0,0:0:0:0:
192,192,86385,1,0,0:0:0:0:
320,192,86422,1,0,0:0:0:0:
448,192,86460,1,0,0:0:0:0:
64,192,86497,1,0,0:0:0:0:
192,192,86535,1,0,0:0:0:0:
320,192,86572,1,0,0:0:0:0:
64,192,86610,1,0,0:0:0:0:
448,192,86610,1,0,0:0:0:0:
320,192,86760,1,0,0:0:0:0:
192,192,86835,1,0,0:0:0:0:
448,192,86910,1,0,0:0:0:0:
64,192,86910,1,0,0:0:0:0:
192,192,86985,1,0,0:0:0:0:
320,192,87060,1,0,0:0:0:0:
192,192,87135,1,0,0:0:0:0:
64,192,87210,1,0,0:0:0:0:
320,192,87210,1,0,0:0:0:0:
448,192,87210,1,0,0:0:0:0:
448,192,87360,1,0,0:0:0:0:
320,192,87435,1,0,0:0:0:0:
192,192,87510,1,0,0:0:0:0:
64,192,87510,1,0,0:0:0:0:
320,192,87585,1,0,0:0:0:0:
192,192,87660,1,0,0:0:0:0:
448,192,87660,1,0,0:0:0:0:
64,192,87735,1,0,0:0:0:0:
320,192,87810,1,0,0:0:0:0:
448,192,87885,1,0,0:0:0:0:
320,192,87960,1,0,0:0:0:0:
64,192,87960,1,0,0:0:0:0:
192,192,88035,1,0,0:0:0:0:
64,192,88110,1,0,0:0:0:0:
448,192,88110,1,0,0:0:0:0:
320,192,88185,1,0,0:0:0:0:
192,192,88260,1,0,0:0:0:0:
320,192,88335,1,0,0:0:0:0:
448,192,88410,1,0,0:0:0:0:
64,192,88410,1,0,0:0:0:0:
192,192,88410,1,0,0:0:0:0:
448,192,88560,1,0,0:0:0:0:
192,192,88560,1,0,0:0:0:0:
448,192,88710,1,0,0:0:0:0:
64,192,88710,1,0,0:0:0:0:
320,192,88710,1,0,0:0:0:0:
192,192,88860,1,0,0:0:0:0:
448,192,89010,1,0,0:0:0:0:
64,192,89010,1,0,0:0:0:0:
320,192,89010,1,0,0:0:0:0:
448,192,89160,1,0,0:0:0:0:
192,192,89160,1,0,0:0:0:0:
320,192,89310,1,0,0:0:0:0:
192,192,89310,1,0,0:0:0:0:
64,192,89460,1,0,0:0:0:0:
192,192,89535,1,0,0:0:0:0:
320,192,89610,1,0,0:0:0:0:
448,192,89610,1,0,0:0:0:0:
192,192,89760,1,0,0:0:0:0:
64,192,89910,1,0,0:0:0:0:
320,192,89910,1,0,0:0:0:0:
448,192,90060,1,0,0:0:0:0:
192,192,90060,1,0,0:0:0:0:
320,192,90060,1,0,0:0:0:0:
64,192,90135,1,0,0:0:0:0:
192,192,90210,1,0,0:0:0:0:
320,192,90285,1,0,0:0:0:0:
448,192,90360,1,0,0:0:0:0:
64,192,90360,1,0,0:0:0:0:
192,192,90435,1,0,0:0:0:0:
320,192,90510,1,0,0:0:0:0:
448,192,90510,1,0,0:0:0:0:
64,192,90660,1,0,0:0:0:0:
448,192,90660,1,0,0:0:0:0:
320,192,90735,1,0,0:0:0:0:
192,192,90810,1,0,0:0:0:0:
64,192,90810,1,0,0:0:0:0:
320,192,90885,1,0,0:0:0:0:
192,192,90960,1,0,0:0:0:0:
64,192,90960,1,0,0:0:0:0:
320,192,91035,1,0,0:0:0:0:
448,192,91110,1,0,0:0:0:0:
192,192,91110,1,0,0:0:0:0:
64,192,91185,1,0,0:0:0:0:
448,192,91260,1,0,0:0:0:0:
320,192,91260,1,0,0:0:0:0:
192,192,91335,1,0,0:0:0:0:
448,192,91410,1,0,0:0:0:0:
64,192,91410,1,0,0:0:0:0:
320,192,91410,1,0,0:0:0:0:
64,192,91560,1,0,0:0:0:0:
192,192,91560,1,0,0:0:0:0:
320,192,91635,1,0,0:0:0:0:
192,192,91710,1,0,0:0:0:0:
448,192,91710,1,0,0:0:0:0:
320,192,91860,1,0,0:0:0:0:
64,192,91860,1,0,0:0:0:0:
192,192,91935,1,0,0:0:0:0:
320,192,92010,1,0,0:0:0:0:
448,192,92010,1,0,0:0:0:0:
448,192,92160,1,0,0:0:0:0:
192,192,92160,1,0,0:0:0:0:
64,192,92310,1,0,0:0:0:0:
320,192,92310,1,0,0:0:0:0:
192,192,92460,1,0,0:0:0:0:
448,192,92460,1,0,0:0:0:0:
320,192,92460,1,0,0:0:0:0:
448,192,92610,1,0,0:0:0:0:
448,192,92760,1,0,0:0:0:0:
192,192,92760,1,0,0:0:0:0:
64,192,92760,1,0,0:0:0:0:
320,192,92835,1,0,0:0:0:0:
192,192,92910,1,0,0:0:0:0:
64,192,92910,1,0,0:0:0:0:
448,192,93060,1,0,0:0:0:0:
192,192,93135,1,0,0:0:0:0:
320,192,93210,1,0,0:0:0:0:
448,192,93210,1,0,0:0:0:0:
192,192,93285,1,0,0:0:0:0:
320,192,93360,1,0,0:0:0:0:
64,192,93360,1,0,0:0:0:0:
448,192,93435,1,0,0:0:0:0:
320,192,93510,1,0,0:0:0:0:
192,192,93510,1,0,0:0:0:0:
192,192,93660,1,0,0:0:0:0:
320,192,93810,1,0,0:0:0:0:
448,192,93810,1,0,0:0:0:0:
64,192,93810,1,0,0:0:0:0:
192,192,93885,1,0,0:0:0:0:
320,192,93960,1,0,0:0:0:0:
448,192,94035,1,0,0:0:0:0:
320,192,94110,1,0,0:0:0:0:
64,192,94110,1,0,0:0:0:0:
192,192,94185,1,0,0:0:0:0:
64,192,94260,1,0,0:0:0:0:
192,192,94335,1,0,0:0:0:0:
320,192,94410,1,0,0:0:0:0:
448,192,94410,1,0,0:0:0:0:
192,192,94485,1,0,0:0:0:0:
320,192,94560,1,0,0:0:0:0:
64,192,94560,1,0,0:0:0:0:
448,192,94635,1,0,0:0:0:0:
320,192,94710,1,0,0:0:0:0:
64,192,94710,1,0,0:0:0:0:
192,192,94785,1,0,0:0:0:0:
64,192,94860,1,0,0:0:0:0:
448,192,94860,1,0,0:0:0:0:
192,192,94935,1,0,0:0:0:0:
320,192,95010,1,0,0:0:0:0:
448,192,95085,1,0,0:0:0:0:
320,192,95160,1,0,0:0:0:0:
64,192,95160,1,0,0:0:0:0:
192,192,95235,1,0,0:0:0:0:
320,192,95310,1,0,0:0:0:0:
448,192,95310,1,0,0:0:0:0:
192,192,95385,1,0,0:0:0:0:
320,192,95460,1,0,0:0:0:0:
448,192,95460,1,0,0:0:0:0:
192,192,95535,1,0,0:0:0:0:
64,192,95610,1,0,0:0:0:0:
448,192,95610,1,0,0:0:0:0:
320,192,95685,1,0,0:0:0:0:
64,192,95760,1,0,0:0:0:0:
192,192,95760,1,0,0:0:0:0:
320,192,95835,1,0,0:0:0:0:
64,192,95910,1,0,0:0:0:0:
448,192,95910,1,0,0:0:0:0:
192,192,95910,1,0,0:0:0:0:
320,192,96060,1,0,0:0:0:0:
448,192,96060,1,0,0:0:0:0:
64,192,96210,1,0,0:0:0:0:
448,192,96210,1,0,0:0:0:0:
192,192,96210,1,0,0:0:0:0:
64,192,96360,1,0,0:0:0:0:
320,192,96510,1,0,0:0:0:0:
448,192,96510,1,0,0:0:0:0:
192,192,96660,1,0,0:0:0:0:
320,192,96735,1,0,0:0:0:0:
448,192,96810,1,0,0:0:0:0:
64,192,96810,1,0,0:0:0:0:
192,192,96810,1,0,0:0:0:0:
320,192,96960,1,0,0:0:0:0:
64,192,97035,1,0,0:0:0:0:
192,192,97110,1,0,0:0:0:0:
448,192,97110,1,0,0:0:0:0:
320,192,97185,1,0,0:0:0:0:
448,192,97260,1,0,0:0:0:0:
64,192,97260,1,0,0:0:0:0:
192,192,97260,1,0,0:0:0:0:
320,192,97410,1,0,0:0:0:0:
448,192,97560,1,0,0:0:0:0:
192,192,97560,1,0,0:0:0:0:
64,192,97560,1,0,0:0:0:0:
448,192,97710,1,0,0:0:0:0:
320,192,97710,1,0,0:0:0:0:
192,192,97860,1,0,0:0:0:0:
320,192,97935,1,0,0:0:0:0:
64,192,98010,1,0,0:0:0:0:
448,192,98010,1,0,0:0:0:0:
192,192,98010,1,0,0:0:0:0:
320,192,98160,1,0,0:0:0:0:
64,192,98160,1,0,0:0:0:0:
448,192,98235,1,0,0:0:0:0:
320,192,98310,1,0,0:0:0:0:
192,192,98310,1,0,0:0:0:0:
64,192,98385,1,0,0:0:0:0:
448,192,98460,1,0,0:0:0:0:
320,192,98460,1,0,0:0:0:0:
192,192,98610,1,0,0:0:0:0:
64,192,98610,1,0,0:0:0:0:
448,192,98610,1,0,0:0:0:0:
320,192,98760,1,0,0:0:0:0:
64,192,98910,1,0,0:0:0:0:
448,192,98910,1,0,0:0:0:0:
192,192,99060,1,0,0:0:0:0:
320,192,99135,1,0,0:0:0:0:
448,192,99210,1,0,0:0:0:0:
64,192,99210,1,0,0:0:0:0:
192,192,99210,1,0,0:0:0:0:
320,192,99360,1,0,0:0:0:0:
64,192,99435,1,0,0:0:0:0:
448,192,99510,1,0,0:0:0:0:
192,192,99510,1,0,0:0:0:0:
320,192,99585,1,0,0:0:0:0:
448,192,99660,1,0,0:0:0:0:
64,192,99660,1,0,0:0:0:0:
192,192,99660,1,0,0:0:0:0:
320,192,99810,1,0,0:0:0:0:
448,192,99960,1,0,0:0:0:0:
64,192,99960,1,0,0:0:0:0:
448,192,100110,1,0,0:0:0:0:
192,192,100110,1,0,0:0:0:0:
320,192,100260,1,0,0:0:0:0:
192,192,100335,1,0,0:0:0:0:
64,192,100410,1,0,0:0:0:0:
448,192,100410,1,0,0:0:0:0:
320,192,100410,1,0,0:0:0:0:
320,192,100560,1,0,0:0:0:0:
192,192,100560,1,0,0:0:0:0:
448,192,100635,1,0,0:0:0:0:
64,192,100710,1,0,0:0:0:0:
192,192,100710,1,0,0:0:0:0:
192,192,100860,1,0,0:0:0:0:
64,192,100860,1,0,0:0:0:0:
448,192,101010,1,0,0:0:0:0:
320,192,101010,1,0,0:0:0:0:
448,192,101160,1,0,0:0:0:0:
64,192,101310,1,0,0:0:0:0:
320,192,101310,1,0,0:0:0:0:
192,192,101460,1,0,0:0:0:0:
320,192,101535,1,0,0:0:0:0:
192,192,101610,1,0,0:0:0:0:
64,192,101610,1,0,0:0:0:0:
448,192,101610,1,0,0:0:0:0:
448,192,101760,1,0,0:0:0:0:
320,192,101760,1,0,0:0:0:0:
192,192,101910,1,0,0:0:0:0:
64,192,101985,1,0,0:0:0:0:
192,192,102060,1,0,0:0:0:0:
320,192,102060,1,0,0:0:0:0:
448,192,102060,1,0,0:0:0:0:
448,192,102210,1,0,0:0:0:0:
320,192,102360,1,0,0:0:0:0:
64,192,102360,1,0,0:0:0:0:
448,192,102510,1,0,0:0:0:0:
64,192,102510,1,0,0:0:0:0:
320,192,102660,1,0,0:0:0:0:
192,192,102735,1,0,0:0:0:0:
64,192,102810,1,0,0:0:0:0:
448,192,102810,1,0,0:0:0:0:
320,192,102810,1,0,0:0:0:0:
448,192,102960,1,0,0:0:0:0:
192,192,102960,1,0,0:0:0:0:
64,192,103110,1,0,0:0:0:0:
320,192,103110,1,0,0:0:0:0:
192,192,103185,1,0,0:0:0:0:
320,192,103260,1,0,0:0:0:0:
448,192,103335,1,0,0:0:0:0:
192,192,103410,1,0,0:0:0:0:
64,192,103410,1,0,0:0:0:0:
320,192,103485,1,0,0:0:0:0:
192,192,103560,1,0,0:0:0:0:
320,192,103635,1,0,0:0:0:0:
448,192,103710,1,0,0:0:0:0:
64,192,103710,1,0,0:0:0:0:
192,192,103785,1,0,0:0:0:0:
320,192,103860,1,0,0:0:0:0:
192,192,103935,1,0,0:0:0:0:
64,192,104010,1,0,0:0:0:0:
448,192,104010,1,0,0:0:0:0:
320,192,104085,1,0,0:0:0:0:
192,192,104160,1,0,0:0:0:0:
64,192,104160,1,0,0:0:0:0:
320,192,104235,1,0,0:0:0:0:
448,192,104310,1,0,0:0:0:0:
64,192,104310,1,0,0:0:0:0:
320,192,104385,1,0,0:0:0:0:
192,192,104460,1,0,0:0:0:0:
448,192,104460,1,0,0:0:0:0:
320,192,104535,1,0,0:0:0:0:
448,192,104610,1,0,0:0:0:0:
64,192,104610,1,0,0:0:0:0:
320,192,104685,1,0,0:0:0:0:
192,192,104760,1,0,0:0:0:0:
64,192,104760,1,0,0:0:0:0:
320,192,104835,1,0,0:0:0:0:
448,192,104910,1,0,0:0:0:0:
64,192,104910,1,0,0:0:0:0:
192,192,104985,1,0,0:0:0:0:
320,192,105060,1,0,0:0:0:0:
448,192,105060,1,0,0:0:0:0:
192,192,105135,1,0,0:0:0:0:
448,192,105210,1,0,0:0:0:0:
320,192,105210,1,0,0:0:0:0:
64,192,105210,1,0,0:0:0:0:
192,192,105360,1,0,0:0:0:0:
64,192,105360,1,0,0:0:0:0:
320,192,105510,1,0,0:0:0:0:
64,192,105510,1,0,0:0:0:0:
448,192,105510,1,0,0:0:0:0:
192,192,105660,1,0,0:0:0:0:
448,192,105660,1,0,0:0:0:0:
320,192,105810,1,0,0:0:0:0:
448,192,105810,1,0,0:0:0:0:
64,192,105810,1,0,0:0:0:0:
192,192,105885,1,0,0:0:0:0:
64,192,105960,1,0,0:0:0:0:
320,192,105960,1,0,0:0:0:0:
192,192,106035,1,0,0:0:0:0:
320,192,106110,1,0,0:0:0:0:
448,192,106110,1,0,0:0:0:0:
192,192,106260,1,0,0:0:0:0:
64,192,106260,1,0,0:0:0:0:
320,192,106335,1,0,0:0:0:0:
192,192,106410,1,0,0:0:0:0:
448,192,106410,1,0,0:0:0:0:
320,192,106485,1,0,0:0:0:0:
192,192,106560,1,0,0:0:0:0:
320,192,106710,1,0,0:0:0:0:
448,192,106710,1,0,0:0:0:0:
192,192,106785,1,0,0:0:0:0:
64,192,106860,1,0,0:0:0:0:
448,192,106860,1,0,0:0:0:0:
192,192,106935,1,0,0:0:0:0:
320,192,107010,1,0,0:0:0:0:
64,192,107010,1,0,0:0:0:0:
448,192,107085,1,0,0:0:0:0:
64,192,107160,1,0,0:0:0:0:
192,192,107160,1,0,0:0:0:0:
448,192,107235,1,0,0:0:0:0:
320,192,107310,1,0,0:0:0:0:
192,192,107310,1,0,0:0:0:0:
64,192,107385,1,0,0:0:0:0:
448,192,107460,1,0,0:0:0:0:
320,192,107460,1,0,0:0:0:0:
192,192,107535,1,0,0:0:0:0:
320,192,107610,1,0,0:0:0:0:
64,192,107610,1,0,0:0:0:0:
448,192,107685,1,0,0:0:0:0:
320,192,107760,1,0,0:0:0:0:
192,192,107760,1,0,0:0:0:0:
64,192,107835,1,0,0:0:0:0:
192,192,107910,1,0,0:0:0:0:
448,192,107910,1,0,0:0:0:0:
320,192,107985,1,0,0:0:0:0:
448,192,108060,1,0,0:0:0:0:
64,192,108060,1,0,0:0:0:0:
320,192,108135,1,0,0:0:0:0:
192,192,108210,1,0,0:0:0:0:
64,192,108210,1,0,0:0:0:0:
448,192,108210,1,0,0:0:0:0:
192,192,108360,1,0,0:0:0:0:
320,192,108360,1,0,0:0:0:0:
448,192,108510,1,0,0:0:0:0:
320,192,108510,1,0,0:0:0:0:
64,192,108660,1,0,0:0:0:0:
192,192,108735,1,0,0:0:0:0:
320,192,108810,1,0,0:0:0:0:
448,192,108810,1,0,0:0:0:0:
320,192,108960,1,0,0:0:0:0:
192,192,108960,1,0,0:0:0:0:
192,192,109110,1,0,0:0:0:0:
64,192,109110,1,0,0:0:0:0:
448,192,109260,1,0,0:0:0:0:
320,192,109335,1,0,0:0:0:0:
192,192,109410,1,0,0:0:0:0:
64,192,109410,1,0,0:0:0:0:
64,192,109560,1,0,0:0:0:0:
320,192,109560,1,0,0:0:0:0:
448,192,109710,1,0,0:0:0:0:
64,192,109710,1,0,0:0:0:0:
192,192,109710,1,0,0:0:0:0:
320,192,109860,1,0,0:0:0:0:
448,192,110010,1,0,0:0:0:0:
64,192,110010,1,0,0:0:0:0:
192,192,110010,1,0,0:0:0:0:
448,192,110160,1,0,0:0:0:0:
320,192,110310,1,0,0:0:0:0:
64,192,110310,1,0,0:0:0:0:
192,192,110460,1,0,0:0:0:0:
320,192,110535,1,0,0:0:0:0:
448,192,110610,1,0,0:0:0:0:
64,192,110610,1,0,0:0:0:0:
192,192,110610,1,0,0:0:0:0:
64,192,110760,1,0,0:0:0:0:
320,192,110910,1,0,0:0:0:0:
448,192,110910,1,0,0:0:0:0:
192,192,111060,1,0,0:0:0:0:
320,192,111135,1,0,0:0:0:0:
192,192,111210,1,0,0:0:0:0:
64,192,111210,1,0,0:0:0:0:
320,192,111360,1,0,0:0:0:0:
448,192,111360,1,0,0:0:0:0:
448,192,111510,1,0,0:0:0:0:
192,192,111510,1,0,0:0:0:0:
320,192,111660,1,0,0:0:0:0:
64,192,111660,1,0,0:0:0:0:
192,192,111810,1,0,0:0:0:0:
448,192,111960,1,0,0:0:0:0:
64,192,111960,1,0,0:0:0:0:
192,192,112110,1,0,0:0:0:0:
448,192,112110,1,0,0:0:0:0:
320,192,112260,1,0,0:0:0:0:
192,192,112335,1,0,0:0:0:0:
64,192,112410,1,0,0:0:0:0:
448,192,112410,1,0,0:0:0:0:
320,192,112410,1,0,0:0:0:0:
448,192,112560,1,0,0:0:0:0:
320,192,112710,1,0,0:0:0:0:
64,192,112710,1,0,0:0:0:0:
192,192,112860,1,0,0:0:0:0:
448,192,113010,1,0,0:0:0:0:
64,192,113010,1,0,0:0:0:0:
320,192,113010,1,0,0:0:0:0:
320,192,113160,1,0,0:0:0:0:
192,192,113310,1,0,0:0:0:0:
448,192,113310,1,0,0:0:0:0:
64,192,113460,1,0,0:0:0:0:
320,192,113460,1,0,0:0:0:0:
448,192,113610,1,0,0:0:0:0:
64,192,113610,1,0,0:0:0:0:
320,192,113760,1,0,0:0:0:0:
192,192,113910,1,0,0:0:0:0:
64,192,113910,1,0,0:0:0:0:
448,192,114060,1,0,0:0:0:0:
320,192,114060,1,0,0:0:0:0:
64,192,114210,1,0,0:0:0:0:
448,192,114210,1,0,0:0:0:0:
192,192,114210,1,0,0:0:0:0:
320,192,114360,1,0,0:0:0:0:
64,192,114510,1,0,0:0:0:0:
448,192,114510,1,0,0:0:0:0:
192,192,114660,1,0,0:0:0:0:
448,192,114810,1,0,0:0:0:0:
320,192,114810,1,0,0:0:0:0:
448,192,114960,1,0,0:0:0:0:
320,192,115110,1,0,0:0:0:0:
64,192,115110,1,0,0:0:0:0:
192,192,115260,1,0,0:0:0:0:
320,192,115410,1,0,0:0:0:0:
448,192,115410,1,0,0:0:0:0:
64,192,115410,1,0,0:0:0:0:
192,192,115560,1,0,0:0:0:0:
448,192,115710,1,0,0:0:0:0:
64,192,115860,1,0,0:0:0:0:
320,192,116010,1,0,0:0:0:0:
192,192,116160,1,0,0:0:0:0:
64,192,116310,1,0,0:0:0:0:
448,192,116610,1,0,0:0:0:0:
192,192,116760,1,0,0:0:0:0:
320,192,116910,1,0,0:0:0:0:
448,192,117060,1,0,0:0:0:0:
192,192,117210,1,0,0:0:0:0:
320,192,117360,1,0,0:0:0:0:
64,192,117510,1,0,0:0:0:0:
448,192,117810,1,0,0:0:0:0:
64,192,117810,1,0,0:0:0:0:
192,192,117960,1,0,0:0:0:0:
448,192,118110,1,0,0:0:0:0:
320,192,118260,1,0,0:0:0:0:
448,192,118410,1,0,0:0:0:0:
320,192,118560,1,0,0:0:0:0:
192,192,118710,1,0,0:0:0:0:
64,192,118860,1,0,0:0:0:0:
320,192,119010,1,0,0:0:0:0:
448,192,119160,1,0,0:0:0:0:
192,192,119310,1,0,0:0:0:0:
320,192,119460,1,0,0:0:0:0:
192,192,119610,1,0,0:0:0:0:
64,192,119760,1,0,0:0:0:0:
448,192,119910,1,0,0:0:0:0:
64,192,120243,1,0,0:0:0:0:
320,192,120243,1,0,0:0:0:0:
192,192,120414,1,0,0:0:0:0:
320,192,120585,1,0,0:0:0:0:
448,192,120757,1,0,0:0:0:0:
192,192,120928,1,0,0:0:0:0:
320,192,121100,1,0,0:0:0:0:
64,192,121271,1,0,0:0:0:0:
192,192,121443,1,0,0:0:0:0:
448,192,121614,1,0,0:0:0:0:
320,192,122341,1,0,0:0:0:0:
192,192,122919,1,0,0:0:0:0:
64,192,123369,1,0,0:0:0:0:
448,192,123369,1,0,0:0:0:0:
320,192,123641,1,0,0:0:0:0:
192,192,123914,1,0,0:0:0:0:
320,192,124216,1,0,0:0:0:0:
64,192,124550,1,0,0:0:0:0:
192,192,125004,1,0,0:0:0:0:
320,192,125459,1,0,0:0:0:0:
448,192,125534,1,0,0:0:0:0:
