osu file format v14

[General]
AudioFilename: MENDES.mp3
AudioLeadIn: 0
PreviewTime: 11753
Countdown: 0
SampleSet: Soft
StackLeniency: 0.7
Mode: 3
LetterboxInBreaks: 0
SpecialStyle: 0
WidescreenStoryboard: 1

[Editor]
DistanceSpacing: 0.9
BeatDivisor: 8
GridSize: 8
TimelineZoom: 2.299999

[Metadata]
Title:Beatmania IIDX Pack vol.1
TitleUnicode:Beatmania IIDX Pack vol.1
Artist:Various Artists
ArtistUnicode:Various Artists
Creator:DE-CADE
Version:7K Another (Humanoid - MENDES)
Source:beatmania IIDX
Tags:Humanoid Tatsh TOMOSUKE Galdeira Amuro Killer DJ YOSHITAKA dj Taka seiryu mei 3y3s MENDES Xepher Almagest
BeatmapID:664837
BeatmapSetID:296008

[Difficulty]
HPDrainRate:7
CircleSize:7
OverallDifficulty:7
ApproachRate:5
SliderMultiplier:1.4
SliderTickRate:1

[Events]
//Background and Video events
0,0,"BG.jpg",0,0
//Break Periods
//Storyboard Layer 0 (Background)
//Storyboard Layer 1 (Fail)
//Storyboard Layer 2 (Pass)
//Storyboard Layer 3 (Foreground)
//Storyboard Sound Samples

[TimingPoints]
325,357.142857142857,4,2,0,10,1,0

[HitObjects]
36,192,325,5,0,0:0:0:0:
256,192,325,1,0,0:0:0:0:
475,192,325,1,0,0:0:0:0:
109,192,325,1,0,0:0:0:0:
329,192,414,1,0,0:0:0:0:
182,192,503,1,0,0:0:0:0:
329,192,592,1,0,0:0:0:0:
475,192,682,1,0,0:0:0:0:
36,192,682,1,0,0:0:0:0:
329,192,771,1,0,0:0:0:0:
182,192,860,1,0,0:0:0:0:
329,192,949,1,0,0:0:0:0:
475,192,1039,1,0,0:0:0:0:
36,192,1039,1,0,0:0:0:0:
329,192,1128,1,0,0:0:0:0:
182,192,1217,1,0,0:0:0:0:
329,192,1307,1,0,0:0:0:0:
475,192,1396,1,0,0:0:0:0:
36,192,1396,1,0,0:0:0:0:
329,192,1485,1,0,0:0:0:0:
182,192,1574,1,0,0:0:0:0:
329,192,1664,1,0,0:0:0:0:
475,192,1753,1,0,0:0:0:0:
36,192,1753,1,0,0:0:0:0:
329,192,1842,1,0,0:0:0:0:
182,192,1932,1,0,0:0:0:0:
329,192,2021,1,0,0:0:0:0:
475,192,2110,1,0,0:0:0:0:
36,192,2110,1,0,0:0:0:0:
329,192,2199,1,0,0:0:0:0:
182,192,2289,1,0,0:0:0:0:
329,192,2378,1,0,0:0:0:0:
36,192,2467,1,0,0:0:0:0:
475,192,2467,1,0,0:0:0:0:
402,192,2557,1,0,0:0:0:0:
329,192,2646,1,0,0:0:0:0:
182,192,2735,1,0,0:0:0:0:
475,192,2735,1,0,0:0:0:0:
109,192,2824,1,0,0:0:0:0:
329,192,2824,1,0,0:0:0:0:
256,192,2914,1,0,0:0:0:0:
329,192,3003,1,0,0:0:0:0:
36,192,3003,1,0,0:0:0:0:
402,192,3092,1,0,0:0:0:0:
475,192,3182,1,0,0:0:0:0:
109,192,3182,1,0,0:0:0:0:
256,192,3271,1,0,0:0:0:0:
402,192,3360,1,0,0:0:0:0:
256,192,3449,1,0,0:0:0:0:
109,192,3539,1,0,0:0:0:0:
475,192,3539,1,0,0:0:0:0:
256,192,3628,1,0,0:0:0:0:
402,192,3717,1,0,0:0:0:0:
256,192,3807,1,0,0:0:0:0:
109,192,3896,1,0,0:0:0:0:
475,192,3896,1,0,0:0:0:0:
256,192,3985,1,0,0:0:0:0:
402,192,4074,1,0,0:0:0:0:
256,192,4164,1,0,0:0:0:0:
109,192,4253,1,0,0:0:0:0:
475,192,4253,1,0,0:0:0:0:
256,192,4342,1,0,0:0:0:0:
402,192,4432,1,0,0:0:0:0:
256,192,4521,1,0,0:0:0:0:
109,192,4610,1,0,0:0:0:0:
475,192,4610,1,0,0:0:0:0:
256,192,4699,1,0,0:0:0:0:
36,192,4789,1,0,0:0:0:0:
402,192,4789,1,0,0:0:0:0:
329,192,4878,1,0,0:0:0:0:
182,192,4878,1,0,0:0:0:0:
109,192,4967,1,0,0:0:0:0:
475,192,4967,1,0,0:0:0:0:
256,192,5057,1,0,0:0:0:0:
36,192,5146,1,0,0:0:0:0:
402,192,5146,1,0,0:0:0:0:
329,192,5235,1,0,0:0:0:0:
182,192,5235,1,0,0:0:0:0:
402,192,5324,1,0,0:0:0:0:
109,192,5324,1,0,0:0:0:0:
256,192,5414,1,0,0:0:0:0:
36,192,5503,1,0,0:0:0:0:
329,192,5503,1,0,0:0:0:0:
182,192,5592,1,0,0:0:0:0:
109,192,5682,1,0,0:0:0:0:
475,192,5682,1,0,0:0:0:0:
329,192,5771,1,0,0:0:0:0:
182,192,5860,1,0,0:0:0:0:
402,192,5860,1,0,0:0:0:0:
109,192,5949,1,0,0:0:0:0:
36,192,6039,1,0,0:0:0:0:
256,192,6039,1,0,0:0:0:0:
475,192,6039,1,0,0:0:0:0:
329,192,6128,1,0,0:0:0:0:
182,192,6217,1,0,0:0:0:0:
329,192,6307,1,0,0:0:0:0:
475,192,6396,1,0,0:0:0:0:
36,192,6396,1,0,0:0:0:0:
329,192,6485,1,0,0:0:0:0:
182,192,6574,1,0,0:0:0:0:
329,192,6664,1,0,0:0:0:0:
475,192,6753,1,0,0:0:0:0:
36,192,6753,1,0,0:0:0:0:
329,192,6842,1,0,0:0:0:0:
182,192,6932,1,0,0:0:0:0:
329,192,7021,1,0,0:0:0:0:
475,192,7110,1,0,0:0:0:0:
36,192,7110,1,0,0:0:0:0:
329,192,7199,1,0,0:0:0:0:
182,192,7289,1,0,0:0:0:0:
329,192,7378,1,0,0:0:0:0:
475,192,7467,1,0,0:0:0:0:
36,192,7467,1,0,0:0:0:0:
329,192,7557,1,0,0:0:0:0:
182,192,7646,1,0,0:0:0:0:
329,192,7735,1,0,0:0:0:0:
475,192,7824,1,0,0:0:0:0:
36,192,7824,1,0,0:0:0:0:
329,192,7914,1,0,0:0:0:0:
182,192,8003,1,0,0:0:0:0:
329,192,8092,1,0,0:0:0:0:
475,192,8182,1,0,0:0:0:0:
36,192,8182,1,0,0:0:0:0:
109,192,8271,1,0,0:0:0:0:
256,192,8360,1,0,0:0:0:0:
402,192,8449,1,0,0:0:0:0:
36,192,8449,1,0,0:0:0:0:
329,192,8539,1,0,0:0:0:0:
475,192,8539,1,0,0:0:0:0:
109,192,8539,1,0,0:0:0:0:
256,192,8628,1,0,0:0:0:0:
182,192,8717,1,0,0:0:0:0:
36,192,8807,1,0,0:0:0:0:
329,192,8807,1,0,0:0:0:0:
109,192,8896,1,0,0:0:0:0:
256,192,8896,1,0,0:0:0:0:
475,192,8896,1,0,0:0:0:0:
402,192,8985,1,0,0:0:0:0:
329,192,9074,1,0,0:0:0:0:
182,192,9074,1,0,0:0:0:0:
402,192,9164,1,0,0:0:0:0:
36,192,9164,1,0,0:0:0:0:
182,192,9253,1,0,0:0:0:0:
256,192,9253,1,0,0:0:0:0:
475,192,9342,1,0,0:0:0:0:
109,192,9432,1,0,0:0:0:0:
329,192,9432,1,0,0:0:0:0:
36,192,9521,1,0,0:0:0:0:
256,192,9521,1,0,0:0:0:0:
182,192,9610,1,0,0:0:0:0:
475,192,9610,1,0,0:0:0:0:
402,192,9610,1,0,0:0:0:0:
109,192,9610,1,0,0:0:0:0:
329,192,9699,1,0,0:0:0:0:
36,192,9789,1,0,0:0:0:0:
256,192,9789,1,0,0:0:0:0:
475,192,9878,1,0,0:0:0:0:
329,192,9878,1,0,0:0:0:0:
182,192,9967,1,0,0:0:0:0:
36,192,9967,1,0,0:0:0:0:
402,192,10057,1,0,0:0:0:0:
256,192,10146,1,0,0:0:0:0:
109,192,10146,1,0,0:0:0:0:
475,192,10235,1,0,0:0:0:0:
329,192,10235,1,0,0:0:0:0:
402,192,10324,1,0,0:0:0:0:
182,192,10324,1,0,0:0:0:0:
36,192,10324,128,0,10682:0:0:0:0:
256,192,10414,1,0,0:0:0:0:
402,192,10503,1,0,0:0:0:0:
256,192,10592,1,0,0:0:0:0:
475,192,10682,128,0,11039:0:0:0:0:
329,192,10682,1,0,0:0:0:0:
109,192,10682,1,0,0:0:0:0:
182,192,10771,1,0,0:0:0:0:
329,192,10860,1,0,0:0:0:0:
182,192,10949,1,0,0:0:0:0:
256,192,11039,1,0,0:0:0:0:
402,192,11039,1,0,0:0:0:0:
36,192,11039,1,0,0:0:0:0:
109,192,11128,1,0,0:0:0:0:
329,192,11217,1,0,0:0:0:0:
475,192,11217,1,0,0:0:0:0:
182,192,11307,1,0,0:0:0:0:
256,192,11396,1,0,0:0:0:0:
402,192,11396,1,0,0:0:0:0:
36,192,11485,1,0,0:0:0:0:
329,192,11574,1,0,0:0:0:0:
182,192,11574,1,0,0:0:0:0:
475,192,11664,1,0,0:0:0:0:
256,192,11753,1,0,0:0:0:0:
402,192,11753,1,0,0:0:0:0:
36,192,11753,128,0,12110:0:0:0:0:
182,192,11842,1,0,0:0:0:0:
329,192,11932,1,0,0:0:0:0:
402,192,12021,1,0,0:0:0:0:
475,192,12110,128,0,12467:0:0:0:0:
182,192,12110,1,0,0:0:0:0:
256,192,12199,1,0,0:0:0:0:
109,192,12289,1,0,0:0:0:0:
329,192,12289,1,0,0:0:0:0:
402,192,12378,1,0,0:0:0:0:
109,192,12378,1,0,0:0:0:0:
36,192,12467,1,0,0:0:0:0:
256,192,12467,1,0,0:0:0:0:
182,192,12467,1,0,0:0:0:0:
329,192,12557,1,0,0:0:0:0:
109,192,12646,1,0,0:0:0:0:
36,192,12735,1,0,0:0:0:0:
475,192,12824,1,0,0:0:0:0:
256,192,12824,1,0,0:0:0:0:
402,192,12824,1,0,0:0:0:0:
329,192,12914,1,0,0:0:0:0:
182,192,13003,1,0,0:0:0:0:
36,192,13092,1,0,0:0:0:0:
109,192,13182,1,0,0:0:0:0:
475,192,13182,1,0,0:0:0:0:
402,192,13271,1,0,0:0:0:0:
182,192,13360,1,0,0:0:0:0:
109,192,13449,1,0,0:0:0:0:
475,192,13539,1,0,0:0:0:0:
36,192,13539,1,0,0:0:0:0:
256,192,13539,1,0,0:0:0:0:
402,192,13628,1,0,0:0:0:0:
329,192,13717,1,0,0:0:0:0:
182,192,13807,1,0,0:0:0:0:
109,192,13896,1,0,0:0:0:0:
402,192,13896,1,0,0:0:0:0:
329,192,13985,1,0,0:0:0:0:
256,192,14074,1,0,0:0:0:0:
109,192,14164,1,0,0:0:0:0:
182,192,14253,1,0,0:0:0:0:
36,192,14253,1,0,0:0:0:0:
475,192,14253,1,0,0:0:0:0:
402,192,14342,1,0,0:0:0:0:
256,192,14432,1,0,0:0:0:0:
182,192,14521,1,0,0:0:0:0:
36,192,14610,1,0,0:0:0:0:
329,192,14610,1,0,0:0:0:0:
475,192,14610,1,0,0:0:0:0:
109,192,14699,1,0,0:0:0:0:
256,192,14699,1,0,0:0:0:0:
182,192,14789,1,0,0:0:0:0:
329,192,14789,1,0,0:0:0:0:
109,192,14878,1,0,0:0:0:0:
36,192,14967,1,0,0:0:0:0:
475,192,14967,1,0,0:0:0:0:
256,192,14967,1,0,0:0:0:0:
402,192,15057,1,0,0:0:0:0:
329,192,15146,1,0,0:0:0:0:
182,192,15235,1,0,0:0:0:0:
475,192,15324,1,0,0:0:0:0:
36,192,15324,1,0,0:0:0:0:
329,192,15414,1,0,0:0:0:0:
256,192,15503,1,0,0:0:0:0:
109,192,15592,1,0,0:0:0:0:
475,192,15682,1,0,0:0:0:0:
36,192,15682,1,0,0:0:0:0:
256,192,15682,1,0,0:0:0:0:
402,192,15771,1,0,0:0:0:0:
182,192,15860,1,0,0:0:0:0:
36,192,15949,1,0,0:0:0:0:
109,192,16039,1,0,0:0:0:0:
475,192,16039,1,0,0:0:0:0:
329,192,16128,1,0,0:0:0:0:
256,192,16217,1,0,0:0:0:0:
109,192,16307,1,0,0:0:0:0:
329,192,16396,1,0,0:0:0:0:
475,192,16396,1,0,0:0:0:0:
36,192,16396,1,0,0:0:0:0:
402,192,16485,1,0,0:0:0:0:
256,192,16574,1,0,0:0:0:0:
36,192,16664,1,0,0:0:0:0:
109,192,16753,1,0,0:0:0:0:
402,192,16753,1,0,0:0:0:0:
475,192,16842,1,0,0:0:0:0:
329,192,16932,1,0,0:0:0:0:
36,192,16932,1,0,0:0:0:0:
256,192,17021,1,0,0:0:0:0:
329,192,17110,1,0,0:0:0:0:
36,192,17110,1,0,0:0:0:0:
475,192,17110,1,0,0:0:0:0:
182,192,17199,1,0,0:0:0:0:
109,192,17289,1,0,0:0:0:0:
402,192,17289,1,0,0:0:0:0:
256,192,17378,1,0,0:0:0:0:
182,192,17467,1,0,0:0:0:0:
36,192,17467,1,0,0:0:0:0:
475,192,17467,1,0,0:0:0:0:
329,192,17557,1,0,0:0:0:0:
109,192,17557,1,0,0:0:0:0:
256,192,17646,1,0,0:0:0:0:
402,192,17646,1,0,0:0:0:0:
109,192,17735,1,0,0:0:0:0:
182,192,17824,1,0,0:0:0:0:
36,192,17824,1,0,0:0:0:0:
475,192,17824,1,0,0:0:0:0:
329,192,17824,1,0,0:0:0:0:
402,192,18003,1,0,0:0:0:0:
182,192,18003,1,0,0:0:0:0:
329,192,18003,1,0,0:0:0:0:
36,192,18182,1,0,0:0:0:0:
475,192,18182,1,0,0:0:0:0:
109,192,18182,1,0,0:0:0:0:
256,192,18182,1,0,0:0:0:0:
402,192,18271,1,0,0:0:0:0:
329,192,18360,1,0,0:0:0:0:
109,192,18449,1,0,0:0:0:0:
182,192,18539,1,0,0:0:0:0:
475,192,18539,1,0,0:0:0:0:
36,192,18539,1,0,0:0:0:0:
402,192,18628,1,0,0:0:0:0:
256,192,18717,1,0,0:0:0:0:
109,192,18807,1,0,0:0:0:0:
475,192,18896,1,0,0:0:0:0:
36,192,18896,1,0,0:0:0:0:
329,192,18985,1,0,0:0:0:0:
182,192,19074,1,0,0:0:0:0:
109,192,19164,1,0,0:0:0:0:
36,192,19253,1,0,0:0:0:0:
475,192,19253,1,0,0:0:0:0:
256,192,19253,1,0,0:0:0:0:
402,192,19342,1,0,0:0:0:0:
329,192,19432,1,0,0:0:0:0:
182,192,19521,1,0,0:0:0:0:
36,192,19610,1,0,0:0:0:0:
475,192,19610,1,0,0:0:0:0:
402,192,19699,1,0,0:0:0:0:
256,192,19789,1,0,0:0:0:0:
109,192,19878,1,0,0:0:0:0:
182,192,19967,1,0,0:0:0:0:
36,192,19967,1,0,0:0:0:0:
475,192,19967,1,0,0:0:0:0:
402,192,20057,1,0,0:0:0:0:
256,192,20146,1,0,0:0:0:0:
109,192,20235,1,0,0:0:0:0:
182,192,20324,1,0,0:0:0:0:
36,192,20324,1,0,0:0:0:0:
475,192,20324,1,0,0:0:0:0:
329,192,20414,1,0,0:0:0:0:
109,192,20414,1,0,0:0:0:0:
256,192,20503,1,0,0:0:0:0:
402,192,20503,1,0,0:0:0:0:
109,192,20592,1,0,0:0:0:0:
36,192,20682,1,0,0:0:0:0:
182,192,20682,1,0,0:0:0:0:
329,192,20682,1,0,0:0:0:0:
475,192,20682,1,0,0:0:0:0:
402,192,20771,1,0,0:0:0:0:
256,192,20860,1,0,0:0:0:0:
109,192,20949,1,0,0:0:0:0:
475,192,21039,1,0,0:0:0:0:
36,192,21039,1,0,0:0:0:0:
402,192,21128,1,0,0:0:0:0:
256,192,21217,1,0,0:0:0:0:
182,192,21307,1,0,0:0:0:0:
36,192,21396,1,0,0:0:0:0:
109,192,21396,1,0,0:0:0:0:
402,192,21396,1,0,0:0:0:0:
329,192,21485,1,0,0:0:0:0:
256,192,21574,1,0,0:0:0:0:
182,192,21664,1,0,0:0:0:0:
109,192,21753,1,0,0:0:0:0:
475,192,21753,1,0,0:0:0:0:
402,192,21842,1,0,0:0:0:0:
329,192,21932,1,0,0:0:0:0:
256,192,22021,1,0,0:0:0:0:
36,192,22110,1,0,0:0:0:0:
475,192,22110,1,0,0:0:0:0:
182,192,22110,1,0,0:0:0:0:
402,192,22199,1,0,0:0:0:0:
329,192,22289,1,0,0:0:0:0:
109,192,22289,1,0,0:0:0:0:
256,192,22378,1,0,0:0:0:0:
182,192,22467,1,0,0:0:0:0:
36,192,22467,1,0,0:0:0:0:
475,192,22467,1,0,0:0:0:0:
402,192,22467,1,0,0:0:0:0:
36,192,22646,1,0,0:0:0:0:
109,192,22646,1,0,0:0:0:0:
329,192,22646,1,0,0:0:0:0:
256,192,22646,1,0,0:0:0:0:
182,192,22824,1,0,0:0:0:0:
475,192,22824,1,0,0:0:0:0:
109,192,22914,1,0,0:0:0:0:
402,192,22914,1,0,0:0:0:0:
329,192,23003,1,0,0:0:0:0:
36,192,23003,1,0,0:0:0:0:
109,192,23092,1,0,0:0:0:0:
402,192,23092,1,0,0:0:0:0:
36,192,23182,1,0,0:0:0:0:
475,192,23182,1,0,0:0:0:0:
182,192,23182,1,0,0:0:0:0:
256,192,23271,1,0,0:0:0:0:
402,192,23271,1,0,0:0:0:0:
182,192,23360,1,0,0:0:0:0:
329,192,23360,1,0,0:0:0:0:
109,192,23539,1,0,0:0:0:0:
256,192,23539,1,0,0:0:0:0:
36,192,23539,1,0,0:0:0:0:
402,192,23539,1,0,0:0:0:0:
256,192,23717,1,0,0:0:0:0:
402,192,23717,1,0,0:0:0:0:
182,192,23717,1,0,0:0:0:0:
36,192,23896,1,0,0:0:0:0:
329,192,23896,1,0,0:0:0:0:
475,192,23896,1,0,0:0:0:0:
256,192,23985,1,0,0:0:0:0:
109,192,24074,1,0,0:0:0:0:
36,192,24164,1,0,0:0:0:0:
475,192,24253,1,0,0:0:0:0:
402,192,24253,1,0,0:0:0:0:
256,192,24253,1,0,0:0:0:0:
329,192,24342,1,0,0:0:0:0:
182,192,24432,1,0,0:0:0:0:
36,192,24521,1,0,0:0:0:0:
109,192,24610,1,0,0:0:0:0:
475,192,24610,1,0,0:0:0:0:
402,192,24699,1,0,0:0:0:0:
329,192,24789,1,0,0:0:0:0:
182,192,24878,1,0,0:0:0:0:
36,192,24967,1,0,0:0:0:0:
402,192,24967,1,0,0:0:0:0:
475,192,24967,1,0,0:0:0:0:
329,192,25057,1,0,0:0:0:0:
256,192,25146,1,0,0:0:0:0:
109,192,25235,1,0,0:0:0:0:
36,192,25324,1,0,0:0:0:0:
475,192,25324,1,0,0:0:0:0:
329,192,25414,1,0,0:0:0:0:
256,192,25503,1,0,0:0:0:0:
109,192,25592,1,0,0:0:0:0:
475,192,25682,1,0,0:0:0:0:
36,192,25682,1,0,0:0:0:0:
182,192,25682,1,0,0:0:0:0:
402,192,25771,1,0,0:0:0:0:
256,192,25860,1,0,0:0:0:0:
182,192,25949,1,0,0:0:0:0:
109,192,26039,1,0,0:0:0:0:
475,192,26039,1,0,0:0:0:0:
329,192,26039,1,0,0:0:0:0:
36,192,26128,1,0,0:0:0:0:
256,192,26128,1,0,0:0:0:0:
402,192,26217,1,0,0:0:0:0:
329,192,26217,1,0,0:0:0:0:
109,192,26307,1,0,0:0:0:0:
36,192,26396,1,0,0:0:0:0:
475,192,26396,1,0,0:0:0:0:
182,192,26396,1,0,0:0:0:0:
329,192,26485,1,0,0:0:0:0:
256,192,26574,1,0,0:0:0:0:
109,192,26664,1,0,0:0:0:0:
36,192,26753,1,0,0:0:0:0:
475,192,26753,1,0,0:0:0:0:
402,192,26842,1,0,0:0:0:0:
329,192,26932,1,0,0:0:0:0:
182,192,27021,1,0,0:0:0:0:
109,192,27110,1,0,0:0:0:0:
475,192,27110,1,0,0:0:0:0:
36,192,27110,1,0,0:0:0:0:
402,192,27199,1,0,0:0:0:0:
256,192,27289,1,0,0:0:0:0:
182,192,27378,1,0,0:0:0:0:
475,192,27467,1,0,0:0:0:0:
36,192,27467,1,0,0:0:0:0:
402,192,27557,1,0,0:0:0:0:
329,192,27646,1,0,0:0:0:0:
182,192,27735,1,0,0:0:0:0:
475,192,27824,1,0,0:0:0:0:
109,192,27824,1,0,0:0:0:0:
36,192,27824,1,0,0:0:0:0:
329,192,27914,1,0,0:0:0:0:
256,192,28003,1,0,0:0:0:0:
109,192,28092,1,0,0:0:0:0:
36,192,28182,1,0,0:0:0:0:
475,192,28182,1,0,0:0:0:0:
329,192,28271,1,0,0:0:0:0:
256,192,28360,1,0,0:0:0:0:
109,192,28360,1,0,0:0:0:0:
182,192,28449,1,0,0:0:0:0:
475,192,28539,1,0,0:0:0:0:
36,192,28539,1,0,0:0:0:0:
402,192,28539,1,0,0:0:0:0:
256,192,28628,1,0,0:0:0:0:
329,192,28717,1,0,0:0:0:0:
182,192,28807,1,0,0:0:0:0:
36,192,28896,1,0,0:0:0:0:
475,192,28896,1,0,0:0:0:0:
256,192,28896,1,0,0:0:0:0:
329,192,28985,1,0,0:0:0:0:
109,192,28985,1,0,0:0:0:0:
402,192,29074,1,0,0:0:0:0:
256,192,29074,1,0,0:0:0:0:
36,192,29253,1,0,0:0:0:0:
329,192,29253,1,0,0:0:0:0:
475,192,29253,1,0,0:0:0:0:
182,192,29253,1,0,0:0:0:0:
109,192,29432,1,0,0:0:0:0:
402,192,29432,1,0,0:0:0:0:
182,192,29432,1,0,0:0:0:0:
475,192,29610,1,0,0:0:0:0:
329,192,29610,1,0,0:0:0:0:
36,192,29610,1,0,0:0:0:0:
256,192,29610,1,0,0:0:0:0:
402,192,29699,1,0,0:0:0:0:
182,192,29789,1,0,0:0:0:0:
36,192,29878,1,0,0:0:0:0:
475,192,29967,1,0,0:0:0:0:
109,192,29967,1,0,0:0:0:0:
256,192,29967,1,0,0:0:0:0:
402,192,30057,1,0,0:0:0:0:
329,192,30146,1,0,0:0:0:0:
182,192,30235,1,0,0:0:0:0:
402,192,30324,1,0,0:0:0:0:
36,192,30324,1,0,0:0:0:0:
256,192,30414,1,0,0:0:0:0:
182,192,30503,1,0,0:0:0:0:
109,192,30592,1,0,0:0:0:0:
475,192,30682,1,0,0:0:0:0:
36,192,30682,1,0,0:0:0:0:
402,192,30682,1,0,0:0:0:0:
329,192,30771,1,0,0:0:0:0:
256,192,30860,1,0,0:0:0:0:
109,192,30949,1,0,0:0:0:0:
36,192,31039,1,0,0:0:0:0:
475,192,31039,1,0,0:0:0:0:
182,192,31039,1,0,0:0:0:0:
402,192,31039,1,0,0:0:0:0:
329,192,31128,1,0,0:0:0:0:
256,192,31217,1,0,0:0:0:0:
109,192,31307,1,0,0:0:0:0:
475,192,31396,1,0,0:0:0:0:
36,192,31396,1,0,0:0:0:0:
182,192,31396,1,0,0:0:0:0:
402,192,31485,1,0,0:0:0:0:
256,192,31574,1,0,0:0:0:0:
182,192,31664,1,0,0:0:0:0:
36,192,31753,1,0,0:0:0:0:
329,192,31753,1,0,0:0:0:0:
475,192,31753,1,0,0:0:0:0:
256,192,31842,1,0,0:0:0:0:
109,192,31842,1,0,0:0:0:0:
402,192,31932,1,0,0:0:0:0:
182,192,31932,1,0,0:0:0:0:
329,192,32021,1,0,0:0:0:0:
36,192,32110,1,0,0:0:0:0:
475,192,32110,1,0,0:0:0:0:
256,192,32110,1,0,0:0:0:0:
402,192,32199,1,0,0:0:0:0:
329,192,32289,1,0,0:0:0:0:
182,192,32378,1,0,0:0:0:0:
36,192,32467,1,0,0:0:0:0:
329,192,32467,1,0,0:0:0:0:
475,192,32467,1,0,0:0:0:0:
109,192,32467,1,0,0:0:0:0:
402,192,32557,1,0,0:0:0:0:
256,192,32646,1,0,0:0:0:0:
109,192,32735,1,0,0:0:0:0:
475,192,32824,1,0,0:0:0:0:
36,192,32824,1,0,0:0:0:0:
182,192,32824,1,0,0:0:0:0:
402,192,32914,1,0,0:0:0:0:
256,192,33003,1,0,0:0:0:0:
109,192,33092,1,0,0:0:0:0:
36,192,33182,1,0,0:0:0:0:
475,192,33182,1,0,0:0:0:0:
402,192,33182,1,0,0:0:0:0:
182,192,33182,1,0,0:0:0:0:
329,192,33271,1,0,0:0:0:0:
256,192,33360,1,0,0:0:0:0:
109,192,33449,1,0,0:0:0:0:
329,192,33539,1,0,0:0:0:0:
475,192,33539,1,0,0:0:0:0:
36,192,33539,1,0,0:0:0:0:
256,192,33628,1,0,0:0:0:0:
475,192,33717,1,0,0:0:0:0:
182,192,33717,1,0,0:0:0:0:
109,192,33807,1,0,0:0:0:0:
256,192,33896,1,0,0:0:0:0:
182,192,33896,1,0,0:0:0:0:
36,192,33896,1,0,0:0:0:0:
329,192,33896,1,0,0:0:0:0:
109,192,34074,1,0,0:0:0:0:
402,192,34074,1,0,0:0:0:0:
256,192,34074,1,0,0:0:0:0:
475,192,34074,1,0,0:0:0:0:
329,192,34253,5,0,0:0:0:0:
36,192,34253,1,0,0:0:0:0:
475,192,34342,1,0,0:0:0:0:
109,192,34342,1,0,0:0:0:0:
329,192,34432,1,0,0:0:0:0:
182,192,34432,1,0,0:0:0:0:
36,192,34521,1,0,0:0:0:0:
402,192,34521,1,0,0:0:0:0:
109,192,34610,1,0,0:0:0:0:
475,192,34610,1,0,0:0:0:0:
256,192,34610,1,0,0:0:0:0:
182,192,34699,1,0,0:0:0:0:
329,192,34699,1,0,0:0:0:0:
402,192,34789,1,0,0:0:0:0:
256,192,34789,1,0,0:0:0:0:
109,192,34878,1,0,0:0:0:0:
36,192,34967,5,0,0:0:0:0:
475,192,34967,1,0,0:0:0:0:
329,192,34967,1,0,0:0:0:0:
182,192,34967,1,0,0:0:0:0:
329,192,35146,1,0,0:0:0:0:
402,192,35146,1,0,0:0:0:0:
256,192,35146,1,0,0:0:0:0:
475,192,35324,5,0,0:0:0:0:
182,192,35324,1,0,0:0:0:0:
36,192,35324,1,0,0:0:0:0:
109,192,35324,1,0,0:0:0:0:
402,192,35414,1,0,0:0:0:0:
329,192,35503,1,0,0:0:0:0:
36,192,35503,1,0,0:0:0:0:
182,192,35503,1,0,0:0:0:0:
109,192,35503,1,0,0:0:0:0:
402,192,35592,1,0,0:0:0:0:
36,192,35682,1,0,0:0:0:0:
109,192,35682,1,0,0:0:0:0:
182,192,35682,1,0,0:0:0:0:
475,192,35682,1,0,0:0:0:0:
329,192,35860,1,0,0:0:0:0:
256,192,35860,1,0,0:0:0:0:
402,192,35949,1,0,0:0:0:0:
36,192,36039,1,0,0:0:0:0:
182,192,36039,1,0,0:0:0:0:
109,192,36039,1,0,0:0:0:0:
475,192,36039,1,0,0:0:0:0:
402,192,36217,1,0,0:0:0:0:
256,192,36217,1,0,0:0:0:0:
36,192,36396,1,0,0:0:0:0:
475,192,36396,1,0,0:0:0:0:
182,192,36396,1,0,0:0:0:0:
109,192,36396,1,0,0:0:0:0:
329,192,36485,1,0,0:0:0:0:
36,192,36574,1,0,0:0:0:0:
182,192,36574,1,0,0:0:0:0:
109,192,36574,1,0,0:0:0:0:
475,192,36574,1,0,0:0:0:0:
402,192,36664,1,0,0:0:0:0:
329,192,36753,1,0,0:0:0:0:
256,192,36753,1,0,0:0:0:0:
109,192,36932,1,0,0:0:0:0:
36,192,36932,1,0,0:0:0:0:
182,192,36932,1,0,0:0:0:0:
475,192,36932,1,0,0:0:0:0:
329,192,37021,1,0,0:0:0:0:
402,192,37110,1,0,0:0:0:0:
256,192,37110,1,0,0:0:0:0:
182,192,37289,1,0,0:0:0:0:
109,192,37289,1,0,0:0:0:0:
36,192,37289,1,0,0:0:0:0:
475,192,37467,1,0,0:0:0:0:
182,192,37467,1,0,0:0:0:0:
36,192,37467,1,0,0:0:0:0:
109,192,37467,1,0,0:0:0:0:
402,192,37557,1,0,0:0:0:0:
36,192,37646,1,0,0:0:0:0:
182,192,37646,1,0,0:0:0:0:
329,192,37646,1,0,0:0:0:0:
109,192,37646,1,0,0:0:0:0:
256,192,37824,1,0,0:0:0:0:
402,192,37824,1,0,0:0:0:0:
36,192,38003,1,0,0:0:0:0:
182,192,38003,1,0,0:0:0:0:
109,192,38003,1,0,0:0:0:0:
475,192,38003,1,0,0:0:0:0:
402,192,38092,1,0,0:0:0:0:
36,192,38182,1,0,0:0:0:0:
182,192,38182,1,0,0:0:0:0:
109,192,38182,1,0,0:0:0:0:
329,192,38182,1,0,0:0:0:0:
475,192,38271,1,0,0:0:0:0:
182,192,38360,1,0,0:0:0:0:
36,192,38360,1,0,0:0:0:0:
109,192,38360,1,0,0:0:0:0:
329,192,38360,1,0,0:0:0:0:
36,192,38539,1,0,0:0:0:0:
109,192,38539,1,0,0:0:0:0:
475,192,38539,1,0,0:0:0:0:
182,192,38539,1,0,0:0:0:0:
329,192,38628,1,0,0:0:0:0:
402,192,38717,1,0,0:0:0:0:
256,192,38807,1,0,0:0:0:0:
329,192,38896,1,0,0:0:0:0:
182,192,38985,1,0,0:0:0:0:
36,192,39074,1,0,0:0:0:0:
182,192,39164,1,0,0:0:0:0:
329,192,39253,1,0,0:0:0:0:
475,192,39253,1,0,0:0:0:0:
402,192,39253,1,0,0:0:0:0:
329,192,39432,1,0,0:0:0:0:
475,192,39432,1,0,0:0:0:0:
402,192,39432,1,0,0:0:0:0:
36,192,39432,1,0,0:0:0:0:
109,192,39521,1,0,0:0:0:0:
182,192,39610,1,0,0:0:0:0:
475,192,39610,1,0,0:0:0:0:
402,192,39610,1,0,0:0:0:0:
329,192,39610,1,0,0:0:0:0:
109,192,39789,1,0,0:0:0:0:
256,192,39789,1,0,0:0:0:0:
475,192,39967,1,0,0:0:0:0:
329,192,39967,1,0,0:0:0:0:
36,192,39967,1,0,0:0:0:0:
402,192,39967,1,0,0:0:0:0:
109,192,40057,1,0,0:0:0:0:
182,192,40146,1,0,0:0:0:0:
256,192,40146,1,0,0:0:0:0:
329,192,40324,1,0,0:0:0:0:
402,192,40324,1,0,0:0:0:0:
475,192,40324,1,0,0:0:0:0:
36,192,40324,1,0,0:0:0:0:
182,192,40414,1,0,0:0:0:0:
475,192,40503,1,0,0:0:0:0:
402,192,40503,1,0,0:0:0:0:
329,192,40503,1,0,0:0:0:0:
36,192,40503,1,0,0:0:0:0:
109,192,40592,1,0,0:0:0:0:
182,192,40682,1,0,0:0:0:0:
256,192,40682,1,0,0:0:0:0:
329,192,40860,1,0,0:0:0:0:
402,192,40860,1,0,0:0:0:0:
475,192,40860,1,0,0:0:0:0:
36,192,40860,1,0,0:0:0:0:
182,192,40949,1,0,0:0:0:0:
256,192,41039,1,0,0:0:0:0:
109,192,41039,1,0,0:0:0:0:
329,192,41217,1,0,0:0:0:0:
402,192,41217,1,0,0:0:0:0:
475,192,41217,1,0,0:0:0:0:
36,192,41217,1,0,0:0:0:0:
109,192,41307,1,0,0:0:0:0:
329,192,41396,1,0,0:0:0:0:
402,192,41396,1,0,0:0:0:0:
475,192,41396,1,0,0:0:0:0:
182,192,41396,1,0,0:0:0:0:
36,192,41485,1,0,0:0:0:0:
402,192,41574,1,0,0:0:0:0:
329,192,41574,1,0,0:0:0:0:
475,192,41574,1,0,0:0:0:0:
182,192,41574,1,0,0:0:0:0:
109,192,41753,1,0,0:0:0:0:
256,192,41753,1,0,0:0:0:0:
329,192,41932,1,0,0:0:0:0:
402,192,41932,1,0,0:0:0:0:
475,192,41932,1,0,0:0:0:0:
182,192,41932,1,0,0:0:0:0:
109,192,42021,1,0,0:0:0:0:
329,192,42110,1,0,0:0:0:0:
402,192,42110,1,0,0:0:0:0:
475,192,42110,1,0,0:0:0:0:
36,192,42110,1,0,0:0:0:0:
182,192,42199,1,0,0:0:0:0:
329,192,42289,1,0,0:0:0:0:
402,192,42289,1,0,0:0:0:0:
475,192,42289,1,0,0:0:0:0:
36,192,42289,1,0,0:0:0:0:
182,192,42467,1,0,0:0:0:0:
256,192,42467,1,0,0:0:0:0:
36,192,42557,1,0,0:0:0:0:
329,192,42557,1,0,0:0:0:0:
182,192,42646,1,0,0:0:0:0:
402,192,42646,1,0,0:0:0:0:
36,192,42735,1,0,0:0:0:0:
475,192,42735,1,0,0:0:0:0:
182,192,42824,1,0,0:0:0:0:
329,192,42824,1,0,0:0:0:0:
36,192,42914,1,0,0:0:0:0:
402,192,42914,1,0,0:0:0:0:
182,192,43003,1,0,0:0:0:0:
256,192,43003,1,0,0:0:0:0:
36,192,43092,1,0,0:0:0:0:
329,192,43092,1,0,0:0:0:0:
182,192,43182,1,0,0:0:0:0:
256,192,43182,1,0,0:0:0:0:
475,192,43182,1,0,0:0:0:0:
109,192,43182,1,0,0:0:0:0:
402,192,43271,1,0,0:0:0:0:
329,192,43360,1,0,0:0:0:0:
36,192,43360,1,0,0:0:0:0:
109,192,43360,1,0,0:0:0:0:
256,192,43449,1,0,0:0:0:0:
182,192,43539,1,0,0:0:0:0:
475,192,43539,1,0,0:0:0:0:
402,192,43539,1,0,0:0:0:0:
109,192,43628,1,0,0:0:0:0:
36,192,43717,1,0,0:0:0:0:
329,192,43717,1,0,0:0:0:0:
256,192,43717,1,0,0:0:0:0:
109,192,43807,1,0,0:0:0:0:
182,192,43896,1,0,0:0:0:0:
475,192,43896,1,0,0:0:0:0:
402,192,43896,1,0,0:0:0:0:
256,192,43985,1,0,0:0:0:0:
329,192,44074,1,0,0:0:0:0:
109,192,44074,1,0,0:0:0:0:
36,192,44074,1,0,0:0:0:0:
402,192,44164,1,0,0:0:0:0:
475,192,44253,1,0,0:0:0:0:
182,192,44253,1,0,0:0:0:0:
256,192,44253,1,0,0:0:0:0:
402,192,44342,1,0,0:0:0:0:
329,192,44432,1,0,0:0:0:0:
109,192,44432,1,0,0:0:0:0:
36,192,44432,1,0,0:0:0:0:
256,192,44521,1,0,0:0:0:0:
182,192,44610,1,0,0:0:0:0:
475,192,44610,1,0,0:0:0:0:
402,192,44610,1,0,0:0:0:0:
109,192,44699,1,0,0:0:0:0:
36,192,44789,1,0,0:0:0:0:
329,192,44789,1,0,0:0:0:0:
256,192,44789,1,0,0:0:0:0:
402,192,44878,1,0,0:0:0:0:
256,192,44967,1,0,0:0:0:0:
475,192,44967,1,0,0:0:0:0:
182,192,44967,1,0,0:0:0:0:
109,192,45057,1,0,0:0:0:0:
182,192,45146,1,0,0:0:0:0:
36,192,45146,1,0,0:0:0:0:
329,192,45146,1,0,0:0:0:0:
256,192,45235,1,0,0:0:0:0:
475,192,45324,1,0,0:0:0:0:
329,192,45324,1,0,0:0:0:0:
402,192,45324,1,0,0:0:0:0:
182,192,45414,1,0,0:0:0:0:
36,192,45414,1,0,0:0:0:0:
109,192,45414,1,0,0:0:0:0:
329,192,45503,1,0,0:0:0:0:
402,192,45503,1,0,0:0:0:0:
475,192,45503,1,0,0:0:0:0:
36,192,45592,1,0,0:0:0:0:
182,192,45592,1,0,0:0:0:0:
109,192,45592,1,0,0:0:0:0:
329,192,45682,1,0,0:0:0:0:
402,192,45682,1,0,0:0:0:0:
475,192,45682,1,0,0:0:0:0:
182,192,45771,1,0,0:0:0:0:
109,192,45771,1,0,0:0:0:0:
36,192,45771,1,0,0:0:0:0:
329,192,45860,1,0,0:0:0:0:
475,192,45860,1,0,0:0:0:0:
402,192,45860,1,0,0:0:0:0:
182,192,45949,1,0,0:0:0:0:
109,192,45949,1,0,0:0:0:0:
36,192,45949,1,0,0:0:0:0:
329,192,46039,1,0,0:0:0:0:
475,192,46039,1,0,0:0:0:0:
402,192,46039,1,0,0:0:0:0:
182,192,46128,1,0,0:0:0:0:
36,192,46128,1,0,0:0:0:0:
109,192,46128,1,0,0:0:0:0:
329,192,46217,1,0,0:0:0:0:
475,192,46217,1,0,0:0:0:0:
402,192,46217,1,0,0:0:0:0:
36,192,46307,1,0,0:0:0:0:
182,192,46307,1,0,0:0:0:0:
109,192,46307,1,0,0:0:0:0:
475,192,46396,1,0,0:0:0:0:
329,192,46396,1,0,0:0:0:0:
402,192,46396,1,0,0:0:0:0:
256,192,46396,1,0,0:0:0:0:
36,192,50682,1,0,0:0:0:0:
182,192,50682,1,0,0:0:0:0:
329,192,50682,1,0,0:0:0:0:
402,192,50682,1,0,0:0:0:0:
109,192,50682,1,0,0:0:0:0:
475,192,50682,1,0,0:0:0:0:
256,192,50801,1,0,0:0:0:0:
109,192,50920,1,0,0:0:0:0:
182,192,51039,1,0,0:0:0:0:
36,192,51158,1,0,0:0:0:0:
109,192,51277,1,0,0:0:0:0:
182,192,51396,1,0,0:0:0:0:
475,192,51396,1,0,0:0:0:0:
402,192,51515,1,0,0:0:0:0:
256,192,51634,1,0,0:0:0:0:
109,192,51753,1,0,0:0:0:0:
182,192,51872,1,0,0:0:0:0:
329,192,51991,1,0,0:0:0:0:
475,192,52110,1,0,0:0:0:0:
36,192,52110,1,0,0:0:0:0:
109,192,52824,1,0,0:0:0:0:
182,192,52824,1,0,0:0:0:0:
182,192,53539,1,0,0:0:0:0:
256,192,53658,1,0,0:0:0:0:
402,192,53777,1,0,0:0:0:0:
329,192,53896,1,0,0:0:0:0:
475,192,54015,1,0,0:0:0:0:
402,192,54134,1,0,0:0:0:0:
329,192,54253,1,0,0:0:0:0:
36,192,54253,1,0,0:0:0:0:
109,192,54372,1,0,0:0:0:0:
256,192,54491,1,0,0:0:0:0:
402,192,54610,1,0,0:0:0:0:
329,192,54729,1,0,0:0:0:0:
182,192,54848,1,0,0:0:0:0:
36,192,54967,1,0,0:0:0:0:
475,192,54967,1,0,0:0:0:0:
182,192,55682,1,0,0:0:0:0:
256,192,55682,1,0,0:0:0:0:
109,192,56396,1,0,0:0:0:0:
182,192,56515,1,0,0:0:0:0:
256,192,56634,1,0,0:0:0:0:
329,192,56753,1,0,0:0:0:0:
182,192,56872,1,0,0:0:0:0:
402,192,56991,1,0,0:0:0:0:
109,192,57110,1,0,0:0:0:0:
475,192,57110,1,0,0:0:0:0:
329,192,57229,1,0,0:0:0:0:
182,192,57348,1,0,0:0:0:0:
256,192,57467,1,0,0:0:0:0:
329,192,57586,1,0,0:0:0:0:
402,192,57705,1,0,0:0:0:0:
475,192,57824,1,0,0:0:0:0:
36,192,57824,1,0,0:0:0:0:
402,192,58539,1,0,0:0:0:0:
329,192,58539,1,0,0:0:0:0:
402,192,59253,1,0,0:0:0:0:
329,192,59372,1,0,0:0:0:0:
256,192,59491,1,0,0:0:0:0:
182,192,59610,1,0,0:0:0:0:
329,192,59729,1,0,0:0:0:0:
109,192,59848,1,0,0:0:0:0:
36,192,59967,1,0,0:0:0:0:
402,192,59967,1,0,0:0:0:0:
182,192,60086,1,0,0:0:0:0:
329,192,60205,1,0,0:0:0:0:
256,192,60324,1,0,0:0:0:0:
182,192,60444,1,0,0:0:0:0:
109,192,60563,1,0,0:0:0:0:
36,192,60682,1,0,0:0:0:0:
475,192,60682,1,0,0:0:0:0:
329,192,61396,1,0,0:0:0:0:
256,192,61396,1,0,0:0:0:0:
36,192,62110,1,0,0:0:0:0:
475,192,62110,1,0,0:0:0:0:
329,192,62110,1,0,0:0:0:0:
402,192,62289,1,0,0:0:0:0:
182,192,62467,1,0,0:0:0:0:
109,192,62646,1,0,0:0:0:0:
402,192,62646,1,0,0:0:0:0:
182,192,62824,1,0,0:0:0:0:
402,192,63003,1,0,0:0:0:0:
256,192,63182,1,0,0:0:0:0:
36,192,63182,1,0,0:0:0:0:
402,192,63360,1,0,0:0:0:0:
36,192,63539,1,0,0:0:0:0:
475,192,63539,1,0,0:0:0:0:
329,192,63539,1,0,0:0:0:0:
402,192,63717,1,0,0:0:0:0:
182,192,63896,1,0,0:0:0:0:
256,192,64074,1,0,0:0:0:0:
402,192,64074,1,0,0:0:0:0:
109,192,64253,1,0,0:0:0:0:
329,192,64253,1,0,0:0:0:0:
402,192,64432,1,0,0:0:0:0:
182,192,64610,1,0,0:0:0:0:
36,192,64610,1,0,0:0:0:0:
402,192,64789,1,0,0:0:0:0:
36,192,64967,1,0,0:0:0:0:
256,192,64967,1,0,0:0:0:0:
402,192,65146,1,0,0:0:0:0:
182,192,65324,1,0,0:0:0:0:
402,192,65503,1,0,0:0:0:0:
36,192,65682,5,0,0:0:0:0:
256,192,65682,1,0,0:0:0:0:
402,192,65860,1,0,0:0:0:0:
182,192,65949,1,0,0:0:0:0:
329,192,65949,1,0,0:0:0:0:
402,192,66217,1,0,0:0:0:0:
475,192,66396,1,0,0:0:0:0:
329,192,66396,1,0,0:0:0:0:
182,192,66396,1,0,0:0:0:0:
36,192,66396,1,0,0:0:0:0:
402,192,66574,128,0,67824:0:0:0:0:
109,192,66574,128,0,67824:0:0:0:0:
256,192,66574,128,0,67824:0:0:0:0:
36,192,67110,1,0,0:0:0:0:
475,192,67110,1,0,0:0:0:0:
329,192,67824,1,0,0:0:0:0:
475,192,67824,1,0,0:0:0:0:
182,192,67824,1,0,0:0:0:0:
36,192,67824,1,0,0:0:0:0:
402,192,68003,1,0,0:0:0:0:
182,192,68182,1,0,0:0:0:0:
475,192,68182,1,0,0:0:0:0:
36,192,68182,1,0,0:0:0:0:
256,192,68360,1,0,0:0:0:0:
109,192,68360,128,0,68405:0:0:0:0:
475,192,68539,1,0,0:0:0:0:
329,192,68539,1,0,0:0:0:0:
36,192,68539,1,0,0:0:0:0:
109,192,68717,1,0,0:0:0:0:
182,192,68896,1,0,0:0:0:0:
329,192,68896,1,0,0:0:0:0:
475,192,68896,1,0,0:0:0:0:
256,192,69074,1,0,0:0:0:0:
109,192,69253,5,0,0:0:0:0:
329,192,69253,1,0,0:0:0:0:
36,192,69253,1,0,0:0:0:0:
182,192,69432,1,0,0:0:0:0:
402,192,69432,128,0,69476:0:0:0:0:
256,192,69610,128,0,69655:0:0:0:0:
475,192,69610,1,0,0:0:0:0:
36,192,69610,1,0,0:0:0:0:
402,192,69789,1,0,0:0:0:0:
109,192,69789,128,0,69833:0:0:0:0:
329,192,69967,1,0,0:0:0:0:
36,192,69967,1,0,0:0:0:0:
475,192,69967,128,0,70012:0:0:0:0:
109,192,70057,1,0,0:0:0:0:
256,192,70057,1,0,0:0:0:0:
182,192,70146,1,0,0:0:0:0:
329,192,70146,128,0,70191:0:0:0:0:
256,192,70324,1,0,0:0:0:0:
475,192,70324,1,0,0:0:0:0:
182,192,70324,128,0,70369:0:0:0:0:
329,192,70503,1,0,0:0:0:0:
36,192,70503,128,0,70548:0:0:0:0:
402,192,70682,128,0,70726:0:0:0:0:
109,192,70682,1,0,0:0:0:0:
256,192,70682,1,0,0:0:0:0:
182,192,70860,1,0,0:0:0:0:
329,192,71039,1,0,0:0:0:0:
475,192,71039,1,0,0:0:0:0:
36,192,71039,1,0,0:0:0:0:
109,192,71217,1,0,0:0:0:0:
402,192,71217,128,0,71262:0:0:0:0:
182,192,71396,1,0,0:0:0:0:
475,192,71396,1,0,0:0:0:0:
256,192,71396,1,0,0:0:0:0:
329,192,71574,1,0,0:0:0:0:
182,192,71753,1,0,0:0:0:0:
475,192,71753,1,0,0:0:0:0:
36,192,71753,1,0,0:0:0:0:
256,192,71932,1,0,0:0:0:0:
36,192,72110,128,0,72155:0:0:0:0:
329,192,72110,1,0,0:0:0:0:
475,192,72110,1,0,0:0:0:0:
182,192,72289,1,0,0:0:0:0:
182,192,72467,128,0,72512:0:0:0:0:
475,192,72467,1,0,0:0:0:0:
36,192,72467,1,0,0:0:0:0:
402,192,72557,1,0,0:0:0:0:
109,192,72646,1,0,0:0:0:0:
256,192,72735,1,0,0:0:0:0:
109,192,72824,128,0,72869:0:0:0:0:
329,192,72824,1,0,0:0:0:0:
475,192,72824,1,0,0:0:0:0:
182,192,72914,1,0,0:0:0:0:
402,192,73003,1,0,0:0:0:0:
256,192,73182,128,0,73226:0:0:0:0:
475,192,73182,1,0,0:0:0:0:
109,192,73182,1,0,0:0:0:0:
402,192,73360,1,0,0:0:0:0:
182,192,73360,1,0,0:0:0:0:
329,192,73539,1,0,0:0:0:0:
475,192,73539,1,0,0:0:0:0:
36,192,73539,1,0,0:0:0:0:
256,192,73539,1,0,0:0:0:0:
182,192,73717,1,0,0:0:0:0:
36,192,73896,1,0,0:0:0:0:
475,192,73896,1,0,0:0:0:0:
402,192,73896,1,0,0:0:0:0:
256,192,74074,1,0,0:0:0:0:
109,192,74074,128,0,74119:0:0:0:0:
182,192,74253,1,0,0:0:0:0:
402,192,74253,1,0,0:0:0:0:
329,192,74253,1,0,0:0:0:0:
256,192,74432,1,0,0:0:0:0:
36,192,74610,1,0,0:0:0:0:
182,192,74610,1,0,0:0:0:0:
475,192,74610,1,0,0:0:0:0:
329,192,74789,1,0,0:0:0:0:
182,192,74967,1,0,0:0:0:0:
109,192,74967,1,0,0:0:0:0:
402,192,74967,1,0,0:0:0:0:
475,192,75146,128,0,75191:0:0:0:0:
256,192,75146,1,0,0:0:0:0:
329,192,75324,128,0,75369:0:0:0:0:
109,192,75324,1,0,0:0:0:0:
36,192,75324,1,0,0:0:0:0:
402,192,75503,128,0,75548:0:0:0:0:
256,192,75503,1,0,0:0:0:0:
109,192,75592,1,0,0:0:0:0:
256,192,75682,128,0,75726:0:0:0:0:
475,192,75682,1,0,0:0:0:0:
36,192,75682,1,0,0:0:0:0:
329,192,75771,1,0,0:0:0:0:
36,192,75860,128,0,75905:0:0:0:0:
182,192,75860,1,0,0:0:0:0:
182,192,76039,128,0,76083:0:0:0:0:
329,192,76039,1,0,0:0:0:0:
475,192,76039,1,0,0:0:0:0:
256,192,76217,128,0,76262:0:0:0:0:
109,192,76217,1,0,0:0:0:0:
36,192,76396,1,0,0:0:0:0:
182,192,76396,1,0,0:0:0:0:
475,192,76396,128,0,76441:0:0:0:0:
256,192,76574,1,0,0:0:0:0:
329,192,76753,1,0,0:0:0:0:
475,192,76753,1,0,0:0:0:0:
36,192,76753,1,0,0:0:0:0:
109,192,76932,1,0,0:0:0:0:
256,192,76932,128,0,76976:0:0:0:0:
182,192,77110,1,0,0:0:0:0:
402,192,77110,1,0,0:0:0:0:
329,192,77110,1,0,0:0:0:0:
256,192,77289,1,0,0:0:0:0:
109,192,77467,1,0,0:0:0:0:
402,192,77467,1,0,0:0:0:0:
256,192,77646,1,0,0:0:0:0:
475,192,77646,1,0,0:0:0:0:
36,192,77646,1,0,0:0:0:0:
109,192,77824,1,0,0:0:0:0:
182,192,77824,1,0,0:0:0:0:
329,192,77824,1,0,0:0:0:0:
402,192,77824,1,0,0:0:0:0:
256,192,77824,128,0,78182:0:0:0:0:
402,192,78003,1,0,0:0:0:0:
329,192,78003,1,0,0:0:0:0:
182,192,78003,1,0,0:0:0:0:
109,192,78003,1,0,0:0:0:0:
475,192,78182,1,0,0:0:0:0:
36,192,78182,1,0,0:0:0:0:
182,192,78271,1,0,0:0:0:0:
329,192,78271,1,0,0:0:0:0:
475,192,78360,1,0,0:0:0:0:
36,192,78360,1,0,0:0:0:0:
329,192,78449,1,0,0:0:0:0:
182,192,78449,1,0,0:0:0:0:
256,192,78539,128,0,78896:0:0:0:0:
36,192,78539,1,0,0:0:0:0:
475,192,78539,1,0,0:0:0:0:
109,192,78628,1,0,0:0:0:0:
402,192,78628,1,0,0:0:0:0:
109,192,78896,1,0,0:0:0:0:
36,192,78896,1,0,0:0:0:0:
475,192,78896,1,0,0:0:0:0:
402,192,78896,1,0,0:0:0:0:
256,192,79074,1,0,0:0:0:0:
329,192,79074,1,0,0:0:0:0:
182,192,79074,1,0,0:0:0:0:
109,192,79253,1,0,0:0:0:0:
36,192,79253,1,0,0:0:0:0:
402,192,79253,1,0,0:0:0:0:
475,192,79253,1,0,0:0:0:0:
256,192,79253,128,0,79298:0:0:0:0:
182,192,79432,1,0,0:0:0:0:
475,192,79610,1,0,0:0:0:0:
329,192,79610,1,0,0:0:0:0:
36,192,79610,1,0,0:0:0:0:
256,192,79789,1,0,0:0:0:0:
475,192,79967,128,0,80012:0:0:0:0:
182,192,79967,1,0,0:0:0:0:
109,192,79967,1,0,0:0:0:0:
36,192,80146,1,0,0:0:0:0:
329,192,80235,128,0,80280:0:0:0:0:
182,192,80235,1,0,0:0:0:0:
475,192,80324,1,0,0:0:0:0:
36,192,80324,1,0,0:0:0:0:
402,192,80503,128,0,80548:0:0:0:0:
109,192,80503,1,0,0:0:0:0:
36,192,80682,1,0,0:0:0:0:
182,192,80682,1,0,0:0:0:0:
256,192,80682,128,0,80726:0:0:0:0:
329,192,80860,1,0,0:0:0:0:
256,192,81039,1,0,0:0:0:0:
475,192,81039,1,0,0:0:0:0:
36,192,81039,1,0,0:0:0:0:
109,192,81217,1,0,0:0:0:0:
256,192,81307,1,0,0:0:0:0:
402,192,81396,128,0,81753:0:0:0:0:
36,192,81396,1,0,0:0:0:0:
182,192,81396,1,0,0:0:0:0:
329,192,81485,1,0,0:0:0:0:
182,192,81574,1,0,0:0:0:0:
475,192,81753,1,0,0:0:0:0:
36,192,81753,1,0,0:0:0:0:
256,192,81753,1,0,0:0:0:0:
329,192,81932,1,0,0:0:0:0:
182,192,82110,128,0,82467:0:0:0:0:
256,192,82110,1,0,0:0:0:0:
36,192,82110,1,0,0:0:0:0:
475,192,82110,1,0,0:0:0:0:
402,192,82289,1,0,0:0:0:0:
329,192,82467,1,0,0:0:0:0:
36,192,82467,1,0,0:0:0:0:
475,192,82467,1,0,0:0:0:0:
256,192,82646,1,0,0:0:0:0:
36,192,82824,128,0,82869:0:0:0:0:
329,192,82824,1,0,0:0:0:0:
402,192,82824,1,0,0:0:0:0:
182,192,82824,1,0,0:0:0:0:
256,192,83003,1,0,0:0:0:0:
182,192,83092,128,0,83137:0:0:0:0:
475,192,83092,1,0,0:0:0:0:
402,192,83182,1,0,0:0:0:0:
36,192,83182,1,0,0:0:0:0:
109,192,83360,128,0,83405:0:0:0:0:
329,192,83360,1,0,0:0:0:0:
182,192,83539,1,0,0:0:0:0:
402,192,83539,1,0,0:0:0:0:
475,192,83539,1,0,0:0:0:0:
256,192,83539,1,0,0:0:0:0:
109,192,83717,1,0,0:0:0:0:
182,192,83896,1,0,0:0:0:0:
329,192,83896,1,0,0:0:0:0:
475,192,83896,1,0,0:0:0:0:
36,192,83896,1,0,0:0:0:0:
402,192,84074,1,0,0:0:0:0:
256,192,84253,128,0,85324:0:0:0:0:
182,192,84253,1,0,0:0:0:0:
329,192,84253,1,0,0:0:0:0:
475,192,84342,1,0,0:0:0:0:
36,192,84342,1,0,0:0:0:0:
182,192,84432,1,0,0:0:0:0:
329,192,84432,1,0,0:0:0:0:
36,192,84610,1,0,0:0:0:0:
475,192,84610,1,0,0:0:0:0:
475,192,84789,1,0,0:0:0:0:
36,192,84789,1,0,0:0:0:0:
36,192,85771,128,0,86396:0:0:0:0:
475,192,85771,128,0,86396:0:0:0:0:
109,192,86396,1,0,0:0:0:0:
182,192,86396,1,0,0:0:0:0:
329,192,86396,1,0,0:0:0:0:
402,192,86396,1,0,0:0:0:0:
109,192,86574,1,0,0:0:0:0:
256,192,86574,1,0,0:0:0:0:
329,192,86574,1,0,0:0:0:0:
36,192,86574,1,0,0:0:0:0:
182,192,86753,1,0,0:0:0:0:
256,192,86753,1,0,0:0:0:0:
475,192,86753,1,0,0:0:0:0:
402,192,86753,1,0,0:0:0:0:
329,192,86932,1,0,0:0:0:0:
36,192,86932,1,0,0:0:0:0:
109,192,86932,1,0,0:0:0:0:
475,192,87021,1,0,0:0:0:0:
329,192,87110,1,0,0:0:0:0:
182,192,87110,1,0,0:0:0:0:
109,192,87110,1,0,0:0:0:0:
475,192,87199,1,0,0:0:0:0:
256,192,87289,1,0,0:0:0:0:
402,192,87289,1,0,0:0:0:0:
182,192,87289,1,0,0:0:0:0:
36,192,87467,1,0,0:0:0:0:
109,192,87467,1,0,0:0:0:0:
475,192,87467,1,0,0:0:0:0:
329,192,87467,1,0,0:0:0:0:
402,192,87646,1,0,0:0:0:0:
256,192,87646,1,0,0:0:0:0:
109,192,87646,1,0,0:0:0:0:
182,192,87646,1,0,0:0:0:0:
36,192,87824,1,0,0:0:0:0:
182,192,87824,1,0,0:0:0:0:
329,192,87824,1,0,0:0:0:0:
475,192,87824,1,0,0:0:0:0:
36,192,88003,1,0,0:0:0:0:
402,192,88003,1,0,0:0:0:0:
329,192,88003,1,0,0:0:0:0:
182,192,88092,1,0,0:0:0:0:
475,192,88182,1,0,0:0:0:0:
329,192,88182,1,0,0:0:0:0:
256,192,88182,1,0,0:0:0:0:
109,192,88271,1,0,0:0:0:0:
182,192,88360,1,0,0:0:0:0:
256,192,88360,1,0,0:0:0:0:
402,192,88360,1,0,0:0:0:0:
182,192,88539,1,0,0:0:0:0:
109,192,88539,1,0,0:0:0:0:
475,192,88539,1,0,0:0:0:0:
329,192,88539,1,0,0:0:0:0:
36,192,88539,1,0,0:0:0:0:
109,192,88717,1,0,0:0:0:0:
402,192,88717,1,0,0:0:0:0:
36,192,88717,1,0,0:0:0:0:
182,192,88717,1,0,0:0:0:0:
256,192,88717,1,0,0:0:0:0:
109,192,88896,1,0,0:0:0:0:
182,192,88896,1,0,0:0:0:0:
256,192,88896,1,0,0:0:0:0:
329,192,88896,1,0,0:0:0:0:
475,192,88896,1,0,0:0:0:0:
402,192,89074,1,0,0:0:0:0:
36,192,89074,1,0,0:0:0:0:
256,192,89074,1,0,0:0:0:0:
182,192,89164,1,0,0:0:0:0:
475,192,89253,1,0,0:0:0:0:
109,192,89253,1,0,0:0:0:0:
329,192,89253,1,0,0:0:0:0:
256,192,89342,1,0,0:0:0:0:
182,192,89432,1,0,0:0:0:0:
475,192,89432,1,0,0:0:0:0:
329,192,89432,1,0,0:0:0:0:
256,192,89610,1,0,0:0:0:0:
109,192,89610,1,0,0:0:0:0:
36,192,89610,1,0,0:0:0:0:
402,192,89610,1,0,0:0:0:0:
36,192,89789,1,0,0:0:0:0:
329,192,89789,1,0,0:0:0:0:
475,192,89789,1,0,0:0:0:0:
182,192,89789,1,0,0:0:0:0:
109,192,89967,1,0,0:0:0:0:
329,192,89967,1,0,0:0:0:0:
256,192,89967,1,0,0:0:0:0:
475,192,89967,1,0,0:0:0:0:
402,192,90146,1,0,0:0:0:0:
182,192,90146,1,0,0:0:0:0:
36,192,90146,1,0,0:0:0:0:
256,190,90235,1,0,0:0:0:0:
329,192,90324,1,0,0:0:0:0:
475,192,90324,1,0,0:0:0:0:
109,192,90324,1,0,0:0:0:0:
36,192,90414,1,0,0:0:0:0:
402,192,90503,1,0,0:0:0:0:
256,192,90503,1,0,0:0:0:0:
182,192,90503,1,0,0:0:0:0:
182,192,90682,1,0,0:0:0:0:
36,192,90682,1,0,0:0:0:0:
329,192,90682,1,0,0:0:0:0:
109,192,90682,1,0,0:0:0:0:
475,192,90682,1,0,0:0:0:0:
475,192,90860,1,0,0:0:0:0:
402,192,90860,1,0,0:0:0:0:
109,192,90860,1,0,0:0:0:0:
256,192,90860,1,0,0:0:0:0:
36,192,90860,1,0,0:0:0:0:
402,192,91039,1,0,0:0:0:0:
36,192,91039,1,0,0:0:0:0:
475,192,91039,1,0,0:0:0:0:
329,192,91039,1,0,0:0:0:0:
182,192,91039,1,0,0:0:0:0:
329,192,91217,1,0,0:0:0:0:
109,192,91217,1,0,0:0:0:0:
256,192,91217,1,0,0:0:0:0:
475,192,91307,1,0,0:0:0:0:
182,192,91396,1,0,0:0:0:0:
36,192,91396,1,0,0:0:0:0:
256,192,91396,1,0,0:0:0:0:
402,192,91485,1,0,0:0:0:0:
182,192,91574,1,0,0:0:0:0:
109,192,91574,1,0,0:0:0:0:
329,192,91574,1,0,0:0:0:0:
256,192,91753,1,0,0:0:0:0:
36,192,91753,1,0,0:0:0:0:
109,192,91753,1,0,0:0:0:0:
402,192,91753,1,0,0:0:0:0:
475,192,91932,1,0,0:0:0:0:
329,192,91932,1,0,0:0:0:0:
36,192,91932,1,0,0:0:0:0:
182,192,91932,1,0,0:0:0:0:
109,192,92110,1,0,0:0:0:0:
329,192,92110,1,0,0:0:0:0:
256,192,92110,1,0,0:0:0:0:
402,192,92110,1,0,0:0:0:0:
475,192,92289,1,0,0:0:0:0:
182,192,92289,1,0,0:0:0:0:
36,192,92289,1,0,0:0:0:0:
256,192,92378,1,0,0:0:0:0:
475,192,92467,1,0,0:0:0:0:
36,192,92467,1,0,0:0:0:0:
402,192,92467,1,0,0:0:0:0:
256,192,92557,1,0,0:0:0:0:
109,192,92646,1,0,0:0:0:0:
329,192,92646,1,0,0:0:0:0:
182,192,92646,1,0,0:0:0:0:
475,192,92824,1,0,0:0:0:0:
256,192,92824,1,0,0:0:0:0:
109,192,92824,1,0,0:0:0:0:
36,192,92824,1,0,0:0:0:0:
402,192,92824,1,0,0:0:0:0:
36,192,93003,1,0,0:0:0:0:
402,192,93003,1,0,0:0:0:0:
475,192,93003,1,0,0:0:0:0:
329,192,93003,1,0,0:0:0:0:
182,192,93003,1,0,0:0:0:0:
256,192,93182,1,0,0:0:0:0:
109,192,93182,1,0,0:0:0:0:
36,192,93182,1,0,0:0:0:0:
402,192,93182,1,0,0:0:0:0:
475,192,93182,1,0,0:0:0:0:
182,192,93360,1,0,0:0:0:0:
329,192,93360,1,0,0:0:0:0:
475,192,93360,1,0,0:0:0:0:
109,192,93449,1,0,0:0:0:0:
256,192,93539,1,0,0:0:0:0:
402,192,93539,1,0,0:0:0:0:
36,192,93539,1,0,0:0:0:0:
182,192,93628,1,0,0:0:0:0:
109,192,93717,1,0,0:0:0:0:
475,192,93717,1,0,0:0:0:0:
329,192,93717,1,0,0:0:0:0:
36,192,93896,1,0,0:0:0:0:
182,192,93896,1,0,0:0:0:0:
402,192,93896,1,0,0:0:0:0:
256,192,93896,1,0,0:0:0:0:
256,192,94074,1,0,0:0:0:0:
329,192,94074,1,0,0:0:0:0:
109,192,94074,1,0,0:0:0:0:
475,192,94074,1,0,0:0:0:0:
402,192,94253,1,0,0:0:0:0:
329,192,94253,1,0,0:0:0:0:
36,192,94253,1,0,0:0:0:0:
182,192,94253,1,0,0:0:0:0:
256,192,94432,1,0,0:0:0:0:
475,192,94432,1,0,0:0:0:0:
109,192,94432,1,0,0:0:0:0:
402,190,94521,1,0,0:0:0:0:
329,192,94610,1,0,0:0:0:0:
36,192,94610,1,0,0:0:0:0:
182,192,94610,1,0,0:0:0:0:
475,192,94699,1,0,0:0:0:0:
402,192,94789,1,0,0:0:0:0:
109,192,94789,1,0,0:0:0:0:
256,192,94789,1,0,0:0:0:0:
402,192,94967,1,0,0:0:0:0:
36,192,94967,1,0,0:0:0:0:
109,192,94967,1,0,0:0:0:0:
256,192,94967,1,0,0:0:0:0:
475,192,94967,1,0,0:0:0:0:
475,192,95146,1,0,0:0:0:0:
182,192,95146,1,0,0:0:0:0:
256,192,95146,1,0,0:0:0:0:
329,192,95146,1,0,0:0:0:0:
36,192,95146,1,0,0:0:0:0:
402,192,95324,1,0,0:0:0:0:
109,192,95324,1,0,0:0:0:0:
475,192,95324,1,0,0:0:0:0:
182,192,95324,1,0,0:0:0:0:
329,192,95324,1,0,0:0:0:0:
109,192,95503,1,0,0:0:0:0:
402,192,95503,1,0,0:0:0:0:
36,192,95503,1,0,0:0:0:0:
256,192,95503,1,0,0:0:0:0:
475,192,95592,1,0,0:0:0:0:
329,192,95682,1,0,0:0:0:0:
36,192,95682,1,0,0:0:0:0:
256,192,95682,1,0,0:0:0:0:
182,192,95682,1,0,0:0:0:0:
109,192,95771,1,0,0:0:0:0:
475,192,95860,1,0,0:0:0:0:
182,192,95860,1,0,0:0:0:0:
402,192,95860,1,0,0:0:0:0:
329,192,95860,1,0,0:0:0:0:
109,192,96039,1,0,0:0:0:0:
256,192,96039,1,0,0:0:0:0:
402,192,96039,1,0,0:0:0:0:
475,192,96039,1,0,0:0:0:0:
36,192,96039,1,0,0:0:0:0:
109,192,96217,1,0,0:0:0:0:
402,192,96217,1,0,0:0:0:0:
475,192,96217,1,0,0:0:0:0:
329,192,96217,1,0,0:0:0:0:
182,192,96217,1,0,0:0:0:0:
256,192,96396,1,0,0:0:0:0:
182,192,96396,1,0,0:0:0:0:
109,192,96396,1,0,0:0:0:0:
36,192,96396,1,0,0:0:0:0:
475,192,96396,1,0,0:0:0:0:
36,192,96574,1,0,0:0:0:0:
329,192,96574,1,0,0:0:0:0:
402,192,96574,1,0,0:0:0:0:
256,192,96574,1,0,0:0:0:0:
109,192,96664,1,0,0:0:0:0:
182,192,96753,1,0,0:0:0:0:
475,192,96753,1,0,0:0:0:0:
329,192,96753,1,0,0:0:0:0:
256,192,96753,1,0,0:0:0:0:
402,192,96842,1,0,0:0:0:0:
329,192,96932,1,0,0:0:0:0:
36,192,96932,1,0,0:0:0:0:
109,192,96932,1,0,0:0:0:0:
182,192,96932,1,0,0:0:0:0:
36,192,97110,1,0,0:0:0:0:
402,192,97110,1,0,0:0:0:0:
109,192,97110,1,0,0:0:0:0:
256,192,97110,1,0,0:0:0:0:
475,192,97110,1,0,0:0:0:0:
36,192,97289,1,0,0:0:0:0:
475,192,97289,1,0,0:0:0:0:
256,192,97289,1,0,0:0:0:0:
329,192,97289,1,0,0:0:0:0:
182,192,97289,1,0,0:0:0:0:
475,192,97467,1,0,0:0:0:0:
329,192,97467,1,0,0:0:0:0:
402,192,97467,1,0,0:0:0:0:
182,192,97467,1,0,0:0:0:0:
109,192,97467,1,0,0:0:0:0:
256,192,97646,1,0,0:0:0:0:
36,192,97646,1,0,0:0:0:0:
109,192,97646,1,0,0:0:0:0:
402,192,97646,1,0,0:0:0:0:
475,192,97735,1,0,0:0:0:0:
36,192,97824,1,0,0:0:0:0:
329,192,97824,1,0,0:0:0:0:
182,192,97824,1,0,0:0:0:0:
256,192,97824,1,0,0:0:0:0:
109,192,97914,1,0,0:0:0:0:
475,192,98003,1,0,0:0:0:0:
329,192,98003,1,0,0:0:0:0:
402,192,98003,1,0,0:0:0:0:
182,192,98003,1,0,0:0:0:0:
109,192,98182,1,0,0:0:0:0:
36,192,98182,1,0,0:0:0:0:
402,192,98182,1,0,0:0:0:0:
256,192,98182,1,0,0:0:0:0:
475,192,98182,1,0,0:0:0:0:
402,192,98360,1,0,0:0:0:0:
109,192,98360,1,0,0:0:0:0:
329,192,98360,1,0,0:0:0:0:
182,192,98360,1,0,0:0:0:0:
475,192,98360,1,0,0:0:0:0:
36,192,98539,1,0,0:0:0:0:
182,192,98539,1,0,0:0:0:0:
475,192,98539,1,0,0:0:0:0:
256,192,98539,1,0,0:0:0:0:
109,192,98539,1,0,0:0:0:0:
256,192,98717,1,0,0:0:0:0:
329,192,98717,1,0,0:0:0:0:
402,192,98717,1,0,0:0:0:0:
36,192,98717,1,0,0:0:0:0:
109,192,98807,1,0,0:0:0:0:
475,192,98896,1,0,0:0:0:0:
256,192,98896,1,0,0:0:0:0:
182,192,98896,1,0,0:0:0:0:
329,192,98896,1,0,0:0:0:0:
402,192,98985,1,0,0:0:0:0:
182,192,99074,1,0,0:0:0:0:
329,192,99074,1,0,0:0:0:0:
109,192,99074,1,0,0:0:0:0:
36,192,99074,1,0,0:0:0:0:
256,192,99253,1,0,0:0:0:0:
475,192,99253,1,0,0:0:0:0:
109,192,99253,1,0,0:0:0:0:
36,192,99253,1,0,0:0:0:0:
402,192,99253,1,0,0:0:0:0:
329,192,99432,1,0,0:0:0:0:
182,192,99432,1,0,0:0:0:0:
256,192,99432,1,0,0:0:0:0:
36,192,99432,1,0,0:0:0:0:
475,192,99432,1,0,0:0:0:0:
182,192,99610,1,0,0:0:0:0:
109,192,99610,1,0,0:0:0:0:
402,192,99610,1,0,0:0:0:0:
475,192,99610,1,0,0:0:0:0:
329,192,99610,1,0,0:0:0:0:
109,192,99789,1,0,0:0:0:0:
402,192,99789,1,0,0:0:0:0:
256,192,99789,1,0,0:0:0:0:
36,192,99789,1,0,0:0:0:0:
475,192,99878,1,0,0:0:0:0:
182,192,99967,1,0,0:0:0:0:
256,192,99967,1,0,0:0:0:0:
36,192,99967,1,0,0:0:0:0:
329,192,99967,1,0,0:0:0:0:
109,192,100057,1,0,0:0:0:0:
402,192,100146,1,0,0:0:0:0:
182,192,100146,1,0,0:0:0:0:
475,192,100146,1,0,0:0:0:0:
329,192,100146,1,0,0:0:0:0:
256,192,100324,1,0,0:0:0:0:
475,192,100324,1,0,0:0:0:0:
402,192,100324,1,0,0:0:0:0:
109,192,100324,1,0,0:0:0:0:
36,192,100324,1,0,0:0:0:0:
182,192,100503,1,0,0:0:0:0:
475,192,100503,1,0,0:0:0:0:
329,192,100503,1,0,0:0:0:0:
402,192,100503,1,0,0:0:0:0:
109,192,100503,1,0,0:0:0:0:
256,192,100682,1,0,0:0:0:0:
109,192,100682,1,0,0:0:0:0:
475,192,100682,1,0,0:0:0:0:
36,192,100682,1,0,0:0:0:0:
182,192,100682,1,0,0:0:0:0:
402,192,100860,1,0,0:0:0:0:
36,192,100860,1,0,0:0:0:0:
256,192,100860,1,0,0:0:0:0:
329,192,100860,1,0,0:0:0:0:
109,192,100949,1,0,0:0:0:0:
182,192,101039,1,0,0:0:0:0:
329,192,101039,1,0,0:0:0:0:
475,192,101039,1,0,0:0:0:0:
256,192,101039,1,0,0:0:0:0:
402,192,101128,1,0,0:0:0:0:
109,192,101217,1,0,0:0:0:0:
36,192,101217,1,0,0:0:0:0:
182,192,101217,1,0,0:0:0:0:
329,192,101217,1,0,0:0:0:0:
256,192,101396,1,0,0:0:0:0:
36,192,101396,1,0,0:0:0:0:
402,192,101396,1,0,0:0:0:0:
475,192,101396,1,0,0:0:0:0:
109,192,101396,1,0,0:0:0:0:
402,192,101574,1,0,0:0:0:0:
36,192,101574,1,0,0:0:0:0:
182,192,101574,1,0,0:0:0:0:
329,192,101574,1,0,0:0:0:0:
475,192,101574,1,0,0:0:0:0:
256,192,101753,1,0,0:0:0:0:
402,192,101753,1,0,0:0:0:0:
329,192,101753,1,0,0:0:0:0:
109,192,101753,1,0,0:0:0:0:
475,192,101753,1,0,0:0:0:0:
256,192,101932,1,0,0:0:0:0:
36,192,101932,1,0,0:0:0:0:
182,192,101932,1,0,0:0:0:0:
402,192,101932,1,0,0:0:0:0:
109,192,101932,1,0,0:0:0:0:
182,192,102110,1,0,0:0:0:0:
475,192,102110,1,0,0:0:0:0:
329,192,102110,1,0,0:0:0:0:
109,192,102110,1,0,0:0:0:0:
36,192,102110,1,0,0:0:0:0:
256,192,102289,1,0,0:0:0:0:
36,192,102289,1,0,0:0:0:0:
402,192,102289,1,0,0:0:0:0:
109,192,102289,1,0,0:0:0:0:
475,192,102289,1,0,0:0:0:0:
182,192,102467,1,0,0:0:0:0:
329,192,102467,1,0,0:0:0:0:
402,192,102467,1,0,0:0:0:0:
36,192,102467,1,0,0:0:0:0:
475,192,102467,1,0,0:0:0:0:
256,192,102646,1,0,0:0:0:0:
109,192,102646,1,0,0:0:0:0:
329,192,102646,1,0,0:0:0:0:
402,192,102646,1,0,0:0:0:0:
475,192,102646,1,0,0:0:0:0:
256,192,102824,1,0,0:0:0:0:
182,192,102824,1,0,0:0:0:0:
36,192,102824,1,0,0:0:0:0:
109,192,102824,1,0,0:0:0:0:
402,192,102824,1,0,0:0:0:0:
36,192,103003,1,0,0:0:0:0:
475,192,103003,1,0,0:0:0:0:
329,192,103003,1,0,0:0:0:0:
182,192,103003,1,0,0:0:0:0:
109,192,103003,1,0,0:0:0:0:
256,192,103182,1,0,0:0:0:0:
475,192,103182,1,0,0:0:0:0:
402,192,103182,1,0,0:0:0:0:
109,192,103182,1,0,0:0:0:0:
36,192,103182,1,0,0:0:0:0:
329,192,103360,1,0,0:0:0:0:
182,192,103360,1,0,0:0:0:0:
36,192,103360,1,0,0:0:0:0:
402,192,103360,1,0,0:0:0:0:
475,192,103360,1,0,0:0:0:0:
475,192,103539,1,0,0:0:0:0:
109,192,103539,1,0,0:0:0:0:
256,192,103539,1,0,0:0:0:0:
329,192,103539,1,0,0:0:0:0:
402,192,103539,1,0,0:0:0:0:
182,192,103628,1,0,0:0:0:0:
36,192,103717,1,0,0:0:0:0:
402,192,103807,1,0,0:0:0:0:
256,192,103896,1,0,0:0:0:0:
475,192,103985,1,0,0:0:0:0:
329,192,104074,1,0,0:0:0:0:
182,192,104164,1,0,0:0:0:0:
109,192,104253,1,0,0:0:0:0:
329,192,104342,1,0,0:0:0:0:
182,192,104432,1,0,0:0:0:0:
402,192,104521,1,0,0:0:0:0:
109,192,104610,1,0,0:0:0:0:
256,192,104699,1,0,0:0:0:0:
329,192,104789,1,0,0:0:0:0:
182,192,104878,1,0,0:0:0:0:
402,192,104967,1,0,0:0:0:0:
256,192,105057,1,0,0:0:0:0:
109,192,105146,1,0,0:0:0:0:
182,192,105235,1,0,0:0:0:0:
329,192,105324,1,0,0:0:0:0:
475,192,105414,1,0,0:0:0:0:
256,192,105503,1,0,0:0:0:0:
402,192,105592,1,0,0:0:0:0:
182,192,105682,1,0,0:0:0:0:
475,192,105771,1,0,0:0:0:0:
36,192,105860,1,0,0:0:0:0:
182,192,105949,1,0,0:0:0:0:
329,192,106039,1,0,0:0:0:0:
109,192,106128,1,0,0:0:0:0:
256,192,106217,1,0,0:0:0:0:
402,192,106307,1,0,0:0:0:0:
36,192,106396,1,0,0:0:0:0:
109,192,106485,1,0,0:0:0:0:
256,192,106574,1,0,0:0:0:0:
329,192,106664,1,0,0:0:0:0:
475,192,106753,1,0,0:0:0:0:
256,192,108182,128,0,108896:0:0:0:0:
402,192,108896,1,0,0:0:0:0:
329,192,108896,1,0,0:0:0:0:
109,192,108896,1,0,0:0:0:0:
182,192,108896,1,0,0:0:0:0:
36,192,108896,1,0,0:0:0:0:
475,192,108896,1,0,0:0:0:0:
