osu file format v14

[General]
AudioFilename: dimension tripper.mp3
AudioLeadIn: 0
PreviewTime: -1
Countdown: 0
SampleSet: Soft
StackLeniency: 0.7
Mode: 3
LetterboxInBreaks: 0
SpecialStyle: 0
WidescreenStoryboard: 0

[Editor]
DistanceSpacing: 1.1
BeatDivisor: 4
GridSize: 4
TimelineZoom: 1.4

[Metadata]
Title:B41T 4K Full LN Pack
TitleUnicode:B41T 4K Full LN Pack
Artist:Various Artists
ArtistUnicode:Various Artists
Creator:B41T
Version:nao - Dimension tripper!!!!
Source:
Tags:
BeatmapID:1491414
BeatmapSetID:705096

[Difficulty]
HPDrainRate:5
CircleSize:4
OverallDifficulty:0
ApproachRate:5
SliderMultiplier:1.4
SliderTickRate:1

[Events]
//Background and Video events
0,0,"689406.jpg",0,0
//Break Periods
//Storyboard Layer 0 (Background)
//Storyboard Layer 1 (Fail)
//Storyboard Layer 2 (Pass)
//Storyboard Layer 3 (Foreground)
//Storyboard Sound Samples

[TimingPoints]
1041,318.809776833156,4,2,1,40,1,0
59542,-100,4,2,1,40,0,1
80105,-100,4,2,1,40,0,0

[HitObjects]
448,192,1041,128,0,5504:0:0:0:0:
64,192,1041,128,0,2395:0:0:0:0:
192,192,1200,128,0,1598:0:0:0:0:
192,192,1678,128,0,2077:0:0:0:0:
320,192,1997,128,0,2714:0:0:0:0:
192,192,2156,128,0,3192:0:0:0:0:
64,192,2475,128,0,2874:0:0:0:0:
320,192,2794,128,0,3830:0:0:0:0:
64,192,2953,128,0,3511:0:0:0:0:
192,192,3272,128,0,3671:0:0:0:0:
64,192,3591,128,0,4627:0:0:0:0:
192,192,3750,128,0,4149:0:0:0:0:
320,192,3910,128,0,4468:0:0:0:0:
192,192,4229,128,0,4946:0:0:0:0:
320,192,4547,128,0,5424:0:0:0:0:
64,192,4707,128,0,5105:0:0:0:0:
192,192,5026,128,0,5584:0:0:0:0:
64,192,5185,128,0,5424:0:0:0:0:
320,192,5504,128,0,5902:0:0:0:0:
64,192,5504,128,0,5743:0:0:0:0:
192,192,5663,128,0,5743:0:0:0:0:
448,192,5663,128,0,5902:0:0:0:0:
192,192,5823,128,0,6062:0:0:0:0:
64,192,5823,128,0,5902:0:0:0:0:
64,192,5982,128,0,6221:0:0:0:0:
320,192,5982,128,0,6221:0:0:0:0:
448,192,5982,128,0,6381:0:0:0:0:
192,192,6141,128,0,6381:0:0:0:0:
320,192,6301,128,0,6540:0:0:0:0:
64,192,6301,128,0,6859:0:0:0:0:
192,192,6460,128,0,6699:0:0:0:0:
448,192,6460,128,0,6699:0:0:0:0:
320,192,6620,128,0,6859:0:0:0:0:
192,192,6779,128,0,7178:0:0:0:0:
448,192,6779,128,0,7018:0:0:0:0:
320,192,6938,128,0,7018:0:0:0:0:
64,192,6938,128,0,7337:0:0:0:0:
320,192,7098,128,0,7656:0:0:0:0:
448,192,7098,128,0,7337:0:0:0:0:
192,192,7257,128,0,7496:0:0:0:0:
64,192,7417,128,0,7656:0:0:0:0:
448,192,7417,128,0,7496:0:0:0:0:
192,192,7576,128,0,7815:0:0:0:0:
448,192,7576,128,0,7975:0:0:0:0:
64,192,7736,128,0,7895:0:0:0:0:
320,192,7736,128,0,7895:0:0:0:0:
192,192,7895,128,0,8134:0:0:0:0:
320,192,7975,128,0,8134:0:0:0:0:
64,192,7975,128,0,8293:0:0:0:0:
448,192,8054,128,0,8293:0:0:0:0:
192,192,8214,128,0,8453:0:0:0:0:
320,192,8214,128,0,8453:0:0:0:0:
64,192,8373,128,0,8612:0:0:0:0:
448,192,8373,128,0,8453:0:0:0:0:
192,192,8533,128,0,8772:0:0:0:0:
320,192,8533,128,0,8772:0:0:0:0:
448,192,8533,128,0,9250:0:0:0:0:
64,192,8692,128,0,8931:0:0:0:0:
192,192,8851,128,0,8931:0:0:0:0:
320,192,8851,128,0,9090:0:0:0:0:
192,192,9011,128,0,9250:0:0:0:0:
64,192,9011,128,0,9409:0:0:0:0:
320,192,9170,128,0,9569:0:0:0:0:
192,192,9330,128,0,9409:0:0:0:0:
448,192,9330,128,0,9569:0:0:0:0:
192,192,9489,128,0,9728:0:0:0:0:
64,192,9489,128,0,9887:0:0:0:0:
320,192,9648,128,0,9887:0:0:0:0:
448,192,9648,128,0,10047:0:0:0:0:
192,192,9808,128,0,10047:0:0:0:0:
320,192,9967,128,0,10206:0:0:0:0:
64,192,9967,128,0,10206:0:0:0:0:
192,192,10127,128,0,10366:0:0:0:0:
448,192,10127,128,0,10525:0:0:0:0:
320,192,10286,128,0,10525:0:0:0:0:
64,192,10286,128,0,10605:0:0:0:0:
192,192,10445,128,0,10684:0:0:0:0:
320,192,10605,128,0,10764:0:0:0:0:
448,192,10605,128,0,11003:0:0:0:0:
64,192,10684,128,0,11003:0:0:0:0:
192,192,10764,128,0,10844:0:0:0:0:
320,192,10844,128,0,10924:0:0:0:0:
192,192,10924,128,0,11003:0:0:0:0:
320,192,11003,128,0,11163:0:0:0:0:
192,192,11083,128,0,11482:0:0:0:0:
64,192,11083,128,0,11322:0:0:0:0:
448,192,11083,128,0,11482:0:0:0:0:
320,192,11242,128,0,11402:0:0:0:0:
64,192,11402,128,0,11960:0:0:0:0:
320,192,11482,128,0,11641:0:0:0:0:
192,192,11561,128,0,11800:0:0:0:0:
448,192,11561,128,0,11800:0:0:0:0:
320,192,11721,128,0,11960:0:0:0:0:
192,192,11880,128,0,12119:0:0:0:0:
448,192,11880,128,0,12279:0:0:0:0:
320,192,12039,128,0,12279:0:0:0:0:
64,192,12039,128,0,12757:0:0:0:0:
192,192,12199,128,0,12358:0:0:0:0:
320,192,12358,128,0,12438:0:0:0:0:
448,192,12358,128,0,12597:0:0:0:0:
192,192,12438,128,0,12597:0:0:0:0:
320,192,12518,128,0,12757:0:0:0:0:
192,192,12677,128,0,13076:0:0:0:0:
448,192,12677,128,0,12916:0:0:0:0:
320,192,12836,128,0,12916:0:0:0:0:
64,192,12836,128,0,13076:0:0:0:0:
320,192,12996,128,0,13394:0:0:0:0:
448,192,12996,128,0,13235:0:0:0:0:
192,192,13155,128,0,13235:0:0:0:0:
64,192,13155,128,0,13394:0:0:0:0:
192,192,13315,128,0,13554:0:0:0:0:
448,192,13315,128,0,13554:0:0:0:0:
320,192,13474,128,0,13713:0:0:0:0:
64,192,13474,128,0,13554:0:0:0:0:
64,192,13633,128,0,14032:0:0:0:0:
192,192,13633,128,0,13873:0:0:0:0:
448,192,13633,128,0,13952:0:0:0:0:
320,192,13793,128,0,14032:0:0:0:0:
192,192,13952,128,0,14351:0:0:0:0:
448,192,14032,128,0,14191:0:0:0:0:
64,192,14112,128,0,14351:0:0:0:0:
320,192,14112,128,0,14510:0:0:0:0:
448,192,14271,128,0,14510:0:0:0:0:
192,192,14431,128,0,14670:0:0:0:0:
64,192,14431,128,0,14988:0:0:0:0:
320,192,14590,128,0,14909:0:0:0:0:
448,192,14590,128,0,14829:0:0:0:0:
192,192,14749,128,0,14988:0:0:0:0:
448,192,14909,128,0,15307:0:0:0:0:
320,192,14988,128,0,15148:0:0:0:0:
192,192,15068,128,0,15467:0:0:0:0:
64,192,15068,128,0,15307:0:0:0:0:
320,192,15228,128,0,15546:0:0:0:0:
448,192,15387,128,0,15626:0:0:0:0:
64,192,15387,128,0,15785:0:0:0:0:
192,192,15546,128,0,15626:0:0:0:0:
320,192,15626,128,0,15785:0:0:0:0:
448,192,15706,128,0,15945:0:0:0:0:
192,192,15706,128,0,15945:0:0:0:0:
320,192,15865,128,0,16104:0:0:0:0:
64,192,15865,128,0,16104:0:0:0:0:
192,192,16025,128,0,16264:0:0:0:0:
448,192,16025,128,0,16104:0:0:0:0:
320,192,16184,128,0,16423:0:0:0:0:
448,192,16184,128,0,16582:0:0:0:0:
64,192,16184,128,0,16423:0:0:0:0:
192,192,16343,128,0,16582:0:0:0:0:
320,192,16503,128,0,16742:0:0:0:0:
64,192,16503,128,0,17061:0:0:0:0:
192,192,16662,128,0,16901:0:0:0:0:
448,192,16662,128,0,16901:0:0:0:0:
320,192,16822,128,0,17061:0:0:0:0:
192,192,16981,128,0,17220:0:0:0:0:
448,192,16981,128,0,17539:0:0:0:0:
320,192,17140,128,0,17380:0:0:0:0:
64,192,17140,128,0,17220:0:0:0:0:
192,192,17300,128,0,17539:0:0:0:0:
64,192,17300,128,0,17698:0:0:0:0:
320,192,17459,128,0,17858:0:0:0:0:
192,192,17619,128,0,17698:0:0:0:0:
448,192,17619,128,0,17858:0:0:0:0:
192,192,17778,128,0,18097:0:0:0:0:
64,192,17778,128,0,18017:0:0:0:0:
320,192,17937,128,0,18097:0:0:0:0:
448,192,17937,128,0,18177:0:0:0:0:
64,192,18097,128,0,18336:0:0:0:0:
192,192,18177,128,0,18495:0:0:0:0:
320,192,18177,128,0,18336:0:0:0:0:
448,192,18256,128,0,18495:0:0:0:0:
320,192,18416,128,0,18655:0:0:0:0:
64,192,18416,128,0,18655:0:0:0:0:
192,192,18575,128,0,18814:0:0:0:0:
448,192,18575,128,0,18655:0:0:0:0:
64,192,18734,128,0,18974:0:0:0:0:
448,192,18734,128,0,18974:0:0:0:0:
320,192,18734,128,0,19133:0:0:0:0:
192,192,18894,128,0,19292:0:0:0:0:
64,192,19053,128,0,19133:0:0:0:0:
448,192,19053,128,0,19452:0:0:0:0:
64,192,19213,128,0,19611:0:0:0:0:
320,192,19213,128,0,19452:0:0:0:0:
192,192,19372,128,0,19611:0:0:0:0:
320,192,19531,128,0,20089:0:0:0:0:
448,192,19531,128,0,19771:0:0:0:0:
192,192,19691,128,0,19930:0:0:0:0:
64,192,19691,128,0,19771:0:0:0:0:
64,192,19850,128,0,20089:0:0:0:0:
448,192,19850,128,0,20249:0:0:0:0:
192,192,20010,128,0,20249:0:0:0:0:
320,192,20169,128,0,20408:0:0:0:0:
64,192,20169,128,0,20408:0:0:0:0:
192,192,20328,128,0,20568:0:0:0:0:
448,192,20328,128,0,20727:0:0:0:0:
64,192,20488,128,0,20647:0:0:0:0:
320,192,20488,128,0,20647:0:0:0:0:
192,192,20647,128,0,20886:0:0:0:0:
320,192,20727,128,0,20886:0:0:0:0:
64,192,20727,128,0,21205:0:0:0:0:
448,192,20807,128,0,21205:0:0:0:0:
192,192,20966,128,0,21046:0:0:0:0:
320,192,20966,128,0,21046:0:0:0:0:
192,192,21126,128,0,21365:0:0:0:0:
320,192,21126,128,0,21205:0:0:0:0:
320,192,21285,128,0,21524:0:0:0:0:
448,192,21285,128,0,21524:0:0:0:0:
64,192,21285,128,0,21683:0:0:0:0:
192,192,21444,128,0,21683:0:0:0:0:
320,192,21604,128,0,21843:0:0:0:0:
448,192,21604,128,0,22162:0:0:0:0:
64,192,21763,128,0,22002:0:0:0:0:
192,192,21763,128,0,21843:0:0:0:0:
320,192,21923,128,0,22002:0:0:0:0:
192,192,21923,128,0,22162:0:0:0:0:
64,192,22082,128,0,22480:0:0:0:0:
320,192,22082,128,0,22321:0:0:0:0:
448,192,22241,128,0,22480:0:0:0:0:
192,192,22241,128,0,22640:0:0:0:0:
320,192,22401,128,0,22560:0:0:0:0:
64,192,22560,128,0,22799:0:0:0:0:
448,192,22560,128,0,22799:0:0:0:0:
320,192,22640,128,0,22959:0:0:0:0:
192,192,22720,128,0,23118:0:0:0:0:
448,192,22879,128,0,22959:0:0:0:0:
64,192,22879,128,0,23118:0:0:0:0:
320,192,23038,128,0,23277:0:0:0:0:
448,192,23038,128,0,23437:0:0:0:0:
192,192,23198,128,0,23596:0:0:0:0:
64,192,23198,128,0,23277:0:0:0:0:
64,192,23357,128,0,23596:0:0:0:0:
320,192,23357,128,0,23437:0:0:0:0:
320,192,23517,128,0,23756:0:0:0:0:
448,192,23517,128,0,23756:0:0:0:0:
192,192,23676,128,0,23756:0:0:0:0:
64,192,23676,128,0,23915:0:0:0:0:
192,192,23835,128,0,24154:0:0:0:0:
320,192,23835,128,0,24075:0:0:0:0:
448,192,23835,128,0,24234:0:0:0:0:
64,192,23995,128,0,24393:0:0:0:0:
320,192,24154,128,0,24234:0:0:0:0:
192,192,24234,128,0,24393:0:0:0:0:
320,192,24314,128,0,24553:0:0:0:0:
448,192,24314,128,0,24553:0:0:0:0:
192,192,24473,128,0,24712:0:0:0:0:
64,192,24473,128,0,24872:0:0:0:0:
320,192,24632,128,0,24712:0:0:0:0:
448,192,24632,128,0,25031:0:0:0:0:
192,192,24792,128,0,25031:0:0:0:0:
320,192,24792,128,0,25111:0:0:0:0:
64,192,24951,128,0,25509:0:0:0:0:
192,192,25111,128,0,25190:0:0:0:0:
448,192,25111,128,0,25350:0:0:0:0:
320,192,25190,128,0,25350:0:0:0:0:
192,192,25270,128,0,25509:0:0:0:0:
320,192,25429,128,0,25669:0:0:0:0:
448,192,25429,128,0,25828:0:0:0:0:
64,192,25589,128,0,25987:0:0:0:0:
192,192,25589,128,0,25669:0:0:0:0:
192,192,25748,128,0,25987:0:0:0:0:
320,192,25748,128,0,25828:0:0:0:0:
320,192,25908,128,0,26147:0:0:0:0:
448,192,25908,128,0,26147:0:0:0:0:
192,192,26067,128,0,26306:0:0:0:0:
64,192,26067,128,0,26306:0:0:0:0:
320,192,26226,128,0,26466:0:0:0:0:
448,192,26226,128,0,26306:0:0:0:0:
192,192,26386,128,0,26625:0:0:0:0:
64,192,26386,128,0,26944:0:0:0:0:
448,192,26386,128,0,26784:0:0:0:0:
320,192,26545,128,0,26784:0:0:0:0:
192,192,26705,128,0,27263:0:0:0:0:
320,192,26864,128,0,27103:0:0:0:0:
448,192,26864,128,0,27103:0:0:0:0:
64,192,27023,128,0,27422:0:0:0:0:
448,192,27183,128,0,27581:0:0:0:0:
320,192,27183,128,0,27263:0:0:0:0:
320,192,27342,128,0,27581:0:0:0:0:
192,192,27342,128,0,27581:0:0:0:0:
64,192,27502,128,0,28219:0:0:0:0:
320,192,27661,128,0,28299:0:0:0:0:
448,192,27661,128,0,28299:0:0:0:0:
192,192,27661,128,0,28219:0:0:0:0:
192,192,28299,128,0,28378:0:0:0:0:
64,192,28299,128,0,28378:0:0:0:0:
320,192,28378,128,0,28538:0:0:0:0:
448,192,28378,128,0,28538:0:0:0:0:
192,192,28458,128,0,28538:0:0:0:0:
64,192,28458,128,0,29016:0:0:0:0:
448,192,28618,128,0,29016:0:0:0:0:
192,192,28618,128,0,29096:0:0:0:0:
320,192,28618,128,0,29016:0:0:0:0:
320,192,29096,128,0,29335:0:0:0:0:
448,192,29096,128,0,29654:0:0:0:0:
64,192,29096,128,0,29494:0:0:0:0:
192,192,29415,128,0,29654:0:0:0:0:
320,192,29415,128,0,29813:0:0:0:0:
64,192,29574,128,0,29972:0:0:0:0:
192,192,29733,128,0,30212:0:0:0:0:
448,192,29733,128,0,29972:0:0:0:0:
320,192,29893,128,0,30132:0:0:0:0:
448,192,30052,128,0,30291:0:0:0:0:
64,192,30052,128,0,30451:0:0:0:0:
320,192,30212,128,0,30291:0:0:0:0:
192,192,30291,128,0,30610:0:0:0:0:
320,192,30371,128,0,30610:0:0:0:0:
448,192,30371,128,0,30929:0:0:0:0:
64,192,30530,128,0,30770:0:0:0:0:
192,192,30690,128,0,30849:0:0:0:0:
320,192,30690,128,0,30929:0:0:0:0:
64,192,30849,128,0,31088:0:0:0:0:
192,192,30929,128,0,31248:0:0:0:0:
320,192,31009,128,0,31248:0:0:0:0:
448,192,31009,128,0,31407:0:0:0:0:
64,192,31168,128,0,31567:0:0:0:0:
192,192,31327,128,0,31885:0:0:0:0:
320,192,31327,128,0,31567:0:0:0:0:
448,192,31487,128,0,31726:0:0:0:0:
320,192,31646,128,0,32045:0:0:0:0:
64,192,31646,128,0,31885:0:0:0:0:
448,192,31806,128,0,32204:0:0:0:0:
192,192,31965,128,0,32124:0:0:0:0:
64,192,31965,128,0,32204:0:0:0:0:
320,192,32124,128,0,32364:0:0:0:0:
192,192,32204,128,0,32523:0:0:0:0:
448,192,32284,128,0,32523:0:0:0:0:
64,192,32284,128,0,32842:0:0:0:0:
320,192,32443,128,0,32682:0:0:0:0:
192,192,32603,128,0,32762:0:0:0:0:
448,192,32603,128,0,33001:0:0:0:0:
320,192,32762,128,0,32842:0:0:0:0:
192,192,32842,128,0,33161:0:0:0:0:
320,192,32921,128,0,33161:0:0:0:0:
64,192,32921,128,0,33320:0:0:0:0:
448,192,33081,128,0,33479:0:0:0:0:
320,192,33240,128,0,33639:0:0:0:0:
192,192,33240,128,0,33479:0:0:0:0:
64,192,33400,128,0,33798:0:0:0:0:
192,192,33559,128,0,33958:0:0:0:0:
448,192,33559,128,0,33798:0:0:0:0:
320,192,33719,128,0,34037:0:0:0:0:
448,192,33878,128,0,34117:0:0:0:0:
64,192,33878,128,0,34117:0:0:0:0:
192,192,34037,128,0,34117:0:0:0:0:
320,192,34117,128,0,34276:0:0:0:0:
448,192,34197,128,0,34436:0:0:0:0:
192,192,34197,128,0,34436:0:0:0:0:
64,192,34197,128,0,34595:0:0:0:0:
320,192,34356,128,0,34755:0:0:0:0:
448,192,34516,128,0,34755:0:0:0:0:
192,192,34516,128,0,34914:0:0:0:0:
64,192,34675,128,0,35073:0:0:0:0:
320,192,34834,128,0,35073:0:0:0:0:
448,192,34834,128,0,35552:0:0:0:0:
192,192,34994,128,0,35233:0:0:0:0:
320,192,35153,128,0,35313:0:0:0:0:
64,192,35153,128,0,35392:0:0:0:0:
192,192,35313,128,0,35392:0:0:0:0:
320,192,35392,128,0,35711:0:0:0:0:
192,192,35472,128,0,35711:0:0:0:0:
64,192,35472,128,0,35870:0:0:0:0:
448,192,35631,128,0,36030:0:0:0:0:
192,192,35791,128,0,35950:0:0:0:0:
320,192,35791,128,0,36030:0:0:0:0:
64,192,35950,128,0,36189:0:0:0:0:
192,192,36030,128,0,36349:0:0:0:0:
320,192,36110,128,0,36508:0:0:0:0:
448,192,36110,128,0,36349:0:0:0:0:
64,192,36269,128,0,36667:0:0:0:0:
448,192,36428,128,0,36986:0:0:0:0:
192,192,36428,128,0,36667:0:0:0:0:
320,192,36588,128,0,36986:0:0:0:0:
64,192,36747,128,0,36827:0:0:0:0:
192,192,36747,128,0,36827:0:0:0:0:
192,192,36907,128,0,37146:0:0:0:0:
64,192,36907,128,0,37624:0:0:0:0:
320,192,37066,128,0,37225:0:0:0:0:
448,192,37066,128,0,37465:0:0:0:0:
192,192,37225,128,0,37305:0:0:0:0:
320,192,37305,128,0,37465:0:0:0:0:
192,192,37385,128,0,37783:0:0:0:0:
320,192,37544,128,0,37704:0:0:0:0:
448,192,37544,128,0,37863:0:0:0:0:
64,192,37704,128,0,37943:0:0:0:0:
320,192,37783,128,0,37943:0:0:0:0:
192,192,37863,128,0,38102:0:0:0:0:
448,192,37943,128,0,38102:0:0:0:0:
320,192,38022,128,0,38262:0:0:0:0:
64,192,38022,128,0,38262:0:0:0:0:
192,192,38182,128,0,38740:0:0:0:0:
448,192,38182,128,0,38262:0:0:0:0:
320,192,38341,128,0,38740:0:0:0:0:
448,192,38341,128,0,38580:0:0:0:0:
64,192,38341,128,0,38580:0:0:0:0:
64,192,38660,128,0,38899:0:0:0:0:
448,192,38660,128,0,38899:0:0:0:0:
192,192,38819,128,0,38899:0:0:0:0:
320,192,38819,128,0,39218:0:0:0:0:
192,192,38979,128,0,39218:0:0:0:0:
64,192,38979,128,0,39537:0:0:0:0:
448,192,38979,128,0,39377:0:0:0:0:
320,192,39298,128,0,39537:0:0:0:0:
192,192,39298,128,0,39696:0:0:0:0:
448,192,39457,128,0,39856:0:0:0:0:
320,192,39616,128,0,39856:0:0:0:0:
64,192,39616,128,0,40015:0:0:0:0:
192,192,39776,128,0,40174:0:0:0:0:
320,192,39935,128,0,40174:0:0:0:0:
448,192,39935,128,0,40334:0:0:0:0:
64,192,40095,128,0,40493:0:0:0:0:
192,192,40254,128,0,40334:0:0:0:0:
320,192,40254,128,0,40653:0:0:0:0:
192,192,40414,128,0,40653:0:0:0:0:
448,192,40414,128,0,40812:0:0:0:0:
64,192,40573,128,0,41131:0:0:0:0:
320,192,40732,128,0,40812:0:0:0:0:
192,192,40732,128,0,40971:0:0:0:0:
320,192,40892,128,0,41290:0:0:0:0:
448,192,40892,128,0,41131:0:0:0:0:
192,192,41051,128,0,41450:0:0:0:0:
64,192,41211,128,0,41450:0:0:0:0:
448,192,41211,128,0,41609:0:0:0:0:
320,192,41370,128,0,41768:0:0:0:0:
192,192,41529,128,0,41768:0:0:0:0:
64,192,41529,128,0,42087:0:0:0:0:
448,192,41689,128,0,42087:0:0:0:0:
320,192,41848,128,0,41928:0:0:0:0:
192,192,41848,128,0,42247:0:0:0:0:
320,192,42008,128,0,42406:0:0:0:0:
448,192,42167,128,0,42406:0:0:0:0:
64,192,42167,128,0,42725:0:0:0:0:
192,192,42326,128,0,42884:0:0:0:0:
320,192,42486,128,0,42565:0:0:0:0:
448,192,42486,128,0,42725:0:0:0:0:
320,192,42645,128,0,43044:0:0:0:0:
64,192,42805,128,0,42884:0:0:0:0:
448,192,42805,128,0,43203:0:0:0:0:
192,192,42964,128,0,43203:0:0:0:0:
64,192,42964,128,0,43362:0:0:0:0:
320,192,43123,128,0,43522:0:0:0:0:
192,192,43283,128,0,43522:0:0:0:0:
448,192,43283,128,0,43362:0:0:0:0:
64,192,43442,128,0,43681:0:0:0:0:
448,192,43442,128,0,44160:0:0:0:0:
192,192,43602,128,0,43681:0:0:0:0:
320,192,43602,128,0,43841:0:0:0:0:
192,192,43761,128,0,43920:0:0:0:0:
64,192,43761,128,0,44160:0:0:0:0:
320,192,43920,128,0,44000:0:0:0:0:
192,192,44000,128,0,44160:0:0:0:0:
320,192,44080,128,0,44319:0:0:0:0:
448,192,44239,128,0,44478:0:0:0:0:
192,192,44239,128,0,44478:0:0:0:0:
64,192,44239,128,0,44638:0:0:0:0:
320,192,44399,128,0,44797:0:0:0:0:
192,192,44558,128,0,44638:0:0:0:0:
448,192,44558,128,0,44957:0:0:0:0:
192,192,44717,128,0,44957:0:0:0:0:
64,192,44717,128,0,45116:0:0:0:0:
320,192,44877,128,0,45116:0:0:0:0:
448,192,45036,128,0,45275:0:0:0:0:
192,192,45036,128,0,45435:0:0:0:0:
320,192,45196,128,0,45275:0:0:0:0:
64,192,45196,128,0,45435:0:0:0:0:
320,192,45355,128,0,45594:0:0:0:0:
448,192,45355,128,0,45435:0:0:0:0:
448,192,45514,128,0,45754:0:0:0:0:
192,192,45514,128,0,45913:0:0:0:0:
64,192,45514,128,0,45754:0:0:0:0:
320,192,45674,128,0,46072:0:0:0:0:
64,192,45833,128,0,45913:0:0:0:0:
448,192,45833,128,0,46232:0:0:0:0:
192,192,45993,128,0,46232:0:0:0:0:
64,192,45993,128,0,46391:0:0:0:0:
320,192,46152,128,0,46551:0:0:0:0:
192,192,46311,128,0,46391:0:0:0:0:
448,192,46311,128,0,46551:0:0:0:0:
192,192,46471,128,0,46710:0:0:0:0:
64,192,46471,128,0,46710:0:0:0:0:
320,192,46630,128,0,46869:0:0:0:0:
448,192,46630,128,0,46710:0:0:0:0:
192,192,46790,128,0,47188:0:0:0:0:
64,192,46790,128,0,47029:0:0:0:0:
448,192,46790,128,0,47188:0:0:0:0:
320,192,46949,128,0,47029:0:0:0:0:
320,192,47109,128,0,47507:0:0:0:0:
64,192,47109,128,0,47348:0:0:0:0:
448,192,47268,128,0,47507:0:0:0:0:
192,192,47268,128,0,47666:0:0:0:0:
64,192,47427,128,0,47666:0:0:0:0:
320,192,47587,128,0,47985:0:0:0:0:
448,192,47587,128,0,47826:0:0:0:0:
192,192,47746,128,0,47826:0:0:0:0:
64,192,47746,128,0,48145:0:0:0:0:
192,192,47906,128,0,48145:0:0:0:0:
448,192,47906,128,0,48145:0:0:0:0:
320,192,48065,128,0,48304:0:0:0:0:
448,192,48224,128,0,48463:0:0:0:0:
192,192,48224,128,0,48304:0:0:0:0:
64,192,48224,128,0,48304:0:0:0:0:
64,192,48384,128,0,48623:0:0:0:0:
192,192,48384,128,0,48623:0:0:0:0:
320,192,48384,128,0,48463:0:0:0:0:
320,192,48543,128,0,48782:0:0:0:0:
448,192,48543,128,0,48623:0:0:0:0:
448,192,48703,128,0,48942:0:0:0:0:
64,192,48703,128,0,48942:0:0:0:0:
192,192,48703,128,0,48782:0:0:0:0:
320,192,48862,128,0,48942:0:0:0:0:
192,192,48862,128,0,49101:0:0:0:0:
320,192,49021,128,0,49260:0:0:0:0:
448,192,49021,128,0,49101:0:0:0:0:
64,192,49021,128,0,49420:0:0:0:0:
192,192,49181,128,0,49340:0:0:0:0:
448,192,49181,128,0,49579:0:0:0:0:
320,192,49340,128,0,49420:0:0:0:0:
192,192,49420,128,0,49898:0:0:0:0:
64,192,49500,128,0,49739:0:0:0:0:
320,192,49500,128,0,49739:0:0:0:0:
448,192,49659,128,0,50058:0:0:0:0:
320,192,49818,128,0,50058:0:0:0:0:
64,192,49818,128,0,49978:0:0:0:0:
192,192,49978,128,0,50376:0:0:0:0:
64,192,50058,128,0,50217:0:0:0:0:
320,192,50137,128,0,50376:0:0:0:0:
448,192,50137,128,0,50217:0:0:0:0:
64,192,50297,128,0,50536:0:0:0:0:
448,192,50297,128,0,50536:0:0:0:0:
192,192,50456,128,0,50536:0:0:0:0:
320,192,50456,128,0,50855:0:0:0:0:
448,192,50615,128,0,51173:0:0:0:0:
192,192,50615,128,0,50855:0:0:0:0:
64,192,50615,128,0,50855:0:0:0:0:
64,192,50934,128,0,51173:0:0:0:0:
192,192,50934,128,0,51492:0:0:0:0:
320,192,50934,128,0,51173:0:0:0:0:
320,192,51253,128,0,51652:0:0:0:0:
64,192,51253,128,0,51652:0:0:0:0:
448,192,51253,128,0,51492:0:0:0:0:
448,192,51572,128,0,51811:0:0:0:0:
192,192,51572,128,0,51811:0:0:0:0:
320,192,51731,128,0,52130:0:0:0:0:
64,192,51731,128,0,51811:0:0:0:0:
64,192,51891,128,0,52767:0:0:0:0:
192,192,51891,128,0,52130:0:0:0:0:
448,192,51891,128,0,52289:0:0:0:0:
192,192,52209,128,0,52449:0:0:0:0:
320,192,52209,128,0,52289:0:0:0:0:
320,192,52369,128,0,52528:0:0:0:0:
448,192,52369,128,0,52767:0:0:0:0:
192,192,52528,128,0,52608:0:0:0:0:
320,192,52608,128,0,52927:0:0:0:0:
192,192,52688,128,0,52927:0:0:0:0:
448,192,52847,128,0,53086:0:0:0:0:
64,192,52847,128,0,53086:0:0:0:0:
320,192,53006,128,0,53086:0:0:0:0:
192,192,53006,128,0,53405:0:0:0:0:
64,192,53166,128,0,53564:0:0:0:0:
320,192,53166,128,0,53405:0:0:0:0:
448,192,53166,128,0,53564:0:0:0:0:
192,192,53485,128,0,53724:0:0:0:0:
320,192,53485,128,0,53804:0:0:0:0:
64,192,53644,128,0,54202:0:0:0:0:
448,192,53644,128,0,54043:0:0:0:0:
192,192,53804,128,0,53883:0:0:0:0:
320,192,53883,128,0,54043:0:0:0:0:
192,192,53963,128,0,54202:0:0:0:0:
320,192,54122,128,0,54361:0:0:0:0:
448,192,54122,128,0,54361:0:0:0:0:
192,192,54282,128,0,54521:0:0:0:0:
64,192,54282,128,0,54521:0:0:0:0:
320,192,54441,128,0,54840:0:0:0:0:
448,192,54441,128,0,54521:0:0:0:0:
448,192,54601,128,0,54840:0:0:0:0:
192,192,54601,128,0,55158:0:0:0:0:
64,192,54601,128,0,55158:0:0:0:0:
320,192,54919,128,0,54999:0:0:0:0:
448,192,54919,128,0,54999:0:0:0:0:
320,192,55079,128,0,55318:0:0:0:0:
448,192,55079,128,0,55158:0:0:0:0:
448,192,55238,128,0,55477:0:0:0:0:
192,192,55238,128,0,55477:0:0:0:0:
64,192,55238,128,0,55637:0:0:0:0:
320,192,55398,128,0,55637:0:0:0:0:
192,192,55557,128,0,55796:0:0:0:0:
448,192,55557,128,0,55955:0:0:0:0:
320,192,55716,128,0,55955:0:0:0:0:
64,192,55716,128,0,56115:0:0:0:0:
192,192,55876,128,0,56274:0:0:0:0:
320,192,56035,128,0,56593:0:0:0:0:
448,192,56035,128,0,56434:0:0:0:0:
64,192,56195,128,0,56434:0:0:0:0:
192,192,56354,128,0,56593:0:0:0:0:
64,192,56513,128,0,56912:0:0:0:0:
448,192,56513,128,0,56753:0:0:0:0:
192,192,56673,128,0,56912:0:0:0:0:
320,192,56673,128,0,56753:0:0:0:0:
448,192,56832,128,0,56912:0:0:0:0:
320,192,56832,128,0,57071:0:0:0:0:
64,192,56992,128,0,58426:0:0:0:0:
192,192,56992,128,0,57231:0:0:0:0:
448,192,56992,128,0,57231:0:0:0:0:
320,192,57151,128,0,57390:0:0:0:0:
192,192,57310,128,0,57390:0:0:0:0:
448,192,57310,128,0,57550:0:0:0:0:
320,192,57470,128,0,57550:0:0:0:0:
192,192,57470,128,0,57709:0:0:0:0:
320,192,57629,128,0,57868:0:0:0:0:
448,192,57629,128,0,57709:0:0:0:0:
192,192,57789,128,0,57868:0:0:0:0:
448,192,57789,128,0,58028:0:0:0:0:
320,192,57948,128,0,58028:0:0:0:0:
192,192,57948,128,0,58187:0:0:0:0:
320,192,58107,128,0,58267:0:0:0:0:
448,192,58107,128,0,58347:0:0:0:0:
192,192,58267,128,0,58347:0:0:0:0:
320,192,58347,128,0,58506:0:0:0:0:
448,192,58426,128,0,58506:0:0:0:0:
192,192,58426,128,0,58665:0:0:0:0:
64,192,58586,128,0,58665:0:0:0:0:
320,192,58586,128,0,58665:0:0:0:0:
448,192,58586,128,0,59144:0:0:0:0:
64,192,58745,128,0,58984:0:0:0:0:
320,192,58745,128,0,59144:0:0:0:0:
192,192,58745,128,0,58984:0:0:0:0:
64,192,59064,128,0,59462:0:0:0:0:
192,192,59064,128,0,59622:0:0:0:0:
320,192,59223,128,0,59462:0:0:0:0:
448,192,59223,128,0,59462:0:0:0:0:
320,192,59542,128,0,59781:0:0:0:0:
448,192,59542,128,0,59781:0:0:0:0:
64,192,59542,128,0,59941:0:0:0:0:
192,192,59701,128,0,60259:0:0:0:0:
320,192,59861,128,0,60100:0:0:0:0:
448,192,59861,128,0,59941:0:0:0:0:
64,192,60020,128,0,60259:0:0:0:0:
448,192,60020,128,0,60419:0:0:0:0:
320,192,60180,128,0,60419:0:0:0:0:
192,192,60339,128,0,60738:0:0:0:0:
64,192,60339,128,0,60578:0:0:0:0:
320,192,60499,128,0,60578:0:0:0:0:
448,192,60499,128,0,60738:0:0:0:0:
64,192,60658,128,0,60738:0:0:0:0:
320,192,60658,128,0,60897:0:0:0:0:
448,192,60817,128,0,61056:0:0:0:0:
192,192,60817,128,0,61056:0:0:0:0:
64,192,60817,128,0,61216:0:0:0:0:
320,192,60977,128,0,61216:0:0:0:0:
192,192,61136,128,0,61535:0:0:0:0:
448,192,61136,128,0,61694:0:0:0:0:
64,192,61296,128,0,61535:0:0:0:0:
320,192,61296,128,0,61375:0:0:0:0:
320,192,61455,128,0,61694:0:0:0:0:
192,192,61614,128,0,62013:0:0:0:0:
64,192,61614,128,0,61853:0:0:0:0:
320,192,61774,128,0,62013:0:0:0:0:
448,192,61774,128,0,61853:0:0:0:0:
64,192,61933,128,0,62013:0:0:0:0:
448,192,61933,128,0,62172:0:0:0:0:
320,192,62093,128,0,62332:0:0:0:0:
192,192,62093,128,0,62332:0:0:0:0:
64,192,62093,128,0,62491:0:0:0:0:
448,192,62252,128,0,62650:0:0:0:0:
192,192,62411,128,0,62810:0:0:0:0:
320,192,62411,128,0,62491:0:0:0:0:
320,192,62571,128,0,62969:0:0:0:0:
64,192,62571,128,0,62810:0:0:0:0:
448,192,62730,128,0,62969:0:0:0:0:
192,192,62890,128,0,63288:0:0:0:0:
64,192,62890,128,0,63129:0:0:0:0:
320,192,63049,128,0,63448:0:0:0:0:
448,192,63049,128,0,63129:0:0:0:0:
448,192,63208,128,0,63288:0:0:0:0:
64,192,63208,128,0,63288:0:0:0:0:
192,192,63368,128,0,63607:0:0:0:0:
64,192,63368,128,0,63766:0:0:0:0:
448,192,63368,128,0,63607:0:0:0:0:
320,192,63527,128,0,63766:0:0:0:0:
192,192,63687,128,0,63926:0:0:0:0:
448,192,63687,128,0,64245:0:0:0:0:
320,192,63846,128,0,64005:0:0:0:0:
64,192,63846,128,0,64245:0:0:0:0:
192,192,64005,128,0,64085:0:0:0:0:
320,192,64085,128,0,64404:0:0:0:0:
192,192,64165,128,0,64404:0:0:0:0:
64,192,64324,128,0,64563:0:0:0:0:
448,192,64324,128,0,64563:0:0:0:0:
192,192,64484,128,0,64882:0:0:0:0:
320,192,64484,128,0,64563:0:0:0:0:
320,192,64643,128,0,65042:0:0:0:0:
64,192,64643,128,0,65042:0:0:0:0:
448,192,64643,128,0,64882:0:0:0:0:
192,192,64962,128,0,65201:0:0:0:0:
448,192,64962,128,0,65360:0:0:0:0:
320,192,65121,128,0,65360:0:0:0:0:
64,192,65121,128,0,65520:0:0:0:0:
192,192,65281,128,0,65679:0:0:0:0:
320,192,65440,128,0,65520:0:0:0:0:
448,192,65440,128,0,65679:0:0:0:0:
320,192,65599,128,0,65839:0:0:0:0:
64,192,65599,128,0,65839:0:0:0:0:
192,192,65759,128,0,65998:0:0:0:0:
448,192,65759,128,0,65839:0:0:0:0:
320,192,65918,128,0,66157:0:0:0:0:
64,192,65918,128,0,66317:0:0:0:0:
448,192,65918,128,0,66157:0:0:0:0:
192,192,66078,128,0,66317:0:0:0:0:
320,192,66237,128,0,66476:0:0:0:0:
448,192,66237,128,0,66636:0:0:0:0:
192,192,66397,128,0,66636:0:0:0:0:
64,192,66397,128,0,66795:0:0:0:0:
320,192,66556,128,0,66954:0:0:0:0:
192,192,66715,128,0,66795:0:0:0:0:
448,192,66715,128,0,66954:0:0:0:0:
192,192,66875,128,0,67114:0:0:0:0:
64,192,66875,128,0,67114:0:0:0:0:
320,192,67034,128,0,67273:0:0:0:0:
448,192,67034,128,0,67114:0:0:0:0:
192,192,67194,128,0,67433:0:0:0:0:
64,192,67194,128,0,67592:0:0:0:0:
448,192,67194,128,0,67433:0:0:0:0:
320,192,67353,128,0,67592:0:0:0:0:
192,192,67512,128,0,67751:0:0:0:0:
448,192,67512,128,0,68070:0:0:0:0:
320,192,67672,128,0,67831:0:0:0:0:
64,192,67672,128,0,67911:0:0:0:0:
192,192,67831,128,0,67911:0:0:0:0:
320,192,67911,128,0,68070:0:0:0:0:
192,192,67991,128,0,68230:0:0:0:0:
64,192,67991,128,0,68230:0:0:0:0:
320,192,68150,128,0,68389:0:0:0:0:
448,192,68150,128,0,68389:0:0:0:0:
192,192,68309,128,0,68548:0:0:0:0:
64,192,68309,128,0,68389:0:0:0:0:
320,192,68469,128,0,68708:0:0:0:0:
64,192,68469,128,0,69027:0:0:0:0:
448,192,68469,128,0,68867:0:0:0:0:
192,192,68628,128,0,68867:0:0:0:0:
320,192,68788,128,0,69027:0:0:0:0:
192,192,68947,128,0,69345:0:0:0:0:
448,192,68947,128,0,69186:0:0:0:0:
320,192,69106,128,0,69186:0:0:0:0:
64,192,69106,128,0,69345:0:0:0:0:
320,192,69266,128,0,69505:0:0:0:0:
448,192,69266,128,0,69505:0:0:0:0:
192,192,69425,128,0,69664:0:0:0:0:
64,192,69425,128,0,69664:0:0:0:0:
320,192,69585,128,0,69983:0:0:0:0:
448,192,69585,128,0,69664:0:0:0:0:
192,192,69744,128,0,70302:0:0:0:0:
64,192,69744,128,0,69983:0:0:0:0:
448,192,69744,128,0,70143:0:0:0:0:
320,192,70063,128,0,70143:0:0:0:0:
64,192,70063,128,0,70461:0:0:0:0:
320,192,70222,128,0,70621:0:0:0:0:
448,192,70222,128,0,70461:0:0:0:0:
192,192,70382,128,0,70621:0:0:0:0:
64,192,70541,128,0,70780:0:0:0:0:
448,192,70541,128,0,70780:0:0:0:0:
192,192,70700,128,0,70780:0:0:0:0:
320,192,70700,128,0,70940:0:0:0:0:
192,192,70860,128,0,71099:0:0:0:0:
64,192,70860,128,0,70940:0:0:0:0:
448,192,70860,128,0,70940:0:0:0:0:
320,192,71019,128,0,71258:0:0:0:0:
64,192,71019,128,0,71258:0:0:0:0:
448,192,71019,128,0,71418:0:0:0:0:
192,192,71179,128,0,71418:0:0:0:0:
320,192,71338,128,0,71737:0:0:0:0:
64,192,71338,128,0,71577:0:0:0:0:
192,192,71497,128,0,71737:0:0:0:0:
448,192,71497,128,0,71896:0:0:0:0:
64,192,71657,128,0,72055:0:0:0:0:
320,192,71816,128,0,71896:0:0:0:0:
192,192,71816,128,0,72055:0:0:0:0:
320,192,71976,128,0,72215:0:0:0:0:
448,192,71976,128,0,72055:0:0:0:0:
192,192,72135,128,0,72215:0:0:0:0:
64,192,72135,128,0,72215:0:0:0:0:
448,192,72135,128,0,72534:0:0:0:0:
192,192,72294,128,0,72534:0:0:0:0:
320,192,72294,128,0,72374:0:0:0:0:
64,192,72294,128,0,72693:0:0:0:0:
320,192,72454,128,0,72693:0:0:0:0:
192,192,72613,128,0,73012:0:0:0:0:
448,192,72613,128,0,72852:0:0:0:0:
320,192,72773,128,0,73012:0:0:0:0:
64,192,72773,128,0,73171:0:0:0:0:
448,192,72932,128,0,73331:0:0:0:0:
192,192,73092,128,0,73171:0:0:0:0:
320,192,73092,128,0,73331:0:0:0:0:
192,192,73251,128,0,73490:0:0:0:0:
64,192,73251,128,0,73490:0:0:0:0:
320,192,73410,128,0,73809:0:0:0:0:
448,192,73410,128,0,73490:0:0:0:0:
192,192,73570,128,0,73649:0:0:0:0:
64,192,73570,128,0,73968:0:0:0:0:
448,192,73570,128,0,73809:0:0:0:0:
192,192,73729,128,0,74128:0:0:0:0:
320,192,73889,128,0,73968:0:0:0:0:
448,192,73889,128,0,74287:0:0:0:0:
320,192,74048,128,0,74207:0:0:0:0:
64,192,74048,128,0,74287:0:0:0:0:
192,192,74207,128,0,74526:0:0:0:0:
320,192,74287,128,0,74446:0:0:0:0:
64,192,74367,128,0,74765:0:0:0:0:
448,192,74367,128,0,74606:0:0:0:0:
320,192,74526,128,0,74606:0:0:0:0:
192,192,74606,128,0,74765:0:0:0:0:
320,192,74686,128,0,74925:0:0:0:0:
448,192,74686,128,0,74765:0:0:0:0:
192,192,74845,128,0,75084:0:0:0:0:
64,192,74845,128,0,75243:0:0:0:0:
448,192,74845,128,0,75084:0:0:0:0:
320,192,75004,128,0,75243:0:0:0:0:
192,192,75164,128,0,75403:0:0:0:0:
448,192,75164,128,0,75562:0:0:0:0:
320,192,75323,128,0,75562:0:0:0:0:
64,192,75323,128,0,75722:0:0:0:0:
192,192,75483,128,0,75801:0:0:0:0:
320,192,75642,128,0,75881:0:0:0:0:
448,192,75642,128,0,76040:0:0:0:0:
64,192,75801,128,0,75881:0:0:0:0:
192,192,75881,128,0,76040:0:0:0:0:
320,192,75961,128,0,76040:0:0:0:0:
64,192,75961,128,0,76200:0:0:0:0:
192,192,76120,128,0,76200:0:0:0:0:
320,192,76120,128,0,76359:0:0:0:0:
448,192,76120,128,0,76519:0:0:0:0:
192,192,76280,128,0,76519:0:0:0:0:
64,192,76280,128,0,76678:0:0:0:0:
320,192,76439,128,0,76838:0:0:0:0:
192,192,76598,128,0,76838:0:0:0:0:
448,192,76598,128,0,76997:0:0:0:0:
64,192,76758,128,0,77156:0:0:0:0:
320,192,76917,128,0,77077:0:0:0:0:
192,192,76917,128,0,77156:0:0:0:0:
448,192,77077,128,0,77316:0:0:0:0:
320,192,77156,128,0,77316:0:0:0:0:
192,192,77236,128,0,77316:0:0:0:0:
64,192,77236,128,0,77475:0:0:0:0:
320,192,77395,128,0,77635:0:0:0:0:
192,192,77395,128,0,77555:0:0:0:0:
448,192,77395,128,0,77475:0:0:0:0:
64,192,77555,128,0,77874:0:0:0:0:
448,192,77555,128,0,77794:0:0:0:0:
192,192,77635,128,0,77714:0:0:0:0:
320,192,77714,128,0,77794:0:0:0:0:
192,192,77794,128,0,77953:0:0:0:0:
320,192,77874,128,0,78033:0:0:0:0:
448,192,77874,128,0,78113:0:0:0:0:
64,192,77953,128,0,78192:0:0:0:0:
192,192,78033,128,0,78113:0:0:0:0:
320,192,78113,128,0,78272:0:0:0:0:
192,192,78192,128,0,78352:0:0:0:0:
448,192,78192,128,0,78591:0:0:0:0:
64,192,78272,128,0,78591:0:0:0:0:
320,192,78352,128,0,78432:0:0:0:0:
192,192,78432,128,0,78591:0:0:0:0:
320,192,78511,128,0,79069:0:0:0:0:
192,192,78671,128,0,79388:0:0:0:0:
64,192,78671,128,0,79388:0:0:0:0:
448,192,78671,128,0,79547:0:0:0:0:
320,192,79149,128,0,79946:0:0:0:0:
192,192,79468,128,0,79547:0:0:0:0:
64,192,79468,128,0,79866:0:0:0:0:
192,192,79627,128,0,79866:0:0:0:0:
448,192,79627,128,0,79866:0:0:0:0:
192,192,79946,128,0,80185:0:0:0:0:
64,192,79946,128,0,80344:0:0:0:0:
448,192,79946,128,0,80185:0:0:0:0:
320,192,80105,128,0,80344:0:0:0:0:
192,192,80265,128,0,80504:0:0:0:0:
448,192,80265,128,0,80663:0:0:0:0:
320,192,80424,128,0,80823:0:0:0:0:
64,192,80424,128,0,80663:0:0:0:0:
192,192,80584,128,0,80823:0:0:0:0:
64,192,80743,128,0,81460:0:0:0:0:
448,192,80743,128,0,80982:0:0:0:0:
192,192,80902,128,0,80982:0:0:0:0:
320,192,80902,128,0,81141:0:0:0:0:
192,192,81062,128,0,81301:0:0:0:0:
448,192,81062,128,0,81301:0:0:0:0:
320,192,81221,128,0,81460:0:0:0:0:
192,192,81381,128,0,81620:0:0:0:0:
448,192,81381,128,0,81620:0:0:0:0:
320,192,81540,128,0,81779:0:0:0:0:
64,192,81540,128,0,82098:0:0:0:0:
192,192,81699,128,0,81859:0:0:0:0:
448,192,81699,128,0,82098:0:0:0:0:
320,192,81859,128,0,81938:0:0:0:0:
192,192,81938,128,0,82257:0:0:0:0:
320,192,82018,128,0,82257:0:0:0:0:
64,192,82178,128,0,82417:0:0:0:0:
448,192,82178,128,0,82417:0:0:0:0:
320,192,82337,128,0,82417:0:0:0:0:
192,192,82337,128,0,82576:0:0:0:0:
320,192,82496,128,0,82736:0:0:0:0:
64,192,82496,128,0,82736:0:0:0:0:
448,192,82496,128,0,83214:0:0:0:0:
192,192,82656,128,0,82895:0:0:0:0:
320,192,82815,128,0,83214:0:0:0:0:
64,192,82815,128,0,82895:0:0:0:0:
192,192,82975,128,0,83054:0:0:0:0:
64,192,82975,128,0,83373:0:0:0:0:
192,192,83134,128,0,83533:0:0:0:0:
320,192,83293,128,0,83373:0:0:0:0:
448,192,83293,128,0,83533:0:0:0:0:
320,192,83453,128,0,83851:0:0:0:0:
64,192,83453,128,0,83851:0:0:0:0:
192,192,83612,128,0,83692:0:0:0:0:
448,192,83612,128,0,84011:0:0:0:0:
192,192,83772,128,0,84170:0:0:0:0:
320,192,83931,128,0,84011:0:0:0:0:
64,192,83931,128,0,84170:0:0:0:0:
320,192,84090,128,0,84330:0:0:0:0:
448,192,84090,128,0,84648:0:0:0:0:
192,192,84250,128,0,84409:0:0:0:0:
64,192,84250,128,0,84648:0:0:0:0:
320,192,84409,128,0,84489:0:0:0:0:
192,192,84489,128,0,84808:0:0:0:0:
320,192,84569,128,0,84808:0:0:0:0:
64,192,84728,128,0,84967:0:0:0:0:
448,192,84728,128,0,84967:0:0:0:0:
192,192,84887,128,0,85127:0:0:0:0:
320,192,84887,128,0,84967:0:0:0:0:
320,192,85047,128,0,85286:0:0:0:0:
64,192,85047,128,0,85605:0:0:0:0:
448,192,85047,128,0,85445:0:0:0:0:
192,192,85206,128,0,85286:0:0:0:0:
192,192,85366,128,0,85605:0:0:0:0:
320,192,85366,128,0,85445:0:0:0:0:
320,192,85525,128,0,85764:0:0:0:0:
448,192,85525,128,0,85764:0:0:0:0:
192,192,85684,128,0,85924:0:0:0:0:
64,192,85684,128,0,85924:0:0:0:0:
320,192,85844,128,0,86322:0:0:0:0:
448,192,85844,128,0,86083:0:0:0:0:
192,192,86003,128,0,86242:0:0:0:0:
64,192,86003,128,0,86561:0:0:0:0:
448,192,86163,128,0,86402:0:0:0:0:
192,192,86322,128,0,86402:0:0:0:0:
320,192,86402,128,0,86561:0:0:0:0:
192,192,86482,128,0,86880:0:0:0:0:
448,192,86482,128,0,86721:0:0:0:0:
320,192,86641,128,0,86880:0:0:0:0:
64,192,86641,128,0,86721:0:0:0:0:
64,192,86800,128,0,87199:0:0:0:0:
448,192,86800,128,0,87039:0:0:0:0:
192,192,86960,128,0,87199:0:0:0:0:
320,192,86960,128,0,87039:0:0:0:0:
320,192,87119,128,0,87358:0:0:0:0:
448,192,87119,128,0,87358:0:0:0:0:
192,192,87279,128,0,87518:0:0:0:0:
64,192,87279,128,0,87518:0:0:0:0:
320,192,87438,128,0,87836:0:0:0:0:
448,192,87438,128,0,87518:0:0:0:0:
192,192,87597,128,0,87677:0:0:0:0:
64,192,87597,128,0,87996:0:0:0:0:
448,192,87597,128,0,87996:0:0:0:0:
192,192,87757,128,0,87916:0:0:0:0:
320,192,87916,128,0,88315:0:0:0:0:
192,192,87996,128,0,88155:0:0:0:0:
64,192,88076,128,0,88315:0:0:0:0:
448,192,88076,128,0,88155:0:0:0:0:
192,192,88235,128,0,88633:0:0:0:0:
448,192,88235,128,0,88474:0:0:0:0:
320,192,88394,128,0,88474:0:0:0:0:
64,192,88394,128,0,88793:0:0:0:0:
320,192,88554,128,0,88952:0:0:0:0:
448,192,88554,128,0,88793:0:0:0:0:
192,192,88713,128,0,88793:0:0:0:0:
192,192,88873,128,0,89112:0:0:0:0:
64,192,88873,128,0,89271:0:0:0:0:
448,192,88873,128,0,89112:0:0:0:0:
320,192,89032,128,0,89431:0:0:0:0:
192,192,89191,128,0,89271:0:0:0:0:
448,192,89191,128,0,89431:0:0:0:0:
192,192,89351,128,0,89590:0:0:0:0:
64,192,89351,128,0,89590:0:0:0:0:
320,192,89510,128,0,89749:0:0:0:0:
448,192,89510,128,0,89909:0:0:0:0:
192,192,89670,128,0,89749:0:0:0:0:
64,192,89670,128,0,90068:0:0:0:0:
192,192,89829,128,0,90148:0:0:0:0:
320,192,89829,128,0,89988:0:0:0:0:
448,192,89988,128,0,90228:0:0:0:0:
320,192,90068,128,0,90228:0:0:0:0:
64,192,90148,128,0,90228:0:0:0:0:
192,192,90228,128,0,90387:0:0:0:0:
320,192,90307,128,0,90387:0:0:0:0:
64,192,90307,128,0,90546:0:0:0:0:
448,192,90307,128,0,90546:0:0:0:0:
192,192,90467,128,0,90706:0:0:0:0:
320,192,90467,128,0,90865:0:0:0:0:
64,192,90626,128,0,90706:0:0:0:0:
448,192,90626,128,0,90706:0:0:0:0:
192,192,90785,128,0,90865:0:0:0:0:
64,192,90785,128,0,91184:0:0:0:0:
448,192,90785,128,0,91025:0:0:0:0:
192,192,90945,128,0,91184:0:0:0:0:
320,192,90945,128,0,91025:0:0:0:0:
320,192,91104,128,0,91343:0:0:0:0:
448,192,91104,128,0,91184:0:0:0:0:
192,192,91264,128,0,91343:0:0:0:0:
64,192,91264,128,0,91343:0:0:0:0:
448,192,91264,128,0,92539:0:0:0:0:
192,192,91423,128,0,91901:0:0:0:0:
64,192,91423,128,0,92858:0:0:0:0:
320,192,91423,128,0,92220:0:0:0:0:
