osu file format v14

[General]
AudioFilename: greenhillzone.mp3
AudioLeadIn: 0
PreviewTime: 14541
Countdown: 1
SampleSet: Soft
StackLeniency: 0.7
Mode: 0
LetterboxInBreaks: 1
WidescreenStoryboard: 1

[Editor]
Bookmarks: 1724,14541,27358,40175,65809,78626,91572
DistanceSpacing: 2
BeatDivisor: 8
GridSize: 4
TimelineZoom: 1

[Metadata]
Title:Arphimigon Collection Three
TitleUnicode:Arphimigon Collection Three
Artist:Various Artists
ArtistUnicode:Various Artists
Creator:Arphimigon
Version:HOW 2 DRAW SANIC HEGEHOG
Source:
Tags:0nyxheart HOW 2 DRAW SANIC HEGEHOG All I Wanna Do Is Touch Your Power Points LOLI RIPE Dash Hopes 3 Mungyodance Renard 東方風神録 ~ Mountain of Faith. Poinsettia IOSYS East West Wobble Cytus SHK In These Days NDS Tom E Rockefeller Street Getter Jaani Ravers Fantasy Manian Upside Down A*Teens Doktorspiele Alex C. feat. Yasmin K. Dj Satomi Waves Baracuda Where is the love Tune Up! Bounce Amaranthe Razorblade Icon For Hire Make A Move Tina Cousins
BeatmapID:728874
BeatmapSetID:328641

[Difficulty]
HPDrainRate:6
CircleSize:3.4
OverallDifficulty:10
ApproachRate:10
SliderMultiplier:1.89999990463257
SliderTickRate:1

[Events]
//Background and Video events
0,0,"heghog.jpg",0,0
//Break Periods
2,15342,26804
2,53204,65255
//Storyboard Layer 0 (Background)
//Storyboard Layer 1 (Fail)
//Storyboard Layer 2 (Pass)
//Storyboard Layer 3 (Foreground)
//Storyboard Sound Samples

[TimingPoints]
1736,400.534045393858,4,2,0,70,1,0

[Colours]
Combo1 : 237,28,36
Combo2 : 34,177,76
Combo3 : 63,72,204

[HitObjects]
120,112,132,5,0,0:0:0:0:
144,104,232,1,0,0:0:0:0:
176,96,333,1,0,0:0:0:0:
200,88,433,1,0,0:0:0:0:
304,56,533,5,8,0:0:0:0:
316,92,633,1,0,0:0:0:0:
328,140,734,1,0,0:0:0:0:
340,176,834,1,0,0:0:0:0:
368,280,933,5,0,0:0:0:0:
312,296,1033,1,0,0:0:0:0:
256,312,1134,1,8,0:0:0:0:
208,328,1234,1,0,0:0:0:0:
120,352,1334,5,8,0:0:0:0:
96,272,1434,1,0,0:0:0:0:
76,192,1535,1,0,0:0:0:0:
52,112,1635,1,0,0:0:0:0:
24,32,1736,6,0,L|96:24,1,47.4999976158143
264,112,1936,2,0,L|192:120,1,47.4999976158143
160,48,2136,2,0,L|232:40,1,47.4999976158143
400,128,2336,2,0,L|328:136,1,47.4999976158143
440,32,2537,5,0,0:0:0:0:
429,126,2637,1,0,0:0:0:0:
419,220,2737,1,0,0:0:0:0:
315,356,2837,5,0,0:0:0:0:
325,262,2937,1,0,0:0:0:0:
336,168,3037,1,0,0:0:0:0:
232,296,3137,5,0,0:0:0:0:
156,236,3238,1,0,0:0:0:0:
64,264,3338,6,0,P|64:220|56:204,1,47.4999976158143
228,72,3538,2,0,P|228:116|236:132,1,47.4999976158143
232,296,3738,5,0,0:0:0:0:
308,240,3838,1,0,0:0:0:0:
404,248,3938,1,0,0:0:0:0:
360,96,4039,5,0,0:0:0:0:
284,152,4139,1,0,0:0:0:0:
188,144,4239,1,0,0:0:0:0:
136,64,4339,6,0,L|92:28,1,47.4999976158143
136,320,4539,2,0,L|92:356,1,47.4999976158143
60,264,4740,5,0,0:0:0:0:
120,192,4840,1,0,0:0:0:0:
219,158,4940,5,0,0:0:0:0:
289,155,5040,1,0,0:0:0:0:
292,225,5140,1,0,0:0:0:0:
222,228,5240,1,0,0:0:0:0:
215,154,5340,5,0,0:0:0:0:
292,151,5440,1,0,0:0:0:0:
295,228,5540,1,0,0:0:0:0:
218,231,5640,1,0,0:0:0:0:
211,151,5741,5,0,0:0:0:0:
295,147,5841,1,0,0:0:0:0:
299,231,5941,1,0,0:0:0:0:
215,235,6041,1,0,0:0:0:0:
208,147,6141,5,0,0:0:0:0:
299,144,6241,1,0,0:0:0:0:
302,235,6341,1,0,0:0:0:0:
211,238,6441,1,0,0:0:0:0:
209,140,6542,5,0,0:0:0:0:
307,145,6642,1,0,0:0:0:0:
302,243,6742,1,0,0:0:0:0:
204,238,6842,1,0,0:0:0:0:
210,132,6942,5,0,0:0:0:0:
314,146,7042,1,0,0:0:0:0:
300,250,7142,1,0,0:0:0:0:
196,236,7242,1,0,0:0:0:0:
213,124,7343,5,0,0:0:0:0:
322,149,7443,1,0,0:0:0:0:
298,258,7543,1,0,0:0:0:0:
188,234,7643,1,0,0:0:0:0:
216,117,7744,5,0,0:0:0:0:
330,152,7844,1,0,0:0:0:0:
294,266,7944,1,0,0:0:0:0:
181,230,8044,1,0,0:0:0:0:
112,160,8144,6,0,P|104:124|96:112,1,47.4999976158143
288,240,8344,2,0,P|296:204|304:192,1,47.4999976158143
116,236,8545,2,0,P|108:200|100:188,1,47.4999976158143
292,156,8745,2,0,P|300:120|308:108,1,47.4999976158143
388,156,8945,5,0,0:0:0:0:
468,204,9045,1,0,0:0:0:0:
420,284,9145,1,0,0:0:0:0:
336,236,9246,1,0,0:0:0:0:
244,252,9346,5,0,0:0:0:0:
172,372,9446,1,0,0:0:0:0:
52,300,9546,1,0,0:0:0:0:
124,173,9647,1,0,0:0:0:0:
204,120,9746,6,0,L|248:56,1,47.4999976158143
352,108,9946,2,0,L|396:44,1,47.4999976158143
484,268,10147,2,0,L|440:204,1,47.4999976158143
336,256,10347,2,0,L|292:192,1,47.4999976158143
272,128,10547,5,0,0:0:0:0:
216,51,10647,1,0,0:0:0:0:
125,80,10747,1,0,0:0:0:0:
125,175,10848,1,0,0:0:0:0:
216,204,10948,1,0,0:0:0:0:
292,264,11048,1,0,0:0:0:0:
276,356,11148,1,0,0:0:0:0:
200,300,11248,1,0,0:0:0:0:
112,260,11348,6,0,L|44:232,1,47.4999976158143
400,124,11549,2,0,L|468:152,1,47.4999976158143
110,267,11749,6,0,L|39:240,1,47.4999976158143
401,116,11950,2,0,L|472:143,1,47.4999976158143
108,274,12149,6,0,L|34:249,1,47.4999976158143
403,109,12350,2,0,L|477:134,1,47.4999976158143
107,282,12550,6,0,L|30:259,1,47.4999976158143
404,101,12751,2,0,L|481:124,1,47.4999976158143
256,192,12950,5,0,0:0:0:0:
256,192,13051,1,0,0:0:0:0:
256,192,13151,1,0,0:0:0:0:
256,192,13251,1,0,0:0:0:0:
256,192,13351,1,0,0:0:0:0:
256,192,13451,1,0,0:0:0:0:
256,192,13551,1,0,0:0:0:0:
256,192,13651,1,0,0:0:0:0:
256,192,13752,5,0,0:0:0:0:
118,234,13952,1,0,0:0:0:0:
34,119,14152,1,0,0:0:0:0:
119,4,14352,1,0,0:0:0:0:
253,47,14553,1,0,0:0:0:0:
256,192,27370,12,0,39987,0:0:0:0:
56,64,40187,5,0,0:0:0:0:
67,63,40237,1,0,0:0:0:0:
79,62,40287,1,0,0:0:0:0:
91,61,40337,1,0,0:0:0:0:
103,61,40387,1,0,0:0:0:0:
115,60,40437,1,0,0:0:0:0:
127,59,40487,1,0,0:0:0:0:
138,59,40537,1,0,0:0:0:0:
150,58,40587,1,0,0:0:0:0:
162,57,40637,1,0,0:0:0:0:
174,57,40687,1,0,0:0:0:0:
186,56,40737,1,0,0:0:0:0:
198,55,40787,1,0,0:0:0:0:
210,54,40837,1,0,0:0:0:0:
221,54,40887,1,0,0:0:0:0:
233,53,40938,1,0,0:0:0:0:
248,52,40988,6,0,L|364:44,1,94.9999952316285
408,156,41388,2,0,L|292:164,1,94.9999952316285
124,180,41789,5,0,0:0:0:0:
135,181,41839,1,0,0:0:0:0:
147,183,41889,1,0,0:0:0:0:
158,187,41939,1,0,0:0:0:0:
169,192,41989,1,0,0:0:0:0:
179,198,42039,1,0,0:0:0:0:
188,205,42089,1,0,0:0:0:0:
197,214,42139,1,0,0:0:0:0:
204,223,42189,1,0,0:0:0:0:
210,233,42239,1,0,0:0:0:0:
215,244,42289,1,0,0:0:0:0:
219,255,42339,1,0,0:0:0:0:
221,267,42389,1,0,0:0:0:0:
222,279,42439,1,0,0:0:0:0:
221,291,42489,1,0,0:0:0:0:
219,302,42540,1,0,0:0:0:0:
216,314,42590,1,0,0:0:0:0:
124,280,42790,5,0,0:0:0:0:
284,160,42991,1,0,0:0:0:0:
124,280,43191,1,0,0:0:0:0:
284,160,43392,5,0,0:0:0:0:
289,149,43441,1,0,0:0:0:0:
293,138,43491,1,0,0:0:0:0:
295,126,43541,1,0,0:0:0:0:
295,114,43591,1,0,0:0:0:0:
294,102,43641,1,0,0:0:0:0:
292,91,43691,1,0,0:0:0:0:
288,80,43741,1,0,0:0:0:0:
282,69,43791,1,0,0:0:0:0:
275,60,43841,1,0,0:0:0:0:
266,51,43891,1,0,0:0:0:0:
257,44,43941,1,0,0:0:0:0:
247,38,43991,1,0,0:0:0:0:
236,34,44041,1,0,0:0:0:0:
224,31,44091,1,0,0:0:0:0:
212,30,44142,1,0,0:0:0:0:
200,32,44192,6,0,L|168:40,7,23.7499988079071
156,44,44593,2,0,L|124:52,7,23.7499988079071
112,60,44993,5,0,0:0:0:0:
109,71,45043,1,0,0:0:0:0:
107,83,45093,1,0,0:0:0:0:
104,94,45143,1,0,0:0:0:0:
102,106,45193,1,0,0:0:0:0:
99,118,45243,1,0,0:0:0:0:
97,129,45293,1,0,0:0:0:0:
94,141,45343,1,0,0:0:0:0:
92,152,45393,1,0,0:0:0:0:
89,164,45443,1,0,0:0:0:0:
87,176,45493,1,0,0:0:0:0:
84,187,45543,1,0,0:0:0:0:
82,199,45593,1,0,0:0:0:0:
79,210,45643,1,0,0:0:0:0:
77,222,45693,1,0,0:0:0:0:
74,234,45744,1,0,0:0:0:0:
72,248,45794,6,0,L|60:300,1,47.4999976158143
180,232,45995,2,0,L|168:180,1,47.4999976158143
248,308,46195,2,0,L|236:360,1,47.4999976158143
356,292,46396,2,0,L|344:240,1,47.4999976158143
448,352,46595,5,0,0:0:0:0:
448,340,46645,1,0,0:0:0:0:
449,328,46695,1,0,0:0:0:0:
450,316,46745,1,0,0:0:0:0:
450,304,46795,1,0,0:0:0:0:
451,292,46845,1,0,0:0:0:0:
452,280,46895,1,0,0:0:0:0:
452,269,46945,1,0,0:0:0:0:
453,257,46995,1,0,0:0:0:0:
454,245,47045,1,0,0:0:0:0:
454,233,47095,1,0,0:0:0:0:
455,221,47145,1,0,0:0:0:0:
456,209,47195,1,0,0:0:0:0:
457,197,47245,1,0,0:0:0:0:
457,186,47295,1,0,0:0:0:0:
458,174,47346,1,0,0:0:0:0:
460,160,47396,5,0,0:0:0:0:
462,142,47446,1,0,0:0:0:0:
461,124,47496,1,0,0:0:0:0:
457,107,47546,1,0,0:0:0:0:
450,91,47596,1,0,0:0:0:0:
440,76,47646,1,0,0:0:0:0:
427,63,47696,1,0,0:0:0:0:
413,53,47746,1,0,0:0:0:0:
397,45,47796,1,0,0:0:0:0:
379,41,47846,1,0,0:0:0:0:
362,40,47896,1,0,0:0:0:0:
344,42,47946,1,0,0:0:0:0:
327,47,47996,1,0,0:0:0:0:
311,55,48046,1,0,0:0:0:0:
297,66,48096,1,0,0:0:0:0:
285,79,48147,1,0,0:0:0:0:
276,96,48197,6,0,L|280:136,7,23.7499988079071
272,144,48598,2,0,L|268:184,7,23.7499988079071
256,192,48999,5,0,0:0:0:0:
184,152,49199,1,0,0:0:0:0:
328,232,49399,1,0,0:0:0:0:
147,252,49599,1,0,0:0:0:0:
364,132,49800,5,0,0:0:0:0:
359,123,49850,1,0,0:0:0:0:
353,116,49900,1,0,0:0:0:0:
347,108,49950,1,0,0:0:0:0:
340,102,50000,1,0,0:0:0:0:
333,95,50050,1,0,0:0:0:0:
326,89,50100,1,0,0:0:0:0:
318,84,50150,1,0,0:0:0:0:
309,80,50200,1,0,0:0:0:0:
301,76,50250,1,0,0:0:0:0:
292,73,50300,1,0,0:0:0:0:
282,71,50350,1,0,0:0:0:0:
273,69,50400,1,0,0:0:0:0:
264,68,50450,1,0,0:0:0:0:
254,68,50500,1,0,0:0:0:0:
245,68,50551,1,0,0:0:0:0:
235,69,50601,5,0,0:0:0:0:
226,71,50651,1,0,0:0:0:0:
217,74,50701,1,0,0:0:0:0:
208,78,50751,1,0,0:0:0:0:
199,82,50801,1,0,0:0:0:0:
191,86,50851,1,0,0:0:0:0:
183,92,50901,1,0,0:0:0:0:
176,98,50951,1,0,0:0:0:0:
169,104,51001,1,0,0:0:0:0:
163,111,51051,1,0,0:0:0:0:
157,119,51101,1,0,0:0:0:0:
151,126,51151,1,0,0:0:0:0:
147,135,51201,1,0,0:0:0:0:
143,143,51251,1,0,0:0:0:0:
140,152,51302,1,0,0:0:0:0:
137,161,51352,1,0,0:0:0:0:
135,171,51402,5,0,0:0:0:0:
134,180,51452,1,0,0:0:0:0:
134,190,51502,1,0,0:0:0:0:
134,199,51552,1,0,0:0:0:0:
135,209,51602,1,0,0:0:0:0:
137,218,51652,1,0,0:0:0:0:
139,227,51702,1,0,0:0:0:0:
142,236,51752,1,0,0:0:0:0:
146,245,51802,1,0,0:0:0:0:
151,253,51852,1,0,0:0:0:0:
156,261,51902,1,0,0:0:0:0:
162,268,51952,1,0,0:0:0:0:
168,276,52002,1,0,0:0:0:0:
175,282,52053,1,0,0:0:0:0:
183,288,52103,1,0,0:0:0:0:
190,293,52153,1,0,0:0:0:0:
199,298,52203,5,0,0:0:0:0:
207,302,52253,1,0,0:0:0:0:
216,306,52303,1,0,0:0:0:0:
225,309,52353,1,0,0:0:0:0:
234,311,52403,1,0,0:0:0:0:
244,312,52453,1,0,0:0:0:0:
253,313,52503,1,0,0:0:0:0:
263,312,52553,1,0,0:0:0:0:
272,311,52603,1,0,0:0:0:0:
281,310,52653,1,0,0:0:0:0:
291,307,52703,1,0,0:0:0:0:
300,304,52753,1,0,0:0:0:0:
308,301,52804,1,0,0:0:0:0:
317,296,52854,1,0,0:0:0:0:
325,291,52904,1,0,0:0:0:0:
333,286,52954,1,0,0:0:0:0:
340,279,53004,1,0,0:0:0:0:
72,64,65821,6,0,L|172:48,1,94.9999952316285
332,136,66221,2,0,L|232:120,1,94.9999952316285
44,204,66622,2,0,L|144:188,1,94.9999952316285
384,280,67023,2,0,L|284:264,1,94.9999952316285
124,124,67423,6,0,P|148:72|188:152,1,189.999990463257
315,145,68024,2,0,P|331:69|388:124,1,189.999990463257
480,128,68625,2,0,L|456:224,1,94.9999952316285
424,308,69025,6,0,P|364:296|344:260,1,94.9999952316285
88,308,69426,2,0,P|148:296|168:260,1,94.9999952316285
256,352,69826,2,0,L|256:240,1,94.9999952316285
256,32,70227,1,0,0:0:0:0:
256,126,70427,1,0,0:0:0:0:
180,80,70627,6,0,P|168:84|180:220,1,189.999990463257
334,219,71228,2,0,P|387:148|332:80,1,189.999990463257
334,219,71829,2,0,P|396:216|440:188,1,94.9999952316285
468,80,72229,6,0,L|364:96,1,94.9999952316285
196,40,72630,1,0,0:0:0:0:
196,40,72830,2,0,L|300:56,1,94.9999952316285
280,188,73231,1,0,0:0:0:0:
280,188,73431,2,0,P|232:180|196:140,1,94.9999952316285
80,80,73832,6,0,B|112:172|112:172|96:264,1,189.999990463257
296,372,74432,2,0,B|264:280|264:280|280:188,1,189.999990463257
419,99,75033,2,0,P|406:144|366:167,1,94.9999952316285
160,322,75434,5,0,0:0:0:0:
256,30,75634,1,0,0:0:0:0:
350,322,75834,1,0,0:0:0:0:
102,142,76035,1,0,0:0:0:0:
409,142,76235,1,0,0:0:0:0:
160,322,76435,1,0,0:0:0:0:
256,30,76635,1,0,0:0:0:0:
350,322,76835,1,0,0:0:0:0:
102,142,77036,1,0,0:0:0:0:
44,44,77436,5,0,0:0:0:0:
44,44,77637,1,0,0:0:0:0:
468,340,78037,1,0,0:0:0:0:
44,340,78438,1,0,0:0:0:0:
468,44,78638,5,0,0:0:0:0:
456,45,78688,1,0,0:0:0:0:
444,46,78738,1,0,0:0:0:0:
432,48,78788,1,0,0:0:0:0:
420,49,78838,1,0,0:0:0:0:
409,51,78888,1,0,0:0:0:0:
397,52,78938,1,0,0:0:0:0:
385,54,78988,1,0,0:0:0:0:
373,55,79038,1,0,0:0:0:0:
361,57,79088,1,0,0:0:0:0:
350,58,79138,1,0,0:0:0:0:
338,60,79188,1,0,0:0:0:0:
326,61,79238,1,0,0:0:0:0:
314,63,79288,1,0,0:0:0:0:
303,64,79338,1,0,0:0:0:0:
291,66,79389,1,0,0:0:0:0:
280,68,79439,6,0,L|184:80,1,94.9999952316285
360,144,79840,2,0,L|264:156,1,94.9999952316285
104,188,80240,5,0,0:0:0:0:
103,199,80290,1,0,0:0:0:0:
105,211,80340,1,0,0:0:0:0:
108,223,80390,1,0,0:0:0:0:
113,233,80440,1,0,0:0:0:0:
120,243,80490,1,0,0:0:0:0:
128,252,80540,1,0,0:0:0:0:
137,259,80590,1,0,0:0:0:0:
148,264,80640,1,0,0:0:0:0:
159,268,80690,1,0,0:0:0:0:
170,270,80740,1,0,0:0:0:0:
182,271,80790,1,0,0:0:0:0:
194,269,80840,1,0,0:0:0:0:
205,265,80890,1,0,0:0:0:0:
216,260,80940,1,0,0:0:0:0:
226,253,80991,1,0,0:0:0:0:
234,245,81041,1,0,0:0:0:0:
176,192,81242,5,0,0:0:0:0:
256,336,81442,1,0,0:0:0:0:
336,192,81642,1,0,0:0:0:0:
256,48,81842,5,0,0:0:0:0:
245,41,81908,1,0,0:0:0:0:
234,37,81975,1,0,0:0:0:0:
223,33,82042,1,0,0:0:0:0:
211,31,82109,1,0,0:0:0:0:
200,31,82175,1,0,0:0:0:0:
188,31,82242,1,0,0:0:0:0:
176,34,82309,1,0,0:0:0:0:
165,37,82376,1,0,0:0:0:0:
154,42,82442,1,0,0:0:0:0:
144,49,82509,1,0,0:0:0:0:
135,56,82576,1,0,0:0:0:0:
127,65,82643,5,0,0:0:0:0:
119,74,82709,1,0,0:0:0:0:
114,85,82776,1,0,0:0:0:0:
109,95,82843,1,0,0:0:0:0:
108,111,82894,1,0,0:0:0:0:
109,127,82944,1,0,0:0:0:0:
110,143,82994,1,0,0:0:0:0:
111,159,83044,1,0,0:0:0:0:
112,175,83094,1,0,0:0:0:0:
113,190,83144,1,0,0:0:0:0:
114,206,83194,1,0,0:0:0:0:
115,222,83244,1,0,0:0:0:0:
116,238,83294,1,0,0:0:0:0:
117,254,83344,1,0,0:0:0:0:
118,269,83394,1,0,0:0:0:0:
120,284,83444,6,0,L|124:312,7,23.7499988079071
136,328,83845,2,0,L|160:344,7,23.7499988079071
180,344,84246,5,0,0:0:0:0:
256,192,84446,1,0,0:0:0:0:
332,344,84646,1,0,0:0:0:0:
408,192,84846,1,0,0:0:0:0:
332,40,85047,5,0,0:0:0:0:
322,32,85097,1,0,0:0:0:0:
313,25,85147,1,0,0:0:0:0:
302,19,85197,1,0,0:0:0:0:
292,14,85247,1,0,0:0:0:0:
281,9,85297,1,0,0:0:0:0:
269,6,85347,1,0,0:0:0:0:
258,3,85397,1,0,0:0:0:0:
246,1,85447,1,0,0:0:0:0:
234,1,85497,1,0,0:0:0:0:
222,1,85547,1,0,0:0:0:0:
211,2,85597,1,0,0:0:0:0:
199,4,85647,1,0,0:0:0:0:
187,6,85697,1,0,0:0:0:0:
176,10,85747,1,0,0:0:0:0:
165,15,85798,1,0,0:0:0:0:
155,20,85848,5,0,0:0:0:0:
144,26,85898,1,0,0:0:0:0:
135,33,85948,1,0,0:0:0:0:
126,41,85998,1,0,0:0:0:0:
117,49,86048,1,0,0:0:0:0:
110,59,86098,1,0,0:0:0:0:
103,68,86148,1,0,0:0:0:0:
96,78,86198,1,0,0:0:0:0:
91,89,86248,1,0,0:0:0:0:
86,100,86298,1,0,0:0:0:0:
83,111,86348,1,0,0:0:0:0:
80,122,86398,1,0,0:0:0:0:
78,134,86448,1,0,0:0:0:0:
77,146,86498,1,0,0:0:0:0:
77,158,86549,1,0,0:0:0:0:
77,170,86599,1,0,0:0:0:0:
80,184,86649,5,0,0:0:0:0:
87,188,86699,1,0,0:0:0:0:
95,193,86749,1,0,0:0:0:0:
102,198,86799,1,0,0:0:0:0:
110,203,86849,1,0,0:0:0:0:
117,207,86899,1,0,0:0:0:0:
125,212,86949,1,0,0:0:0:0:
132,217,86999,1,0,0:0:0:0:
140,222,87049,1,0,0:0:0:0:
147,227,87099,1,0,0:0:0:0:
155,231,87149,1,0,0:0:0:0:
162,236,87199,1,0,0:0:0:0:
170,241,87249,1,0,0:0:0:0:
177,246,87299,1,0,0:0:0:0:
185,250,87349,1,0,0:0:0:0:
192,255,87400,1,0,0:0:0:0:
200,260,87450,5,0,0:0:0:0:
324,248,87650,1,0,0:0:0:0:
312,124,87850,1,0,0:0:0:0:
188,136,88051,1,0,0:0:0:0:
388,180,88251,5,0,0:0:0:0:
390,176,88301,1,0,0:0:0:0:
392,172,88351,1,0,0:0:0:0:
394,168,88401,1,0,0:0:0:0:
396,164,88451,1,0,0:0:0:0:
397,160,88501,1,0,0:0:0:0:
399,155,88551,1,0,0:0:0:0:
400,151,88601,1,0,0:0:0:0:
401,147,88651,1,0,0:0:0:0:
402,142,88701,1,0,0:0:0:0:
402,138,88751,1,0,0:0:0:0:
403,134,88801,1,0,0:0:0:0:
403,129,88851,1,0,0:0:0:0:
403,125,88901,1,0,0:0:0:0:
402,120,88951,1,0,0:0:0:0:
402,116,89002,1,0,0:0:0:0:
401,111,89052,5,0,0:0:0:0:
400,107,89102,1,0,0:0:0:0:
399,103,89152,1,0,0:0:0:0:
398,98,89202,1,0,0:0:0:0:
396,94,89252,1,0,0:0:0:0:
395,90,89302,1,0,0:0:0:0:
393,86,89352,1,0,0:0:0:0:
391,82,89402,1,0,0:0:0:0:
388,78,89452,1,0,0:0:0:0:
386,75,89502,1,0,0:0:0:0:
383,71,89552,1,0,0:0:0:0:
380,68,89602,1,0,0:0:0:0:
377,64,89652,1,0,0:0:0:0:
374,61,89702,1,0,0:0:0:0:
371,58,89753,1,0,0:0:0:0:
367,55,89803,5,0,0:0:0:0:
364,53,89853,1,0,0:0:0:0:
360,50,89903,1,0,0:0:0:0:
356,48,89953,1,0,0:0:0:0:
352,46,90003,1,0,0:0:0:0:
348,44,90053,1,0,0:0:0:0:
344,42,90103,1,0,0:0:0:0:
340,41,90153,1,0,0:0:0:0:
336,39,90203,1,0,0:0:0:0:
332,38,90253,1,0,0:0:0:0:
327,37,90303,1,0,0:0:0:0:
323,37,90353,1,0,0:0:0:0:
318,36,90403,1,0,0:0:0:0:
314,36,90453,1,0,0:0:0:0:
310,36,90504,1,0,0:0:0:0:
305,36,90554,1,0,0:0:0:0:
301,36,90604,1,0,0:0:0:0:
296,37,90654,5,0,0:0:0:0:
292,38,90704,1,0,0:0:0:0:
287,39,90754,1,0,0:0:0:0:
283,40,90804,1,0,0:0:0:0:
279,41,90854,1,0,0:0:0:0:
275,43,90904,1,0,0:0:0:0:
271,45,90954,1,0,0:0:0:0:
267,47,91004,1,0,0:0:0:0:
263,49,91054,1,0,0:0:0:0:
259,51,91104,1,0,0:0:0:0:
255,54,91154,1,0,0:0:0:0:
252,56,91204,1,0,0:0:0:0:
249,59,91255,1,0,0:0:0:0:
308,132,91455,5,0,0:0:0:0:
64,192,92256,5,0,0:0:0:0:
64,192,92456,1,0,0:0:0:0:
448,192,92857,1,0,0:0:0:0:
448,192,93057,1,0,0:0:0:0:
256,384,93458,1,0,0:0:0:0:
256,384,93658,1,0,0:0:0:0:
256,0,94059,1,0,0:0:0:0:
256,192,94459,1,0,0:0:0:0:
256,192,94559,1,0,0:0:0:0:
120,56,95460,5,0,0:0:0:0:
120,56,95661,1,0,0:0:0:0:
391,327,96061,1,0,0:0:0:0:
391,327,96262,1,0,0:0:0:0:
120,327,96662,1,0,0:0:0:0:
120,327,96863,1,0,0:0:0:0:
391,56,97263,1,0,0:0:0:0:
256,192,97663,1,0,0:0:0:0:
256,192,97864,1,0,0:0:0:0:
208,60,98665,5,0,0:0:0:0:
304,60,98865,1,0,0:0:0:0:
304,324,99266,1,0,0:0:0:0:
208,324,99466,1,0,0:0:0:0:
388,144,99866,1,0,0:0:0:0:
388,240,100066,1,0,0:0:0:0:
124,240,100467,1,0,0:0:0:0:
124,144,100868,1,0,0:0:0:0:
256,192,101068,1,0,0:0:0:0:
315,64,101869,5,0,0:0:0:0:
383,132,102069,1,0,0:0:0:0:
196,319,102470,1,0,0:0:0:0:
128,251,102670,1,0,0:0:0:0:
383,251,103070,1,0,0:0:0:0:
315,319,103270,1,0,0:0:0:0:
128,132,103671,1,0,0:0:0:0:
196,64,104072,1,0,0:0:0:0:
256,192,104272,1,0,0:0:0:0:
256,192,104322,12,0,109479,0:0:0:0:
