osu file format v14

[General]
AudioFilename: audio.mp3
AudioLeadIn: 0
PreviewTime: 397809
Countdown: 0
SampleSet: Soft
StackLeniency: 0.5
Mode: 0
LetterboxInBreaks: 0
EpilepsyWarning: 1
WidescreenStoryboard: 1

[Editor]
Bookmarks: 3357,35637,40600,42737,63805,71801,75133,108257,114119,114195,145657,152350,197350,203760,232204,242580,270881,273888,314451,324127,355036,359657,390514,395876,428040,434535,458535,462882,510070,516640,516656,554906,562404,563681,597351,597510,606981,641717,646406,659847,690351,694920,729313
DistanceSpacing: 0.6
BeatDivisor: 8
GridSize: 4
TimelineZoom: 8

[Metadata]
Title:Anime Songs Compilation
TitleUnicode:Anime Songs Compilation
Artist:Various Artists
ArtistUnicode:Various Artists
Creator:MisakiAN
Version:Collab Marathon
Source:
Tags:Marathon Opening Ending Yahuri Chuuya Shiratoi -Kyu arknes_33 -Kilala- ,Aimer Brave Shine, Supercell My Dearest, EGOIST All Alone With You, AKINO from bless4 Miiro, Sayuri Sore wa Chiisana Hikari no Youna, TK from Ling tosite sigure unravel, Alisa Takigawa Season ,THE ORAL CIGARETTES Kyouran Hey Kids!!, Dancing Dolls monochrome, YUI Again ,THREE LIGHTS DOWN KINGS NEVER SAY NEVER, CHICO with HoneyWorks Ai no Scenario,THREE LIGHTS DOWN KINGS Glorious Days,KISIDA KYODAN & THE AKEBOSI ROCKETS GATE~Sore wa Akatsuki no youni~,CustomiZ COOLEST,LiSA Oath Sign,CHICO with HoneyWorks Pride Kakumei,Luck Life Kaze ga Fuku Machi
BeatmapID:1158577
BeatmapSetID:547019

[Difficulty]
HPDrainRate:6
CircleSize:4
OverallDifficulty:8
ApproachRate:9
SliderMultiplier:2.1
SliderTickRate:2

[Events]
//Background and Video events
0,0,"BG.jpg",0,0
//Break Periods
2,13732,40037
2,63873,74534
2,108457,113519
2,145857,241980
2,269949,271602
2,314651,321708
2,355236,359057
2,383857,395276
2,423910,463220
2,483238,605963
2,641885,645643
2,690533,694906
//Storyboard Layer 0 (Background)
//Storyboard Layer 1 (Fail)
//Storyboard Layer 2 (Pass)
//Storyboard Layer 3 (Foreground)
//Storyboard Sound Samples

[TimingPoints]
550,701.754385964912,4,2,1,100,1,0
3357,-76.9230769230769,4,2,1,100,0,0
37780,357.142857142857,4,2,1,100,1,0
40637,357.142857142857,4,2,1,100,1,0
40637,-166.666666666667,4,2,1,100,0,0
42780,357.142857142857,4,2,1,100,1,0
42780,-142.857142857143,4,2,1,100,0,0
43494,357.142857142857,4,2,1,100,1,0
43494,-125,4,2,1,100,0,0
45101,-125,4,2,2,100,0,0
45190,-125,4,2,1,100,0,0
50815,-125,4,2,2,100,0,0
50904,-125,4,2,1,100,0,0
66801,833.333333333333,4,2,1,100,1,0
75133,833.333333333333,4,2,1,100,1,0
75133,-66.6666666666667,4,2,1,91,0,0
102007,-66.6666666666667,4,2,1,9,0,0
111653,307.692307692308,4,2,1,100,1,0
114119,307.692307692308,4,2,1,100,1,0
150268,416.666666666667,3,2,1,100,1,0
152350,416.666666666667,3,2,1,100,1,0
200649,444.444444444444,4,2,1,100,1,0
203760,444.444444444444,4,2,1,100,1,0
235032,377.358490566038,4,2,1,100,1,0
242580,377.358490566038,4,2,1,100,1,0
242580,-142.857142857143,4,2,1,100,0,0
272202,422.535211267606,4,2,1,100,1,0
272620,422.535211267606,4,2,1,100,1,0
273888,422.535211267606,4,2,1,100,1,0
316854,454.545454545455,4,2,1,100,1,0
324127,454.545454545455,4,2,1,92,1,0
324127,-100,4,2,1,92,0,0
352990,-100,4,2,1,5,0,0
358800,428.571428571429,4,2,1,100,1,0
359657,428.571428571429,4,2,1,100,1,0
392165,309.278350515464,4,2,1,100,1,0
398350,309.278350515464,4,2,1,100,1,0
398350,-117.647058823529,4,2,1,88,0,0
418453,-117.647058823529,4,2,1,88,0,0
419380,-117.647058823529,4,2,1,82,0,0
423788,-117.647058823529,4,2,1,17,0,0
428040,-117.647058823529,4,2,1,17,0,0
431829,333.333333333333,4,2,1,100,1,0
434509,333.333333333333,4,2,1,100,1,0
462570,312.5,4,2,1,100,1,0
465070,312.5,4,2,1,100,1,0
513806,300,4,2,1,100,1,0
516806,300,4,2,1,100,1,0
557617,319.148936170213,4,2,1,100,1,0
563667,319.148936170213,4,2,1,100,1,0
602221,394.736842105263,4,2,1,100,1,0
606949,394.736842105263,4,2,1,93,1,0
632212,-200,4,2,1,93,0,0
634197,-100,4,2,1,96,0,0
638638,-100,4,2,1,10,0,0
641697,-100,4,2,1,73,0,0
645108,324.324324324324,4,2,1,100,1,0
646388,324.324324324324,4,2,1,100,1,0
646388,-166.666666666667,4,2,1,100,0,0
648982,-142.857142857143,4,2,1,100,0,0
678820,-200,4,2,1,100,0,0
680117,-142.857142857143,4,2,1,100,0,0
693082,303.030303030303,4,2,1,94,1,0
695506,303.030303030303,4,2,1,94,1,0
729313,-100,4,2,1,95,0,0

[Colours]
Combo1 : 179,181,255
Combo2 : 255,206,206
Combo3 : 251,255,166
Combo4 : 183,255,199
Combo5 : 147,255,234
Combo6 : 170,208,255

[HitObjects]
80,240,2655,5,2,0:3:0:0:
196,320,2830,1,2,0:3:0:0:
268,196,3006,2,0,L|284:108,1,78.75,8|0,0:0|0:0,0:0:0:0:
272,80,3357,6,0,B|224:56|224:56|116:56,1,136.499993751526,4|0,0:0|0:0,0:0:0:0:
56,40,3883,1,0,0:0:0:0:
16,176,4058,2,0,L|160:176,1,136.499993751526,8|2,0:0|0:3,0:0:0:0:
236,136,4585,1,2,0:3:0:0:
204,244,4760,1,2,0:3:0:0:
324,176,4935,2,0,B|324:52|324:52|356:84,1,136.499993751526,8|0,0:0|0:0,0:0:0:0:
408,216,5462,2,0,P|384:240|264:240,1,136.499993751526,8|0,0:0|0:0,0:0:0:0:
156,176,5988,1,0,0:0:0:0:
156,176,6076,1,0,0:0:0:0:
156,176,6164,6,0,P|144:228|152:316,1,136.499993751526
300,344,6690,1,0,0:0:0:0:
328,184,6865,2,0,L|308:104,1,68.2499968757631,8|0,0:0|0:0,0:0:0:0:
176,48,7216,1,0,0:0:0:0:
180,52,7392,2,0,P|244:64|320:36,1,136.499993751526,0|8,0:0|0:0,0:0:0:0:
460,64,7918,2,0,P|420:88|372:96,1,68.2499968757631
310,42,8269,1,8,0:0:0:0:
228,136,8444,1,0,0:0:0:0:
228,136,8795,1,8,0:0:0:0:
368,320,8971,6,0,B|348:252|392:260|364:160,1,136.499993751526,4|0,0:0|0:0,0:0:0:0:
320,108,9497,1,0,0:0:0:0:
228,136,9672,2,0,P|180:148|140:144,1,68.2499968757631,8|0,0:0|0:0,0:0:0:0:
105,68,10023,1,0,0:0:0:0:
33,161,10199,1,0,0:0:0:0:
129,223,10374,1,0,0:0:0:0:
228,136,10549,2,0,P|293:102|392:126,1,136.499993751526,8|0,0:0|0:0,0:0:0:0:
308,216,11076,2,0,L|174:269,1,136.499993751526,8|0,0:0|0:0,0:0:0:0:
68,328,11602,1,0,0:0:0:0:
68,328,11690,1,0,0:0:0:0:
68,328,11778,6,0,B|40:228|24:192|24:192|40:208,1,136.499993751526
24,112,12304,1,0,0:0:0:0:
144,192,12479,2,0,P|224:188|288:160,1,136.499993751526
340,44,13006,2,0,L|264:56,1,68.2499968757631
144,192,13357,2,0,L|244:188,1,68.2499968757631
227,274,40637,6,0,P|268:285|341:235,1,125.999996154785,4|2,0:0|0:0,0:0:0:0:
206,194,41172,2,2,P|169:215|152:302,1,125.999996154785
205,359,41708,1,2,0:0:0:0:
227,274,41887,6,2,P|263:252|280:165,1,125.999996154785
206,194,42422,2,0,P|160:193|127:179,1,62.9999980773926,2|0,0:0|0:0,0:0:0:0:
207,106,42780,6,8,L|261:96,3,36.749998878479
317,34,43137,2,8,L|263:24,3,36.749998878479
374,160,43494,6,0,B|410:188|410:188|390:101|428:52,1,168,4|0,0:0|0:0,0:0:0:0:
509,142,44030,1,8,0:0:0:0:
477,271,44209,2,0,L|365:275,1,84,2|2,0:0|0:0,0:0:0:0:
296,362,44566,2,0,L|408:358,1,84,8|0,0:0|0:0,0:0:0:0:
275,265,44923,6,0,B|221:243|221:243|156:284|83:247,1,168
153,159,45459,1,0,0:0:0:0:
223,325,45637,2,0,B|172:356|116:328,1,84,8|0,0:0|0:0,0:0:0:0:
72,172,45995,2,0,B|122:140|178:168,1,84,8|0,0:0|0:0,0:0:0:0:
275,265,46352,6,0,L|273:79,1,168,4|0,0:0|0:0,0:0:0:0:
170,40,46886,1,8,0:0:0:0:
273,97,47066,2,0,P|322:101|364:83,1,84,2|2,0:0|0:0,0:0:0:0:
486,17,47423,2,0,P|437:13|395:31,1,84,8|0,0:0|0:0,0:0:0:0:
460,172,47780,6,0,L|453:72,1,84,0|8,0:0|0:0,0:0:0:0:
357,180,48137,2,0,L|351:263,1,84,2|2,0:0|0:0,0:0:0:0:
420,359,48495,1,8,0:0:0:0:
500,274,48673,1,0,0:0:0:0:
357,180,48852,2,0,B|317:170|317:170|257:183,1,84,8|0,0:0|0:0,0:0:0:0:
103,263,49209,6,0,B|180:282|180:282|296:257,1,168,4|0,0:0|0:0,0:0:0:0:
183,171,49744,1,8,0:0:0:0:
78,336,49922,2,0,B|171:359,1,84,2|2,0:0|0:0,0:0:0:0:
90,171,50279,2,0,B|-3:147,1,84,8|0,0:0|0:0,0:0:0:0:
184,5,50636,6,0,B|161:97|212:83|176:195,1,168,0|2,0:0|0:0,0:0:0:0:
103,263,51173,1,2,0:0:0:0:
182,170,51352,2,0,P|226:163|271:172,1,84,8|0,0:0|0:0,0:0:0:0:
375,277,51709,2,0,P|331:284|286:275,1,84,8|0,0:0|0:0,0:0:0:0:
396,192,52066,6,0,P|440:219|433:340,1,168,4|0,0:0|0:0,0:0:0:0:
345,371,52602,1,8,0:0:0:0:
314,197,52780,2,0,L|326:87,1,84,2|2,0:0|0:0,0:0:0:0:
406,20,53137,2,0,L|415:103,1,84,8|0,0:0|0:0,0:0:0:0:
270,35,53495,6,0,P|215:26|173:42,1,84,0|8,0:0|0:0,0:0:0:0:
145,157,53852,2,0,P|200:166|242:150,1,84,2|2,0:0|0:0,0:0:0:0:
107,74,54209,1,8,0:0:0:0:
60,201,54387,1,0,0:0:0:0:
20,84,54566,2,8,L|19:26,2,42,8|8|2,0:0|0:0|0:0,0:0:0:0:
145,157,54923,6,0,B|163:205|163:205|156:260|103:333,1,168,4|0,0:0|0:0,0:0:0:0:
60,201,55459,1,8,0:0:0:0:
220,287,55637,2,0,P|259:275|306:283,1,84,2|2,0:0|0:0,0:0:0:0:
450,342,55994,2,0,P|411:354|364:346,1,84,8|0,0:0|0:0,0:0:0:0:
391,187,56352,6,0,L|402:280,1,84,0|8,0:0|0:0,0:0:0:0:
289,188,56709,2,0,L|298:104,1,84,2|2,0:0|0:0,0:0:0:0:
455,70,57066,2,8,L|478:266,1,168
450,342,57602,1,0,0:0:0:0:
289,188,57780,6,0,B|206:162|189:215|105:176,1,168,4|0,0:0|0:0,0:0:0:0:
42,98,58316,1,8,0:0:0:0:
152,35,58493,2,0,P|168:82|157:125,1,84,2|2,0:0|0:0,0:0:0:0:
46,264,58852,2,0,P|30:217|41:174,1,84,8|0,0:0|0:0,0:0:0:0:
155,266,59209,5,0,0:0:0:0:
73,362,59387,1,8,0:0:0:0:
235,314,59566,2,0,L|239:213,1,84,2|2,0:0|0:0,0:0:0:0:
335,131,59923,2,8,L|338:214,1,84,8|0,0:0|0:0,0:0:0:0:
426,293,60280,1,8,0:0:0:0:
486,191,60459,1,0,0:0:0:0:
335,131,60637,5,4,0:1:0:0:
256,192,60727,12,0,63673,0:0:0:0:
419,223,75134,6,0,P|323:195|233:227,1,157.500006008148,4|2,0:0|0:3,0:0:0:0:
168,232,75757,1,2,0:3:0:0:
108,316,75966,2,8,P|72:196|96:156,1,157.500006008148,8|0,0:0|0:0,0:0:0:0:
172,120,76591,1,2,0:0:0:0:
268,164,76799,2,2,L|420:220,2,157.500006008148,2|2|8,0:3|0:3|0:0,0:0:0:0:
172,120,77841,1,0,0:0:0:0:
88,164,78049,1,0,0:0:0:0:
36,96,78258,1,0,0:0:0:0:
88,164,78466,6,0,P|92:220|81:255,1,78.7500030040742,4|0,0:0|0:0,0:0:0:0:
159,343,78883,2,2,P|155:283|166:252,1,78.7500030040742,2|2,0:3|0:3,0:3:0:0:
228,204,79299,2,0,P|308:220|392:178,1,157.500006008148,8|2,0:0|0:0,0:0:0:0:
432,112,79924,1,2,0:0:0:0:
464,208,80133,1,2,0:3:0:0:
416,284,80341,1,8,0:0:0:0:
324,264,80549,2,2,L|215:237,1,78.7500030040742,0|2,0:0|0:3,0:3:0:0:
160,216,80966,5,8,0:0:0:0:
78,113,81174,1,4,0:0:0:0:
78,113,81799,6,0,P|174:89|238:143,1,157.500006008148,4|2,0:0|0:3,0:0:0:0:
300,180,82424,1,2,0:3:0:0:
234,255,82633,2,0,P|195:172|242:100,1,157.500006008148,8|0,0:0|0:0,0:0:0:0:
299,24,83258,1,2,0:0:0:0:
392,92,83466,2,0,L|457:164,1,78.7500030040742,2|0,0:3|0:0,0:0:0:0:
339,154,83883,2,0,L|353:250,1,78.7500030040742,2|0,0:3|0:0,0:0:0:0:
359,320,84299,2,0,B|299:308|299:308|243:320|243:320|177:305,1,157.500006008148,8|0,0:0|0:0,0:0:0:0:
112,292,84924,1,0,0:0:0:0:
56,216,85133,6,0,P|48:124|89:69,1,157.500006008148,4|2,0:0|0:3,0:0:0:0:
184,28,85758,1,2,0:3:0:0:
280,96,85966,2,0,P|304:204|272:257,1,157.500006008148,8|0,0:0|0:0,0:0:0:0:
192,328,86591,1,0,0:0:0:0:
120,208,86799,1,2,0:3:0:0:
228,168,87008,1,8,0:0:0:0:
128,296,87216,1,2,0:3:0:0:
164,112,87424,1,2,0:3:0:0:
164,112,87528,1,2,0:0:0:0:
164,112,87633,5,10,0:0:0:0:
280,192,87841,1,4,0:0:0:0:
280,192,88466,6,0,P|360:180|434:238,1,157.500006008148,4|2,0:0|0:3,0:0:0:0:
472,308,89091,1,2,0:3:0:0:
368,328,89299,2,0,B|316:340|316:340|260:328|260:328|187:342,1,157.500006008148,8|0,0:0|0:0,0:0:0:0:
112,364,89924,1,2,0:0:0:0:
88,264,90133,2,0,L|51:89,2,157.500006008148,2|2|8,0:3|0:3|0:0,0:0:0:0:
112,364,91174,1,0,0:0:0:0:
180,288,91383,1,0,0:0:0:0:
272,340,91591,1,0,0:0:0:0:
184,292,91799,6,0,P|155:230|161:192,1,78.7500030040742,4|0,0:0|0:0,0:0:0:0:
184,68,92216,2,0,P|216:140|213:168,1,78.7500030040742,2|2,0:3|0:3,0:3:0:0:
184,292,92633,2,0,P|288:288|333:333,1,157.500006008148,8|0,0:0|0:0,0:0:0:0:
396,376,93258,1,2,0:3:0:0:
460,308,93466,1,2,0:0:0:0:
416,216,93674,1,8,0:0:0:0:
460,128,93883,2,0,P|404:56|309:62,1,157.500006008148,2|8,0:3|0:0,0:0:0:0:
220,68,94508,5,4,0:0:0:0:
220,68,94924,1,0,0:0:0:0:
136,192,95133,6,0,B|184:184|184:184|248:200|248:200|315:186,1,157.500006008148,4|2,0:0|0:3,0:0:0:0:
384,144,95758,1,2,0:3:0:0:
448,220,95966,2,0,P|456:308|401:360,1,157.500006008148,8|0,0:0|0:0,0:0:0:0:
320,372,96591,1,2,0:0:0:0:
240,312,96799,2,0,L|166:255,1,78.7500030040742,2|0,0:3|0:0,0:0:0:0:
272,236,97216,2,0,L|219:152,1,78.7500030040742,2|0,0:3|0:0,0:0:0:0:
168,96,97633,2,0,P|112:152|14:154,1,157.500006008148,8|0,0:0|0:0,0:0:0:0:
56,44,98258,1,2,0:3:0:0:
168,96,98466,6,0,P|256:68|343:106,1,157.500006008148,4|2,0:0|0:3,0:0:0:0:
417,162,99091,1,2,0:3:0:0:
328,240,99299,2,0,P|236:260|149:227,1,157.500006008148,8|0,0:0|0:0,0:0:0:0:
96,184,99924,1,2,0:3:0:0:
156,20,100133,1,0,0:0:0:0:
248,176,100341,1,8,0:0:0:0:
72,92,100549,1,2,0:3:0:0:
248,76,100757,1,2,0:3:0:0:
248,76,100862,1,2,0:0:0:0:
248,76,100966,5,10,0:0:0:0:
312,184,101174,1,2,0:3:0:0:
212,260,101382,1,2,0:3:0:0:
280,336,101591,1,2,0:3:0:0:
316,124,101799,5,4,0:0:0:0:
256,192,102007,12,0,108257,0:0:0:0:
416,40,114119,6,0,P|344:113|242:110,1,210,4|8,0:0|0:0,0:0:0:0:
188,37,114580,2,0,L|70:35,1,105,0|2,0:0|0:0,0:0:0:0:
11,79,114888,2,0,P|51:182|45:205,1,105,0|8,0:0|0:0,0:0:0:0:
21,253,115195,1,2,0:0:0:0:
21,253,115349,2,0,P|29:306|77:361,1,105,2|2,0:0|0:0,0:0:0:0:
151,347,115657,2,0,B|238:336|238:336|261:285,1,105,8|0,0:0|0:0,0:0:0:0:
265,231,115965,2,0,L|220:115,1,105,2|0,0:0|0:0,0:0:0:0:
131,109,116272,1,8,0:0:0:0:
48,168,116426,5,8,0:0:0:0:
48,168,116503,1,8,0:0:0:0:
48,168,116580,2,0,P|132:118|105:25,1,210,6|8,0:0|0:0,0:0:0:0:
58,86,117042,2,0,P|143:141|235:100,1,210,2|2,0:0|0:0,0:0:0:0:
358,27,117503,2,0,B|306:119|306:119|309:222,2,210,8|4|8,0:0|0:1|0:0,0:0:0:0:
234,103,118272,6,0,P|219:152|177:190,1,105
85,209,118580,1,8,0:0:0:0:
85,209,118656,1,8,0:0:0:0:
85,209,118733,1,8,0:0:0:0:
48,108,118888,2,8,L|28:47,2,52.5,8|8|12,0:0|0:0|0:0,0:0:0:0:
86,215,119195,5,0,0:0:0:0:
224,277,119349,1,8,0:0:0:0:
233,108,119503,1,0,0:0:0:0:
382,223,119657,2,0,P|422:263|440:324,1,105,2|2,0:0|0:0,0:0:0:0:
278,198,119965,2,0,P|239:144|235:85,1,105,8|0,0:0|0:0,0:0:0:0:
225,277,120272,2,0,P|267:320|283:378,1,105,2|2,0:0|0:0,0:0:0:0:
113,242,120580,2,0,P|74:188|70:129,1,105,8|0,0:0|0:0,0:0:0:0:
128,80,120888,5,2,0:0:0:0:
166,44,120964,1,2,0:0:0:0:
214,24,121041,1,2,0:0:0:0:
266,23,121118,1,2,0:0:0:0:
315,40,121195,1,2,0:0:0:0:
400,192,121349,6,0,P|395:243|361:284,1,105,6|0,0:0|0:0,0:0:0:0:
296,200,121657,1,0,0:0:0:0:
194,188,121811,2,0,P|208:142|256:102,1,105,8|0,0:0|0:0,0:0:0:0:
112,248,122119,2,0,P|110:161|184:44,1,210,8|0,0:0|0:0,0:0:0:0:
337,142,122580,5,0,0:0:0:0:
347,241,122734,2,0,P|289:236|247:190,1,105,8|0,0:0|0:0,0:0:0:0:
351,328,123042,2,0,P|249:311|173:241,1,210,8|8,0:0|0:0,0:0:0:0:
160,216,123426,5,8,0:0:0:0:
148,165,123503,1,8,0:0:0:0:
164,116,123580,1,2,0:0:0:0:
203,81,123657,1,2,0:0:0:0:
254,71,123734,5,2,0:0:0:0:
303,89,123811,1,8,0:0:0:0:
336,129,123888,1,8,0:0:0:0:
344,180,123965,6,0,P|355:229|397:280,1,105,12|0,0:0|0:0,0:0:0:0:
461,153,124272,2,0,P|453:99|408:35,1,105,2|8,0:0|0:0,0:0:0:0:
285,276,124580,2,0,P|342:285|410:257,1,105
216,112,124888,2,0,L|113:91,1,105,8|0,0:0|0:0,0:0:0:0:
32,184,125195,2,0,L|134:204,1,105,8|0,0:0|0:0,0:0:0:0:
304,240,125503,1,2,0:0:0:0:
120,320,125657,5,8,0:0:0:0:
304,240,125811,2,0,P|308:188|296:136,1,105,2|0,0:0|0:0,0:0:0:0:
184,68,126119,2,0,P|168:132|180:176,1,105,8|8,0:0|0:0,0:0:0:0:
208,200,126349,1,8,0:0:0:0:
236,240,126426,6,0,P|260:288|244:352,1,105,12|0,0:0|0:0,0:0:0:0:
336,224,126734,2,0,P|313:186|328:104,1,105,2|8,0:0|0:0,0:0:0:0:
228,120,127042,2,0,P|239:88|320:44,1,105
144,92,127349,2,0,B|144:152|144:152|128:204,1,105,8|0,0:0|0:0,0:0:0:0:
208,224,127657,6,0,P|259:217|307:237,1,105,8|0,0:0|0:0,0:0:0:0:
243,309,127965,2,0,P|146:292|130:195,1,210,2|4,0:0|0:0,0:0:0:0:
184,56,128426,5,8,0:0:0:0:
164,68,128503,1,8,0:0:0:0:
144,84,128580,1,8,0:0:0:0:
264,120,128734,2,8,L|312:99,2,52.5
112,224,129042,5,2,0:0:0:0:
264,224,129195,1,8,0:0:0:0:
192,344,129349,1,2,0:0:0:0:
112,223,129503,2,0,P|142:182|143:130,1,105,2|0,0:0|0:0,0:0:0:0:
216,80,129811,2,0,L|318:103,1,105,8|0,0:0|0:0,0:0:0:0:
240,176,130119,6,0,L|340:204,1,105,2|0,0:0|0:0,0:0:0:0:
208,296,130426,1,8,0:0:0:0:
119,207,130580,2,0,P|127:106|211:49,1,210,2|8,0:0|0:0,0:0:0:0:
211,49,130965,1,8,0:0:0:0:
211,49,131042,1,8,0:0:0:0:
348,104,131195,6,0,P|376:201|316:283,1,210,4|2,0:0|0:0,0:0:0:0:
212,160,131657,2,0,P|228:112|212:40,1,105,8|0,0:0|0:0,0:0:0:0:
96,24,131965,2,0,P|79:72|84:128,1,105,8|0,0:0|0:0,0:0:0:0:
92,304,132272,6,8,P|160:268|184:212,1,105,8|0,0:0|0:0,0:0:0:0:
156,96,132580,1,8,0:0:0:0:
156,96,132888,1,8,0:0:0:0:
296,64,133195,6,0,P|335:97|347:148,1,105,2|2,0:0|0:0,0:0:0:0:
344,184,133426,1,8,0:0:0:0:
316,228,133503,1,8,0:0:0:0:
273,257,133580,1,8,0:0:0:0:
221,264,133657,6,0,P|176:264|128:216,1,105,12|0,0:0|0:0,0:0:0:0:
208,64,133965,1,0,0:0:0:0:
207,64,134119,2,0,P|185:110|137:128,1,105,8|2,0:0|0:0,0:0:0:0:
128,48,134426,2,0,P|57:115|100:203,1,210,0|8,0:0|0:0,0:0:0:0:
248,168,134888,1,0,0:0:0:0:
207,320,135042,6,0,P|255:298|283:255,1,105,2|0,0:0|0:0,0:0:0:0:
323,104,135349,2,0,P|275:125|247:168,1,105,8|0,0:0|0:0,0:0:0:0:
127,239,135657,2,0,P|56:176|64:64,2,210,2|8|4,0:0|0:0|0:1,0:0:0:0:
168,128,136426,6,0,L|238:49,1,105,2|2,0:0|0:0,0:0:0:0:
248,168,136734,2,0,L|318:246,1,105,2|2,0:0|0:0,0:0:0:0:
400,180,137042,2,0,L|490:89,2,105,2|2|2,0:0|0:0|0:0,0:0:0:0:
318,246,137503,5,0,0:0:0:0:
184,120,137657,1,0,0:0:0:0:
184,248,137811,1,0,0:0:0:0:
336,124,137965,5,0,0:0:0:0:
260,72,138119,1,0,0:0:0:0:
260,284,138272,1,0,0:0:0:0:
136,176,138426,5,0,0:0:0:0:
392,176,138580,2,0,P|435:112|363:8,1,210,4|0,0:0|0:0,0:0:0:0:
256,192,138965,12,0,143349,0:0:0:0:
191,64,143657,5,8,0:0:0:0:
191,64,143811,2,0,P|151:96|99:99,1,105,0|8,0:0|0:0,0:0:0:0:
100,272,144119,1,0,0:0:0:0:
216,176,144272,1,8,0:0:0:0:
268,308,144426,1,0,0:0:0:0:
352,184,144580,1,8,0:0:0:0:
295,79,144734,2,0,P|246:62|195:70,1,105,0|8,0:0|0:0,0:0:0:0:
136,144,145042,2,0,P|185:161|236:153,2,105,0|8|0,0:0|0:0|0:0,0:0:0:0:
64,248,145503,5,8,0:0:0:0:
266,332,145657,1,8,0:0:0:0:
446,301,242580,6,0,L|344:310,1,73.4999977569581,4|0,0:0|0:0,0:0:0:0:
381,212,242957,2,0,L|307:205,1,73.4999977569581,8|0,0:0|0:0,0:0:0:0:
263,298,243334,1,0,0:0:0:0:
229,168,243523,2,0,P|239:124|228:76,1,73.4999977569581,0|8,0:0|0:0,0:0:0:0:
192,247,243900,6,0,P|176:295|222:378,1,146.999995513916,4|0,0:1|0:0,0:0:0:0:
263,298,244466,1,8,0:0:0:0:
229,168,244655,1,0,0:0:0:0:
130,300,244844,2,8,P|74:305|45:294,1,73.4999977569581,0|8,0:0|0:0,0:0:0:0:
69,170,245221,2,0,P|125:165|154:176,1,73.4999977569581,8|8,0:0|0:0,0:0:0:0:
263,298,245598,6,0,B|286:219|230:231|276:120,1,146.999995513916,4|8,0:1|0:0,0:0:0:0:
347,93,246164,1,0,0:0:0:0:
415,185,246353,2,0,B|380:198|380:198|325:191,1,73.4999977569581
265,65,246730,1,8,0:0:0:0:
432,39,246919,6,0,L|411:211,1,146.999995513916,4|0,0:1|0:0,0:0:0:0:
470,278,247485,1,8,0:0:0:0:
512,159,247674,1,0,0:0:0:0:
392,276,247863,2,8,P|405:326|444:355,1,73.4999977569581,0|8,0:0|0:0,0:0:0:0:
276,300,248240,2,8,P|231:273|183:280,1,73.4999977569581,0|8,0:0|0:0,0:0:0:0:
106,333,248617,6,0,P|142:303|165:198,1,146.999995513916,4|8,0:1|0:0,0:0:0:0:
89,132,249183,1,0,0:0:0:0:
8,237,249372,2,8,L|94:239,1,73.4999977569581
178,123,249749,1,8,0:0:0:0:
7,90,249938,6,0,L|8:245,1,146.999995513916,4|0,0:1|0:0,0:0:0:0:
106,333,250504,1,8,0:0:0:0:
241,216,250693,2,0,P|204:210|168:215,1,73.4999977569581
280,316,251069,1,8,0:0:0:0:
355,194,251259,1,8,0:0:0:0:
238,74,251447,6,0,B|219:144|219:144|249:244,1,146.999995513916,4|0,0:1|0:0,0:0:0:0:
366,278,252013,1,8,0:0:0:0:
426,138,252202,1,0,0:0:0:0:
448,260,252391,2,0,P|447:307|424:341,1,73.4999977569581
283,300,252768,2,0,P|284:253|307:219,1,73.4999977569581,8|0,0:0|0:0,0:0:0:0:
426,138,253146,6,0,P|470:193|448:260,1,146.999995513916,4|8,0:1|0:0,0:0:0:0:
283,300,253712,1,0,0:0:0:0:
332,153,253900,2,0,L|338:66,1,73.4999977569581,8|0,0:0|0:0,0:0:0:0:
202,140,254278,2,0,L|207:213,1,73.4999977569581,2|0,0:3|0:0,0:0:0:0:
246,53,254655,6,0,B|187:46|187:46|150:59|150:59|94:52,1,146.999995513916,4|0,0:0|0:0,0:0:0:0:
11,20,255221,1,0,0:0:0:0:
91,139,255410,2,8,P|103:179|92:226,1,73.4999977569581
0,119,255787,1,8,0:0:0:0:
161,99,255976,6,0,P|182:172|162:257,1,146.999995513916,4|0,0:1|0:0,0:0:0:0:
85,298,256542,1,8,0:0:0:0:
10,221,256730,1,0,0:0:0:0:
0,333,256919,2,8,B|21:368|21:368|63:394,1,73.4999977569581
169,330,257296,2,8,B|200:322|200:322|240:332,1,73.4999977569581
410,264,257674,6,0,P|352:282|325:382,1,146.999995513916,4|8,0:1|0:0,0:0:0:0:
416,361,258240,1,0,0:0:0:0:
497,260,258429,2,0,P|482:211|452:183,1,73.4999977569581
350,179,258806,1,8,0:0:0:0:
512,120,258995,6,0,P|446:94|350:89,1,146.999995513916,4|0,0:1|0:0,0:0:0:0:
350,179,259561,1,8,0:0:0:0:
290,48,259749,1,0,0:0:0:0:
256,200,259938,2,8,L|258:279,1,73.4999977569581
350,179,260315,1,8,0:0:0:0:
370,87,260504,1,8,0:0:0:0:
176,158,260693,6,0,L|180:326,2,146.999995513916,4|8|0,0:1|0:0|0:0,0:0:0:0:
115,74,261636,2,0,L|188:66,1,73.4999977569581,0|8,0:0|0:0,0:0:0:0:
305,124,262013,6,0,B|271:158|271:158|223:133|163:163,1,146.999995513916,4|0,0:1|0:0,0:0:0:0:
82,203,262580,1,8,0:0:0:0:
193,291,262768,2,0,P|219:252|220:217,1,73.4999977569581,4|0,0:1|0:0,0:0:0:0:
90,299,263146,2,0,P|64:338|63:373,1,73.4999977569581,0|8,0:0|0:0,0:0:0:0:
193,291,263523,6,0,B|271:273|266:320|346:286,1,146.999995513916,4|0,0:1|0:0,0:0:0:0:
427,229,264089,2,0,P|426:286|443:320,1,73.4999977569581,8|0,0:0|0:0,0:0:0:0:
504,196,264466,2,0,P|467:153|369:164,1,146.999995513916,8|2,0:0|0:0,0:0:0:0:
337,289,265032,1,2,0:0:0:0:
507,277,265221,5,4,0:1:0:0:
507,277,266730,5,4,0:0:0:0:
256,192,266825,12,0,269749,0:0:0:0:
100,116,272202,6,8,L|104:206,1,52.5,0|0,0:0|0:0,0:0:0:0:
192,232,272413,2,0,L|189:179,1,52.5
232,80,272620,1,0,0:0:0:0:
392,128,272831,1,0,0:0:0:0:
408,210,273042,2,0,L|412:330,1,105
271,359,273676,1,0,0:0:0:0:
150,328,273888,5,4,0:0:0:0:
95,298,273993,1,0,0:0:0:0:
75,240,274099,2,0,L|134:168,1,52.5,8|0,0:0|0:0,0:0:0:0:
74,122,274310,2,0,L|40:162,1,52.5
167,112,274521,1,8,0:0:0:0:
221,144,274627,1,0,0:0:0:0:
277,116,274733,6,0,P|347:156|486:91,1,210
369,37,275366,1,8,0:0:0:0:
277,116,275578,1,0,0:0:0:0:
187,226,275789,2,0,L|186:313,1,52.5,8|0,0:0|0:0,0:0:0:0:
204,344,276000,1,0,0:0:0:0:
338,322,276211,5,8,0:0:0:0:
399,352,276317,1,0,0:0:0:0:
455,313,276423,2,0,P|480:263|460:199,1,105,0|8,0:0|0:0,0:0:0:0:
377,110,276845,2,0,P|325:102|280:126,1,105,0|8,0:0|0:0,0:0:0:0:
144,107,277268,6,0,L|91:98,2,52.5,0|0|8,0:0|0:0|0:0,0:0:0:0:
175,167,277585,1,0,0:0:0:0:
123,210,277690,2,0,L|104:313,1,105,0|8,0:0|0:0,0:0:0:0:
234,355,278113,2,0,L|337:336,1,105,0|8,0:0|0:0,0:0:0:0:
388,290,278430,1,0,0:0:0:0:
454,305,278535,1,0,0:0:0:0:
493,173,278747,1,8,0:0:0:0:
393,80,278958,5,0,0:0:0:0:
260,49,279169,1,8,0:0:0:0:
260,49,279275,1,0,0:0:0:0:
260,49,279380,2,0,L|157:68,1,105,0|8,0:0|0:0,0:0:0:0:
48,152,279803,5,0,0:0:0:0:
19,285,280014,1,8,0:0:0:0:
148,328,280226,1,8,0:0:0:0:
204,290,280331,1,8,0:0:0:0:
269,309,280437,1,0,0:0:0:0:
329,279,280542,1,8,0:0:0:0:
394,297,280648,6,0,L|501:267,2,105,4|8|0,0:0|0:0|0:0,0:0:0:0:
365,162,281282,1,8,0:0:0:0:
365,162,281388,1,0,0:0:0:0:
365,162,281493,2,0,L|335:55,1,105,0|8,0:0|0:0,0:0:0:0:
271,40,281810,1,0,0:0:0:0:
220,85,281916,2,0,L|118:113,1,105,0|8,0:0|0:0,0:0:0:0:
65,177,282338,2,0,P|37:133|41:81,2,105,0|8|0,0:0|0:0|0:0,0:0:0:0:
165,269,282972,5,8,0:0:0:0:
165,269,283078,1,0,0:0:0:0:
165,269,283183,2,0,L|193:371,2,105,0|8|0,0:0|0:0|0:0,0:0:0:0:
223,144,283817,6,0,P|301:100|419:147,1,210,8|8,0:0|0:0,0:0:0:0:
410,137,284345,1,8,0:0:0:0:
410,137,284451,1,8,0:0:0:0:
510,228,284662,2,0,P|432:272|314:225,1,210,8|8,0:0|0:0,0:0:0:0:
324,236,285190,1,8,0:0:0:0:
324,236,285296,1,8,0:0:0:0:
223,143,285507,2,0,L|217:26,1,105,8|0,0:0|0:0,0:0:0:0:
83,8,285930,6,0,L|0:-4,2,52.5,8|8|0,0:0|0:0|0:0,0:0:0:0:
129,136,286352,2,8,L|77:128,1,52.5,8|0,0:0|0:0,0:0:0:0:
9,116,286564,1,8,0:0:0:0:
30,250,286775,2,8,L|22:301,2,52.5
96,232,287092,1,8,0:0:0:0:
162,242,287197,1,8,0:0:0:0:
227,225,287303,1,8,0:0:0:0:
294,236,287409,1,12,0:0:0:0:
384,134,287620,5,0,0:0:0:0:
504,169,287831,1,0,0:0:0:0:
469,37,288042,1,0,0:0:0:0:
384,134,288254,2,0,P|317:121|279:136,1,105,8|0,0:0|0:0,0:0:0:0:
154,86,288676,2,0,P|140:136|155:186,1,105
238,288,289099,5,0,0:0:0:0:
267,304,289310,1,0,0:0:0:0:
305,303,289521,1,0,0:0:0:0:
344,287,289733,1,0,0:0:0:0:
466,227,289944,2,0,B|444:201|444:182|444:182|471:150|480:98|480:98|428:108|372:92,1,210,8|0,0:0|0:0,0:0:0:0:
278,80,290578,1,0,0:0:0:0:
151,25,290789,6,0,P|138:92|153:130,1,105
186,184,291106,2,0,P|199:234|184:284,1,105
135,331,291423,1,8,0:0:0:0:
28,150,291634,2,0,P|95:137|133:152,1,105,8|0,0:0|0:0,0:0:0:0:
186,184,291951,2,0,P|236:197|286:182,1,105
333,133,292268,1,0,0:0:0:0:
451,200,292479,2,0,P|468:124|438:53,2,157.5
355,297,293324,6,0,B|285:327|251:299|211:268|138:304,1,210
25,242,293958,1,0,0:0:0:0:
95,125,294169,2,0,L|89:8,2,105
221,178,294803,1,0,0:0:0:0:
341,115,295014,6,0,P|391:101|441:116,1,105,8|0,0:0|0:0,0:0:0:0:
491,242,295437,2,0,P|441:256|390:243,1,105
264,191,295859,2,0,P|213:177|163:192,1,105
212,319,296282,2,0,P|261:333|312:320,1,105
444,256,296704,2,0,L|434:35,1,210,8|8,0:0|0:0,0:0:0:0:
368,11,297233,1,8,0:0:0:0:
297,51,297338,1,8,0:0:0:0:
229,29,297444,1,8,0:0:0:0:
164,63,297549,1,8,0:0:0:0:
80,267,297866,5,0,0:0:0:0:
289,336,298183,1,0,0:0:0:0:
80,267,298500,1,0,0:0:0:0:
289,335,298817,1,8,0:0:0:0:
296,304,298923,1,8,0:0:0:0:
304,272,299028,1,8,0:0:0:0:
312,240,299134,1,8,0:0:0:0:
320,208,299240,1,0,0:0:0:0:
320,208,299873,5,0,0:0:0:0:
264,158,300085,2,0,L|159:154,1,105
99,111,300718,1,0,0:0:0:0:
14,232,300930,5,4,0:0:0:0:
34,291,301035,1,0,0:0:0:0:
84,328,301141,6,8,L|86:380,1,52.5,8|0,0:0|0:0,0:0:0:0:
162,344,301352,2,8,L|159:291,1,52.5,0|0,0:0|0:0,0:0:0:0:
236,240,301564,1,8,0:0:0:0:
236,240,301669,1,0,0:0:0:0:
236,240,301775,2,0,L|340:243,1,105,0|8,0:0|0:0,0:0:0:0:
389,284,302092,1,0,0:0:0:0:
462,210,302197,2,0,L|465:105,1,105,0|8,0:0|0:0,0:0:0:0:
365,31,302620,6,0,P|409:3|461:7,2,105,0|8|0,0:0|0:0|0:0,0:0:0:0:
331,84,303148,1,0,0:0:0:0:
278,119,303254,2,8,P|251:124|222:122,1,52.5,8|0,0:0|0:0,0:0:0:0:
164,107,303465,1,0,0:0:0:0:
49,158,303676,1,8,0:0:0:0:
49,158,303782,1,0,0:0:0:0:
49,158,303888,2,0,L|52:262,1,105,0|8,0:0|0:0,0:0:0:0:
145,347,304310,1,0,0:0:0:0:
256,287,304521,6,8,P|283:282|312:284,1,52.5,8|0,0:0|0:0,0:0:0:0:
366,308,304733,1,0,0:0:0:0:
486,270,304944,1,8,0:0:0:0:
456,147,305155,2,0,L|453:43,1,105,0|8,0:0|0:0,0:0:0:0:
403,4,305472,1,0,0:0:0:0:
351,40,305578,2,0,P|301:57|252:41,1,105,0|8,0:0|0:0,0:0:0:0:
127,52,306000,1,0,0:0:0:0:
69,163,306211,2,8,L|72:216,1,52.5,8|0,0:0|0:0,0:0:0:0:
77,279,306423,1,0,0:0:0:0:
163,370,306634,5,8,0:0:0:0:
256,287,306845,2,0,P|305:271|354:288,1,105,0|8,0:0|0:0,0:0:0:0:
389,341,307162,1,0,0:0:0:0:
441,375,307268,1,8,0:0:0:0:
494,342,307373,1,8,0:0:0:0:
507,280,307479,1,8,0:0:0:0:
463,233,307585,1,8,0:0:0:0:
403,246,307690,1,8,0:0:0:0:
301,170,307902,5,8,0:0:0:0:
301,170,308007,1,0,0:0:0:0:
301,170,308113,2,0,P|252:186|202:171,1,105,0|8,0:0|0:0,0:0:0:0:
118,78,308535,1,0,0:0:0:0:
21,159,308747,2,0,L|18:263,2,105,8|0|8,0:0|0:0|0:0,0:0:0:0:
118,78,309380,2,0,L|222:75,1,105,0|8,0:0|0:0,0:0:0:0:
301,170,309803,2,0,L|197:173,1,105,0|8,0:0|0:0,0:0:0:0:
139,286,310226,5,0,0:0:0:0:
139,286,310437,2,0,L|243:283,1,105,8|0,0:0|0:0,0:0:0:0:
296,317,310754,1,8,0:0:0:0:
355,297,310859,1,8,0:0:0:0:
411,324,310965,1,8,0:0:0:0:
469,301,311071,1,8,0:0:0:0:
63,96,313606,5,8,0:0:0:0:
256,192,313817,1,0,0:0:0:0:
64,320,314028,1,0,0:0:0:0:
256,192,314240,1,0,0:0:0:0:
448,320,314451,1,8,0:0:0:0:
256,104,322308,5,2,0:3:0:0:
256,104,322422,1,2,0:0:0:0:
256,104,322535,1,2,0:0:0:0:
256,104,322649,1,2,0:0:0:0:
256,104,322763,1,10,0:0:0:0:
252,224,322990,1,2,0:3:0:0:
108,156,323217,1,2,0:0:0:0:
108,156,323331,1,2,0:0:0:0:
108,156,323444,1,10,0:0:0:0:
264,108,323672,6,0,L|376:76,1,105,2|0,0:3|0:0,0:0:0:0:
364,79,324127,6,0,P|411:109|384:226,1,157.5,4|0,0:2|0:0,0:0:0:0:
376,236,324581,2,0,L|248:276,1,105,8|0,0:0|0:0,0:0:0:0:
152,284,325036,2,0,P|55:285|22:269,1,105,2|0,0:0|0:0,0:0:0:0:
184,184,325490,2,0,P|232:172|312:188,1,105,8|0,0:0|0:0,0:0:0:0:
376,240,325945,6,0,P|307:273|379:305,1,157.5,4|0,0:1|0:0,0:0:0:0:
392,324,326399,2,0,P|444:296|460:212,1,105,8|0,0:0|0:0,0:0:0:0:
436,108,326854,1,2,0:0:0:0:
276,160,327081,1,0,0:0:0:0:
316,36,327308,1,8,0:0:0:0:
396,236,327536,1,0,0:0:0:0:
276,160,327763,6,0,B|196:140|196:140|104:144,1,157.5,4|0,0:1|0:0,0:0:0:0:
80,164,328217,2,0,L|100:48,1,105,8|0,0:0|0:0,0:0:0:0:
162,12,328672,1,2,0:0:0:0:
128,224,328899,1,0,0:0:0:0:
4,112,329127,1,8,0:0:0:0:
192,144,329354,1,0,0:0:0:0:
280,84,329581,6,0,P|348:68|444:88,1,157.5,4|0,0:1|0:0,0:0:0:0:
456,115,330036,2,0,L|464:223,1,105,8|0,0:0|0:0,0:0:0:0:
468,328,330490,1,2,0:0:0:0:
352,220,330717,1,2,0:0:0:0:
236,336,330945,1,8,0:0:0:0:
236,336,331399,6,0,P|200:288|232:176,1,157.5,4|0,0:0|0:0,0:0:0:0:
244,164,331854,2,0,B|292:132|292:132|348:132,1,105,8|0,0:0|0:0,0:0:0:0:
456,140,332308,1,2,0:0:0:0:
340,248,332536,1,0,0:0:0:0:
272,64,332763,1,8,0:0:0:0:
348,128,332990,1,0,0:0:0:0:
248,168,333217,6,0,B|184:152|184:152|132:156|132:156|64:144,1,157.5,4|0,0:1|0:0,0:0:0:0:
56,160,333672,2,0,P|32:240|48:300,1,105,8|0,0:0|0:0,0:0:0:0:
88,360,334127,1,2,0:0:0:0:
204,296,334354,1,2,0:0:0:0:
324,360,334581,2,0,P|368:308|372:260,1,105,8|0,0:0|0:0,0:0:0:0:
304,184,335036,6,0,P|288:128|352:56,1,157.5,4|0,0:1|0:0,0:0:0:0:
372,32,335490,2,0,L|228:52,1,105,8|4,0:0|0:1,0:0:0:0:
160,48,335945,1,2,0:0:0:0:
112,136,336172,2,0,P|100:216|120:256,1,105,0|8,0:0|0:0,0:0:0:0:
192,316,336627,1,4,0:1:0:0:
256,244,336854,6,0,B|332:200|344:272|444:212,1,157.5,2|0,0:0|0:0,0:0:0:0:
428,192,337308,2,0,P|428:124|420:84,1,105,8|0,0:0|0:0,0:0:0:0:
324,24,337763,1,2,0:0:0:0:
332,32,337877,1,2,0:0:0:0:
332,32,337990,1,2,0:0:0:0:
256,96,338217,6,0,L|120:92,1,105,12|0,0:0|0:0,0:0:0:0:
48,184,338672,6,0,P|24:236|128:272,1,157.5,4|0,0:0|0:0,0:0:0:0:
132,264,339127,2,0,P|200:248|236:244,1,105,8|0,0:0|0:0,0:0:0:0:
336,124,339581,2,0,P|348:184|332:256,1,105,2|0,0:0|0:0,0:0:0:0:
248,348,340036,2,0,P|236:260|244:228,1,105,8|0,0:0|0:0,0:0:0:0:
336,124,340490,6,0,P|204:104|156:136,1,157.5,4|0,0:1|0:0,0:0:0:0:
144,144,340945,2,0,L|104:280,1,105,8|0,0:0|0:0,0:0:0:0:
126,368,341399,1,2,0:0:0:0:
249,274,341627,1,0,0:0:0:0:
144,144,341854,1,8,0:0:0:0:
116,245,342081,1,0,0:0:0:0:
293,199,342308,6,0,P|302:142|264:26,1,157.5,4|0,0:1|0:0,0:0:0:0:
237,33,342763,2,0,L|113:46,1,105,8|0,0:0|0:0,0:0:0:0:
28,53,343217,1,2,0:0:0:0:
91,229,343445,1,0,0:0:0:0:
184,132,343672,1,8,0:0:0:0:
0,144,343899,1,0,0:0:0:0:
132,43,344127,6,0,P|211:22|326:42,1,157.5,4|0,0:1|0:0,0:0:0:0:
319,62,344581,2,0,P|325:121|377:166,1,105,8|0,0:0|0:0,0:0:0:0:
439,65,345036,1,2,0:0:0:0:
487,173,345263,1,2,0:0:0:0:
436,278,345490,1,8,0:0:0:0:
436,278,345945,6,0,P|384:325|339:267,1,157.5,4|0,0:0|0:0,0:0:0:0:
316,235,346399,2,0,P|261:224|205:241,1,105,8|0,0:0|0:0,0:0:0:0:
152,305,346854,2,0,P|79:325|28:311,1,105,2|0,0:0|0:0,0:0:0:0:
87,215,347308,1,8,0:0:0:0:
234,337,347536,1,0,0:1:0:0:
317,234,347763,6,0,B|341:145|341:145|304:64,1,157.5,4|0,0:1|0:1,0:1:0:0:
273,66,348217,2,0,L|154:51,1,105,8|0,0:0|0:0,0:0:0:0:
80,34,348672,1,2,0:0:0:0:
145,185,348899,1,2,0:0:0:0:
264,66,349127,1,8,0:0:0:0:
397,130,349354,1,0,0:0:0:0:
397,130,349581,6,0,B|378:181|430:254|430:254|395:282|344:244,1,210,4|8,0:0|0:0,0:0:0:0:
292,169,350263,2,0,P|191:180|267:221,1,210,4|0,0:0|0:0,0:0:0:0:
312,309,350945,1,8,0:0:0:0:
427,252,351172,6,0,P|461:199|369:67,1,210,4|0,0:0|0:0,0:0:0:0:
278,24,351854,1,8,0:0:0:0:
175,175,352081,1,0,0:0:0:0:
368,178,352308,1,2,0:0:0:0:
368,178,352422,1,2,0:0:0:0:
368,178,352536,1,2,0:0:0:0:
266,315,352763,5,12,0:0:0:0:
256,192,352990,12,0,355036,0:0:0:0:
196,168,359657,6,0,P|240:204|288:209,1,105,2|0,0:0|0:0,0:0:0:0:
272,128,360085,2,0,P|234:92|183:86,1,105,8|2,0:0|0:0,0:0:0:0:
112,128,360407,1,8,0:0:0:0:
88,174,360514,1,2,0:0:0:0:
83,226,360621,1,8,0:0:0:0:
97,276,360728,1,2,0:0:0:0:
224,312,360942,2,0,L|268:216,1,105,8|2,0:0|0:0,0:0:0:0:
268,216,361264,1,8,0:0:0:0:
268,216,361371,5,2,0:0:0:0:
388,192,361585,1,2,0:0:0:0:
376,88,361799,2,0,P|330:65|278:69,1,105,8|2,0:0|0:0,0:0:0:0:
200,128,362121,1,8,0:0:0:0:
210,179,362228,1,2,0:0:0:0:
220,230,362335,1,8,0:0:0:0:
230,282,362442,1,2,0:0:0:0:
152,344,362657,2,0,P|108:320|92:248,1,105,8|2,0:0|0:0,0:0:0:0:
112,160,362978,1,2,0:0:0:0:
112,160,363085,6,0,P|163:167|214:154,1,105,2|2,0:0|0:0,0:0:0:0:
264,72,363514,2,0,P|212:64|161:77,1,105,8|2,0:0|0:0,0:0:0:0:
80,136,363835,1,8,0:0:0:0:
53,180,363942,1,2,0:0:0:0:
55,232,364049,1,8,0:0:0:0:
83,276,364156,1,2,0:0:0:0:
204,232,364371,2,0,P|249:207|300:214,1,105,8|8,0:0|0:0,0:0:0:0:
300,214,364692,1,8,0:0:0:0:
304,220,364799,6,0,P|293:131|208:55,1,210,12|2,0:0|0:0,0:0:0:0:
223,208,365442,2,4,P|171:129|96:185,1,210,12|2,0:0|0:0,0:0:0:0:
104,296,366085,5,8,0:0:0:0:
149,321,366192,1,8,0:0:0:0:
200,333,366299,1,8,0:0:0:0:
252,328,366406,1,8,0:0:0:0:
300,308,366514,6,0,P|302:256|336:212,1,105,6|2,0:0|0:0,0:0:0:0:
280,84,366942,2,0,P|284:140|250:180,1,105,8|2,0:0|0:0,0:0:0:0:
216,200,367264,1,8,0:0:0:0:
164,203,367371,1,2,0:0:0:0:
119,177,367478,1,8,0:0:0:0:
97,131,367585,1,2,0:0:0:0:
280,84,367799,2,0,P|288:136|336:176,1,105,8|2,0:0|0:0,0:0:0:0:
456,176,368228,6,0,P|448:128|400:84,1,105,2|2,0:0|0:0,0:0:0:0:
239,175,368657,2,0,P|188:166|138:180,1,105,8|2,0:0|0:0,0:0:0:0:
104,208,368978,1,8,0:0:0:0:
80,253,369085,1,2,0:0:0:0:
92,303,369192,1,8,0:0:0:0:
134,333,369299,1,2,0:0:0:0:
252,272,369514,6,0,L|335:207,1,105,8|0,0:0|0:0,0:0:0:0:
236,176,369942,2,0,L|319:111,1,105,2|0,0:0|0:0,0:0:0:0:
160,224,370371,2,0,L|76:159,1,105,8|0,0:0|0:0,0:0:0:0:
136,312,370692,1,2,0:0:0:0:
136,312,370799,2,0,L|52:247,1,105,2|0,0:0|0:0,0:0:0:0:
76,159,371228,2,0,P|127:167|175:148,1,105,8|8,0:0|0:0,0:0:0:0:
175,147,371549,1,8,0:0:0:0:
175,147,371657,5,8,0:0:0:0:
175,147,371764,1,8,0:0:0:0:
175,147,371871,1,8,0:0:0:0:
216,40,372085,1,8,0:0:0:0:
328,64,372300,5,8,0:0:0:0:
334,115,372407,1,8,0:0:0:0:
362,159,372514,1,8,0:0:0:0:
406,187,372621,1,8,0:0:0:0:
457,194,372728,1,8,0:0:0:0:
288,256,372942,6,0,L|256:298,1,52.5,8|8,0:0|0:0,0:0:0:0:
208,248,373157,2,0,L|176:290,1,52.5,8|8,0:0|0:0,0:0:0:0:
128,232,373371,6,0,P|100:275|52:294,1,105,6|0,0:0|0:0,0:0:0:0:
56,168,373799,2,0,P|83:124|131:105,1,105,8|2,0:0|0:0,0:0:0:0:
176,104,374121,1,8,0:0:0:0:
226,116,374228,1,2,0:0:0:0:
261,154,374335,1,8,0:0:0:0:
280,200,374442,1,2,0:0:0:0:
376,200,374657,2,0,P|382:149|422:117,1,105,8|2,0:0|0:0,0:0:0:0:
312,56,374978,1,2,0:0:0:0:
312,56,375085,6,0,P|305:106|265:138,1,105,10|2,0:0|0:0,0:0:0:0:
144,192,375514,2,0,P|150:141|190:109,1,105,8|2,0:0|0:0,0:0:0:0:
240,104,375835,1,8,0:0:0:0:
290,112,375942,1,2,0:0:0:0:
326,149,376049,1,8,0:0:0:0:
332,200,376156,1,2,0:0:0:0:
176,316,376371,2,0,P|142:277|136:208,1,105,8|0,0:0|0:0,0:0:0:0:
138,229,376692,1,0,0:0:0:0:
138,229,376799,6,0,P|141:177|175:138,1,105,2|0,0:0|0:0,0:0:0:0:
252,244,377228,2,0,P|252:284|214:334,1,105,8|2,0:0|0:0,0:0:0:0:
178,298,377549,1,2,0:0:0:0:
178,298,377657,2,0,L|107:221,1,105,2|0,0:0|0:0,0:0:0:0:
64,72,378085,2,0,L|135:149,1,105,8|2,0:0|0:0,0:0:0:0:
135,149,378407,1,8,0:0:0:0:
135,149,378514,5,12,0:0:0:0:
200,72,378728,1,2,0:0:0:0:
288,80,378942,2,0,P|368:96|416:128,1,105,8|4,0:0|0:0,0:0:0:0:
408,240,379371,1,2,0:0:0:0:
256,272,379585,1,8,0:0:0:0:
256,272,379799,5,8,0:0:0:0:
206,288,379907,1,8,0:0:0:0:
155,279,380014,1,8,0:0:0:0:
115,246,380121,1,8,0:0:0:0:
96,198,380228,6,0,P|145:181|174:139,1,105,6|2,0:0|0:0,0:0:0:0:
336,112,380657,2,0,P|287:128|257:171,1,105,8|2,0:0|0:0,0:0:0:0:
240,208,380978,1,8,0:0:0:0:
231,258,381085,1,2,0:0:0:0:
255,303,381192,1,8,0:0:0:0:
303,322,381299,1,2,0:0:0:0:
392,240,381514,2,0,P|400:188|376:116,1,105,8|0,0:0|0:0,0:0:0:0:
256,192,381942,5,8,0:0:0:0:
256,192,382049,12,4,383657,0:0:0:0:
416,352,395876,5,2,0:0:0:0:
433,340,395953,1,2,0:0:0:0:
448,325,396030,1,2,0:0:0:0:
460,308,396107,1,2,0:0:0:0:
467,288,396185,1,2,0:0:0:0:
471,268,396262,1,2,0:0:0:0:
471,247,396339,1,2,0:0:0:0:
466,227,396417,1,2,0:0:0:0:
457,207,396494,5,2,0:0:0:0:
445,191,396571,1,2,0:0:0:0:
429,177,396649,1,2,0:0:0:0:
411,166,396726,1,2,0:0:0:0:
391,160,396803,1,2,0:0:0:0:
370,157,396881,1,2,0:0:0:0:
349,159,396958,1,2,0:0:0:0:
329,165,397035,1,2,0:0:0:0:
288,164,397113,6,0,P|292:132|288:104,3,52.5,2|2|2|2,0:0|0:0|0:0|0:0,0:0:0:0:
220,136,397422,2,0,P|184:128|168:128,3,52.5,2|2|2|2,0:0|0:0|0:0|0:0,0:0:0:0:
180,200,397732,2,0,P|172:228|176:260,3,52.5,2|2|2|2,0:0|0:0|0:0|0:0,0:0:0:0:
244,232,398041,2,0,P|276:240|308:232,3,52.5,2|2|2|2,0:0|0:0|0:0|0:0,0:0:0:0:
324,200,398350,6,0,P|328:120|312:72,1,90,4|0,0:0|2:0,0:0:0:0:
144,68,398659,2,0,P|200:76|268:60,1,90,8|0,0:0|2:0,0:0:0:0:
324,28,398969,1,2,0:0:0:0:
328,112,399123,1,2,0:0:0:0:
144,68,399278,2,0,P|72:40|36:36,1,90,8|0,0:0|2:0,0:0:0:0:
124,204,399587,5,4,0:1:0:0:
188,264,399742,1,0,2:0:0:0:
320,200,399896,2,0,P|328:120|328:88,1,90,8|0,0:0|2:0,0:0:0:0:
144,88,400206,2,0,P|208:120|252:120,1,90,2|2,0:0|0:0,0:0:0:0:
364,300,400514,2,0,P|256:280|220:288,1,135,8|0,0:0|2:0,0:0:0:0:
192,304,400824,6,0,P|172:244|160:180,1,90,4|0,0:2|2:0,0:0:0:0:
144,88,401134,1,8,0:0:0:0:
224,120,401288,1,0,2:0:0:0:
96,224,401443,2,0,P|56:276|40:328,1,90,2|2,0:0|0:0,0:0:0:0:
256,256,401752,2,0,P|304:264|368:260,1,90,8|0,0:0|2:0,0:0:0:0:
420,208,402061,5,4,0:1:0:0:
272,136,402216,1,0,2:0:0:0:
308,340,402371,1,8,0:0:0:0:
360,164,402525,1,2,0:0:0:0:
196,232,402680,5,2,0:0:0:0:
312,328,402834,1,0,2:0:0:0:
280,164,402989,2,0,L|252:16,1,135,8|0,0:0|2:0,0:0:0:0:
200,32,403299,6,0,P|124:24|92:28,1,90,4|0,2:0|2:0,0:0:0:0:
280,164,403607,2,0,P|364:180|444:108,1,180,8|2,0:0|0:0,0:0:0:0:
392,16,404072,1,2,0:0:0:0:
472,220,404226,1,8,0:0:0:0:
364,176,404381,1,0,2:0:0:0:
280,264,404535,6,0,P|208:264|116:312,1,135,4|0,0:1|2:0,0:0:0:0:
124,320,404845,2,0,P|112:264|100:212,1,90,8|0,0:0|2:0,0:0:0:0:
88,92,405154,1,2,0:0:0:0:
44,180,405309,1,2,0:0:0:0:
184,92,405463,2,0,P|236:56|288:52,1,90,8|0,0:0|2:0,0:0:0:0:
432,120,405772,6,0,P|368:164|270:130,1,178.500003404617,4|8,2:0|0:0,0:0:0:0:
184,92,406237,1,0,2:0:0:0:
156,192,406391,1,2,0:0:0:0:
332,244,406546,1,2,0:0:0:0:
275,137,406701,2,0,L|151:125,1,90,8|0,0:0|2:0,0:0:0:0:
32,212,407010,6,0,L|140:224,1,90,2|2,0:0|0:0,0:0:0:0:
332,244,407319,2,0,P|348:168|344:120,1,90,12|0,0:0|2:0,0:0:0:0:
256,60,407628,1,2,0:0:0:0:
228,44,407705,1,2,0:0:0:0:
198,36,407782,1,2,0:0:0:0:
166,34,407859,1,2,0:0:0:0:
135,39,407937,5,10,0:0:0:0:
106,50,408014,1,2,0:0:0:0:
80,68,408091,1,2,0:0:0:0:
58,91,408169,1,2,0:0:0:0:
40,128,408247,6,0,P|20:188|24:256,1,90,4|0,0:0|2:0,0:0:0:0:
164,360,408556,2,0,P|176:304|168:248,1,90,8|0,0:0|2:0,0:0:0:0:
116,196,408865,1,2,0:0:0:0:
256,264,409020,1,2,0:0:0:0:
364,200,409174,2,0,P|380:108|372:64,1,135,8|0,0:0|2:0,0:0:0:0:
340,48,409484,6,0,L|224:56,1,90,4|0,0:1|2:0,0:0:0:0:
132,104,409793,2,0,P|192:152|240:156,1,90,8|0,0:0|2:0,0:0:0:0:
367,198,410103,1,2,0:0:0:0:
336,48,410257,1,2,0:0:0:0:
203,154,410412,2,0,L|118:216,1,89.2500017023087,8|0,0:0|2:0,0:0:0:0:
192,64,410721,6,4,P|261:69|315:158,1,178.500003404617,4|8,0:0|0:0,0:0:0:0:
284,288,411185,1,0,2:0:0:0:
388,148,411340,2,0,P|416:96|448:68,1,90,2|2,0:0|0:0,0:0:0:0:
364,236,411649,2,0,L|256:208,1,90,8|0,0:0|2:0,0:0:0:0:
152,124,411958,5,4,0:1:0:0:
180,276,412113,1,0,2:0:0:0:
48,180,412268,1,8,0:0:0:0:
112,332,412422,1,0,2:0:0:0:
208,184,412577,5,2,0:0:0:0:
40,272,412732,1,2,0:0:0:0:
92,112,412886,1,8,0:0:0:0:
248,248,413041,1,0,2:0:0:0:
136,184,413195,6,0,P|120:128|208:76,1,135,4|0,0:0|2:0,0:0:0:0:
208,76,413505,2,0,P|276:88|324:80,1,90,8|0,0:0|2:0,0:0:0:0:
412,56,413814,1,2,0:0:0:0:
288,212,413969,1,2,0:0:0:0:
120,97,414123,2,0,L|216:73,1,90,8|0,0:0|2:0,0:0:0:0:
419,180,414432,6,0,L|271:216,1,135,4|0,0:0|2:0,0:0:0:0:
260,256,414742,2,0,L|364:232,1,90,8|0,0:0|2:0,0:0:0:0:
448,208,415051,1,2,0:0:0:0:
296,112,415206,1,2,0:0:0:0:
180,212,415360,2,0,P|168:256|188:312,1,90,8|0,0:0|2:0,0:0:0:0:
348,368,415669,6,0,B|324:304|380:304|344:228,1,135,4|0,0:0|2:0,0:0:0:0:
312,204,415979,2,0,P|264:168|236:144,1,90,8|0,0:0|2:0,0:0:0:0:
152,80,416288,5,2,0:0:0:0:
36,268,416443,1,2,0:0:0:0:
240,296,416598,1,8,0:0:0:0:
252,296,416907,6,0,L|236:180,1,90,4|0,0:2|2:0,0:0:0:0:
396,228,417216,2,0,L|400:124,1,90,8|0,0:0|2:0,0:0:0:0:
212,236,417525,2,0,L|196:132,1,90,2|2,0:0|0:0,0:0:0:0:
424,192,417835,2,0,L|436:64,1,90,8|0,0:0|2:0,0:0:0:0:
300,56,418144,6,0,L|172:28,1,90,4|0,0:2|0:0,0:0:0:0:
104,104,418453,1,10,0:0:0:0:
81,118,418530,1,2,0:0:0:0:
64,138,418607,1,2,0:0:0:0:
52,162,418684,1,2,0:0:0:0:
47,188,418762,5,2,0:0:0:0:
48,215,418839,1,2,0:0:0:0:
57,240,418916,1,2,0:0:0:0:
71,263,418994,1,2,0:0:0:0:
112,288,419071,2,0,P|152:292|176:288,3,44.6250008511543,10|2|2|2,0:0|0:0|0:0|0:0,0:0:0:0:
152,220,419380,6,0,P|192:220|216:228,3,44.6250008511543,2|2|2|2,0:0|0:0|0:0|0:0,0:0:0:0:
232,288,419690,2,0,P|264:292|288:288,3,44.6250008511543,10|2|2|2,0:0|0:0|0:0|0:0,0:0:0:0:
340,332,419999,6,0,P|352:292|352:272,3,44.6250008511543,2|2|2|2,0:0|0:0|0:0|0:0,0:0:0:0:
312,228,420308,2,0,L|308:172,3,44.6250008511543,10|2|2|2,0:0|0:0|0:0|0:0,0:0:0:0:
276,292,420618,6,2,P|172:336|100:272,1,178.500003404617,6|10,0:2|0:0,0:0:0:0:
72,264,421004,1,2,0:0:0:0:
63,238,421081,1,2,0:0:0:0:
61,212,421158,1,2,0:0:0:0:
65,185,421235,1,2,0:0:0:0:
77,161,421313,1,2,0:0:0:0:
94,141,421390,1,2,0:0:0:0:
116,126,421467,1,2,0:0:0:0:
152,112,421546,6,2,P|204:116|232:112,3,44.6250008511543,10|2|2|2,0:0|0:0|0:0|0:0,0:0:0:0:
244,88,421855,5,12,0:0:0:0:
104,252,422010,1,8,0:0:0:0:
85,238,422319,5,12,0:0:0:0:
264,79,422474,1,8,0:0:0:0:
285,70,422783,5,12,0:0:0:0:
67,225,422938,1,8,0:0:0:0:
48,208,423710,5,4,0:2:0:0:
392,84,463820,6,2,L|292:116,1,105
224,252,464132,2,0,P|236:188|192:124,1,105,8|0,0:0|0:0,0:0:0:0:
132,84,464445,1,2,0:0:0:0:
112,196,464601,1,10,0:0:0:0:
264,84,464757,1,2,0:0:0:0:
101,296,465070,6,0,P|117:256|109:188,1,105,4|0,0:0|0:0,0:0:0:0:
32,112,465382,2,0,L|164:64,1,105,8|0,0:0|0:0,0:0:0:0:
248,36,465695,1,2,0:0:0:0:
200,144,465851,1,0,0:0:0:0:
344,100,466007,2,0,P|412:108|464:156,1,105,8|0,0:0|0:0,0:0:0:0:
476,256,466320,6,0,B|404:264|368:288|368:288|288:272,1,157.5,2|0,0:0|0:0,0:0:0:0:
288,272,466632,2,0,P|228:232|208:164,1,105,8|0,0:0|0:0,0:0:0:0:
276,48,466945,2,0,P|312:116|312:180,1,105,2|0,0:0|0:0,0:0:0:0:
324,280,467257,2,0,P|376:232|440:216,1,105,8|0,0:0|0:0,0:0:0:0:
512,152,467570,6,0,L|380:120,1,105,4|0,0:0|0:0,0:0:0:0:
212,116,467882,2,0,L|352:156,1,105,8|0,0:0|0:0,0:0:0:0:
408,216,468195,1,2,0:0:0:0:
364,300,468351,1,2,0:0:0:0:
240,284,468507,2,0,L|88:284,1,105,8|0,0:0|0:0,0:0:0:0:
25,345,468820,6,0,P|78:273|28:193,1,157.5,4|0,0:1|0:0,0:0:0:0:
30,195,469132,2,0,P|49:133|75:88,1,105,8|0,0:0|0:0,0:0:0:0:
146,45,469445,1,2,0:0:0:0:
239,136,469601,1,2,0:0:0:0:
347,48,469757,1,8,0:0:0:0:
347,48,470070,6,0,P|363:130|355:215,1,157.5,4|0,0:0|0:0,0:0:0:0:
326,220,470382,2,0,B|237:192|247:239|146:202,1,157.5,8|0,0:0|0:0,0:0:0:0:
137,196,470695,2,0,P|75:242|151:309,1,157.5,2|0,0:0|0:0,0:0:0:0:
141,320,471007,2,0,P|231:339|280:319,1,105,8|0,0:0|0:0,0:0:0:0:
425,227,471320,6,0,P|339:217|282:232,1,105,2|0,0:0|0:0,0:0:0:0:
472,296,471632,2,0,P|500:260|496:184,1,105,8|0,0:0|0:0,0:0:0:0:
424,116,471945,2,0,B|348:80|328:48|328:48|256:48,1,157.5,2|0,0:0|0:0,0:0:0:0:
240,52,472257,2,0,L|108:44,1,105,8|0,0:0|0:0,0:0:0:0:
32,80,472570,5,4,0:0:0:0:
40,200,472726,1,0,0:0:0:0:
148,240,472882,2,0,P|152:304|112:352,1,105,8|0,0:0|0:0,0:0:0:0:
96,156,473195,2,0,P|160:144|228:172,2,105,2|0|8,0:0|0:0|0:0,0:0:0:0:
40,276,473663,1,0,0:0:0:0:
220,248,473820,6,10,L|284:240,3,52.5
316,312,474132,2,10,L|376:308,3,52.5
444,344,474445,1,10,0:0:0:0:
455,320,474523,1,2,0:0:0:0:
463,295,474601,1,2,0:0:0:0:
467,269,474679,1,2,0:0:0:0:
467,243,474757,5,2,0:0:0:0:
463,217,474835,1,2,0:0:0:0:
455,192,474913,1,2,0:0:0:0:
444,168,474991,1,2,0:0:0:0:
424,140,475070,6,4,B|360:112|304:160|304:160|228:156,1,157.5,4|0,0:0|0:0,0:0:0:0:
232,148,475382,2,0,P|160:136|104:152,1,105,8|0,0:0|0:0,0:0:0:0:
36,248,475695,2,0,P|72:264|136:260,1,105,2|0,0:0|0:0,0:0:0:0:
232,148,476007,2,0,L|316:40,1,105,8|0,0:0|0:0,0:0:0:0:
416,124,476320,5,2,0:0:0:0:
376,204,476476,1,0,0:0:0:0:
252,224,476632,2,0,P|196:220|144:152,1,105,8|0,0:0|0:0,0:0:0:0:
160,76,476945,1,2,0:0:0:0:
232,148,477101,1,0,0:0:0:0:
296,64,477257,2,0,L|400:60,1,105,8|0,0:0|0:0,0:0:0:0:
460,200,477570,6,0,P|472:260|452:312,2,105,4|0|8,0:0|0:0|0:0,0:0:0:0:
376,136,478038,1,0,0:0:0:0:
380,252,478195,1,2,0:0:0:0:
452,132,478351,1,0,0:0:0:0:
284,192,478507,2,0,L|136:188,1,105,8|0,0:0|0:0,0:0:0:0:
48,264,478820,2,0,L|160:268,1,105,2|0,0:0|0:0,0:0:0:0:
284,192,479132,2,0,P|300:116|288:68,1,105,8|0,0:0|0:0,0:0:0:0:
104,88,479445,2,0,P|168:132|216:132,1,105,2|0,0:0|0:0,0:0:0:0:
372,196,479757,2,0,P|360:252|324:308,1,105,8|0,0:0|0:0,0:0:0:0:
213,341,480070,6,0,B|193:281|193:281|193:129,1,210,4|8,0:0|0:0,0:0:0:0:
240,40,480538,1,0,0:0:0:0:
272,160,480695,1,2,0:0:0:0:
156,44,480851,1,0,0:0:0:0:
92,120,481007,2,0,P|160:140|212:128,1,105,8|0,0:0|0:0,0:0:0:0:
337,11,481320,6,0,P|385:67|369:199,1,210,4|8,0:0|0:0,0:0:0:0:
288,256,481788,1,0,0:0:0:0:
212,184,481945,2,0,P|152:176|92:188,1,105,2|0,0:0|0:0,0:0:0:0:
72,312,482257,2,0,P|136:292|160:240,1,105,8|0,0:0|0:0,0:0:0:0:
196,96,482570,6,0,L|312:88,1,105,4|0,0:0|0:0,0:0:0:0:
480,184,482882,2,0,L|332:200,1,105,8|0,0:0|0:0,0:0:0:0:
256,187,606563,5,8,0:2:0:0:
256,187,606973,6,0,B|259:127|259:127|248:75,1,105,4|0,0:0|0:0,0:0:0:0:
161,233,607343,2,0,B|155:300|155:300|169:367,1,105,8|0,0:0|0:0,0:0:0:0:
250,287,607738,1,2,0:3:0:0:
89,342,607935,1,2,0:3:0:0:
132,174,608133,1,8,0:0:0:0:
257,100,608330,1,2,0:0:0:0:
257,100,608429,1,2,0:0:0:0:
257,100,608527,6,0,B|185:68|185:68|116:69,1,105,6|0,0:0|0:0,0:0:0:0:
287,186,608922,2,8,B|354:208|354:208|410:200,1,105,8|0,0:0|0:0,0:0:0:0:
353,109,609317,1,2,0:3:0:0:
400,299,609514,1,2,0:3:0:0:
287,186,609712,1,8,0:0:0:0:
194,270,609909,1,2,0:0:0:0:
194,270,610008,1,2,0:0:0:0:
194,270,610106,5,6,0:0:0:0:
137,115,610304,1,0,0:0:0:0:
107,275,610501,1,8,0:0:0:0:
218,145,610699,1,0,0:0:0:0:
208,294,610896,5,2,0:3:0:0:
135,73,611093,1,2,0:3:0:0:
99,237,611291,1,8,0:0:0:0:
238,102,611488,1,0,0:0:0:0:
238,102,611685,6,0,B|333:82|333:82|416:97,1,157.5,4|0,0:0|0:0,0:0:0:0:
429,113,612080,6,0,B|437:214|413:248|413:248|396:191,1,157.5,4|0,0:1|0:0,0:0:0:0:
370,209,612475,2,0,B|319:177|283:184|283:184|288:253,1,157.5,4|0,0:1|0:0,0:0:0:0:
295,288,612870,2,0,P|225:313|117:257,1,157.5,4|0,0:1|0:0,0:0:0:0:
110,253,613264,6,0,L|125:131,1,105,4|0,0:0|0:0,0:0:0:0:
145,35,613659,1,8,0:0:0:0:
229,117,613856,2,0,P|132:156|41:96,1,210,4|0,0:0|0:0,0:0:0:0:
144,33,614449,1,8,0:0:0:0:
229,117,614646,6,0,P|265:200|216:309,1,210,4|0,0:0|0:0,0:0:0:0:
130,206,615238,1,8,0:0:0:0:
229,117,615435,6,0,P|317:58|433:95,1,210,4|2,0:0|0:3,0:0:0:0:
495,153,616027,1,8,0:0:0:0:
433,271,616225,1,0,0:0:0:0:
338,175,616422,5,4,0:0:0:0:
333,334,616620,1,0,0:0:0:0:
423,197,616817,1,8,0:0:0:0:
264,137,617014,1,0,0:0:0:0:
218,305,617212,5,2,0:3:0:0:
379,341,617409,1,2,0:3:0:0:
338,100,617606,1,8,0:0:0:0:
173,208,617804,1,4,0:0:0:0:
270,317,618001,5,0,0:0:0:0:
248,97,618199,1,8,0:0:0:0:
349,244,618396,1,8,0:0:0:0:
189,253,618593,1,0,0:0:0:0:
181,117,618791,6,8,L|140:52,2,52.5
261,148,619087,2,8,L|246:88,2,52.5
339,182,619383,2,8,L|330:129,1,52.5
318,52,619580,6,0,B|356:38|356:38|436:45,1,105,4|0,0:0|0:0,0:0:0:0:
339,182,619975,2,0,B|275:194|275:194|207:186,1,105,8|0,0:0|0:0,0:0:0:0:
272,96,620370,1,2,0:3:0:0:
360,256,620567,2,0,B|372:320|356:364|356:364|320:336,1,105,2|8,0:3|0:0,0:0:0:0:
240,300,620962,1,0,0:0:0:0:
360,256,621159,6,0,B|416:216|416:216|412:152,1,105,4|0,0:0|0:0,0:0:0:0:
318,52,621554,1,8,0:0:0:0:
224,132,621751,1,0,0:0:0:0:
256,260,621949,1,2,0:3:0:0:
256,260,622146,2,0,L|392:256,1,105,2|8,0:3|0:0,0:0:0:0:
464,316,622541,1,2,0:0:0:0:
464,316,622639,1,2,0:0:0:0:
464,316,622738,6,0,P|472:240|460:180,1,105,6|0,0:0|0:0,0:0:0:0:
320,192,623133,2,0,P|312:140|316:72,1,105,8|0,0:0|0:0,0:0:0:0:
462,109,623527,2,0,P|474:165|462:229,2,105,2|2|8,0:3|0:3|0:0,0:0:0:0:
316,96,624120,1,0,0:0:0:0:
316,96,624317,6,0,B|256:88|256:88|200:64|160:96|160:96,1,157.5,4|0,0:0|0:0,0:0:0:0:
144,136,624712,6,0,B|132:216|140:256|140:256|176:216,1,157.5,4|0,0:1|0:0,0:0:0:0:
208,208,625106,2,0,B|344:192|344:192|308:232,1,157.5,4|0,0:1|0:0,0:0:0:0:
324,256,625501,2,0,B|268:328|256:352|256:352|204:332,1,157.5,4|0,0:1|0:0,0:0:0:0:
172,316,625896,6,0,P|164:244|192:188,1,105,4|0,0:0|0:0,0:0:0:0:
240,60,626291,1,8,0:0:0:0:
292,204,626488,6,0,P|186:211|104:128,1,210,4|0,0:0|0:0,0:0:0:0:
240,60,627080,1,8,0:0:0:0:
292,204,627277,6,0,P|260:288|132:332,1,210,4|0,0:0|0:0,0:0:0:0:
154,193,627870,1,8,0:0:0:0:
292,204,628067,6,0,P|356:224|420:368,1,210,4|8,0:0|0:0,0:0:0:0:
270,352,628659,1,8,0:0:0:0:
292,204,628856,1,0,0:0:0:0:
212,88,629054,5,4,0:0:0:0:
120,244,629251,1,0,0:0:0:0:
84,36,629449,1,8,0:0:0:0:
232,208,629646,1,0,0:0:0:0:
220,36,629843,5,2,0:3:0:0:
76,200,630041,1,2,0:3:0:0:
152,20,630238,1,8,0:0:0:0:
272,128,630435,6,0,L|412:108,1,105,4|0,0:0|0:0,0:0:0:0:
312,36,630830,1,0,0:0:0:0:
416,216,631027,2,0,B|424:284|424:304|420:328|420:328|352:296,1,157.5,8|0,0:0|0:0,0:0:0:0:
332,284,631422,2,0,P|224:300|200:316,1,105,2|2,0:3|0:3,0:0:0:0:
240,183,631817,1,10,0:0:0:0:
240,183,631916,1,2,0:0:0:0:
240,183,632014,1,2,0:0:0:0:
416,216,632212,6,0,B|352:176|272:216|236:240|208:224|184:196|120:136|220:60|352:144|312:180|240:184,1,420,4|0,0:0|0:0,0:0:0:0:
136,208,633988,1,0,0:0:0:0:
208,304,634185,1,8,0:0:0:0:
208,304,634383,1,0,0:0:0:0:
288,160,634580,6,2,P|280:108|284:80,3,52.5,10|2|2|2,0:0|0:0|0:0|0:0,0:0:0:0:
352,96,634975,2,2,P|360:32|356:8,3,52.5
424,132,635370,6,0,B|448:208|448:208|420:268,1,105,4|0,0:0|0:0,0:0:0:0:
356,328,635764,2,0,L|228:316,1,105,8|4,0:0|0:0,0:0:0:0:
120,296,636159,1,0,0:0:0:0:
120,296,636356,2,0,B|84:232|84:152|84:152|136:192,1,210,4|0,0:0|0:0,0:0:0:0:
251,321,636949,5,4,0:0:0:0:
296,154,637146,1,0,0:0:0:0:
412,276,637343,1,8,0:0:0:0:
412,276,637541,2,0,B|341:286|341:286|266:271,1,105,4|0,0:0|0:0,0:0:0:0:
127,189,637935,6,0,P|67:161|195:85,1,315,4|4,0:0|0:1,0:0:0:0:
256,192,638626,12,4,641685,0:1:0:0:
56,284,646243,5,2,0:0:0:0:
69,270,646324,1,2,0:0:0:0:
87,254,646388,6,0,B|143:230|143:230|196:247|275:252|326:176|279:87|114:96|209:289|209:289|182:356,1,503.999984619141,4|0,0:0|0:0,0:0:0:0:
196,68,648982,6,0,P|245:63|285:75,2,73.4999977569581,4|0|8,0:0|0:0|0:0,0:0:0:0:
95,114,649469,1,2,0:0:0:0:
95,114,649551,1,2,0:0:0:0:
95,114,649632,2,0,P|108:64|99:24,1,73.4999977569581,2|0,0:0|0:0,0:0:0:0:
15,170,649955,2,0,L|84:208,1,73.4999977569581,8|0,0:0|0:0,0:0:0:0:
244,256,650279,6,0,L|98:296,1,146.999995513916,4|8,0:1|0:0,0:0:0:0:
307,201,650766,1,2,0:0:0:0:
307,201,650847,1,2,0:0:0:0:
307,201,650928,2,0,P|326:246|319:293,1,73.4999977569581,2|0,0:0|0:0,0:0:0:0:
419,168,651252,2,0,P|400:123|407:76,1,73.4999977569581,8|2,0:0|0:0,0:0:0:0:
411,69,651496,1,10,0:0:0:0:
411,69,651577,6,0,P|362:90|266:62,1,146.999995513916,4|8,0:1|0:0,0:0:0:0:
167,54,652063,1,0,0:0:0:0:
221,147,652225,2,0,L|223:231,2,73.4999977569581,2|0|8,0:0|0:0|0:0,0:0:0:0:
167,54,652712,1,0,0:0:0:0:
137,163,652874,6,0,L|141:336,1,146.999995513916,4|8,0:1|0:0,0:0:0:0:
302,240,653360,1,2,0:0:0:0:
302,240,653442,1,2,0:0:0:0:
302,240,653523,2,0,P|349:231|395:240,1,73.4999977569581,2|2,0:0|0:0,0:0:0:0:
481,333,653847,2,0,P|434:342|388:333,1,73.4999977569581,8|2,0:0|0:0,0:0:0:0:
376,334,654090,1,10,0:0:0:0:
376,334,654171,6,0,P|309:332|219:341,1,146.999995513916,6|8,0:0|0:0,0:0:0:0:
119,368,654658,1,2,0:0:0:0:
119,368,654739,1,2,0:0:0:0:
119,368,654820,2,0,P|121:301|112:211,1,146.999995513916,2|8,0:0|0:0,0:0:0:0:
56,127,655306,1,0,0:0:0:0:
192,203,655469,6,0,L|281:202,1,73.4999977569581,4|0,0:1|0:0,0:0:0:0:
233,60,655793,2,0,L|144:59,1,73.4999977569581,8|2,0:0|0:0,0:0:0:0:
130,68,656036,1,2,0:0:0:0:
131,68,656117,2,0,L|195:211,1,146.999995513916,2|8,0:0|0:0,0:0:0:0:
298,278,656604,1,8,0:0:0:0:
298,278,656685,1,8,0:0:0:0:
298,278,656766,6,0,B|344:265|385:280|385:280|421:272|442:248,1,146.999995513916,4|8,0:0|0:0,0:0:0:0:
379,135,657252,1,0,0:0:0:0:
298,278,657415,2,0,L|308:375,1,73.4999977569581
191,202,657739,2,0,L|181:299,1,73.4999977569581,8|0,0:0|0:0,0:0:0:0:
277,105,658063,6,0,L|284:178,1,73.4999977569581,4|0,0:0|0:0,0:0:0:0:
170,29,658387,2,0,L|162:102,1,73.4999977569581,8|0,0:0|0:0,0:0:0:0:
191,202,658712,1,2,0:3:0:0:
72,110,658874,1,8,0:0:0:0:
72,110,658955,1,8,0:0:0:0:
72,110,659036,2,8,P|20:102|-15:106,1,73.4999977569581
57,212,659360,6,0,P|116:233|195:197,1,146.999995513916,4|8,0:0|0:0,0:0:0:0:
273,90,659847,1,10,0:0:0:0:
280,96,659928,1,2,0:0:0:0:
280,96,660009,2,0,P|301:145|307:180,1,73.4999977569581,2|0,0:0|0:0,0:0:0:0:
357,318,660333,2,0,P|362:266|385:231,1,73.4999977569581,8|2,0:0|0:0,0:0:0:0:
420,181,660577,1,10,0:0:0:0:
420,181,660658,6,0,P|421:95|374:47,1,146.999995513916,4|8,0:1|0:0,0:0:0:0:
280,97,661144,1,2,0:0:0:0:
286,103,661225,1,2,0:0:0:0:
286,103,661306,2,0,L|250:187,1,73.4999977569581,2|0,0:0|0:0,0:0:0:0:
127,238,661631,2,0,L|170:164,1,73.4999977569581,8|2,0:0|0:0,0:0:0:0:
184,133,661874,1,2,0:0:0:0:
184,133,661955,6,0,B|161:93|104:68|104:68|53:82,1,146.999995513916,6|8,0:0|0:0,0:0:0:0:
55,246,662442,1,2,0:0:0:0:
55,246,662523,1,2,0:0:0:0:
55,246,662604,2,0,L|162:230,1,73.4999977569581,2|0,0:0|0:0,0:0:0:0:
248,206,662928,1,8,0:0:0:0:
316,334,663090,1,0,0:0:0:0:
213,310,663252,6,0,P|157:318|119:334,2,73.4999977569581,4|0|8,0:1|0:0|0:0,0:0:0:0:
338,258,663739,2,0,P|384:254|431:236,2,73.4999977569581,0|2|0,0:0|0:0|0:0,0:0:0:0:
248,206,664225,1,8,0:0:0:0:
289,104,664388,1,2,0:0:0:0:
289,104,664469,1,10,0:0:0:0:
289,104,664550,6,0,P|324:46|425:57,1,146.999995513916,6|8,0:0|0:0,0:0:0:0:
458,168,665036,1,2,0:0:0:0:
458,168,665117,1,2,0:0:0:0:
458,168,665198,2,0,P|458:222|434:269,1,73.4999977569581,2|0,0:0|0:0,0:0:0:0:
362,334,665523,2,0,B|263:315,1,73.4999977569581,8|0,0:0|0:0,0:0:0:0:
160,280,665847,6,0,B|187:219|133:181|133:181|156:163|161:154,1,146.999995513916,4|8,0:1|0:0,0:0:0:0:
187,75,666333,1,0,0:0:0:0:
290,103,666496,1,0,0:0:0:0:
333,218,666658,2,0,P|378:226|434:205,1,73.4999977569581,0|8,0:0|0:0,0:0:0:0:
447,131,666982,1,0,0:0:0:0:
290,103,667144,5,8,0:0:0:0:
272,121,667225,1,8,0:0:0:0:
259,143,667306,1,8,0:0:0:0:
251,168,667387,1,8,0:0:0:0:
250,193,667468,1,8,0:0:0:0:
378,359,667793,5,8,0:0:0:0:
398,328,667874,1,8,0:0:0:0:
410,294,667955,1,8,0:0:0:0:
412,257,668036,1,8,0:0:0:0:
403,221,668117,1,8,0:0:0:0:
260,200,668279,1,2,0:0:0:0:
260,200,668360,1,2,0:0:0:0:
260,200,668442,6,10,L|197:200,2,48.9999985046387
335,137,668766,6,8,L|403:137,2,48.9999985046387
224,100,669090,6,2,L|168:100,2,48.9999985046387,2|2|2,0:3|0:3|0:3,0:3:0:0:
356,48,669415,6,2,L|412:48,2,48.9999985046387
224,100,669739,5,4,0:1:0:0:
320,264,671036,5,4,0:1:0:0:
128,268,672333,5,4,0:1:0:0:
224,96,673631,5,4,0:1:0:0:
312,216,674117,1,2,0:3:0:0:
312,216,674198,1,2,0:3:0:0:
312,216,674279,2,2,L|292:352,2,110.249996635437,2|2|2,0:3|0:3|0:3,0:3:0:0:
216,152,674928,6,0,B|232:84|224:36|224:36|280:60,1,146.999995513916,4|0,0:1|0:0,0:0:0:0:
312,216,675577,2,0,P|332:268|260:344,1,146.999995513916,2|0,0:0|0:0,0:0:0:0:
216,152,676225,6,0,B|144:132|144:132|72:148,1,146.999995513916,2|0,0:0|0:0,0:0:0:0:
312,216,676874,2,0,P|396:232|480:212,1,146.999995513916,2|0,0:0|0:0,0:0:0:0:
216,152,677523,5,4,0:0:0:0:
104,288,677685,1,2,0:0:0:0:
112,296,677766,1,2,0:0:0:0:
112,296,677847,1,10,0:0:0:0:
144,196,678009,1,2,0:0:0:0:
144,196,678090,1,2,0:0:0:0:
144,196,678171,1,2,0:0:0:0:
68,88,678333,5,10,0:0:0:0:
91,77,678414,1,10,0:0:0:0:
116,70,678495,1,10,0:0:0:0:
141,67,678576,1,10,0:0:0:0:
167,69,678657,1,10,0:0:0:0:
192,74,678739,1,10,0:0:0:0:
228,92,678820,6,0,B|276:156|284:340|116:308|124:104|380:208,1,420,0|2,0:0|0:0,0:0:0:0:
362,201,680442,6,0,P|362:253|282:321,1,146.999995513916,4|0,0:0|0:0,0:0:0:0:
184,336,680928,1,0,0:0:0:0:
116,260,681090,2,0,P|108:220|112:160,1,73.4999977569581,8|0,0:0|0:0,0:0:0:0:
124,92,681415,5,4,0:1:0:0:
224,160,681577,1,0,0:0:0:0:
296,72,681739,1,8,0:0:0:0:
408,168,681901,1,2,0:0:0:0:
408,168,681982,1,2,0:0:0:0:
408,168,682063,2,0,P|420:212|408:272,1,73.4999977569581,2|2,0:0|0:0,0:0:0:0:
356,344,682388,1,8,0:0:0:0:
236,264,682550,1,2,0:0:0:0:
236,264,682631,1,2,0:0:0:0:
236,264,682712,6,0,P|160:248|76:276,1,146.999995513916,6|8,0:0|0:0,0:0:0:0:
280,356,683198,1,2,0:0:0:0:
280,356,683279,1,2,0:0:0:0:
280,356,683360,2,0,P|308:316|312:268,1,73.4999977569581,2|0,0:0|0:0,0:0:0:0:
296,200,683685,1,8,0:0:0:0:
200,112,683847,1,0,0:0:0:0:
140,200,684009,6,0,L|80:284,1,73.4999977569581,12|0,0:0|0:0,0:0:0:0:
204,272,684333,2,0,L|228:352,1,73.4999977569581,8|0,0:0|0:0,0:0:0:0:
140,200,684658,5,8,0:0:0:0:
121,168,684739,1,8,0:0:0:0:
116,132,684820,1,8,0:0:0:0:
125,97,684901,1,8,0:0:0:0:
148,68,684982,1,8,0:0:0:0:
256,28,685144,1,10,0:0:0:0:
256,28,685225,1,10,0:0:0:0:
256,28,685306,6,0,B|324:72|304:152|304:152|284:176,1,146.999995513916,14|8,0:0|0:0,0:0:0:0:
224,216,685793,1,0,0:0:0:0:
280,300,685955,2,0,P|328:304|372:288,1,73.4999977569581,2|2,0:0|0:0,0:0:0:0:
416,216,686279,1,8,0:0:0:0:
436,360,686442,1,0,0:0:0:0:
284,300,686604,6,0,B|224:280|184:228|184:228|140:264,1,146.999995513916,4|8,0:1|0:0,0:0:0:0:
124,320,687090,1,0,0:0:0:0:
20,220,687252,6,0,L|12:160,3,36.749998878479,8|8|8|8,0:0|0:0|0:0|0:0,0:0:0:0:
28,132,687577,1,8,0:0:0:0:
55,107,687658,1,8,0:0:0:0:
88,92,687739,1,8,0:0:0:0:
124,89,687820,1,8,0:0:0:0:
160,98,687901,1,10,0:0:0:0:
160,98,689036,6,0,B|176:174|144:216|144:216|184:204,1,146.999995513916,4|2,0:0|0:0,0:0:0:0:
264,168,689523,2,0,P|320:140|320:220,1,146.999995513916,8|0,0:0|0:0,0:0:0:0:
312,300,690009,5,8,0:0:0:0:
168,208,690171,1,8,0:0:0:0:
96,344,690333,1,8,0:0:0:0:
256,330,695506,6,0,B|244:290|263:253|263:253|248:203|248:203|268:169|256:128,1,210,6|8,0:0|0:0,0:0:0:0:
155,154,695960,1,0,0:0:0:0:
256,230,696112,1,2,0:0:0:0:
357,154,696263,1,2,0:0:0:0:
282,31,696415,2,0,P|255:75|256:129,1,105,8|0,0:0|0:0,0:0:0:0:
458,180,696718,5,2,0:0:0:0:
431,79,696869,1,2,0:0:0:0:
359,204,697021,2,0,L|255:231,1,105,8|0,0:0|0:0,0:0:0:0:
155,154,697324,1,2,0:0:0:0:
83,230,697475,2,0,L|97:285,1,52.5,2|0,0:0|0:0,0:0:0:0:
137,315,697627,2,0,P|181:341|233:341,1,105,8|0,0:0|0:0,0:0:0:0:
155,154,697930,5,2,0:0:0:0:
257,230,698081,2,0,L|285:279,1,52.5,2|0,0:0|0:0,0:0:0:0:
331,298,698233,2,0,P|382:299|426:271,1,105,8|0,0:0|0:0,0:0:0:0:
363,163,698536,1,2,0:0:0:0:
257,230,698687,2,0,L|201:244,1,52.5,2|0,0:0|0:0,0:0:0:0:
156,225,698839,2,0,P|119:188|105:138,1,105,8|0,0:0|0:0,0:0:0:0:
230,118,699142,5,2,0:0:0:0:
257,230,699293,1,2,0:0:0:0:
333,103,699445,2,0,P|358:57|404:31,1,105,8|0,0:0|0:0,0:0:0:0:
361,239,699748,1,2,0:0:0:0:
257,230,699899,1,2,0:0:0:0:
432,133,700051,2,0,L|541:162,1,105,8|0,0:0|0:0,0:0:0:0:
406,334,700354,5,2,0:0:0:0:
361,239,700505,1,2,0:0:0:0:
216,327,700657,2,0,L|107:297,1,105,8|0,0:0|0:0,0:0:0:0:
212,135,700960,1,2,0:0:0:0:
257,230,701111,1,2,0:0:0:0:
401,142,701263,2,0,L|509:171,1,105,8|0,0:0|0:0,0:0:0:0:
406,334,701566,5,2,0:0:0:0:
361,239,701717,1,2,0:0:0:0:
216,327,701869,2,0,L|108:356,1,105,8|0,0:0|0:0,0:0:0:0:
212,135,702172,1,2,0:0:0:0:
257,230,702323,1,2,0:0:0:0:
401,142,702475,2,0,L|509:113,1,105,8|0,0:0|0:0,0:0:0:0:
406,334,702778,5,2,0:0:0:0:
361,239,702930,1,2,0:0:0:0:
216,327,703081,2,0,P|164:327|119:300,1,105,8|0,0:0|0:0,0:0:0:0:
236,129,703384,1,2,0:0:0:0:
191,224,703536,1,2,0:0:0:0:
156,60,703687,1,8,0:0:0:0:
296,216,703839,6,0,B|397:263|397:182|499:216,1,210,2|2,0:0|0:0,0:0:0:0:
351,125,704293,2,0,P|337:75|351:25,1,105,8|0,0:0|0:0,0:0:0:0:
478,26,704596,2,0,P|491:75|477:125,1,105,2|0,0:0|0:0,0:0:0:0:
449,172,704824,1,0,0:0:0:0:
423,217,704899,2,0,P|408:266|422:316,1,105,8|0,0:0|0:0,0:0:0:0:
256,124,705202,5,6,0:0:0:0:
195,210,705354,1,2,0:0:0:0:
324,281,705506,2,0,P|375:282|421:254,1,105,8|0,0:0|0:0,0:0:0:0:
410,93,705808,1,2,0:0:0:0:
349,179,705960,1,2,0:0:0:0:
281,22,706112,2,0,P|229:20|183:48,1,105,8|0,0:0|0:0,0:0:0:0:
195,210,706415,5,2,0:0:0:0:
256,124,706567,1,2,0:0:0:0:
115,164,706718,2,0,L|7:193,1,105,8|0,0:0|0:0,0:0:0:0:
94,288,707021,1,2,0:0:0:0:
195,210,707172,2,0,L|250:224,1,52.5,2|0,0:0|0:0,0:0:0:0:
285,258,707324,2,0,P|311:302|309:354,1,105,8|0,0:0|0:0,0:0:0:0:
440,189,707627,5,2,0:0:0:0:
336,176,707778,2,0,L|280:190,1,52.5,2|0,0:0|0:0,0:0:0:0:
246,223,707930,2,0,P|219:267|221:319,1,105,8|0,0:0|0:0,0:0:0:0:
91,155,708233,1,2,0:0:0:0:
195,142,708384,2,0,L|250:156,1,52.5,2|0,0:0|0:0,0:0:0:0:
285,189,708536,2,0,P|311:233|309:285,1,105,8|0,0:0|0:0,0:0:0:0:
440,121,708839,5,2,0:0:0:0:
336,108,708990,1,2,0:0:0:0:
221,252,709142,2,0,P|176:278|124:276,1,105,8|0,0:0|0:0,0:0:0:0:
105,79,709445,1,2,0:0:0:0:
150,174,709597,1,2,0:0:0:0:
268,55,709748,2,0,L|376:26,1,105,8|0,0:0|0:0,0:0:0:0:
372,238,710051,5,2,0:0:0:0:
320,147,710202,1,2,0:0:0:0:
140,238,710354,1,8,0:0:0:0:
192,147,710505,1,0,0:0:0:0:
320,329,710657,1,2,0:0:0:0:
372,238,710808,1,2,0:0:0:0:
192,329,710960,1,8,0:0:0:0:
140,238,711111,1,2,0:0:0:0:
372,238,711263,6,0,B|425:214|447:168|447:168|447:110,1,157.5,8|0,0:0|0:0,0:0:0:0:
403,50,711566,2,8,L|416:0,3,52.5
324,51,711869,2,8,L|337:-1,3,52.5
310,101,712172,1,8,0:0:0:0:
296,152,712248,1,8,0:0:0:0:
283,203,712324,1,8,0:0:0:0:
269,253,712400,1,8,0:0:0:0:
256,304,712475,6,0,B|216:316|179:297|179:297|129:312|129:312|95:292|54:304,2,210,6|8|2,0:0|0:0|0:0,0:0:0:0:
350,219,713233,1,2,0:0:0:0:
251,107,713384,2,0,P|224:151|225:203,1,105,8|0,0:0|0:0,0:0:0:0:
475,235,713687,5,2,0:0:0:0:
423,144,713839,1,2,0:0:0:0:
352,279,713990,2,0,P|307:305|256:304,1,105,8|0,0:0|0:0,0:0:0:0:
137,260,714293,1,2,0:0:0:0:
170,137,714445,2,0,L|183:84,1,52.5,2|0,0:0|0:0,0:0:0:0:
225,53,714596,2,8,P|276:52|321:79,1,105,8|0,0:0|0:0,0:0:0:0:
260,293,714899,5,2,0:0:0:0:
137,260,715051,2,0,L|85:247,1,52.5,2|0,0:0|0:0,0:0:0:0:
53,205,715202,2,8,P|53:154|80:109,1,105,8|0,0:0|0:0,0:0:0:0:
293,170,715506,1,2,0:0:0:0:
260,293,715658,2,0,L|247:345,1,52.5,2|0,0:0|0:0,0:0:0:0:
205,377,715809,2,8,P|154:377|109:350,1,105,8|0,0:0|0:0,0:0:0:0:
170,137,716112,5,2,0:0:0:0:
293,170,716263,1,2,0:0:0:0:
349,321,716415,2,0,L|378:213,1,105,8|0,0:0|0:0,0:0:0:0:
260,47,716718,1,2,0:0:0:0:
170,137,716869,1,2,0:0:0:0:
383,80,717021,2,0,L|491:51,1,105,8|0,0:0|0:0,0:0:0:0:
484,263,717324,5,2,0:0:0:0:
435,171,717475,1,2,0:0:0:0:
318,292,717627,2,0,L|216:319,1,105,8|0,0:0|0:0,0:0:0:0:
51,236,717930,1,2,0:0:0:0:
100,144,718081,1,2,0:0:0:0:
217,265,718233,2,0,L|318:292,1,105,8|0,0:0|0:0,0:0:0:0:
485,209,718536,5,2,0:0:0:0:
436,117,718687,1,2,0:0:0:0:
319,238,718839,2,0,L|217:265,1,105,8|0,0:0|0:0,0:0:0:0:
52,182,719142,1,2,0:0:0:0:
101,90,719293,1,2,0:0:0:0:
218,211,719445,2,0,L|319:238,1,105,8|0,0:0|0:0,0:0:0:0:
486,155,719748,5,2,0:0:0:0:
437,63,719899,1,2,0:0:0:0:
315,186,720051,2,0,P|269:212|217:211,1,105,8|0,0:0|0:0,0:0:0:0:
195,17,720354,1,2,0:0:0:0:
244,109,720505,1,2,0:0:0:0:
78,138,720657,1,8,0:0:0:0:
299,20,720809,6,0,B|400:-27|400:54|502:20,1,210,2|2,0:0|0:0,0:0:0:0:
356,110,721263,2,0,P|342:159|355:209,1,105,8|0,0:0|0:0,0:0:0:0:
457,287,721566,2,0,P|406:274|356:288,1,105,2|2,0:0|0:0,0:0:0:0:
312,317,721794,1,0,0:0:0:0:
269,346,721869,2,0,P|219:361|169:346,1,105,8|2,0:0|0:0,0:0:0:0:
126,317,722095,1,2,0:0:0:0:
82,288,722172,6,0,B|99:238|99:238|81:185,1,105,12|0,0:0|0:0,0:0:0:0:
207,109,722475,2,0,B|256:92|256:92|306:109,1,105,8|0,0:0|0:0,0:0:0:0:
83,189,722778,2,0,B|66:139|66:139|83:89,2,105,8|2|8,0:0|0:0|0:0,0:0:0:0:
205,235,723232,1,2,0:0:0:0:
256,222,723309,1,2,0:0:0:0:
307,209,723384,6,0,B|323:159|323:159|306:109,1,105,8|0,0:0|0:0,0:0:0:0:
440,49,723687,2,0,B|457:99|457:99|440:148,1,105,8|0,0:0|0:0,0:0:0:0:
207,109,723990,2,0,B|256:92|256:92|306:109,2,105,8|2|8,0:0|0:0|0:0,0:0:0:0:
237,232,724445,1,2,0:0:0:0:
251,282,724522,1,2,0:0:0:0:
264,333,724597,6,0,B|341:348|341:348|419:333,1,157.5,8|0,0:0|0:0,0:0:0:0:
432,283,724899,2,0,B|449:234|449:234|432:184,1,105,8|0,0:0|0:0,0:0:0:0:
207,109,725202,2,0,B|256:92|256:92|306:109,2,105,8|2|8,0:0|0:0|0:0,0:0:0:0:
175,231,725657,1,2,0:0:0:0:
161,281,725734,1,2,0:0:0:0:
147,331,725809,6,0,B|98:348|98:348|48:331,1,105,8|0,0:0|0:0,0:0:0:0:
175,231,726112,2,0,B|224:214|224:214|274:231,1,105,8|0,0:0|0:0,0:0:0:0:
401,331,726415,2,0,B|351:348|351:348|302:331,1,105,8|2,0:0|0:0,0:0:0:0:
302,131,726718,2,0,B|351:114|351:114|401:131,1,105,8|2,0:0|0:0,0:0:0:0:
415,181,726945,1,2,0:0:0:0:
401,232,727021,2,0,B|351:249|351:249|302:232,1,105,8|0,0:0|0:0,0:0:0:0:
166,94,727324,5,8,0:0:0:0:
135,136,727399,1,8,0:0:0:0:
124,187,727475,1,8,0:0:0:0:
133,239,727551,1,8,0:0:0:0:
161,283,727627,5,8,0:0:0:0:
204,312,727702,1,8,0:0:0:0:
255,323,727778,1,8,0:0:0:0:
306,313,727854,1,8,0:0:0:0:
349,284,727930,1,8,0:0:0:0:
378,240,728005,1,8,0:0:0:0:
387,189,728081,1,8,0:0:0:0:
376,138,728157,1,8,0:0:0:0:
346,95,728233,6,8,L|365:21,2,70
166,94,728536,2,8,L|146:20,2,70
256,201,728839,6,0,B|354:320|256:389|193:343|211:279,1,262.5,6|0,0:0|0:0,0:0:0:0:
256,94,729293,1,6,0:0:0:0:
256,192,729369,12,0,734596,0:0:0:0:
