osu file format v14

[General]
AudioFilename: audio.mp3
AudioLeadIn: 0
PreviewTime: 1496216
Countdown: 1
SampleSet: None
StackLeniency: 0.7
Mode: 0
LetterboxInBreaks: 0
WidescreenStoryboard: 1

[Editor]
DistanceSpacing: 1
BeatDivisor: 4
GridSize: 32
TimelineZoom: 1

[Metadata]
Title:Alternator Marathon
TitleUnicode:Alternator Marathon
Artist:Various Artists
ArtistUnicode:Various Artists
Creator:Monstrata
Version:25. KYOURAN HEY KIDS!! - THE ORAL CIGARETTES (284 BPM)
Source:
Tags:sytarno l'arc en ciel FujuniseikouyuuP invasion of stray cats rica matsumoto satoshi kana boon yoko takahashi my first story boom satellites last alliance rottengraffty jam project spyair koji wada oral cigarettes flow linked horizon granrodeo nico touches walls do as infinity yousei teikoku terraspex fear loathing las vegas tk ling tosite sigure unravel man with mission goku full metal alchemist fma perfect insider pokemon neon genesis evangelion kiznaiver tokyo ghoul attack on titan dragonball super inuyasha haikyuu kuroko no basuke basketball naruto fighting dreamers noragami aragoto terraformars digimon gundam iron blooded orphans hajime no ippo one punch man amazing break kyouran hey kids sacred star milos aot compilation
BeatmapID:1901484
BeatmapSetID:911083

[Difficulty]
HPDrainRate:3
CircleSize:4
OverallDifficulty:8.5
ApproachRate:9.5
SliderMultiplier:1.7
SliderTickRate:1

[Events]
//Background and Video events
0,0,"YM6MZEr.jpg",0,0
//Break Periods
//Storyboard Layer 0 (Background)
Sprite,Background,Centre,"YM6MZEr.jpg",0,0
Sprite,Background,Centre,"sb\1.jpg",320,240 F,0,478,2478,0,1 S,0,478,87145,0.47 F,0,2478,87145,1 F,0,87145,92145,1,0
Sprite,Background,Centre,"sb\2.jpg",320,240 F,0,94987,102667,0,1 S,0,94987,148747,0.48 F,0,102667,148747,1 F,0,148747,153747,1,0
Sprite,Background,Centre,"sb\3.jpg",320,240 F,0,157987,162640,0,1 S,0,157987,183427,0.55 F,0,162640,183427,1 F,0,183427,185427,1,0
Sprite,Background,Centre,"sb\4.jpg",320,240 F,0,188027,198312,0,1 S,0,188027,218884,0.5 F,0,198312,218884,1 F,0,218884,223884,1,0
Sprite,Background,Centre,"sb\5.jpg",320,240 F,0,226598,239479,0,1 S,0,226598,315375,0.5 F,0,239479,315375,1 F,0,315375,320375,1,0
Sprite,Background,Centre,"sb\6.jpg",320,240 F,0,323894,334970,0,1 S,0,323894,390355,0.86 F,0,334970,390355,1 F,0,390355,395355,1,0
Sprite,Background,Centre,"sb\7.jpg",320,240 F,0,398663,406190,0,1 S,0,398663,486190,0.47 F,0,406190,486190,1 F,0,486190,491190,1,0
Sprite,Background,Centre,"sb\8.jpg",320,240 F,0,496745,501204,0,1 S,0,496745,555672,0.47 F,0,501204,555672,1 F,0,555672,560672,1,0
Sprite,Background,Centre,"sb\9.jpg",320,240 F,0,561702,563702,0,1 S,0,561702,615615,0.47 F,0,563702,615615,1 F,0,615615,617354,1,0
Sprite,Background,Centre,"sb\10.jpg",320,240 F,0,617354,620832,0,1 S,0,617354,634745,0.47 F,0,620832,634745,1 F,0,634745,639745,1,0
Sprite,Background,Centre,"sb\11.jpg",320,240 F,0,642038,649681,0,1 S,0,642038,710827,0.59 F,0,649681,710827,1 F,0,710827,717827,1,0
Sprite,Background,Centre,"sb\12.jpg",320,240 F,0,718796,734719,0,1 S,0,718796,811796,0.46 F,0,734719,811796,1 F,0,811796,815796,1,0
Sprite,Background,Centre,"sb\13.jpg",320,240 F,0,817698,825082,0,1 S,0,817698,863851,0.46 F,0,825082,863851,1 F,0,863851,867151,1,0
Sprite,Background,Centre,"sb\14.jpg",320,240 F,0,868129,877344,0,1 S,0,868129,915776,0.55 F,0,877344,915776,1 F,0,915776,919776,1,0
Sprite,Background,Centre,"sb\15.jpg",320,240 F,0,921854,924552,0,1 S,0,921854,980052,0.46 F,0,924552,980052,1 F,0,980052,982052,1,0
Sprite,Background,Centre,"sb\16.jpg",320,240 F,0,985302,989839,0,1 S,0,985302,1021839,0.46 F,0,989839,1021839,1 F,0,1021839,1025839,1,0
Sprite,Background,Centre,"sb\17.jpg",320,240 F,0,1027985,1029985,0,1 S,0,1027985,1062485,0.46 F,0,1029985,1062485,1 F,0,1062485,1066485,1,0
Sprite,Background,Centre,"sb\18.jpg",320,240 F,0,1066712,1069194,0,1 S,0,1066712,1099815,0.5 F,0,1069194,1099815,1 F,0,1099815,1103746,1,0
Sprite,Background,Centre,"sb\19.jpg",320,240 F,0,1105505,1108923,0,1 S,0,1105505,1136868,0.46 F,0,1108923,1136868,1 F,0,1136868,1139848,1,0
Sprite,Background,Centre,"sb\20.jpg",320,240 F,0,1140618,1143923,0,1 S,0,1140618,1174780,0.525 F,0,1143923,1174780,1 F,0,1174780,1178209,1,0
Sprite,Background,Centre,"sb\21.jpg",320,240 F,0,1180994,1192179,0,1 S,0,1180994,1272716,0.46 F,0,1192179,1272716,1 F,0,1272716,1279159,1,0
Sprite,Background,Centre,"sb\22.jpg",320,240 F,0,1282783,1285172,0,1 S,0,1282783,1317172,0.612 F,0,1285172,1317172,1 F,0,1317172,1320372,1,0
Sprite,Background,Centre,"sb\23.jpg",320,240 F,0,1324972,1328301,0,1 S,0,1324972,1372608,0.46 F,0,1328301,1372608,1 F,0,1372608,1375839,1,0
Sprite,Background,Centre,"sb\24.jpg",320,240 F,0,1377974,1386726,0,1 S,0,1377974,1433998,0.62 F,0,1386726,1433998,1 F,0,1433998,1440703,1,0
Sprite,Background,Centre,"sb\25.jpg",320,240 F,0,1443771,1446977,0,1 S,0,1443771,1489962,0.522 F,0,1446977,1489962,1 F,0,1489962,1493488,1,0
Sprite,Background,Centre,"sb\26.jpg",320,240 F,0,1494327,1497378,0,1 S,0,1494327,1549666,0.46 F,0,1497378,1549666,1 F,0,1549666,1550617,1,0
Sprite,Background,Centre,"sb\27.jpg",320,240 F,0,1552518,1563864,0,1 S,0,1552518,1646011,0.49 F,0,1563864,1646011,1 F,0,1646011,1646964,1,0
//Storyboard Layer 1 (Fail)
//Storyboard Layer 2 (Pass)
//Storyboard Layer 3 (Foreground)
//Storyboard Sound Samples

[TimingPoints]
479,208.333333333333,4,3,0,75,1,0
6312,-100,4,3,1,75,0,0
7145,-100,4,3,0,75,0,0
20478,-100,4,3,1,75,0,0
33812,-133.333333333333,4,2,1,75,0,0
60478,-100,4,3,1,75,0,0
94987,240,4,3,1,75,1,0
141067,-76.9230769230769,4,3,1,75,0,0
141307,-100,4,3,1,75,0,0
162640,236.220472440945,4,3,1,75,1,0
188022,428.571428571429,4,3,1,75,1,0
198307,-50,4,2,1,75,0,0
238543,468.490134378587,4,3,0,35,1,0
238543,-50,4,3,0,35,0,0
240416,-50,4,2,1,75,0,0
247444,-50,4,3,0,75,0,0
247911,-100,4,2,1,45,0,0
276489,-66.6666666666667,4,2,1,75,0,0
276958,-50,4,2,1,75,0,0
277895,-66.6666666666667,4,2,1,75,0,0
291949,-50,4,2,1,75,0,0
323894,230.769230769231,4,3,1,75,1,0
334970,-200,4,3,1,45,0,0
358855,-133.333333333333,4,3,1,75,0,0
360355,-200,4,3,1,75,0,0
360701,-100,4,3,2,75,0,0
399079,444.444444444444,4,2,1,75,1,0
406190,-200,4,2,1,45,0,0
413301,-166.666666666667,4,2,1,45,0,0
420412,-142.857142857143,4,2,1,75,0,0
425745,-133.333333333333,4,2,1,75,0,0
427523,-200,4,2,1,45,0,0
429301,-66.6666666666667,4,3,1,75,0,0
430634,-200,4,3,1,75,0,0
431078,-50,4,3,1,75,0,0
438190,-66.6666666666667,4,2,1,75,0,0
439967,-200,4,2,1,35,0,0
453078,-500,4,2,1,35,0,0
453745,-100,4,2,1,75,0,0
459078,-66.6666666666667,4,3,1,75,0,0
460412,-50,4,3,1,75,0,0
484412,-100,4,3,1,75,0,0
501204,425.531914893617,4,3,1,75,1,0
501204,-66.6666666666667,4,3,1,75,0,0
508012,-57.1428571428571,4,3,1,75,0,0
514821,-50,4,3,1,75,0,0
528438,-57.1428571428571,4,3,1,75,0,0
542055,-100,4,3,1,75,0,0
547161,-83.3333333333333,4,3,1,75,0,0
548863,-71.4285714285714,4,3,1,75,0,0
550565,-62.5,4,3,1,75,0,0
552267,-55.5555555555556,4,3,1,75,0,0
561702,434.782608695652,4,3,1,75,1,0
575615,-83.3333333333333,4,3,1,75,0,0
589528,-58.8235294117647,4,3,1,75,0,0
617354,-50,4,3,1,75,0,0
620832,217.391304347826,4,3,2,75,1,0
634745,-200,4,3,1,75,0,0
642038,191.082802547771,4,3,2,75,1,0
649681,-200,4,3,2,75,0,0
651209,-100,4,3,2,75,0,0
687515,-200,4,3,2,75,0,0
687897,-100,4,3,2,75,0,0
700127,-125,4,3,2,75,0,0
705477,-200,4,3,2,75,0,0
705859,-133.333333333333,4,3,2,75,0,0
706241,-100,4,3,2,75,0,0
718566,230.769230769231,4,3,2,75,1,0
751796,-117.647058823529,4,3,2,75,0,0
781335,-153.846153846154,4,3,2,75,0,0
788719,-117.647058823529,4,3,2,75,0,0
796104,-133.333333333333,4,3,2,75,0,0
803489,-100,4,3,2,75,0,0
810873,-133.333333333333,4,3,2,75,0,0
817698,230.769230769231,4,3,1,75,1,0
828774,-133.333333333333,4,3,1,75,0,0
830621,-114.285714285714,4,3,1,75,0,0
833851,-200,4,3,1,75,0,0
834313,-100,4,3,1,75,0,0
867933,196.078431372549,4,3,2,75,1,0
878913,-133.333333333333,4,3,2,75,0,0
888325,-300,4,3,2,75,0,0
890678,-100,4,3,2,75,0,0
895776,-83.3333333333333,4,3,2,75,0,0
896168,-71.4285714285714,4,3,2,75,0,0
896462,-100,4,3,2,75,0,0
901658,-76.9230769230769,4,3,2,75,0,0
902638,-100,4,3,2,75,0,0
914991,-200,4,3,2,75,0,0
924552,187.5,4,3,1,75,1,0
924552,-200,4,3,1,75,0,0
927552,-166.666666666667,4,3,1,75,0,0
930552,-133.333333333333,4,3,1,75,0,0
932052,-117.647058823529,4,3,1,75,0,0
936552,-100,4,3,1,75,0,0
961677,-133.333333333333,4,3,1,75,0,0
962052,-100,4,3,1,75,0,0
964677,-133.333333333333,4,3,1,75,0,0
965052,-100,4,3,1,75,0,0
985839,250,4,3,1,75,1,0
989339,-133.333333333333,4,3,1,75,0,0
996339,-114.285714285714,4,3,1,75,0,0
996839,-100,4,3,1,75,0,0
1019839,-133.333333333333,4,3,1,75,0,0
1020839,-200,4,3,1,75,0,0
1027985,187.5,4,2,1,45,1,0
1027985,-400,4,2,1,45,0,0
1033985,-285.714285714286,4,2,1,45,0,0
1039985,-200,4,2,1,45,0,0
1045985,-400,4,2,1,45,0,0
1048610,-200,4,2,1,45,0,0
1048985,-133.333333333333,4,3,1,75,0,0
1050485,-100,4,3,1,75,0,0
1051985,-100,4,3,2,75,0,0
1066712,206.896551724138,4,3,2,75,1,0
1105636,205.479452054795,4,3,1,75,1,0
1108923,-133.333333333333,4,3,1,75,0,0
1110156,-100,4,3,1,75,0,0
1132553,-153.846153846153,4,3,1,75,0,0
1133067,-133.333333333333,4,3,1,75,0,0
1133581,-100,4,3,1,75,0,0
1141352,214.285714285714,4,3,2,75,1,0
1143923,-133.333333333333,4,3,2,75,0,0
1147352,-100,4,3,2,75,0,0
1160423,-125,4,3,2,75,0,0
1161066,-142.857142857143,4,3,2,75,0,0
1167923,-100,4,3,2,75,0,0
1173066,-166.666666666667,4,3,2,75,0,0
1182515,201.342281879195,4,3,1,75,1,0
1192179,-200,4,2,1,45,0,0
1205065,-100,4,3,2,75,0,0
1227615,-200,4,2,1,45,0,0
1250166,-100,4,3,2,75,0,0
1283572,200,4,3,1,75,1,0
1285172,-133.333333333333,4,3,1,75,0,0
1288372,-114.285714285714,4,3,1,75,0,0
1290022,200,4,3,1,75,1,0
1290022,-114.285714285714,4,3,1,75,0,0
1291172,-114.285714285714,4,3,2,75,0,0
1291195,200,4,3,2,75,1,0
1291572,200,4,3,1,75,1,0
1291572,-100,4,3,1,75,0,0
1316572,-133.333333333333,4,3,1,75,0,0
1328301,230.769230769231,4,3,1,75,1,0
1386726,454.545454545455,4,2,1,75,1,0
1386726,-66.6666666666667,4,2,1,75,0,0
1390362,-50,4,2,1,75,0,0
1445186,223.880597014925,4,3,1,75,1,0
1446977,-200,4,2,1,75,0,0
1454141,-133.333333333333,4,2,1,75,0,0
1459514,-133.333333333333,4,3,2,75,0,0
1461305,-100,4,3,2,75,0,0
1495688,211.267605633803,4,3,2,75,1,0
1496533,-66.6666666666667,4,3,2,75,0,0
1497378,-100,4,3,2,75,0,0
1531603,-133.333333333333,4,2,1,55,0,0
1534561,-100,4,3,1,75,0,0
1546814,-100,4,3,2,75,0,0
1548082,-133.333333333333,4,3,1,75,0,0
1553191,190.597204574333,4,3,1,75,1,0
1563864,-400,4,2,1,35,0,0
1573013,-285.714285714286,4,2,1,45,0,0
1573775,-222.222222222222,4,2,1,55,0,0
1574728,-181.818181818182,4,2,1,65,0,0
1576062,-153.846153846154,4,2,1,75,0,0
1582161,-133.333333333333,4,2,1,75,0,0
1585211,-117.647058823529,4,2,1,75,0,0
1603318,-100,4,3,1,75,0,0
1603508,-100,4,3,1,75,0,0
1617994,-133.333333333333,4,3,1,75,0,0
1618756,-100,4,3,2,75,0,0
1624855,-90.9090909090909,4,3,2,75,0,0
1630954,-100,4,3,2,75,0,1
1646011,-100,4,3,2,75,0,0

[Colours]
Combo1 : 255,0,255
Combo2 : 255,128,0
Combo3 : 128,0,255
Combo4 : 0,255,255

[HitObjects]
96,328,1496321,5,0,0:0:0:0:
128,96,1496533,2,0,B|184:76|248:100|248:100|232:108|248:116|248:116|232:124|248:132|248:132|232:140|248:148|248:148|232:156|248:164|248:164|232:172|248:180|248:180|264:204|264:204|280:212|264:220|264:220|280:228|264:236|264:236|280:244|264:252|264:252|280:260|264:268|264:268|280:276|264:284|264:284|328:308|384:288,1,510.000019454957,4|0,0:0|0:0,0:0:0:0:
416,56,1497166,1,0,0:0:0:0:
160,172,1497378,6,0,P|118:178|79:163,1,85,6|0,0:0|0:0,0:0:0:0:
95,21,1497589,2,0,P|121:54|128:96,1,85,8|0,0:0|0:0,0:0:0:0:
242,194,1497800,1,2,0:0:0:0:
310,142,1497906,1,2,0:0:0:0:
374,196,1498011,2,0,L|479:214,1,85,8|0,0:0|0:0,0:0:0:0:
332,60,1498223,6,0,L|411:30,1,85,2|0,0:0|0:0,0:0:0:0:
236,0,1498434,2,0,P|250:38|249:81,1,85,8|0,0:0|0:0,0:0:0:0:
137,179,1498645,1,2,0:0:0:0:
165,98,1498751,1,2,0:0:0:0:
220,161,1498857,2,0,P|263:164|301:148,1,85,8|0,0:0|0:0,0:0:0:0:
448,187,1499068,6,0,P|406:184|368:201,1,85,2|0,0:0|0:0,0:0:0:0:
297,249,1499279,2,0,L|311:364,1,85,8|0,0:0|0:0,0:0:0:0:
422,267,1499490,2,0,L|376:373,1,85,2|2,0:0|0:0,0:0:0:0:
226,319,1499702,2,0,P|268:316|306:333,1,85,8|0,0:0|0:0,0:0:0:0:
220,161,1499913,6,0,B|241:218|197:247|197:247|109:231,1,170,2|8,0:0|0:0,0:0:0:0:
34,144,1500230,1,0,0:0:0:0:
115,153,1500335,2,0,P|131:192|125:234,1,85,2|2,0:0|0:0,0:0:0:0:
79,366,1500547,2,0,P|105:333|144:317,1,85,8|0,0:0|0:0,0:0:0:0:
281,291,1500758,6,0,P|239:284|206:258,1,85,4|0,0:0|0:0,0:0:0:0:
255,122,1500969,2,0,L|273:206,1,85,8|0,0:0|0:0,0:0:0:0:
348,244,1501180,1,2,0:0:0:0:
417,195,1501286,1,2,0:0:0:0:
484,247,1501392,2,0,L|465:350,1,85,8|0,0:0|0:0,0:0:0:0:
333,327,1501603,6,0,L|348:243,1,85,2|0,0:0|0:0,0:0:0:0:
404,114,1501814,2,0,B|423:152|423:152|417:194,1,85,8|0,0:0|0:0,0:0:0:0:
316,109,1502026,1,2,0:0:0:0:
363,37,1502131,1,2,0:0:0:0:
448,41,1502237,2,0,L|507:144,1,85,8|0,0:0|0:0,0:0:0:0:
417,194,1502448,6,0,P|458:204|500:195,1,85,2|0,0:0|0:0,0:0:0:0:
316,109,1502659,2,0,P|275:99|233:108,1,85,8|0,0:0|0:0,0:0:0:0:
129,185,1502871,1,2,0:0:0:0:
203,226,1502976,1,2,0:0:0:0:
275,183,1503082,2,0,L|329:85,1,85,8|0,0:0|0:0,0:0:0:0:
154,105,1503293,6,0,L|100:7,1,85,2|0,0:0|0:0,0:0:0:0:
56,228,1503504,2,0,P|47:163|68:124,1,85,8|0,0:0|0:0,0:0:0:0:
130,269,1503716,1,2,0:0:0:0:
203,226,1503821,1,2,0:0:0:0:
256,292,1503927,1,8,0:0:0:0:
329,249,1504033,1,8,0:0:0:0:
410,271,1504138,6,0,P|447:254|477:215,1,85,6|0,0:0|0:0,0:0:0:0:
382,105,1504349,2,0,P|397:144|394:186,1,85,8|0,0:0|0:0,0:0:0:0:
203,226,1504561,1,2,0:0:0:0:
276,183,1504666,1,2,0:0:0:0:
329,249,1504772,2,0,L|320:352,1,85,8|0,0:0|0:0,0:0:0:0:
130,269,1504983,6,0,L|139:372,1,85,2|0,0:0|0:0,0:0:0:0:
210,141,1505195,2,0,L|201:244,1,85,8|0,0:0|0:0,0:0:0:0:
140,92,1505406,1,2,0:0:0:0:
218,57,1505511,1,2,0:0:0:0:
288,104,1505617,2,0,P|349:108|393:92,1,85,8|0,0:0|0:0,0:0:0:0:
454,20,1505828,6,0,P|448:62|456:104,1,85,2|0,0:0|0:0,0:0:0:0:
408,176,1506040,2,0,P|434:209|448:249,1,85,8|0,0:0|0:0,0:0:0:0:
426,347,1506251,2,0,P|452:313|466:273,1,85,2|2,0:0|0:0,0:0:0:0:
327,194,1506462,2,0,P|312:233|286:267,1,85,8|0,0:0|0:0,0:0:0:0:
330,367,1506673,6,0,P|292:349|250:344,1,85,2|0,0:0|0:0,0:0:0:0:
196,276,1506885,2,0,P|157:294|115:299,1,85,8|0,0:0|0:0,0:0:0:0:
20,205,1507096,1,2,0:0:0:0:
82,147,1507202,1,2,0:0:0:0:
157,184,1507307,2,0,L|276:197,1,85,8|0,0:0|0:0,0:0:0:0:
320,83,1507518,6,0,P|312:125|322:166,1,85,6|0,0:0|0:0,0:0:0:0:
404,73,1507730,2,0,L|488:64,1,85,8|0,0:0|0:0,0:0:0:0:
483,190,1507941,1,2,0:0:0:0:
483,190,1508047,1,2,0:0:0:0:
483,190,1508152,2,0,L|404:159,1,85,8|0,0:0|0:0,0:0:0:0:
417,338,1508364,6,0,P|417:290|452:236,1,85,2|0,0:0|0:0,0:0:0:0:
337,266,1508575,2,0,P|339:223|322:184,1,85,8|0,0:0|0:0,0:0:0:0:
287,342,1508786,1,2,0:0:0:0:
287,342,1508892,1,2,0:0:0:0:
287,342,1508997,2,0,P|248:358|205:357,1,85,8|0,0:0|0:0,0:0:0:0:
63,280,1509209,6,0,P|102:297|145:296,1,85,2|0,0:0|0:0,0:0:0:0:
111,129,1509420,2,0,L|120:214,1,85,8|0,0:0|0:0,0:0:0:0:
202,233,1509631,1,2,0:0:0:0:
270,182,1509737,1,2,0:0:0:0:
351,200,1509842,2,0,P|406:205|451:183,1,85,8|0,0:0|0:0,0:0:0:0:
300,87,1510054,6,0,P|259:98|217:91,1,85,2|0,0:0|0:0,0:0:0:0:
380,39,1510265,2,0,P|391:79|384:121,1,85,8|0,0:0|0:0,0:0:0:0:
202,233,1510476,1,2,0:0:0:0:
270,182,1510582,1,2,0:0:0:0:
351,200,1510688,1,8,0:0:0:0:
399,269,1510793,1,8,0:0:0:0:
481,248,1510899,6,0,P|507:192|515:143,1,85,6|0,0:0|0:0,0:0:0:0:
440,123,1511110,2,0,P|428:82|408:44,1,85,8|0,0:0|0:0,0:0:0:0:
351,200,1511321,1,2,0:0:0:0:
326,120,1511427,1,2,0:0:0:0:
270,182,1511533,2,0,B|244:214|244:214|249:282,1,85,8|0,0:0|0:0,0:0:0:0:
204,331,1511744,6,0,P|245:343|286:334,1,85,2|0,0:0|0:0,0:0:0:0:
411,263,1511955,2,0,P|371:252|330:261,1,85,8|0,0:0|0:0,0:0:0:0:
424,350,1512166,2,0,P|455:272|468:188,1,170,2|8,0:0|0:0,0:0:0:0:
402,134,1512483,1,0,0:0:0:0:
320,158,1512589,6,0,L|265:65,1,85,2|0,0:0|0:0,0:0:0:0:
196,114,1512800,2,0,L|239:187,1,85,8|0,0:0|0:0,0:0:0:0:
158,216,1513011,2,0,L|115:143,1,85,2|2,0:0|0:0,0:0:0:0:
34,172,1513223,2,0,L|77:245,1,85,8|0,0:0|0:0,0:0:0:0:
0,355,1513434,6,0,P|59:297|142:299,1,170,2|8,0:0|0:0,0:0:0:0:
311,290,1513751,1,0,0:0:0:0:
311,290,1513857,2,0,P|312:248|299:208,1,85,2|2,0:0|0:0,0:0:0:0:
214,216,1514068,2,0,P|213:258|227:299,1,85,8|0,0:0|0:0,0:0:0:0:
372,346,1514279,6,0,L|467:357,1,85,6|0,0:0|0:0,0:0:0:0:
397,244,1514490,2,0,L|492:233,1,85,8|0,0:0|0:0,0:0:0:0:
350,139,1514702,1,2,0:0:0:0:
279,92,1514807,1,2,0:0:0:0:
231,162,1514913,1,8,0:0:0:0:
279,231,1515018,1,0,0:0:0:0:
227,299,1515124,6,0,L|142:289,1,85,2|0,0:0|0:0,0:0:0:0:
62,181,1515335,2,0,L|146:171,1,85,8|0,0:0|0:0,0:0:0:0:
279,231,1515547,1,2,0:0:0:0:
360,204,1515652,1,2,0:0:0:0:
358,119,1515758,1,8,0:0:0:0:
279,92,1515864,1,0,0:0:0:0:
231,162,1515969,6,0,L|239:263,1,85,2|0,0:0|0:0,0:0:0:0:
353,288,1516180,2,8,L|346:373,1,85,0|0,0:0|0:0,0:0:0:0:
119,366,1516391,1,2,0:0:0:0:
192,321,1516497,1,2,0:0:0:0:
264,367,1516603,2,0,P|304:379|345:372,1,85,8|0,0:0|0:0,0:0:0:0:
237,246,1516814,6,0,P|196:233|155:240,1,85,2|0,0:0|0:0,0:0:0:0:
360,204,1517026,2,0,L|366:119,1,85,8|0,0:0|0:0,0:0:0:0:
221,118,1517237,1,2,0:0:0:0:
294,73,1517343,1,2,0:0:0:0:
366,119,1517449,2,0,P|406:131|447:124,1,85,8|0,0:0|0:0,0:0:0:0:
285,238,1517659,6,0,P|278:197|290:157,1,85,6|0,0:0|0:0,0:0:0:0:
366,266,1517871,2,0,L|465:253,1,85,8|0,0:0|0:0,0:0:0:0:
381,349,1518082,1,2,0:0:0:0:
301,321,1518188,1,2,0:0:0:0:
236,376,1518293,2,0,L|151:364,1,85,8|0,0:0|0:0,0:0:0:0:
92,303,1518504,6,0,P|85:261|97:221,1,85,2|0,0:0|0:0,0:0:0:0:
92,139,1518716,2,0,P|85:180|97:220,1,85,8|0,0:0|0:0,0:0:0:0:
168,269,1518927,1,2,0:0:0:0:
233,214,1519033,1,2,0:0:0:0:
281,283,1519138,2,0,L|273:380,1,85,8|0,0:0|0:0,0:0:0:0:
346,228,1519349,6,0,L|443:236,1,85,2|0,0:0|0:0,0:0:0:0:
298,159,1519561,2,0,L|304:74,1,85,8|0,0:0|0:0,0:0:0:0:
224,102,1519772,1,2,0:0:0:0:
151,57,1519878,1,2,0:0:0:0:
83,108,1519983,2,0,L|-1:114,1,85,8|0,0:0|0:0,0:0:0:0:
125,182,1520195,6,0,P|105:246|111:283,1,85,2|0,0:0|0:0,0:0:0:0:
206,320,1520406,2,0,P|189:282|188:240,1,85,8|0,0:0|0:0,0:0:0:0:
298,159,1520617,1,2,0:0:0:0:
346,228,1520723,1,2,0:0:0:0:
291,292,1520828,1,8,0:0:0:0:
373,307,1520934,1,0,0:0:0:0:
426,243,1521040,6,0,B|473:191|438:122|438:122|401:164,1,170,6|8,0:0|0:0,0:0:0:0:
385,59,1521357,1,2,0:0:0:0:
385,59,1521462,2,0,P|424:42|466:45,1,85,2|0,0:0|0:0,0:0:0:0:
317,104,1521673,2,0,P|333:142|330:184,1,85,8|0,0:0|0:0,0:0:0:0:
249,50,1521885,6,0,P|232:88|235:130,1,85,2|0,0:0|0:0,0:0:0:0:
115,188,1522096,2,0,B|178:190|178:190|203:207,1,85,8|0,0:0|0:0,0:0:0:0:
258,308,1522307,1,2,0:0:0:0:
332,265,1522413,1,2,0:0:0:0:
406,305,1522518,2,0,B|469:303|469:303|494:286,1,85,8|0,0:0|0:0,0:0:0:0:
307,127,1522730,6,0,B|278:168|284:237|284:237|337:268,1,170,2|8,0:0|0:0,0:0:0:0:
271,368,1523047,1,2,0:0:0:0:
271,368,1523152,2,0,L|190:327,1,85,2|0,0:0|0:0,0:0:0:0:
109,333,1523364,2,0,P|116:291|144:260,1,85,8|0,0:0|0:0,0:0:0:0:
17,194,1523575,6,0,P|58:202|98:188,1,85,2|0,0:0|0:0,0:0:0:0:
188,96,1523786,2,0,L|183:181,1,85,8|0,0:0|0:0,0:0:0:0:
52,87,1523997,1,2,0:0:0:0:
122,40,1524102,1,2,0:0:0:0:
188,96,1524209,2,0,L|272:101,1,85,8|0,0:0|0:0,0:0:0:0:
433,132,1524420,6,0,B|404:108|404:108|272:101,1,170,6|8,0:0|0:0,0:0:0:0:
374,188,1524737,1,2,0:0:0:0:
374,188,1524842,2,0,P|411:210|453:210,1,85,2|0,0:0|0:0,0:0:0:0:
314,244,1525054,2,0,P|314:286|335:322,1,85,8|0,0:0|0:0,0:0:0:0:
232,219,1525265,6,0,P|232:262|211:298,1,85,2|0,0:0|0:0,0:0:0:0:
177,153,1525476,2,0,P|177:110|198:74,1,85,8|0,0:0|0:0,0:0:0:0:
106,200,1525688,1,2,0:0:0:0:
37,149,1525793,1,2,0:0:0:0:
3,227,1525899,2,0,L|23:335,1,85,8|0,0:0|0:0,0:0:0:0:
211,298,1526110,6,0,B|251:275|251:275|411:290,1,170,2|8,0:0|0:0,0:0:0:0:
402,206,1526427,1,2,0:0:0:0:
402,206,1526533,2,0,P|440:193|471:157,1,85,2|0,0:0|0:0,0:0:0:0:
386,38,1526744,2,0,P|399:77|392:119,1,85,8|0,0:0|0:0,0:0:0:0:
325,171,1526955,6,0,P|306:133|272:108,1,85,2|0,0:0|0:0,0:0:0:0:
215,43,1527166,2,0,P|191:78|188:120,1,85,8|0,0:0|0:0,0:0:0:0:
152,263,1527378,1,2,0:0:0:0:
208,199,1527483,1,2,0:0:0:0:
250,273,1527589,1,8,0:0:0:0:
332,250,1527695,1,8,0:0:0:0:
400,299,1527800,6,0,P|447:282|474:160,1,170,6|8,0:0|0:0,0:0:0:0:
393,45,1528117,1,2,0:0:0:0:
393,45,1528223,2,0,P|398:87|411:128,1,85,2|0,0:0|0:0,0:0:0:0:
318,113,1528434,2,0,P|305:153|300:195,1,85,8|0,0:0|0:0,0:0:0:0:
206,44,1528645,6,0,P|210:86|223:126,1,85,2|0,0:0|0:0,0:0:0:0:
130,111,1528856,2,0,P|117:151|112:193,1,85,8|0,0:0|0:0,0:0:0:0:
194,315,1529068,1,2,0:0:0:0:
188,230,1529174,1,2,0:0:0:0:
119,279,1529279,2,0,L|10:301,1,85,8|0,0:0|0:0,0:0:0:0:
269,351,1529490,6,0,L|378:329,1,85,2|0,0:0|0:0,0:0:0:0:
372,232,1529702,2,0,L|350:123,1,85,8|0,0:0|0:0,0:0:0:0:
259,112,1529913,2,0,L|237:221,1,85,2|2,0:0|0:0,0:0:0:0:
155,249,1530124,2,0,L|46:227,1,85,8|0,0:0|0:0,0:0:0:0:
33,137,1530335,5,2,0:0:0:0:
11,55,1530440,1,2,0:0:0:0:
83,9,1530547,1,2,0:0:0:0:
148,62,1530651,1,2,0:0:0:0:
120,144,1530757,5,8,0:0:0:0:
186,210,1530864,1,8,0:0:0:0:
276,185,1530969,1,8,0:0:0:0:
300,95,1531074,1,8,0:0:0:0:
234,29,1531180,5,4,0:0:0:0:
107,234,1531603,6,0,P|91:262|85:293,1,63.7500024318696
132,258,1531814,2,0,P|132:289|143:319,1,63.7500024318696
165,265,1532026,6,0,P|181:292|205:312,1,63.7500024318696
197,254,1532237,2,0,P|224:269|255:275,1,63.7500024318696
237,181,1532448,6,0,P|267:172|293:154,1,63.7500024318696
214,101,1532659,2,0,P|229:73|235:42,1,63.7500024318696
141,61,1532871,6,0,P|132:30|114:4,1,63.7500024318696
58,85,1533082,2,0,P|30:69|-1:63,1,63.7500024318696
47,202,1533293,6,0,P|19:218|0:242,1,63.7500024318696
142,273,1533504,2,0,P|142:304|153:334,1,63.7500024318696
250,226,1533716,6,0,P|277:241|308:247,1,63.7500024318696,8|0,0:0|0:0,0:0:0:0:
263,108,1533927,1,8,0:0:0:0:
47,202,1534138,1,8,0:0:0:0:
236,342,1534349,1,8,0:0:0:0:
144,51,1534561,5,2,0:2:0:0:
144,51,1534666,2,0,L|59:42,1,85,2|8,0:2|0:0,0:0:0:0:
36,142,1534878,1,2,0:2:0:0:
36,142,1534983,2,0,L|120:133,1,85,2|0,0:2|0:0,0:0:0:0:
144,232,1535195,1,10,0:2:0:0:
144,232,1535300,2,0,L|59:223,1,85,2|0,0:2|0:0,0:0:0:0:
35,322,1535511,1,2,0:2:0:0:
35,322,1535617,2,0,L|119:313,1,85,10|0,0:2|0:0,0:0:0:0:
204,302,1535828,5,2,0:2:0:0:
272,353,1535934,1,0,0:0:0:0:
348,318,1536040,2,0,P|394:319|430:337,1,85,8|0,0:0|0:0,0:0:0:0:
433,248,1536251,5,2,0:2:0:0:
433,248,1536357,2,0,P|468:224|489:188,1,85,2|8,0:2|0:0,0:0:0:0:
407,163,1536568,1,2,0:2:0:0:
407,163,1536674,2,0,P|415:121|404:80,1,85,2|0,0:2|0:0,0:0:0:0:
328,121,1536885,1,10,0:2:0:0:
328,121,1536990,2,0,P|304:85|268:64,1,85,2|0,0:2|0:0,0:0:0:0:
243,147,1537202,1,2,0:2:0:0:
243,147,1537307,2,0,P|201:138|160:149,1,85,10|0,0:0|0:0,0:0:0:0:
33,219,1537518,6,0,P|75:211|116:222,1,85,2|0,0:2|0:0,0:0:0:0:
199,311,1537730,2,0,L|204:227,1,85,8|0,0:0|0:0,0:0:0:0:
312,311,1537941,5,2,0:2:0:0:
312,311,1538047,2,0,L|308:227,1,85,2|8,0:2|0:0,0:0:0:0:
392,281,1538258,1,2,0:2:0:0:
392,281,1538364,2,0,P|431:265|472:273,1,85,2|0,0:2|0:0,0:0:0:0:
460,188,1538575,1,10,0:2:0:0:
460,188,1538681,2,0,P|421:173|380:181,1,85,2|0,0:2|0:0,0:0:0:0:
505,115,1538892,1,2,0:2:0:0:
505,115,1538997,2,0,L|509:30,1,85,10|0,0:2|0:0,0:0:0:0:
422,93,1539209,5,2,0:2:0:0:
356,39,1539314,1,0,0:0:0:0:
286,88,1539420,2,0,L|177:91,1,85,8|0,0:0|0:0,0:0:0:0:
62,189,1539631,5,2,0:2:0:0:
132,140,1539737,1,0,0:0:0:0:
203,188,1539843,2,0,L|287:190,1,85,8|0,0:0|0:0,0:0:0:0:
330,262,1540054,1,2,0:2:0:0:
330,262,1540159,2,0,P|360:232|371:192,1,85,2|8,0:2|0:0,0:0:0:0:
331,34,1540371,1,2,0:2:0:0:
331,34,1540476,2,0,P|301:63|289:104,1,85,2|0,0:2|0:0,0:0:0:0:
444,149,1540688,2,0,P|414:119|373:107,1,85,8|0,0:2|0:0,0:0:0:0:
287,190,1540899,5,8,0:0:0:0:
218,140,1541004,1,8,0:0:0:0:
184,218,1541110,1,8,0:0:0:0:
103,191,1541216,1,8,0:0:0:0:
49,256,1541321,5,2,0:2:0:0:
49,256,1541427,2,0,L|30:356,1,85,2|8,0:2|0:0,0:0:0:0:
199,301,1541638,1,2,0:2:0:0:
199,301,1541744,2,0,L|215:385,1,85,2|0,0:2|0:0,0:0:0:0:
347,253,1541955,1,10,0:2:0:0:
347,253,1542061,2,0,L|328:353,1,85,2|0,0:2|0:0,0:0:0:0:
497,298,1542272,1,2,0:2:0:0:
497,298,1542378,2,0,L|512:381,1,85,10|0,0:2|0:0,0:0:0:0:
432,242,1542589,5,2,0:2:0:0:
497,187,1542695,1,0,0:0:0:0:
435,128,1542800,2,0,P|394:117|351:127,1,85,8|0,0:0|0:0,0:0:0:0:
311,29,1543011,5,2,0:2:0:0:
311,29,1543117,2,0,P|301:70|272:101,1,85,2|8,0:2|0:0,0:0:0:0:
152,98,1543328,1,2,0:2:0:0:
152,98,1543434,2,0,P|187:120|207:157,1,85,2|0,0:2|0:0,0:0:0:0:
166,269,1543645,1,10,0:2:0:0:
166,269,1543751,2,0,P|198:242|240:234,1,85,2|0,0:2|0:0,0:0:0:0:
334,308,1543962,1,2,0:2:0:0:
334,308,1544068,2,0,P|318:268|324:227,1,85,10|0,0:2|0:0,0:0:0:0:
426,160,1544279,6,0,P|383:162|346:144,1,85,2|0,0:2|0:0,0:0:0:0:
416,0,1544490,2,0,P|419:41|401:79,1,85,8|0,0:0|0:0,0:0:0:0:
272,100,1544702,5,2,0:2:0:0:
272,100,1544807,2,0,L|165:88,1,85,2|8,0:2|0:0,0:0:0:0:
241,200,1545018,1,2,0:2:0:0:
241,200,1545124,2,0,L|140:160,1,85,2|0,0:2|0:0,0:0:0:0:
186,289,1545336,1,10,0:2:0:0:
186,289,1545441,2,0,L|99:225,1,85,2|0,0:2|0:0,0:0:0:0:
109,360,1545653,1,2,0:2:0:0:
109,360,1545758,2,0,L|55:293,1,85,10|0,0:2|0:0,0:0:0:0:
193,374,1545969,5,2,0:2:0:0:
264,326,1546075,1,0,0:0:0:0:
344,345,1546180,2,0,P|386:353|427:344,1,85,8|0,0:0|0:0,0:0:0:0:
383,233,1546392,6,0,P|403:196|407:154,1,85,2|0,0:2|0:0,0:0:0:0:
288,161,1546603,2,0,P|258:130|220:113,1,85,8|0,0:0|0:0,0:0:0:0:
136,235,1546814,5,2,0:0:0:0:
65,185,1546920,1,2,0:0:0:0:
73,100,1547026,1,10,0:0:0:0:
151,64,1547131,1,2,0:0:0:0:
220,113,1547237,1,2,0:0:0:0:
212,197,1547343,1,2,0:0:0:0:
246,275,1547448,1,10,0:0:0:0:
332,283,1547554,1,2,0:0:0:0:
381,212,1547660,1,0,0:0:0:0:
344,135,1547765,1,2,0:0:0:0:
406,75,1547871,1,10,0:0:0:0:
481,116,1547976,1,2,0:0:0:0:
466,201,1548082,5,6,0:2:0:0:
466,201,1548188,2,0,L|479:289,1,63.7500024318696,2|0,0:2|0:0,0:0:0:0:
396,352,1548399,1,2,0:2:0:0:
396,352,1548505,2,0,L|409:264,1,63.7500024318696,2|0,0:2|0:0,0:0:0:0:
321,188,1548716,1,2,0:2:0:0:
321,188,1548821,2,0,L|380:211,1,63.7500024318696,2|0,0:2|0:0,0:0:0:0:
271,298,1549033,1,2,0:2:0:0:
271,298,1549138,2,0,L|331:275,1,63.7500024318696,2|0,0:2|0:0,0:0:0:0:
235,159,1549349,6,0,L|244:222,1,63.7500024318696,10|0,0:2|0:0,0:0:0:0:
267,379,1549561,1,12,0:0:0:0:
