osu file format v14

[General]
AudioFilename: audio.mp3
AudioLeadIn: 0
PreviewTime: 1496216
Countdown: 1
SampleSet: None
StackLeniency: 0.7
Mode: 0
LetterboxInBreaks: 0
WidescreenStoryboard: 1

[Editor]
DistanceSpacing: 1
BeatDivisor: 4
GridSize: 32
TimelineZoom: 1

[Metadata]
Title:Alternator Marathon
TitleUnicode:Alternator Marathon
Artist:Various Artists
ArtistUnicode:Various Artists
Creator:Monstrata
Version:23. SEVEN - KOJI WADA (264 BPM)
Source:
Tags:sytarno l'arc en ciel FujuniseikouyuuP invasion of stray cats rica matsumoto satoshi kana boon yoko takahashi my first story boom satellites last alliance rottengraffty jam project spyair koji wada oral cigarettes flow linked horizon granrodeo nico touches walls do as infinity yousei teikoku terraspex fear loathing las vegas tk ling tosite sigure unravel man with mission goku full metal alchemist fma perfect insider pokemon neon genesis evangelion kiznaiver tokyo ghoul attack on titan dragonball super inuyasha haikyuu kuroko no basuke basketball naruto fighting dreamers noragami aragoto terraformars digimon gundam iron blooded orphans hajime no ippo one punch man amazing break kyouran hey kids sacred star milos aot compilation
BeatmapID:1901482
BeatmapSetID:911083

[Difficulty]
HPDrainRate:3
CircleSize:4
OverallDifficulty:8.5
ApproachRate:9.5
SliderMultiplier:1.7
SliderTickRate:1

[Events]
//Background and Video events
0,0,"YM6MZEr.jpg",0,0
//Break Periods
//Storyboard Layer 0 (Background)
Sprite,Background,Centre,"YM6MZEr.jpg",0,0
Sprite,Background,Centre,"sb\1.jpg",320,240 F,0,478,2478,0,1 S,0,478,87145,0.47 F,0,2478,87145,1 F,0,87145,92145,1,0
Sprite,Background,Centre,"sb\2.jpg",320,240 F,0,94987,102667,0,1 S,0,94987,148747,0.48 F,0,102667,148747,1 F,0,148747,153747,1,0
Sprite,Background,Centre,"sb\3.jpg",320,240 F,0,157987,162640,0,1 S,0,157987,183427,0.55 F,0,162640,183427,1 F,0,183427,185427,1,0
Sprite,Background,Centre,"sb\4.jpg",320,240 F,0,188027,198312,0,1 S,0,188027,218884,0.5 F,0,198312,218884,1 F,0,218884,223884,1,0
Sprite,Background,Centre,"sb\5.jpg",320,240 F,0,226598,239479,0,1 S,0,226598,315375,0.5 F,0,239479,315375,1 F,0,315375,320375,1,0
Sprite,Background,Centre,"sb\6.jpg",320,240 F,0,323894,334970,0,1 S,0,323894,390355,0.86 F,0,334970,390355,1 F,0,390355,395355,1,0
Sprite,Background,Centre,"sb\7.jpg",320,240 F,0,398663,406190,0,1 S,0,398663,486190,0.47 F,0,406190,486190,1 F,0,486190,491190,1,0
Sprite,Background,Centre,"sb\8.jpg",320,240 F,0,496745,501204,0,1 S,0,496745,555672,0.47 F,0,501204,555672,1 F,0,555672,560672,1,0
Sprite,Background,Centre,"sb\9.jpg",320,240 F,0,561702,563702,0,1 S,0,561702,615615,0.47 F,0,563702,615615,1 F,0,615615,617354,1,0
Sprite,Background,Centre,"sb\10.jpg",320,240 F,0,617354,620832,0,1 S,0,617354,634745,0.47 F,0,620832,634745,1 F,0,634745,639745,1,0
Sprite,Background,Centre,"sb\11.jpg",320,240 F,0,642038,649681,0,1 S,0,642038,710827,0.59 F,0,649681,710827,1 F,0,710827,717827,1,0
Sprite,Background,Centre,"sb\12.jpg",320,240 F,0,718796,734719,0,1 S,0,718796,811796,0.46 F,0,734719,811796,1 F,0,811796,815796,1,0
Sprite,Background,Centre,"sb\13.jpg",320,240 F,0,817698,825082,0,1 S,0,817698,863851,0.46 F,0,825082,863851,1 F,0,863851,867151,1,0
Sprite,Background,Centre,"sb\14.jpg",320,240 F,0,868129,877344,0,1 S,0,868129,915776,0.55 F,0,877344,915776,1 F,0,915776,919776,1,0
Sprite,Background,Centre,"sb\15.jpg",320,240 F,0,921854,924552,0,1 S,0,921854,980052,0.46 F,0,924552,980052,1 F,0,980052,982052,1,0
Sprite,Background,Centre,"sb\16.jpg",320,240 F,0,985302,989839,0,1 S,0,985302,1021839,0.46 F,0,989839,1021839,1 F,0,1021839,1025839,1,0
Sprite,Background,Centre,"sb\17.jpg",320,240 F,0,1027985,1029985,0,1 S,0,1027985,1062485,0.46 F,0,1029985,1062485,1 F,0,1062485,1066485,1,0
Sprite,Background,Centre,"sb\18.jpg",320,240 F,0,1066712,1069194,0,1 S,0,1066712,1099815,0.5 F,0,1069194,1099815,1 F,0,1099815,1103746,1,0
Sprite,Background,Centre,"sb\19.jpg",320,240 F,0,1105505,1108923,0,1 S,0,1105505,1136868,0.46 F,0,1108923,1136868,1 F,0,1136868,1139848,1,0
Sprite,Background,Centre,"sb\20.jpg",320,240 F,0,1140618,1143923,0,1 S,0,1140618,1174780,0.525 F,0,1143923,1174780,1 F,0,1174780,1178209,1,0
Sprite,Background,Centre,"sb\21.jpg",320,240 F,0,1180994,1192179,0,1 S,0,1180994,1272716,0.46 F,0,1192179,1272716,1 F,0,1272716,1279159,1,0
Sprite,Background,Centre,"sb\22.jpg",320,240 F,0,1282783,1285172,0,1 S,0,1282783,1317172,0.612 F,0,1285172,1317172,1 F,0,1317172,1320372,1,0
Sprite,Background,Centre,"sb\23.jpg",320,240 F,0,1324972,1328301,0,1 S,0,1324972,1372608,0.46 F,0,1328301,1372608,1 F,0,1372608,1375839,1,0
Sprite,Background,Centre,"sb\24.jpg",320,240 F,0,1377974,1386726,0,1 S,0,1377974,1433998,0.62 F,0,1386726,1433998,1 F,0,1433998,1440703,1,0
Sprite,Background,Centre,"sb\25.jpg",320,240 F,0,1443771,1446977,0,1 S,0,1443771,1489962,0.522 F,0,1446977,1489962,1 F,0,1489962,1493488,1,0
Sprite,Background,Centre,"sb\26.jpg",320,240 F,0,1494327,1497378,0,1 S,0,1494327,1549666,0.46 F,0,1497378,1549666,1 F,0,1549666,1550617,1,0
Sprite,Background,Centre,"sb\27.jpg",320,240 F,0,1552518,1563864,0,1 S,0,1552518,1646011,0.49 F,0,1563864,1646011,1 F,0,1646011,1646964,1,0
//Storyboard Layer 1 (Fail)
//Storyboard Layer 2 (Pass)
//Storyboard Layer 3 (Foreground)
//Storyboard Sound Samples

[TimingPoints]
479,208.333333333333,4,3,0,75,1,0
6312,-100,4,3,1,75,0,0
7145,-100,4,3,0,75,0,0
20478,-100,4,3,1,75,0,0
33812,-133.333333333333,4,2,1,75,0,0
60478,-100,4,3,1,75,0,0
94987,240,4,3,1,75,1,0
141067,-76.9230769230769,4,3,1,75,0,0
141307,-100,4,3,1,75,0,0
162640,236.220472440945,4,3,1,75,1,0
188022,428.571428571429,4,3,1,75,1,0
198307,-50,4,2,1,75,0,0
238543,468.490134378587,4,3,0,35,1,0
238543,-50,4,3,0,35,0,0
240416,-50,4,2,1,75,0,0
247444,-50,4,3,0,75,0,0
247911,-100,4,2,1,45,0,0
276489,-66.6666666666667,4,2,1,75,0,0
276958,-50,4,2,1,75,0,0
277895,-66.6666666666667,4,2,1,75,0,0
291949,-50,4,2,1,75,0,0
323894,230.769230769231,4,3,1,75,1,0
334970,-200,4,3,1,45,0,0
358855,-133.333333333333,4,3,1,75,0,0
360355,-200,4,3,1,75,0,0
360701,-100,4,3,2,75,0,0
399079,444.444444444444,4,2,1,75,1,0
406190,-200,4,2,1,45,0,0
413301,-166.666666666667,4,2,1,45,0,0
420412,-142.857142857143,4,2,1,75,0,0
425745,-133.333333333333,4,2,1,75,0,0
427523,-200,4,2,1,45,0,0
429301,-66.6666666666667,4,3,1,75,0,0
430634,-200,4,3,1,75,0,0
431078,-50,4,3,1,75,0,0
438190,-66.6666666666667,4,2,1,75,0,0
439967,-200,4,2,1,35,0,0
453078,-500,4,2,1,35,0,0
453745,-100,4,2,1,75,0,0
459078,-66.6666666666667,4,3,1,75,0,0
460412,-50,4,3,1,75,0,0
484412,-100,4,3,1,75,0,0
501204,425.531914893617,4,3,1,75,1,0
501204,-66.6666666666667,4,3,1,75,0,0
508012,-57.1428571428571,4,3,1,75,0,0
514821,-50,4,3,1,75,0,0
528438,-57.1428571428571,4,3,1,75,0,0
542055,-100,4,3,1,75,0,0
547161,-83.3333333333333,4,3,1,75,0,0
548863,-71.4285714285714,4,3,1,75,0,0
550565,-62.5,4,3,1,75,0,0
552267,-55.5555555555556,4,3,1,75,0,0
561702,434.782608695652,4,3,1,75,1,0
575615,-83.3333333333333,4,3,1,75,0,0
589528,-58.8235294117647,4,3,1,75,0,0
617354,-50,4,3,1,75,0,0
620832,217.391304347826,4,3,2,75,1,0
634745,-200,4,3,1,75,0,0
642038,191.082802547771,4,3,2,75,1,0
649681,-200,4,3,2,75,0,0
651209,-100,4,3,2,75,0,0
687515,-200,4,3,2,75,0,0
687897,-100,4,3,2,75,0,0
700127,-125,4,3,2,75,0,0
705477,-200,4,3,2,75,0,0
705859,-133.333333333333,4,3,2,75,0,0
706241,-100,4,3,2,75,0,0
718566,230.769230769231,4,3,2,75,1,0
751796,-117.647058823529,4,3,2,75,0,0
781335,-153.846153846154,4,3,2,75,0,0
788719,-117.647058823529,4,3,2,75,0,0
796104,-133.333333333333,4,3,2,75,0,0
803489,-100,4,3,2,75,0,0
810873,-133.333333333333,4,3,2,75,0,0
817698,230.769230769231,4,3,1,75,1,0
828774,-133.333333333333,4,3,1,75,0,0
830621,-114.285714285714,4,3,1,75,0,0
833851,-200,4,3,1,75,0,0
834313,-100,4,3,1,75,0,0
867933,196.078431372549,4,3,2,75,1,0
878913,-133.333333333333,4,3,2,75,0,0
888325,-300,4,3,2,75,0,0
890678,-100,4,3,2,75,0,0
895776,-83.3333333333333,4,3,2,75,0,0
896168,-71.4285714285714,4,3,2,75,0,0
896462,-100,4,3,2,75,0,0
901658,-76.9230769230769,4,3,2,75,0,0
902638,-100,4,3,2,75,0,0
914991,-200,4,3,2,75,0,0
924552,187.5,4,3,1,75,1,0
924552,-200,4,3,1,75,0,0
927552,-166.666666666667,4,3,1,75,0,0
930552,-133.333333333333,4,3,1,75,0,0
932052,-117.647058823529,4,3,1,75,0,0
936552,-100,4,3,1,75,0,0
961677,-133.333333333333,4,3,1,75,0,0
962052,-100,4,3,1,75,0,0
964677,-133.333333333333,4,3,1,75,0,0
965052,-100,4,3,1,75,0,0
985839,250,4,3,1,75,1,0
989339,-133.333333333333,4,3,1,75,0,0
996339,-114.285714285714,4,3,1,75,0,0
996839,-100,4,3,1,75,0,0
1019839,-133.333333333333,4,3,1,75,0,0
1020839,-200,4,3,1,75,0,0
1027985,187.5,4,2,1,45,1,0
1027985,-400,4,2,1,45,0,0
1033985,-285.714285714286,4,2,1,45,0,0
1039985,-200,4,2,1,45,0,0
1045985,-400,4,2,1,45,0,0
1048610,-200,4,2,1,45,0,0
1048985,-133.333333333333,4,3,1,75,0,0
1050485,-100,4,3,1,75,0,0
1051985,-100,4,3,2,75,0,0
1066712,206.896551724138,4,3,2,75,1,0
1105636,205.479452054795,4,3,1,75,1,0
1108923,-133.333333333333,4,3,1,75,0,0
1110156,-100,4,3,1,75,0,0
1132553,-153.846153846153,4,3,1,75,0,0
1133067,-133.333333333333,4,3,1,75,0,0
1133581,-100,4,3,1,75,0,0
1141352,214.285714285714,4,3,2,75,1,0
1143923,-133.333333333333,4,3,2,75,0,0
1147352,-100,4,3,2,75,0,0
1160423,-125,4,3,2,75,0,0
1161066,-142.857142857143,4,3,2,75,0,0
1167923,-100,4,3,2,75,0,0
1173066,-166.666666666667,4,3,2,75,0,0
1182515,201.342281879195,4,3,1,75,1,0
1192179,-200,4,2,1,45,0,0
1205065,-100,4,3,2,75,0,0
1227615,-200,4,2,1,45,0,0
1250166,-100,4,3,2,75,0,0
1283572,200,4,3,1,75,1,0
1285172,-133.333333333333,4,3,1,75,0,0
1288372,-114.285714285714,4,3,1,75,0,0
1290022,200,4,3,1,75,1,0
1290022,-114.285714285714,4,3,1,75,0,0
1291172,-114.285714285714,4,3,2,75,0,0
1291195,200,4,3,2,75,1,0
1291572,200,4,3,1,75,1,0
1291572,-100,4,3,1,75,0,0
1316572,-133.333333333333,4,3,1,75,0,0
1328301,230.769230769231,4,3,1,75,1,0
1386726,454.545454545455,4,2,1,75,1,0
1386726,-66.6666666666667,4,2,1,75,0,0
1390362,-50,4,2,1,75,0,0
1445186,223.880597014925,4,3,1,75,1,0
1446977,-200,4,2,1,75,0,0
1454141,-133.333333333333,4,2,1,75,0,0
1459514,-133.333333333333,4,3,2,75,0,0
1461305,-100,4,3,2,75,0,0
1495688,211.267605633803,4,3,2,75,1,0
1496533,-66.6666666666667,4,3,2,75,0,0
1497378,-100,4,3,2,75,0,0
1531603,-133.333333333333,4,2,1,55,0,0
1534561,-100,4,3,1,75,0,0
1546814,-100,4,3,2,75,0,0
1548082,-133.333333333333,4,3,1,75,0,0
1553191,190.597204574333,4,3,1,75,1,0
1563864,-400,4,2,1,35,0,0
1573013,-285.714285714286,4,2,1,45,0,0
1573775,-222.222222222222,4,2,1,55,0,0
1574728,-181.818181818182,4,2,1,65,0,0
1576062,-153.846153846154,4,2,1,75,0,0
1582161,-133.333333333333,4,2,1,75,0,0
1585211,-117.647058823529,4,2,1,75,0,0
1603318,-100,4,3,1,75,0,0
1603508,-100,4,3,1,75,0,0
1617994,-133.333333333333,4,3,1,75,0,0
1618756,-100,4,3,2,75,0,0
1624855,-90.9090909090909,4,3,2,75,0,0
1630954,-100,4,3,2,75,0,1
1646011,-100,4,3,2,75,0,0

[Colours]
Combo1 : 255,0,255
Combo2 : 255,128,0
Combo3 : 128,0,255
Combo4 : 0,255,255

[HitObjects]
102,233,1386726,6,0,P|162:218|220:243,1,127.500004863739,2|0,0:0|0:0,0:0:0:0:
311,331,1387180,2,0,P|250:316|192:341,1,127.500004863739,8|0,0:0|0:0,0:0:0:0:
310,240,1387635,2,0,P|339:184|330:122,1,127.500004863739,2|0,0:0|0:0,0:0:0:0:
171,86,1388089,1,8,0:0:0:0:
220,242,1388316,1,0,0:0:0:0:
349,105,1388544,6,0,L|444:90,1,63.7500024318696,8|0,0:0|0:0,0:0:0:0:
403,285,1388771,2,0,L|498:300,1,63.7500024318696,8|0,0:0|0:0,0:0:0:0:
257,154,1388998,6,0,L|194:163,1,63.7500024318696,8|0,0:0|0:0,0:0:0:0:
249,344,1389226,2,0,L|344:359,1,63.7500024318696,8|0,0:0|0:0,0:0:0:0:
336,189,1389453,5,14,0:0:0:0:
336,189,1389907,2,0,P|308:229|287:138,1,191.250007295609,0|0,1:0|0:0,0:0:0:0:
336,189,1390362,6,0,P|409:195|495:132,1,170,2|0,0:0|0:0,0:0:0:0:
407,112,1390703,1,0,0:0:0:0:
407,112,1390816,2,0,P|420:182|503:249,1,170,10|0,0:0|0:0,0:0:0:0:
416,293,1391157,1,0,0:0:0:0:
416,293,1391271,6,0,P|453:315|494:327,1,85,2|0,0:0|0:0,0:0:0:0:
332,282,1391498,2,0,P|342:323|362:360,1,85
262,227,1391726,2,0,P|251:268|231:305,1,85,8|0,0:0|0:0,0:0:0:0:
240,136,1391953,2,0,P|210:166|174:188,1,85,2|0,0:0|0:0,0:0:0:0:
318,32,1392180,6,0,P|345:113|342:197,1,170,2|0,0:0|0:0,0:0:0:0:
430,125,1392521,1,0,0:0:0:0:
430,125,1392635,2,0,P|425:209|391:286,1,170,10|0,0:0|0:0,0:0:0:0:
303,365,1392976,1,0,0:0:0:0:
303,365,1393089,6,0,P|345:367|388:373,1,85,2|0,0:0|0:0,0:0:0:0:
258,292,1393316,2,0,P|215:297|173:299,1,85
210,130,1393544,2,0,P|215:172|217:214,1,85,10|0,0:0|0:0,0:0:0:0:
93,301,1393771,2,0,P|87:258|85:216,1,85,2|0,0:0|0:0,0:0:0:0:
83,71,1393998,6,0,P|58:106|34:164,1,85,2|0,0:0|0:0,0:0:0:0:
177,59,1394226,2,0,P|162:99|153:161,1,85
260,23,1394453,2,0,P|271:101|267:212,1,170,10|0,0:0|0:0,0:0:0:0:
275,277,1394794,1,0,0:0:0:0:
279,360,1394907,6,0,P|318:347|347:316,1,85,2|0,0:0|0:0,0:0:0:0:
270,192,1395135,2,0,P|230:206|201:237,1,85
54,310,1395362,2,0,P|135:290|201:237,1,170,10|0,0:0|0:0,0:0:0:0:
133,192,1395703,1,0,0:0:0:0:
133,192,1395816,6,0,P|101:221|61:232,1,85,2|0,0:0|0:0,0:0:0:0:
270,192,1396044,2,0,P|310:205|340:234,1,85,2|0,0:0|0:0,0:0:0:0:
202,58,1396271,2,0,P|192:99|201:141,1,85,10|0,0:0|0:0,0:0:0:0:
390,304,1396498,6,0,P|422:246|340:147,1,170,2|0,0:0|0:0,0:0:0:0:
201,237,1396839,1,0,0:0:0:0:
269,274,1396953,2,0,P|310:263|340:234,1,85,2|0,0:0|0:0,0:0:0:0:
327,64,1397180,2,0,L|340:234,1,170,10|0,0:0|0:0,0:0:0:0:
43,28,1397635,6,0,L|30:197,1,170,2|0,0:0|0:0,0:0:0:0:
111,170,1397976,1,0,0:0:0:0:
96,252,1398089,2,0,P|100:293|125:328,1,85,10|0,0:0|0:0,0:0:0:0:
209,187,1398316,2,0,P|184:221|179:263,1,85,2|0,0:0|0:0,0:0:0:0:
210,344,1398544,6,0,P|248:360|290:356,1,85,2|0,0:0|0:0,0:0:0:0:
265,251,1398771,2,0,P|303:234|345:238,1,85
401,302,1398998,2,0,P|425:267|430:225,1,85,10|0,0:0|0:0,0:0:0:0:
344,84,1399226,2,0,P|348:125|373:160,1,85
506,180,1399453,6,0,L|544:62,1,85,2|0,0:0|0:0,0:0:0:0:
469,41,1399680,2,0,L|442:121,1,85
281,176,1399907,2,0,L|200:149,1,85,10|0,0:0|0:0,0:0:0:0:
251,83,1400135,2,0,L|233:0,1,85
350,0,1400362,6,0,L|333:84,1,85,2|0,0:0|0:0,0:0:0:0:
372,159,1400589,2,0,L|355:243,1,85,2|0,0:0|0:0,0:0:0:0:
260,274,1400816,2,0,L|179:247,1,85,10|0,0:0|0:0,0:0:0:0:
200,149,1401044,2,0,L|281:176,1,85,2|0,0:0|0:0,0:0:0:0:
335,341,1401271,6,0,P|415:320|454:248,1,170,2|0,0:0|0:0,0:0:0:0:
393,96,1401612,1,0,0:0:0:0:
393,95,1401726,2,0,P|390:137|401:179,1,85,10|0,0:0|0:0,0:0:0:0:
275,243,1401953,2,0,P|316:253|358:251,1,85
231,169,1402180,6,0,P|188:166|147:176,1,85,2|0,0:0|0:0,0:0:0:0:
86,334,1402407,2,0,P|109:298|121:258,1,85
88,111,1402635,1,10,0:0:0:0:
63,193,1402748,1,2,0:0:0:0:
88,110,1402862,2,0,P|113:76|146:51,1,85,2|0,0:0|0:0,0:0:0:0:
309,97,1403089,6,0,P|266:92|228:76,1,85
382,53,1403316,2,0,P|420:36|463:31,1,85,2|0,0:0|0:0,0:0:0:0:
465,195,1403544,2,0,P|459:153|443:114,1,85,10|0,0:0|0:0,0:0:0:0:
287,181,1403771,2,0,P|270:219|264:261,1,85,2|0,0:0|0:0,0:0:0:0:
373,383,1403998,6,0,P|306:336|225:353,1,170,2|0,0:0|0:0,0:0:0:0:
122,241,1404339,1,2,0:0:0:0:
122,241,1404453,2,0,P|128:283|145:322,1,85,10|0,0:0|0:0,0:0:0:0:
52,177,1404680,2,0,P|35:215|29:257,1,85
125,115,1404907,6,0,P|209:108|293:117,1,170,6|0,0:0|0:0,0:0:0:0:
208,197,1405248,1,0,0:0:0:0:
208,197,1405362,2,0,P|285:232|353:283,1,170,10|0,0:0|0:0,0:0:0:0:
429,245,1405703,1,0,0:0:0:0:
429,245,1405816,6,0,P|434:292|422:353,1,85,2|0,0:0|0:0,0:0:0:0:
470,169,1406044,2,0,P|497:207|517:266,1,85
405,116,1406271,2,0,P|377:149|358:187,1,85,10|0,0:0|0:0,0:0:0:0:
427,34,1406498,2,0,P|473:41|535:32,1,85,2|0,0:0|0:0,0:0:0:0:
320,90,1406726,6,0,P|236:80|152:88,1,170,2|0,0:0|0:0,0:0:0:0:
73,44,1407066,1,0,0:0:0:0:
73,44,1407180,2,0,P|81:128|70:212,1,170,10|0,0:0|0:0,0:0:0:0:
63,326,1407521,1,0,0:0:0:0:
63,326,1407635,6,0,P|91:294|128:274,1,85,2|0,0:0|0:0,0:0:0:0:
194,220,1407862,2,0,P|207:260|206:302,1,85
305,302,1408089,2,0,P|304:260|318:220,1,85,10|0,0:0|0:0,0:0:0:0:
287,140,1408316,2,0,P|244:140|204:127,1,85,2|0,0:0|0:0,0:0:0:0:
367,4,1408544,6,0,P|368:46|355:87,1,85,2|0,0:0|0:0,0:0:0:0:
383,167,1408771,2,0,P|419:145|460:136,1,85,2|0,0:0|0:0,0:0:0:0:
396,251,1408998,2,0,P|436:261|472:284,1,85,10|0,0:0|0:0,0:0:0:0:
318,220,1409226,2,0,P|304:260|305:302,1,85
194,220,1409453,6,0,P|207:260|206:302,1,85,2|0,0:0|0:0,0:0:0:0:
228,130,1409680,2,0,P|188:143|146:142,1,85,2|0,0:0|0:0,0:0:0:0:
55,107,1409907,2,0,P|53:149|66:189,1,85,10|0,0:0|0:0,0:0:0:0:
32,279,1410135,2,0,P|72:266|114:267,1,85
224,219,1410362,6,0,L|196:341,1,85,2|0,0:0|0:0,0:0:0:0:
314,170,1410589,2,0,L|342:292,1,85,2|0,0:0|0:0,0:0:0:0:
175,129,1410816,2,0,L|68:195,1,85,10|0,0:0|0:0,0:0:0:0:
363,80,1411044,2,0,L|514:174,1,170,6|0,0:0|0:0,0:0:0:0:
449,232,1411385,5,0,0:0:0:0:
415,308,1411498,2,0,P|457:313|497:300,1,85,2|0,0:0|0:0,0:0:0:0:
365,240,1411726,2,0,P|339:273|331:314,1,85,10|0,0:0|0:0,0:0:0:0:
256,275,1411953,2,0,L|256:169,1,85
180,314,1412180,6,0,P|172:273|52:237,1,170,2|0,0:0|0:0,0:0:0:0:
13,322,1412521,1,0,0:0:0:0:
13,322,1412635,2,0,L|97:309,1,85,10|0,0:0|0:0,0:0:0:0:
36,154,1412862,2,0,P|59:190|64:232,1,85,2|0,0:0|0:0,0:0:0:0:
162,47,1413089,6,0,P|128:72|109:110,1,85,10|0,0:0|0:0,0:0:0:0:
206,208,1413316,2,0,P|190:169|192:127,1,85,2|0,0:0|0:0,0:0:0:0:
308,78,1413544,2,0,P|282:111|273:153,1,85,10|0,0:0|0:0,0:0:0:0:
291,236,1413771,2,0,P|331:223|373:229,1,85,2|0,0:0|0:0,0:0:0:0:
391,71,1413998,6,0,P|431:83|473:77,1,85,10|0,0:0|0:0,0:0:0:0:
457,233,1414226,2,0,P|447:191|421:158,1,85,10|0,0:0|0:0,0:0:0:0:
308,78,1414453,2,0,P|282:111|273:153,1,85,10|0,0:0|0:0,0:0:0:0:
338,304,1414680,2,0,P|363:270|373:229,1,85,10|0,0:0|0:0,0:0:0:0:
184,51,1414907,5,10,0:0:0:0:
141,122,1415021,1,8,0:0:0:0:
186,199,1415135,1,10,0:0:0:0:
143,270,1415249,1,8,0:0:0:0:
184,343,1415362,1,10,0:0:0:0:
267,344,1415476,1,8,0:0:0:0:
310,272,1415590,1,10,0:0:0:0:
267,198,1415703,1,8,0:0:0:0:
223,271,1415816,6,2,P|303:299|385:283,1,170,6|0,0:0|0:0,0:0:0:0:
416,203,1416157,1,0,0:0:0:0:
416,203,1416271,2,0,P|457:235|466:302,1,85,10|0,0:0|0:0,0:0:0:0:
331,216,1416498,2,0,P|338:164|391:123,1,85,2|0,0:0|0:0,0:0:0:0:
304,71,1416726,6,0,P|352:51|414:77,1,85
208,71,1416953,2,0,P|159:51|97:77,1,85,2|0,0:0|0:0,0:0:0:0:
153,139,1417180,2,0,P|177:174|181:216,1,85,8|0,0:0|0:0,0:0:0:0:
16,218,1417407,2,0,P|54:200|96:204,1,85
169,300,1417635,5,2,0:0:0:0:
243,340,1417748,2,0,L|327:334,1,85,2|0,0:0|0:0,0:0:0:0:
468,316,1417976,1,2,0:0:0:0:
468,316,1418089,2,0,P|484:232|485:147,1,170,10|0,0:0|0:0,0:0:0:0:
441,74,1418430,1,2,0:0:0:0:
366,114,1418544,6,0,P|358:156|360:199,1,85,2|0,0:0|0:0,0:0:0:0:
321,41,1418771,2,0,P|279:33|236:35,1,85,2|0,0:0|0:0,0:0:0:0:
184,102,1418998,1,10,0:0:0:0:
121,43,1419112,1,0,0:0:0:0:
79,117,1419226,2,0,P|71:158|73:201,1,85,2|0,0:0|0:0,0:0:0:0:
179,328,1419453,6,0,B|209:217|209:217|155:225,2,170,6|0|8,0:0|0:0|0:0,0:0:0:0:
319,338,1420021,1,0,0:0:0:0:
319,338,1420135,2,0,P|360:352|402:354,1,85,2|0,0:0|0:0,0:0:0:0:
433,270,1420362,6,0,P|390:274|277:188,1,170,2|0,0:0|0:0,0:0:0:0:
340,142,1420703,1,0,0:0:0:0:
340,142,1420816,2,0,P|349:100|352:58,1,85,10|0,0:0|0:0,0:0:0:0:
266,49,1421044,2,0,P|256:90|253:132,1,85
404,190,1421271,6,0,P|430:109|426:24,2,170,2|0|8,0:0|0:0|0:0,0:0:0:0:
249,194,1421839,1,0,0:0:0:0:
249,194,1421953,2,0,P|207:187|164:191,1,85
91,146,1422180,6,0,P|84:187|88:230,1,85,2|0,0:0|0:0,0:0:0:0:
164,112,1422407,2,0,P|168:69|162:28,1,85
250,113,1422635,1,10,0:0:0:0:
320,66,1422748,1,0,0:0:0:0:
369,133,1422862,2,0,P|411:143|453:140,1,85
510,41,1423089,6,0,P|502:117|500:211,1,170,6|0,0:0|0:0,0:0:0:0:
416,226,1423430,1,0,0:0:0:0:
469,290,1423544,2,0,P|476:332|475:375,1,85,8|0,0:0|0:0,0:0:0:0:
351,279,1423771,2,0,P|309:285|266:284,1,85
200,185,1423998,6,0,P|217:269|216:354,1,170,2|0,0:0|0:0,0:0:0:0:
136,325,1424339,1,0,0:0:0:0:
136,325,1424453,2,0,P|137:282|130:240,1,85,10|0,0:0|0:0,0:0:0:0:
195,101,1424680,2,0,P|193:143|200:185,1,85
284,201,1424907,6,0,P|316:186|399:198,1,85,2|0,0:0|0:0,0:0:0:0:
415,115,1425135,2,0,P|375:99|333:99,1,85,2|2,0:0|0:0,0:0:0:0:
248,29,1425362,1,8,0:0:0:0:
248,29,1425476,1,2,0:0:0:0:
248,29,1425589,2,0,P|290:29|330:14,1,85,2|0,0:0|0:0,0:0:0:0:
480,59,1425816,6,0,P|495:98|495:140,1,85,2|0,0:0|0:0,0:0:0:0:
400,196,1426044,2,0,P|399:153|415:114,1,85
511,302,1426271,1,10,0:0:0:0:
487,219,1426385,1,0,0:0:0:0:
428,281,1426498,2,0,P|386:285|338:263,1,85
229,203,1426726,6,0,B|276:190|276:190|254:315,2,170,6|0|8,0:0|0:0|0:0,0:0:0:0:
88,219,1427294,1,0,0:0:0:0:
88,219,1427407,2,0,P|79:261|74:303,1,85,2|0,0:0|0:0,0:0:0:0:
147,350,1427635,6,0,P|230:363|315:354,1,170,2|0,0:0|0:0,0:0:0:0:
382,301,1427976,1,0,0:0:0:0:
465,309,1428089,2,0,P|482:269|492:228,1,85,8|0,0:0|0:0,0:0:0:0:
433,139,1428316,2,0,P|417:178|407:220,1,85
323,239,1428544,6,0,P|238:247|154:234,2,170,2|0|8,0:0|0:0|0:0,0:0:0:0:
274,114,1429112,1,0,0:0:0:0:
274,114,1429226,2,0,P|231:111|189:116,1,85
348,69,1429453,6,0,P|371:33|388:-5,1,85,2|0,0:0|0:0,0:0:0:0:
426,111,1429680,2,0,P|468:112|510:108,1,85,8|0,0:0|0:0,0:0:0:0:
407,220,1429907,1,10,0:0:0:0:
349,157,1430021,1,0,0:0:0:0:
323,239,1430135,2,0,P|332:280|347:319,1,85
264,176,1430362,6,0,P|180:172|95:177,1,170,6|0,0:0|0:0,0:0:0:0:
28,230,1430703,1,0,0:0:0:0:
28,230,1430816,2,0,P|20:271|22:314,1,85,8|0,0:0|0:0,0:0:0:0:
101,349,1431044,2,0,P|108:307|106:264,1,85
183,228,1431271,6,0,P|207:262|238:291,1,85,2|0,0:0|0:0,0:0:0:0:
192,363,1431498,2,0,P|233:370|276:368,1,85
324,297,1431726,2,0,P|366:295|408:302,1,85,8|0,0:0|0:0,0:0:0:0:
474,248,1431953,1,2,0:0:0:0:
423,180,1432066,1,2,0:0:0:0:
464,105,1432180,6,0,P|471:63|469:20,1,85,2|0,0:0|0:0,0:0:0:0:
383,25,1432407,2,0,P|341:17|298:19,1,85
236,79,1432635,2,0,P|193:80|151:73,1,85,8|0,0:0|0:0,0:0:0:0:
84,125,1432862,2,0,P|76:166|78:209,1,85
116,285,1433089,5,2,0:0:0:0:
191,246,1433203,1,0,0:0:0:0:
254,302,1433316,2,0,P|296:307|338:304,1,85
491,205,1433544,1,10,0:0:0:0:
416,166,1433658,1,0,0:0:0:0:
353,222,1433771,2,0,P|310:227|268:224,1,85
412,81,1433998,5,6,0:0:0:0:
