osu file format v14

[General]
AudioFilename: audio.mp3
AudioLeadIn: 0
PreviewTime: 1496216
Countdown: 1
SampleSet: None
StackLeniency: 0.7
Mode: 0
LetterboxInBreaks: 0
WidescreenStoryboard: 1

[Editor]
DistanceSpacing: 1
BeatDivisor: 4
GridSize: 32
TimelineZoom: 1

[Metadata]
Title:Alternator Marathon
TitleUnicode:Alternator Marathon
Artist:Various Artists
ArtistUnicode:Various Artists
Creator:Monstrata
Version:16. SHINZOU O SASAGEYO! - LINKED HORIZON (320 BPM)
Source:
Tags:sytarno l'arc en ciel FujuniseikouyuuP invasion of stray cats rica matsumoto satoshi kana boon yoko takahashi my first story boom satellites last alliance rottengraffty jam project spyair koji wada oral cigarettes flow linked horizon granrodeo nico touches walls do as infinity yousei teikoku terraspex fear loathing las vegas tk ling tosite sigure unravel man with mission goku full metal alchemist fma perfect insider pokemon neon genesis evangelion kiznaiver tokyo ghoul attack on titan dragonball super inuyasha haikyuu kuroko no basuke basketball naruto fighting dreamers noragami aragoto terraformars digimon gundam iron blooded orphans hajime no ippo one punch man amazing break kyouran hey kids sacred star milos aot compilation
BeatmapID:1901474
BeatmapSetID:911083

[Difficulty]
HPDrainRate:3
CircleSize:4
OverallDifficulty:8.5
ApproachRate:9.5
SliderMultiplier:1.7
SliderTickRate:1

[Events]
//Background and Video events
0,0,"YM6MZEr.jpg",0,0
//Break Periods
//Storyboard Layer 0 (Background)
Sprite,Background,Centre,"YM6MZEr.jpg",0,0
Sprite,Background,Centre,"sb\1.jpg",320,240 F,0,478,2478,0,1 S,0,478,87145,0.47 F,0,2478,87145,1 F,0,87145,92145,1,0
Sprite,Background,Centre,"sb\2.jpg",320,240 F,0,94987,102667,0,1 S,0,94987,148747,0.48 F,0,102667,148747,1 F,0,148747,153747,1,0
Sprite,Background,Centre,"sb\3.jpg",320,240 F,0,157987,162640,0,1 S,0,157987,183427,0.55 F,0,162640,183427,1 F,0,183427,185427,1,0
Sprite,Background,Centre,"sb\4.jpg",320,240 F,0,188027,198312,0,1 S,0,188027,218884,0.5 F,0,198312,218884,1 F,0,218884,223884,1,0
Sprite,Background,Centre,"sb\5.jpg",320,240 F,0,226598,239479,0,1 S,0,226598,315375,0.5 F,0,239479,315375,1 F,0,315375,320375,1,0
Sprite,Background,Centre,"sb\6.jpg",320,240 F,0,323894,334970,0,1 S,0,323894,390355,0.86 F,0,334970,390355,1 F,0,390355,395355,1,0
Sprite,Background,Centre,"sb\7.jpg",320,240 F,0,398663,406190,0,1 S,0,398663,486190,0.47 F,0,406190,486190,1 F,0,486190,491190,1,0
Sprite,Background,Centre,"sb\8.jpg",320,240 F,0,496745,501204,0,1 S,0,496745,555672,0.47 F,0,501204,555672,1 F,0,555672,560672,1,0
Sprite,Background,Centre,"sb\9.jpg",320,240 F,0,561702,563702,0,1 S,0,561702,615615,0.47 F,0,563702,615615,1 F,0,615615,617354,1,0
Sprite,Background,Centre,"sb\10.jpg",320,240 F,0,617354,620832,0,1 S,0,617354,634745,0.47 F,0,620832,634745,1 F,0,634745,639745,1,0
Sprite,Background,Centre,"sb\11.jpg",320,240 F,0,642038,649681,0,1 S,0,642038,710827,0.59 F,0,649681,710827,1 F,0,710827,717827,1,0
Sprite,Background,Centre,"sb\12.jpg",320,240 F,0,718796,734719,0,1 S,0,718796,811796,0.46 F,0,734719,811796,1 F,0,811796,815796,1,0
Sprite,Background,Centre,"sb\13.jpg",320,240 F,0,817698,825082,0,1 S,0,817698,863851,0.46 F,0,825082,863851,1 F,0,863851,867151,1,0
Sprite,Background,Centre,"sb\14.jpg",320,240 F,0,868129,877344,0,1 S,0,868129,915776,0.55 F,0,877344,915776,1 F,0,915776,919776,1,0
Sprite,Background,Centre,"sb\15.jpg",320,240 F,0,921854,924552,0,1 S,0,921854,980052,0.46 F,0,924552,980052,1 F,0,980052,982052,1,0
Sprite,Background,Centre,"sb\16.jpg",320,240 F,0,985302,989839,0,1 S,0,985302,1021839,0.46 F,0,989839,1021839,1 F,0,1021839,1025839,1,0
Sprite,Background,Centre,"sb\17.jpg",320,240 F,0,1027985,1029985,0,1 S,0,1027985,1062485,0.46 F,0,1029985,1062485,1 F,0,1062485,1066485,1,0
Sprite,Background,Centre,"sb\18.jpg",320,240 F,0,1066712,1069194,0,1 S,0,1066712,1099815,0.5 F,0,1069194,1099815,1 F,0,1099815,1103746,1,0
Sprite,Background,Centre,"sb\19.jpg",320,240 F,0,1105505,1108923,0,1 S,0,1105505,1136868,0.46 F,0,1108923,1136868,1 F,0,1136868,1139848,1,0
Sprite,Background,Centre,"sb\20.jpg",320,240 F,0,1140618,1143923,0,1 S,0,1140618,1174780,0.525 F,0,1143923,1174780,1 F,0,1174780,1178209,1,0
Sprite,Background,Centre,"sb\21.jpg",320,240 F,0,1180994,1192179,0,1 S,0,1180994,1272716,0.46 F,0,1192179,1272716,1 F,0,1272716,1279159,1,0
Sprite,Background,Centre,"sb\22.jpg",320,240 F,0,1282783,1285172,0,1 S,0,1282783,1317172,0.612 F,0,1285172,1317172,1 F,0,1317172,1320372,1,0
Sprite,Background,Centre,"sb\23.jpg",320,240 F,0,1324972,1328301,0,1 S,0,1324972,1372608,0.46 F,0,1328301,1372608,1 F,0,1372608,1375839,1,0
Sprite,Background,Centre,"sb\24.jpg",320,240 F,0,1377974,1386726,0,1 S,0,1377974,1433998,0.62 F,0,1386726,1433998,1 F,0,1433998,1440703,1,0
Sprite,Background,Centre,"sb\25.jpg",320,240 F,0,1443771,1446977,0,1 S,0,1443771,1489962,0.522 F,0,1446977,1489962,1 F,0,1489962,1493488,1,0
Sprite,Background,Centre,"sb\26.jpg",320,240 F,0,1494327,1497378,0,1 S,0,1494327,1549666,0.46 F,0,1497378,1549666,1 F,0,1549666,1550617,1,0
Sprite,Background,Centre,"sb\27.jpg",320,240 F,0,1552518,1563864,0,1 S,0,1552518,1646011,0.49 F,0,1563864,1646011,1 F,0,1646011,1646964,1,0
//Storyboard Layer 1 (Fail)
//Storyboard Layer 2 (Pass)
//Storyboard Layer 3 (Foreground)
//Storyboard Sound Samples

[TimingPoints]
479,208.333333333333,4,3,0,75,1,0
6312,-100,4,3,1,75,0,0
7145,-100,4,3,0,75,0,0
20478,-100,4,3,1,75,0,0
33812,-133.333333333333,4,2,1,75,0,0
60478,-100,4,3,1,75,0,0
94987,240,4,3,1,75,1,0
141067,-76.9230769230769,4,3,1,75,0,0
141307,-100,4,3,1,75,0,0
162640,236.220472440945,4,3,1,75,1,0
188022,428.571428571429,4,3,1,75,1,0
198307,-50,4,2,1,75,0,0
238543,468.490134378587,4,3,0,35,1,0
238543,-50,4,3,0,35,0,0
240416,-50,4,2,1,75,0,0
247444,-50,4,3,0,75,0,0
247911,-100,4,2,1,45,0,0
276489,-66.6666666666667,4,2,1,75,0,0
276958,-50,4,2,1,75,0,0
277895,-66.6666666666667,4,2,1,75,0,0
291949,-50,4,2,1,75,0,0
323894,230.769230769231,4,3,1,75,1,0
334970,-200,4,3,1,45,0,0
358855,-133.333333333333,4,3,1,75,0,0
360355,-200,4,3,1,75,0,0
360701,-100,4,3,2,75,0,0
399079,444.444444444444,4,2,1,75,1,0
406190,-200,4,2,1,45,0,0
413301,-166.666666666667,4,2,1,45,0,0
420412,-142.857142857143,4,2,1,75,0,0
425745,-133.333333333333,4,2,1,75,0,0
427523,-200,4,2,1,45,0,0
429301,-66.6666666666667,4,3,1,75,0,0
430634,-200,4,3,1,75,0,0
431078,-50,4,3,1,75,0,0
438190,-66.6666666666667,4,2,1,75,0,0
439967,-200,4,2,1,35,0,0
453078,-500,4,2,1,35,0,0
453745,-100,4,2,1,75,0,0
459078,-66.6666666666667,4,3,1,75,0,0
460412,-50,4,3,1,75,0,0
484412,-100,4,3,1,75,0,0
501204,425.531914893617,4,3,1,75,1,0
501204,-66.6666666666667,4,3,1,75,0,0
508012,-57.1428571428571,4,3,1,75,0,0
514821,-50,4,3,1,75,0,0
528438,-57.1428571428571,4,3,1,75,0,0
542055,-100,4,3,1,75,0,0
547161,-83.3333333333333,4,3,1,75,0,0
548863,-71.4285714285714,4,3,1,75,0,0
550565,-62.5,4,3,1,75,0,0
552267,-55.5555555555556,4,3,1,75,0,0
561702,434.782608695652,4,3,1,75,1,0
575615,-83.3333333333333,4,3,1,75,0,0
589528,-58.8235294117647,4,3,1,75,0,0
617354,-50,4,3,1,75,0,0
620832,217.391304347826,4,3,2,75,1,0
634745,-200,4,3,1,75,0,0
642038,191.082802547771,4,3,2,75,1,0
649681,-200,4,3,2,75,0,0
651209,-100,4,3,2,75,0,0
687515,-200,4,3,2,75,0,0
687897,-100,4,3,2,75,0,0
700127,-125,4,3,2,75,0,0
705477,-200,4,3,2,75,0,0
705859,-133.333333333333,4,3,2,75,0,0
706241,-100,4,3,2,75,0,0
718566,230.769230769231,4,3,2,75,1,0
751796,-117.647058823529,4,3,2,75,0,0
781335,-153.846153846154,4,3,2,75,0,0
788719,-117.647058823529,4,3,2,75,0,0
796104,-133.333333333333,4,3,2,75,0,0
803489,-100,4,3,2,75,0,0
810873,-133.333333333333,4,3,2,75,0,0
817698,230.769230769231,4,3,1,75,1,0
828774,-133.333333333333,4,3,1,75,0,0
830621,-114.285714285714,4,3,1,75,0,0
833851,-200,4,3,1,75,0,0
834313,-100,4,3,1,75,0,0
867933,196.078431372549,4,3,2,75,1,0
878913,-133.333333333333,4,3,2,75,0,0
888325,-300,4,3,2,75,0,0
890678,-100,4,3,2,75,0,0
895776,-83.3333333333333,4,3,2,75,0,0
896168,-71.4285714285714,4,3,2,75,0,0
896462,-100,4,3,2,75,0,0
901658,-76.9230769230769,4,3,2,75,0,0
902638,-100,4,3,2,75,0,0
914991,-200,4,3,2,75,0,0
924552,187.5,4,3,1,75,1,0
924552,-200,4,3,1,75,0,0
927552,-166.666666666667,4,3,1,75,0,0
930552,-133.333333333333,4,3,1,75,0,0
932052,-117.647058823529,4,3,1,75,0,0
936552,-100,4,3,1,75,0,0
961677,-133.333333333333,4,3,1,75,0,0
962052,-100,4,3,1,75,0,0
964677,-133.333333333333,4,3,1,75,0,0
965052,-100,4,3,1,75,0,0
985839,250,4,3,1,75,1,0
989339,-133.333333333333,4,3,1,75,0,0
996339,-114.285714285714,4,3,1,75,0,0
996839,-100,4,3,1,75,0,0
1019839,-133.333333333333,4,3,1,75,0,0
1020839,-200,4,3,1,75,0,0
1027985,187.5,4,2,1,45,1,0
1027985,-400,4,2,1,45,0,0
1033985,-285.714285714286,4,2,1,45,0,0
1039985,-200,4,2,1,45,0,0
1045985,-400,4,2,1,45,0,0
1048610,-200,4,2,1,45,0,0
1048985,-133.333333333333,4,3,1,75,0,0
1050485,-100,4,3,1,75,0,0
1051985,-100,4,3,2,75,0,0
1066712,206.896551724138,4,3,2,75,1,0
1105636,205.479452054795,4,3,1,75,1,0
1108923,-133.333333333333,4,3,1,75,0,0
1110156,-100,4,3,1,75,0,0
1132553,-153.846153846153,4,3,1,75,0,0
1133067,-133.333333333333,4,3,1,75,0,0
1133581,-100,4,3,1,75,0,0
1141352,214.285714285714,4,3,2,75,1,0
1143923,-133.333333333333,4,3,2,75,0,0
1147352,-100,4,3,2,75,0,0
1160423,-125,4,3,2,75,0,0
1161066,-142.857142857143,4,3,2,75,0,0
1167923,-100,4,3,2,75,0,0
1173066,-166.666666666667,4,3,2,75,0,0
1182515,201.342281879195,4,3,1,75,1,0
1192179,-200,4,2,1,45,0,0
1205065,-100,4,3,2,75,0,0
1227615,-200,4,2,1,45,0,0
1250166,-100,4,3,2,75,0,0
1283572,200,4,3,1,75,1,0
1285172,-133.333333333333,4,3,1,75,0,0
1288372,-114.285714285714,4,3,1,75,0,0
1290022,200,4,3,1,75,1,0
1290022,-114.285714285714,4,3,1,75,0,0
1291172,-114.285714285714,4,3,2,75,0,0
1291195,200,4,3,2,75,1,0
1291572,200,4,3,1,75,1,0
1291572,-100,4,3,1,75,0,0
1316572,-133.333333333333,4,3,1,75,0,0
1328301,230.769230769231,4,3,1,75,1,0
1386726,454.545454545455,4,2,1,75,1,0
1386726,-66.6666666666667,4,2,1,75,0,0
1390362,-50,4,2,1,75,0,0
1445186,223.880597014925,4,3,1,75,1,0
1446977,-200,4,2,1,75,0,0
1454141,-133.333333333333,4,2,1,75,0,0
1459514,-133.333333333333,4,3,2,75,0,0
1461305,-100,4,3,2,75,0,0
1495688,211.267605633803,4,3,2,75,1,0
1496533,-66.6666666666667,4,3,2,75,0,0
1497378,-100,4,3,2,75,0,0
1531603,-133.333333333333,4,2,1,55,0,0
1534561,-100,4,3,1,75,0,0
1546814,-100,4,3,2,75,0,0
1548082,-133.333333333333,4,3,1,75,0,0
1553191,190.597204574333,4,3,1,75,1,0
1563864,-400,4,2,1,35,0,0
1573013,-285.714285714286,4,2,1,45,0,0
1573775,-222.222222222222,4,2,1,55,0,0
1574728,-181.818181818182,4,2,1,65,0,0
1576062,-153.846153846154,4,2,1,75,0,0
1582161,-133.333333333333,4,2,1,75,0,0
1585211,-117.647058823529,4,2,1,75,0,0
1603318,-100,4,3,1,75,0,0
1603508,-100,4,3,1,75,0,0
1617994,-133.333333333333,4,3,1,75,0,0
1618756,-100,4,3,2,75,0,0
1624855,-90.9090909090909,4,3,2,75,0,0
1630954,-100,4,3,2,75,0,1
1646011,-100,4,3,2,75,0,0

[Colours]
Combo1 : 255,0,255
Combo2 : 255,128,0
Combo3 : 128,0,255
Combo4 : 0,255,255

[HitObjects]
211,202,1027985,6,0,P|247:209|295:200,1,85,2|0,0:0|0:0,0:0:0:0:
349,139,1028547,1,2,0:0:0:0:
349,139,1028735,2,0,P|371:174|372:216,1,85,2|0,0:0|0:0,0:0:0:0:
254,296,1029297,1,2,0:0:0:0:
254,296,1029485,6,0,P|231:331|230:373,1,85,2|0,0:0|0:0,0:0:0:0:
312,359,1030047,1,2,0:0:0:0:
312,359,1030235,2,0,L|399:355,1,85,2|0,0:0|0:0,0:0:0:0:
151,271,1030985,6,0,P|176:237|182:195,1,85,2|0,0:0|0:0,0:0:0:0:
160,114,1031547,1,0,0:0:0:0:
220,52,1031735,2,0,P|259:36|301:42,1,85,2|0,0:0|0:0,0:0:0:0:
376,87,1032297,1,2,0:0:0:0:
373,173,1032485,6,0,P|389:211|422:238,1,85,2|0,0:0|0:0,0:0:0:0:
256,269,1033047,1,2,0:0:0:0:
340,282,1033235,6,0,P|349:301|354:321,1,42.5,2|0,0:0|0:0,0:0:0:0:
157,321,1033610,2,0,P|162:301|171:282,1,42.5,2|0,0:0|0:0,0:0:0:0:
310,206,1033985,6,0,P|366:189|424:201,1,118.999996368408,2|0,0:0|0:0,0:0:0:0:
361,99,1034547,1,2,0:0:0:0:
278,133,1034735,2,0,P|220:145|163:128,1,118.999996368408,2|0,0:0|0:0,0:0:0:0:
93,73,1035297,5,2,0:0:0:0:
160,14,1035485,2,0,P|176:70|164:128,1,118.999996368408,2|0,0:0|0:0,0:0:0:0:
125,300,1036047,1,2,0:0:0:0:
144,214,1036235,2,0,L|207:209,1,59.4999981842042,2|0,0:0|0:0,0:0:0:0:
271,151,1036610,2,0,L|334:156,1,59.4999981842042,0|2,0:0|0:0,0:0:0:0:
398,97,1036985,6,0,P|416:131|397:217,1,118.999996368408,2|0,0:0|0:0,0:0:0:0:
320,243,1037547,1,2,0:0:0:0:
253,184,1037735,2,0,L|248:121,1,59.4999981842042,2|0,0:0|0:0,0:0:0:0:
185,243,1038110,2,0,L|180:306,1,59.4999981842042,2|0,0:0|0:0,0:0:0:0:
102,207,1038485,6,0,P|86:151|108:97,1,118.999996368408,2|0,0:0|0:0,0:0:0:0:
188,58,1039047,1,2,0:0:0:0:
291,260,1039235,5,10,0:0:0:0:
363,208,1039422,1,0,0:0:0:0:
336,124,1039610,1,8,0:0:0:0:
248,124,1039797,1,0,0:0:0:0:
220,208,1039985,6,0,L|46:231,1,170,6|0,0:0|0:0,0:0:0:0:
124,134,1040547,1,2,0:0:0:0:
146,303,1040735,2,0,L|320:326,1,170,10|0,0:0|0:0,0:0:0:0:
482,347,1041297,1,2,0:0:0:0:
373,167,1041485,6,0,L|397:335,1,170,10|0,0:0|0:0,0:0:0:0:
459,179,1042047,1,2,0:0:0:0:
290,157,1042235,2,0,L|302:241,1,85,10|0,0:0|0:0,0:0:0:0:
397,335,1042610,2,0,L|409:250,1,85,8|0,0:0|0:0,0:0:0:0:
189,159,1042985,6,0,P|220:234|174:302,1,170,10|0,0:0|0:0,0:0:0:0:
138,225,1043547,1,0,0:0:0:0:
302,241,1043735,2,0,L|476:258,1,170,10|0,0:0|0:0,0:0:0:0:
394,164,1044297,1,2,0:0:0:0:
302,241,1044485,5,10,0:0:0:0:
317,72,1044672,2,0,L|421:61,1,85
256,0,1045047,1,2,0:0:0:0:
195,72,1045235,6,0,L|90:61,1,85,10|0,0:0|0:0,0:0:0:0:
206,163,1045610,2,0,L|223:256,1,85,8|0,0:0|0:0,0:0:0:0:
302,241,1045891,1,0,0:0:0:0:
302,241,1045985,6,0,L|395:231,1,85,6|0,0:0|0:0,0:0:0:0:
450,168,1046547,1,2,0:0:0:0:
450,168,1046735,2,0,P|452:147|460:128,1,42.5,2|0,0:0|0:0,0:0:0:0:
365,144,1047110,2,0,P|363:122|355:103,1,42.5,0|2,0:0|0:0,0:0:0:0:
274,143,1047485,5,2,0:0:0:0:
211,78,1047672,1,0,0:0:0:0:
129,117,1047860,1,0,0:0:0:0:
141,206,1048047,1,2,0:0:0:0:
231,223,1048235,6,0,L|234:269,1,42.5,2|0,0:0|0:0,0:0:0:0:
324,206,1048516,5,2,0:0:0:0:
324,206,1048610,2,0,L|317:307,1,85,10|0,0:0|0:0,0:0:0:0:
417,189,1048891,5,2,0:0:0:0:
417,189,1048985,2,0,L|427:344,1,127.500004863739,14|0,0:0|0:0,0:0:0:0:
512,175,1049266,5,0,0:0:0:0:
512,175,1049360,2,0,L|522:19,1,127.500004863739,8|0,0:0|0:0,0:0:0:0:
383,46,1049641,5,0,0:0:0:0:
383,46,1049735,2,0,P|323:26|263:45,1,127.500004863739,8|0,0:0|0:0,0:0:0:0:
321,138,1050016,5,0,0:0:0:0:
321,138,1050110,2,0,P|380:157|440:138,1,127.500004863739,8|0,0:0|0:0,0:0:0:0:
191,137,1050391,5,0,0:0:0:0:
191,137,1050485,2,0,P|158:213|188:291,1,170,8|0,0:0|0:0,0:0:0:0:
324,291,1050766,5,0,0:0:0:0:
324,291,1050860,2,0,P|354:214|321:138,1,170,8|0,0:0|0:0,0:0:0:0:
179,53,1051141,5,0,0:0:0:0:
179,53,1051235,2,0,L|192:147,1,85,8|0,0:0|0:0,0:0:0:0:
321,137,1051422,2,0,L|333:53,1,85,8|0,0:0|0:0,0:0:0:0:
136,204,1051610,5,8,0:0:0:0:
128,288,1051703,1,8,0:0:0:0:
197,336,1051797,1,10,0:0:0:0:
275,300,1051891,1,8,0:0:0:0:
344,347,1051985,6,0,P|386:340|418:313,1,85,6|0,0:0|0:0,0:0:0:0:
359,176,1052172,1,8,0:0:0:0:
288,126,1052266,1,0,0:0:0:0:
209,162,1052360,2,0,L|202:262,1,85,2|0,0:0|0:0,0:0:0:0:
367,90,1052547,2,0,L|361:5,1,85,8|0,0:0|0:0,0:0:0:0:
135,128,1052735,6,0,P|167:154|208:162,1,85,2|0,0:0|0:0,0:0:0:0:
269,28,1052922,2,0,P|230:43|203:76,1,85,8|0,0:0|0:0,0:0:0:0:
102,256,1053110,1,2,0:0:0:0:
183,239,1053203,1,2,0:0:0:0:
238,301,1053297,2,0,L|244:386,1,85,8|0,0:0|0:0,0:0:0:0:
362,218,1053485,6,0,L|447:212,1,85,2|0,0:0|0:0,0:0:0:0:
314,147,1053672,1,8,0:0:0:0:
276,224,1053766,1,0,0:0:0:0:
323,295,1053860,2,0,L|408:301,1,85,2|0,0:0|0:0,0:0:0:0:
352,70,1054047,2,0,P|306:61|252:86,1,85,8|0,0:0|0:0,0:0:0:0:
198,198,1054235,6,0,P|208:157|197:117,1,85,2|0,0:0|0:0,0:0:0:0:
119,1,1054422,2,0,P|108:41|118:83,1,85,8|0,0:0|0:0,0:0:0:0:
68,314,1054610,1,2,0:0:0:0:
0,259,1054703,1,2,0:0:0:0:
29,180,1054797,1,8,0:0:0:0:
114,183,1054891,1,8,0:0:0:0:
137,265,1054985,6,0,P|223:286|286:205,1,170,6|8,0:0|0:0,0:0:0:0:
288,81,1055266,1,2,0:0:0:0:
209,114,1055360,2,0,L|198:198,1,85,2|0,0:0|0:0,0:0:0:0:
289,320,1055547,2,0,L|278:235,1,85,8|0,0:0|0:0,0:0:0:0:
114,183,1055735,6,0,P|60:230|89:336,1,170,6|8,0:0|0:0,0:0:0:0:
137,265,1056016,1,2,0:0:0:0:
204,319,1056110,2,0,L|309:320,1,85,2|0,0:0|0:0,0:0:0:0:
292,221,1056297,2,0,L|360:273,1,85,10|0,0:0|0:0,0:0:0:0:
376,103,1056485,6,0,L|359:272,1,170,6|8,0:0|0:0,0:0:0:0:
296,134,1056766,1,2,0:0:0:0:
296,134,1056860,2,0,P|290:92|305:53,1,85,2|0,0:0|0:0,0:0:0:0:
456,72,1057047,2,0,P|461:113|446:152,1,85,8|0,0:0|0:0,0:0:0:0:
292,221,1057235,6,0,L|122:204,1,170,6|8,0:0|0:0,0:0:0:0:
37,195,1057516,1,0,0:0:0:0:
93,128,1057610,2,0,P|118:162|123:204,1,85,2|0,0:0|0:0,0:0:0:0:
20,335,1057797,2,0,P|37:297|71:272,1,85,8|0,0:0|0:0,0:0:0:0:
241,288,1057985,6,0,P|270:302|347:287,1,85,6|0,0:0|0:0,0:0:0:0:
262,141,1058172,1,8,0:0:0:0:
207,206,1058266,1,0,0:0:0:0:
291,221,1058360,2,0,P|326:197|345:159,1,85,2|0,0:0|0:0,0:0:0:0:
232,60,1058547,2,0,P|197:83|178:121,1,85,8|0,0:0|0:0,0:0:0:0:
90,106,1058735,6,0,P|92:147|115:183,1,85,2|0,0:0|0:0,0:0:0:0:
183,284,1058922,2,0,P|185:242|208:206,1,85,8|0,0:0|0:0,0:0:0:0:
269,64,1059110,2,0,B|281:161,1,85,2|0,0:0|0:0,0:0:0:0:
349,275,1059297,2,0,B|368:181,1,85,10|0,0:0|0:0,0:0:0:0:
389,45,1059485,6,0,B|432:41|432:41|469:59,1,85,2|0,0:0|0:0,0:0:0:0:
467,280,1059672,1,8,0:0:0:0:
425,356,1059766,1,0,0:0:0:0:
339,358,1059860,2,0,P|298:342|269:302,1,85,2|0,0:0|0:0,0:0:0:0:
220,172,1060047,2,0,P|261:189|290:229,1,85,10|0,0:0|0:0,0:0:0:0:
211,365,1060235,6,0,P|193:324|201:276,1,85,2|0,0:0|0:0,0:0:0:0:
348,165,1060422,2,0,P|365:207|357:255,1,85,8|0,0:0|0:0,0:0:0:0:
99,291,1060610,5,2,0:0:0:0:
59,198,1060703,1,2,0:0:0:0:
135,133,1060797,1,2,0:0:0:0:
221,186,1060891,1,2,0:0:0:0:
197,284,1060985,1,14,0:0:0:0:
197,284,1061735,5,2,0:0:0:0:
280,224,1061922,1,0,0:0:0:0:
298,237,1062016,1,0,0:0:0:0:
317,245,1062109,1,2,0:0:0:0:
338,248,1062203,1,0,0:0:0:0:
359,247,1062297,1,0,0:0:0:0:
379,240,1062390,1,0,0:0:0:0:
397,229,1062485,5,12,0:0:0:0:
