osu file format v14

[General]
AudioFilename: audio.mp3
AudioLeadIn: 0
PreviewTime: 1496216
Countdown: 1
SampleSet: None
StackLeniency: 0.7
Mode: 0
LetterboxInBreaks: 0
WidescreenStoryboard: 1

[Editor]
DistanceSpacing: 1
BeatDivisor: 4
GridSize: 32
TimelineZoom: 1

[Metadata]
Title:Alternator Marathon
TitleUnicode:Alternator Marathon
Artist:Various Artists
ArtistUnicode:Various Artists
Creator:Monstrata
Version:13. AMAZING BREAK - TERRASPEX (306 BPM)
Source:
Tags:sytarno l'arc en ciel FujuniseikouyuuP invasion of stray cats rica matsumoto satoshi kana boon yoko takahashi my first story boom satellites last alliance rottengraffty jam project spyair koji wada oral cigarettes flow linked horizon granrodeo nico touches walls do as infinity yousei teikoku terraspex fear loathing las vegas tk ling tosite sigure unravel man with mission goku full metal alchemist fma perfect insider pokemon neon genesis evangelion kiznaiver tokyo ghoul attack on titan dragonball super inuyasha haikyuu kuroko no basuke basketball naruto fighting dreamers noragami aragoto terraformars digimon gundam iron blooded orphans hajime no ippo one punch man amazing break kyouran hey kids sacred star milos aot compilation
BeatmapID:1901471
BeatmapSetID:911083

[Difficulty]
HPDrainRate:3
CircleSize:4
OverallDifficulty:8.5
ApproachRate:9.5
SliderMultiplier:1.7
SliderTickRate:1

[Events]
//Background and Video events
0,0,"YM6MZEr.jpg",0,0
//Break Periods
//Storyboard Layer 0 (Background)
Sprite,Background,Centre,"YM6MZEr.jpg",0,0
Sprite,Background,Centre,"sb\1.jpg",320,240 F,0,478,2478,0,1 S,0,478,87145,0.47 F,0,2478,87145,1 F,0,87145,92145,1,0
Sprite,Background,Centre,"sb\2.jpg",320,240 F,0,94987,102667,0,1 S,0,94987,148747,0.48 F,0,102667,148747,1 F,0,148747,153747,1,0
Sprite,Background,Centre,"sb\3.jpg",320,240 F,0,157987,162640,0,1 S,0,157987,183427,0.55 F,0,162640,183427,1 F,0,183427,185427,1,0
Sprite,Background,Centre,"sb\4.jpg",320,240 F,0,188027,198312,0,1 S,0,188027,218884,0.5 F,0,198312,218884,1 F,0,218884,223884,1,0
Sprite,Background,Centre,"sb\5.jpg",320,240 F,0,226598,239479,0,1 S,0,226598,315375,0.5 F,0,239479,315375,1 F,0,315375,320375,1,0
Sprite,Background,Centre,"sb\6.jpg",320,240 F,0,323894,334970,0,1 S,0,323894,390355,0.86 F,0,334970,390355,1 F,0,390355,395355,1,0
Sprite,Background,Centre,"sb\7.jpg",320,240 F,0,398663,406190,0,1 S,0,398663,486190,0.47 F,0,406190,486190,1 F,0,486190,491190,1,0
Sprite,Background,Centre,"sb\8.jpg",320,240 F,0,496745,501204,0,1 S,0,496745,555672,0.47 F,0,501204,555672,1 F,0,555672,560672,1,0
Sprite,Background,Centre,"sb\9.jpg",320,240 F,0,561702,563702,0,1 S,0,561702,615615,0.47 F,0,563702,615615,1 F,0,615615,617354,1,0
Sprite,Background,Centre,"sb\10.jpg",320,240 F,0,617354,620832,0,1 S,0,617354,634745,0.47 F,0,620832,634745,1 F,0,634745,639745,1,0
Sprite,Background,Centre,"sb\11.jpg",320,240 F,0,642038,649681,0,1 S,0,642038,710827,0.59 F,0,649681,710827,1 F,0,710827,717827,1,0
Sprite,Background,Centre,"sb\12.jpg",320,240 F,0,718796,734719,0,1 S,0,718796,811796,0.46 F,0,734719,811796,1 F,0,811796,815796,1,0
Sprite,Background,Centre,"sb\13.jpg",320,240 F,0,817698,825082,0,1 S,0,817698,863851,0.46 F,0,825082,863851,1 F,0,863851,867151,1,0
Sprite,Background,Centre,"sb\14.jpg",320,240 F,0,868129,877344,0,1 S,0,868129,915776,0.55 F,0,877344,915776,1 F,0,915776,919776,1,0
Sprite,Background,Centre,"sb\15.jpg",320,240 F,0,921854,924552,0,1 S,0,921854,980052,0.46 F,0,924552,980052,1 F,0,980052,982052,1,0
Sprite,Background,Centre,"sb\16.jpg",320,240 F,0,985302,989839,0,1 S,0,985302,1021839,0.46 F,0,989839,1021839,1 F,0,1021839,1025839,1,0
Sprite,Background,Centre,"sb\17.jpg",320,240 F,0,1027985,1029985,0,1 S,0,1027985,1062485,0.46 F,0,1029985,1062485,1 F,0,1062485,1066485,1,0
Sprite,Background,Centre,"sb\18.jpg",320,240 F,0,1066712,1069194,0,1 S,0,1066712,1099815,0.5 F,0,1069194,1099815,1 F,0,1099815,1103746,1,0
Sprite,Background,Centre,"sb\19.jpg",320,240 F,0,1105505,1108923,0,1 S,0,1105505,1136868,0.46 F,0,1108923,1136868,1 F,0,1136868,1139848,1,0
Sprite,Background,Centre,"sb\20.jpg",320,240 F,0,1140618,1143923,0,1 S,0,1140618,1174780,0.525 F,0,1143923,1174780,1 F,0,1174780,1178209,1,0
Sprite,Background,Centre,"sb\21.jpg",320,240 F,0,1180994,1192179,0,1 S,0,1180994,1272716,0.46 F,0,1192179,1272716,1 F,0,1272716,1279159,1,0
Sprite,Background,Centre,"sb\22.jpg",320,240 F,0,1282783,1285172,0,1 S,0,1282783,1317172,0.612 F,0,1285172,1317172,1 F,0,1317172,1320372,1,0
Sprite,Background,Centre,"sb\23.jpg",320,240 F,0,1324972,1328301,0,1 S,0,1324972,1372608,0.46 F,0,1328301,1372608,1 F,0,1372608,1375839,1,0
Sprite,Background,Centre,"sb\24.jpg",320,240 F,0,1377974,1386726,0,1 S,0,1377974,1433998,0.62 F,0,1386726,1433998,1 F,0,1433998,1440703,1,0
Sprite,Background,Centre,"sb\25.jpg",320,240 F,0,1443771,1446977,0,1 S,0,1443771,1489962,0.522 F,0,1446977,1489962,1 F,0,1489962,1493488,1,0
Sprite,Background,Centre,"sb\26.jpg",320,240 F,0,1494327,1497378,0,1 S,0,1494327,1549666,0.46 F,0,1497378,1549666,1 F,0,1549666,1550617,1,0
Sprite,Background,Centre,"sb\27.jpg",320,240 F,0,1552518,1563864,0,1 S,0,1552518,1646011,0.49 F,0,1563864,1646011,1 F,0,1646011,1646964,1,0
//Storyboard Layer 1 (Fail)
//Storyboard Layer 2 (Pass)
//Storyboard Layer 3 (Foreground)
//Storyboard Sound Samples

[TimingPoints]
479,208.333333333333,4,3,0,75,1,0
6312,-100,4,3,1,75,0,0
7145,-100,4,3,0,75,0,0
20478,-100,4,3,1,75,0,0
33812,-133.333333333333,4,2,1,75,0,0
60478,-100,4,3,1,75,0,0
94987,240,4,3,1,75,1,0
141067,-76.9230769230769,4,3,1,75,0,0
141307,-100,4,3,1,75,0,0
162640,236.220472440945,4,3,1,75,1,0
188022,428.571428571429,4,3,1,75,1,0
198307,-50,4,2,1,75,0,0
238543,468.490134378587,4,3,0,35,1,0
238543,-50,4,3,0,35,0,0
240416,-50,4,2,1,75,0,0
247444,-50,4,3,0,75,0,0
247911,-100,4,2,1,45,0,0
276489,-66.6666666666667,4,2,1,75,0,0
276958,-50,4,2,1,75,0,0
277895,-66.6666666666667,4,2,1,75,0,0
291949,-50,4,2,1,75,0,0
323894,230.769230769231,4,3,1,75,1,0
334970,-200,4,3,1,45,0,0
358855,-133.333333333333,4,3,1,75,0,0
360355,-200,4,3,1,75,0,0
360701,-100,4,3,2,75,0,0
399079,444.444444444444,4,2,1,75,1,0
406190,-200,4,2,1,45,0,0
413301,-166.666666666667,4,2,1,45,0,0
420412,-142.857142857143,4,2,1,75,0,0
425745,-133.333333333333,4,2,1,75,0,0
427523,-200,4,2,1,45,0,0
429301,-66.6666666666667,4,3,1,75,0,0
430634,-200,4,3,1,75,0,0
431078,-50,4,3,1,75,0,0
438190,-66.6666666666667,4,2,1,75,0,0
439967,-200,4,2,1,35,0,0
453078,-500,4,2,1,35,0,0
453745,-100,4,2,1,75,0,0
459078,-66.6666666666667,4,3,1,75,0,0
460412,-50,4,3,1,75,0,0
484412,-100,4,3,1,75,0,0
501204,425.531914893617,4,3,1,75,1,0
501204,-66.6666666666667,4,3,1,75,0,0
508012,-57.1428571428571,4,3,1,75,0,0
514821,-50,4,3,1,75,0,0
528438,-57.1428571428571,4,3,1,75,0,0
542055,-100,4,3,1,75,0,0
547161,-83.3333333333333,4,3,1,75,0,0
548863,-71.4285714285714,4,3,1,75,0,0
550565,-62.5,4,3,1,75,0,0
552267,-55.5555555555556,4,3,1,75,0,0
561702,434.782608695652,4,3,1,75,1,0
575615,-83.3333333333333,4,3,1,75,0,0
589528,-58.8235294117647,4,3,1,75,0,0
617354,-50,4,3,1,75,0,0
620832,217.391304347826,4,3,2,75,1,0
634745,-200,4,3,1,75,0,0
642038,191.082802547771,4,3,2,75,1,0
649681,-200,4,3,2,75,0,0
651209,-100,4,3,2,75,0,0
687515,-200,4,3,2,75,0,0
687897,-100,4,3,2,75,0,0
700127,-125,4,3,2,75,0,0
705477,-200,4,3,2,75,0,0
705859,-133.333333333333,4,3,2,75,0,0
706241,-100,4,3,2,75,0,0
718566,230.769230769231,4,3,2,75,1,0
751796,-117.647058823529,4,3,2,75,0,0
781335,-153.846153846154,4,3,2,75,0,0
788719,-117.647058823529,4,3,2,75,0,0
796104,-133.333333333333,4,3,2,75,0,0
803489,-100,4,3,2,75,0,0
810873,-133.333333333333,4,3,2,75,0,0
817698,230.769230769231,4,3,1,75,1,0
828774,-133.333333333333,4,3,1,75,0,0
830621,-114.285714285714,4,3,1,75,0,0
833851,-200,4,3,1,75,0,0
834313,-100,4,3,1,75,0,0
867933,196.078431372549,4,3,2,75,1,0
878913,-133.333333333333,4,3,2,75,0,0
888325,-300,4,3,2,75,0,0
890678,-100,4,3,2,75,0,0
895776,-83.3333333333333,4,3,2,75,0,0
896168,-71.4285714285714,4,3,2,75,0,0
896462,-100,4,3,2,75,0,0
901658,-76.9230769230769,4,3,2,75,0,0
902638,-100,4,3,2,75,0,0
914991,-200,4,3,2,75,0,0
924552,187.5,4,3,1,75,1,0
924552,-200,4,3,1,75,0,0
927552,-166.666666666667,4,3,1,75,0,0
930552,-133.333333333333,4,3,1,75,0,0
932052,-117.647058823529,4,3,1,75,0,0
936552,-100,4,3,1,75,0,0
961677,-133.333333333333,4,3,1,75,0,0
962052,-100,4,3,1,75,0,0
964677,-133.333333333333,4,3,1,75,0,0
965052,-100,4,3,1,75,0,0
985839,250,4,3,1,75,1,0
989339,-133.333333333333,4,3,1,75,0,0
996339,-114.285714285714,4,3,1,75,0,0
996839,-100,4,3,1,75,0,0
1019839,-133.333333333333,4,3,1,75,0,0
1020839,-200,4,3,1,75,0,0
1027985,187.5,4,2,1,45,1,0
1027985,-400,4,2,1,45,0,0
1033985,-285.714285714286,4,2,1,45,0,0
1039985,-200,4,2,1,45,0,0
1045985,-400,4,2,1,45,0,0
1048610,-200,4,2,1,45,0,0
1048985,-133.333333333333,4,3,1,75,0,0
1050485,-100,4,3,1,75,0,0
1051985,-100,4,3,2,75,0,0
1066712,206.896551724138,4,3,2,75,1,0
1105636,205.479452054795,4,3,1,75,1,0
1108923,-133.333333333333,4,3,1,75,0,0
1110156,-100,4,3,1,75,0,0
1132553,-153.846153846153,4,3,1,75,0,0
1133067,-133.333333333333,4,3,1,75,0,0
1133581,-100,4,3,1,75,0,0
1141352,214.285714285714,4,3,2,75,1,0
1143923,-133.333333333333,4,3,2,75,0,0
1147352,-100,4,3,2,75,0,0
1160423,-125,4,3,2,75,0,0
1161066,-142.857142857143,4,3,2,75,0,0
1167923,-100,4,3,2,75,0,0
1173066,-166.666666666667,4,3,2,75,0,0
1182515,201.342281879195,4,3,1,75,1,0
1192179,-200,4,2,1,45,0,0
1205065,-100,4,3,2,75,0,0
1227615,-200,4,2,1,45,0,0
1250166,-100,4,3,2,75,0,0
1283572,200,4,3,1,75,1,0
1285172,-133.333333333333,4,3,1,75,0,0
1288372,-114.285714285714,4,3,1,75,0,0
1290022,200,4,3,1,75,1,0
1290022,-114.285714285714,4,3,1,75,0,0
1291172,-114.285714285714,4,3,2,75,0,0
1291195,200,4,3,2,75,1,0
1291572,200,4,3,1,75,1,0
1291572,-100,4,3,1,75,0,0
1316572,-133.333333333333,4,3,1,75,0,0
1328301,230.769230769231,4,3,1,75,1,0
1386726,454.545454545455,4,2,1,75,1,0
1386726,-66.6666666666667,4,2,1,75,0,0
1390362,-50,4,2,1,75,0,0
1445186,223.880597014925,4,3,1,75,1,0
1446977,-200,4,2,1,75,0,0
1454141,-133.333333333333,4,2,1,75,0,0
1459514,-133.333333333333,4,3,2,75,0,0
1461305,-100,4,3,2,75,0,0
1495688,211.267605633803,4,3,2,75,1,0
1496533,-66.6666666666667,4,3,2,75,0,0
1497378,-100,4,3,2,75,0,0
1531603,-133.333333333333,4,2,1,55,0,0
1534561,-100,4,3,1,75,0,0
1546814,-100,4,3,2,75,0,0
1548082,-133.333333333333,4,3,1,75,0,0
1553191,190.597204574333,4,3,1,75,1,0
1563864,-400,4,2,1,35,0,0
1573013,-285.714285714286,4,2,1,45,0,0
1573775,-222.222222222222,4,2,1,55,0,0
1574728,-181.818181818182,4,2,1,65,0,0
1576062,-153.846153846154,4,2,1,75,0,0
1582161,-133.333333333333,4,2,1,75,0,0
1585211,-117.647058823529,4,2,1,75,0,0
1603318,-100,4,3,1,75,0,0
1603508,-100,4,3,1,75,0,0
1617994,-133.333333333333,4,3,1,75,0,0
1618756,-100,4,3,2,75,0,0
1624855,-90.9090909090909,4,3,2,75,0,0
1630954,-100,4,3,2,75,0,1
1646011,-100,4,3,2,75,0,0

[Colours]
Combo1 : 255,0,255
Combo2 : 255,128,0
Combo3 : 128,0,255
Combo4 : 0,255,255

[HitObjects]
256,192,874207,12,0,875580,0:0:0:0:
346,292,875776,6,0,L|318:125,1,170,2|0,0:0|0:0,0:0:0:0:
242,175,876070,2,0,L|275:368,1,170,2|0,0:0|0:0,0:0:0:0:
180,308,876364,2,0,L|166:225,1,85,2|0,0:0|0:0,0:0:0:0:
318,125,876560,5,8,0:0:0:0:
144,180,877344,5,8,0:0:0:0:
318,125,877540,1,8,0:0:0:0:
95,247,878129,5,8,0:0:0:0:
384,311,878325,1,8,0:0:0:0:
30,359,878913,6,0,P|89:335|151:346,1,127.500004863739,8|0,0:0|0:0,0:0:0:0:
132,157,879305,2,0,P|194:165|242:206,1,127.500004863739,8|0,0:0|0:0,0:0:0:0:
320,32,879697,2,0,P|369:70|391:130,1,127.500004863739,8|0,0:0|0:0,0:0:0:0:
383,296,880089,5,0,0:0:0:0:
383,296,880482,6,0,L|316:289,1,63.7500024318696,2|0,0:0|0:0,0:0:0:0:
256,225,880678,1,10,0:0:0:0:
256,225,880776,1,2,0:0:0:0:
256,225,880874,2,0,L|189:232,1,63.7500024318696,2|0,0:0|0:0,0:0:0:0:
108,202,881070,2,0,L|115:269,1,63.7500024318696,8|0,0:0|0:0,0:0:0:0:
181,377,881266,6,0,L|188:314,1,63.7500024318696,2|0,0:0|0:0,0:0:0:0:
196,149,881462,1,8,0:0:0:0:
212,147,881560,1,2,0:0:0:0:
228,146,881658,1,2,0:0:0:0:
244,144,881756,1,2,0:0:0:0:
260,143,881854,2,0,L|323:136,1,63.7500024318696,8|0,0:0|0:0,0:0:0:0:
319,18,882050,6,0,P|300:78|323:136,1,127.500004863739,6|0,0:0|0:0,0:0:0:0:
193,366,882442,2,0,P|212:306|189:248,1,127.500004863739,12|0,0:0|0:0,0:0:0:0:
81,129,882834,2,0,P|141:148|199:125,1,127.500004863739,6|0,0:0|0:0,0:0:0:0:
430,254,883227,2,0,P|370:235|312:258,1,127.500004863739,12|0,0:0|0:0,0:0:0:0:
374,340,883619,5,0,0:0:0:0:
374,340,883815,2,0,L|386:406,2,42.5000016212464
430,254,884011,2,0,L|443:103,1,127.500004863739,12|0,0:0|0:0,0:0:0:0:
326,71,884403,5,0,0:0:0:0:
326,71,884599,2,0,L|318:29,2,42.5000016212464
219,141,884795,2,0,L|208:268,1,127.500004863739,12|0,0:0|0:0,0:0:0:0:
1,70,885187,6,0,P|61:52|121:72,1,127.500004863739,4|0,0:0|0:0,0:0:0:0:
390,311,885580,2,0,P|450:331|511:314,1,127.500004863739,4|0,0:0|0:0,0:0:0:0:
256,192,885972,5,4,0:0:0:0:
165,233,886364,1,12,0:0:0:0:
347,151,886560,1,0,0:0:0:0:
159,6,886756,6,0,L|174:133,1,127.500004863739,2|0,0:0|0:0,0:0:0:0:
256,192,887050,1,2,0:0:0:0:
256,192,887148,2,0,L|246:278,1,63.7500024318696,8|0,0:0|0:0,0:0:0:0:
158,296,887344,2,0,L|165:232,1,63.7500024318696,8|0,0:0|0:0,0:0:0:0:
238,355,887540,5,0,0:0:0:0:
238,355,887638,2,0,L|297:330,1,63.7500024318696,8|0,0:0|0:0,0:0:0:0:
377,368,887834,1,2,0:0:0:0:
377,368,887933,2,0,L|435:342,1,63.7500024318696,8|0,0:0|0:0,0:0:0:0:
374,214,888129,2,0,L|367:278,1,63.7500024318696,8|0,0:0|0:0,0:0:0:0:
249,256,888325,6,0,P|156:206|256:177,1,255
321,209,889501,5,0,0:0:0:0:
270,338,889697,1,0,0:0:0:0:
247,168,889893,1,0,0:0:0:0:
142,271,890285,5,0,0:0:0:0:
121,9,890481,1,0,0:0:0:0:
0,296,890678,6,0,L|14:384,1,85,6|0,0:0|0:0,0:0:0:0:
142,271,890874,2,0,P|107:246|65:242,1,85,8|0,0:0|0:0,0:0:0:0:
157,352,891070,1,2,0:0:0:0:
218,297,891168,1,2,0:0:0:0:
200,216,891266,2,0,L|177:112,1,85,8|0,0:0|0:0,0:0:0:0:
85,159,891462,6,0,L|66:241,1,85,2|0,0:0|0:0,0:0:0:0:
218,297,891658,2,0,P|267:263|282:217,1,85,8|0,0:0|0:0,0:0:0:0:
313,20,891854,1,2,0:0:0:0:
247,74,891952,1,2,0:0:0:0:
261,159,892050,1,8,0:0:0:0:
342,188,892148,1,0,0:0:0:0:
407,132,892246,6,0,P|459:139|492:173,1,85,2|0,0:0|0:0,0:0:0:0:
435,302,892442,2,0,P|383:295|350:261,1,85,8|0,0:0|0:0,0:0:0:0:
261,159,892638,1,2,0:0:0:0:
325,104,892736,1,0,0:0:0:0:
407,132,892834,2,0,L|421:215,1,85,8|0,0:0|0:0,0:0:0:0:
197,214,893031,6,0,P|177:158|192:110,1,85,2|0,0:0|0:0,0:0:0:0:
298,15,893227,2,0,P|274:50|237:70,1,85,8|0,0:0|0:0,0:0:0:0:
11,103,893423,1,2,0:0:0:0:
68,38,893521,1,0,0:0:0:0:
154,55,893619,2,0,L|274:77,1,85,8|0,0:0|0:0,0:0:0:0:
421,215,893815,6,0,L|541:193,1,85,2|0,0:0|0:0,0:0:0:0:
407,132,894011,1,8,0:0:0:0:
328,268,894109,2,0,L|208:246,1,85,2|0,0:0|0:0,0:0:0:0:
258,169,894305,1,0,0:0:0:0:
258,169,894403,2,0,L|341:184,1,85,10|0,0:0|0:0,0:0:0:0:
434,298,894599,6,0,L|554:276,1,85,2|0,0:0|0:0,0:0:0:0:
472,79,894795,1,8,0:0:0:0:
393,49,894893,1,10,0:0:0:0:
327,102,894991,1,8,0:0:0:0:
261,155,895089,1,10,0:0:0:0:
182,125,895187,2,0,L|167:25,1,85,8|0,0:0|0:0,0:0:0:0:
327,102,895383,6,0,P|341:183|281:238,1,170,6|0,0:0|0:0,0:0:0:0:
327,102,895776,6,0,P|364:196|348:296,1,203.999993774414,6|0,0:0|0:0,0:0:0:0:
327,102,896168,6,0,L|454:302,1,237.999992736817,6|0,0:0|0:0,0:0:0:0:
84,249,896560,5,10,0:0:0:0:
138,183,896658,1,8,0:0:0:0:
223,197,896756,1,8,0:0:0:0:
252,278,896854,1,8,0:0:0:0:
201,346,896952,6,0,P|159:350|120:334,1,85,6|0,0:0|0:0,0:0:0:0:
307,212,897148,2,0,P|330:246|336:288,1,85,8|0,0:0|0:0,0:0:0:0:
223,197,897344,1,2,0:0:0:0:
277,131,897442,1,2,0:0:0:0:
361,144,897540,2,0,L|459:158,1,85,8|0,0:0|0:0,0:0:0:0:
247,52,897736,6,0,L|149:66,1,85,2|0,0:0|0:0,0:0:0:0:
139,210,897932,2,0,L|223:197,1,85,8|0,0:0|0:0,0:0:0:0:
86,144,898128,1,2,0:0:0:0:
54,222,898227,1,2,0:0:0:0:
22,300,898325,2,0,P|57:305|108:285,1,85,8|0,0:0|0:0,0:0:0:0:
304,210,898521,6,0,P|264:194|222:198,1,85,2|0,0:0|0:0,0:0:0:0:
203,342,898717,2,0,P|242:357|284:353,1,85,8|0,0:0|0:0,0:0:0:0:
385,198,898913,2,0,P|343:194|304:210,1,85,2|0,0:0|0:0,0:0:0:0:
321,353,899109,2,0,P|363:357|403:342,1,85,8|0,0:0|0:0,0:0:0:0:
394,117,899305,6,0,B|378:156|378:156|385:198,1,85,2|0,0:0|0:0,0:0:0:0:
482,377,899501,2,0,B|489:334|489:334|473:295,1,85,8|0,0:0|0:0,0:0:0:0:
304,209,899697,1,2,0:0:0:0:
267,286,899796,1,2,0:0:0:0:
321,353,899893,2,0,P|363:357|403:342,1,85,8|0,0:0|0:0,0:0:0:0:
212,218,900089,6,0,P|170:213|130:229,1,85,2|0,0:0|0:0,0:0:0:0:
219,133,900285,1,8,0:0:0:0:
219,133,900383,2,0,L|212:217,1,85,2|0,0:0|0:0,0:0:0:0:
286,83,900579,1,0,0:0:0:0:
299,167,900678,2,0,L|292:251,1,85,10|0,0:0|0:0,0:0:0:0:
425,384,900874,5,2,0:0:0:0:
448,293,900972,1,0,0:0:0:0:
382,227,901070,1,8,0:0:0:0:
292,251,901168,1,0,0:0:0:0:
268,340,901266,6,0,P|228:355|186:350,1,85,2|0,0:0|0:0,0:0:0:0:
286,83,901462,2,0,P|325:68|367:73,1,85,10|0,0:0|0:0,0:0:0:0:
125,215,901658,6,0,L|100:88,1,110.499994941712,14|0,0:0|0:0,0:0:0:0:
184,21,901854,1,2,0:0:0:0:
286,83,901952,6,0,L|265:192,1,110.499994941712,14|0,0:0|0:0,0:0:0:0:
384,34,902148,1,2,0:0:0:0:
405,142,902246,6,0,L|426:250,1,110.499994941712,14|0,0:0|0:0,0:0:0:0:
146,323,902442,2,0,L|124:214,1,110.499994941712,14|0,0:0|0:0,0:0:0:0:
265,191,902638,5,8,0:0:0:0:
343,221,902736,1,8,0:0:0:0:
338,305,902834,1,10,0:0:0:0:
256,327,902932,1,8,0:0:0:0:
211,256,903031,1,10,0:0:0:0:
265,191,903128,1,8,0:0:0:0:
234,112,903227,6,0,P|192:102|151:110,1,85,2|0,0:0|0:0,0:0:0:0:
77,67,903423,1,8,0:0:0:0:
77,67,903521,1,0,0:0:0:0:
77,67,903619,2,0,P|67:108|75:150,1,85,2|0,0:0|0:0,0:0:0:0:
32,225,903815,2,0,P|73:234|114:226,1,85,8|0,0:0|0:0,0:0:0:0:
255,288,904011,6,0,P|214:279|173:287,1,85,2|0,0:0|0:0,0:0:0:0:
314,227,904207,1,8,0:0:0:0:
314,227,904305,2,0,P|342:195|356:156,1,85,2|0,0:0|0:0,0:0:0:0:
338,309,904501,1,0,0:0:0:0:
338,309,904599,2,0,P|350:349|377:381,1,85,10|0,0:0|0:0,0:0:0:0:
404,254,904795,6,0,L|504:238,1,85,2|0,0:0|0:0,0:0:0:0:
485,102,904991,2,0,L|401:88,1,85,8|0,0:0|0:0,0:0:0:0:
302,2,905187,2,0,L|316:86,1,85,2|0,0:0|0:0,0:0:0:0:
209,2,905383,2,0,L|196:86,1,85,8|0,0:0|0:0,0:0:0:0:
119,122,905579,5,2,0:0:0:0:
99,147,905677,1,0,0:0:0:0:
86,176,905775,1,8,0:0:0:0:
77,206,905873,1,0,0:0:0:0:
76,238,905971,1,2,0:0:0:0:
80,270,906069,1,0,0:0:0:0:
90,300,906167,1,8,0:0:0:0:
106,327,906265,1,0,0:0:0:0:
126,352,906364,6,0,P|168:342|210:345,1,85,2|0,0:0|0:0,0:0:0:0:
246,268,906560,1,8,0:0:0:0:
246,268,906658,1,0,0:0:0:0:
246,268,906756,2,0,P|288:278|330:274,1,85,2|0,0:0|0:0,0:0:0:0:
400,323,906952,2,0,P|409:281|406:239,1,85,8|0,0:0|0:0,0:0:0:0:
359,168,907148,6,0,L|369:83,1,85,2|0,0:0|0:0,0:0:0:0:
274,180,907344,1,8,0:0:0:0:
274,180,907442,2,0,L|260:70,1,85,2|0,0:0|0:0,0:0:0:0:
167,167,907638,1,0,0:0:0:0:
167,167,907736,2,0,L|178:83,1,85,10|0,0:0|0:0,0:0:0:0:
82,167,907932,6,0,P|89:208|117:239,1,85,2|0,0:0|0:0,0:0:0:0:
138,322,908128,1,8,0:0:0:0:
138,322,908227,1,0,0:0:0:0:
138,322,908325,2,0,P|179:313|218:327,1,85,2|0,0:0|0:0,0:0:0:0:
276,219,908521,6,0,P|253:299|282:377,1,170,10|0,0:0|0:0,0:0:0:0:
357,337,908815,1,0,0:0:0:0:
357,337,908913,2,0,L|441:343,1,85,10|0,0:0|0:0,0:0:0:0:
374,253,909109,2,0,L|458:246,1,85,2|0,0:0|0:0,0:0:0:0:
351,170,909305,2,0,P|365:130|360:88,1,85,10|0,0:0|0:0,0:0:0:0:
287,37,909501,6,0,P|273:77|278:119,1,85,2|0,0:0|0:0,0:0:0:0:
181,211,909697,1,8,0:0:0:0:
181,211,909795,1,0,0:0:0:0:
181,211,909893,2,0,P|221:197|263:202,1,85,2|0,0:0|0:0,0:0:0:0:
273,286,910089,2,0,P|233:299|191:295,1,85,8|0,0:0|0:0,0:0:0:0:
111,263,910285,6,0,L|102:362,1,85,2|0,0:0|0:0,0:0:0:0:
29,308,910481,1,8,0:0:0:0:
29,308,910580,2,0,L|21:223,1,85,2|0,0:0|0:0,0:0:0:0:
104,179,910776,1,0,0:0:0:0:
104,179,910874,2,0,L|111:263,1,85,10|0,0:0|0:0,0:0:0:0:
191,295,911070,6,0,P|233:299|273:286,1,85,2|0,0:0|0:0,0:0:0:0:
375,212,911266,2,0,P|333:216|294:203,1,85,8|0,0:0|0:0,0:0:0:0:
218,164,911462,2,0,P|243:130|250:88,1,85,2|0,0:0|0:0,0:0:0:0:
352,115,911658,2,0,P|327:81|320:40,1,85,8|0,0:0|0:0,0:0:0:0:
156,92,911854,5,2,0:0:0:0:
137,114,911952,1,0,0:0:0:0:
125,140,912050,1,8,0:0:0:0:
123,169,912148,1,0,0:0:0:0:
130,198,912246,1,2,0:0:0:0:
145,223,912344,1,0,0:0:0:0:
167,241,912442,1,8,0:0:0:0:
194,252,912540,1,0,0:0:0:0:
223,255,912638,6,0,L|323:247,1,85,2|0,0:0|0:0,0:0:0:0:
365,185,912834,1,8,0:0:0:0:
365,185,912932,1,0,0:0:0:0:
365,185,913030,2,0,L|449:191,1,85,2|0,0:0|0:0,0:0:0:0:
308,121,913227,2,0,L|223:114,1,85,8|0,0:0|0:0,0:0:0:0:
153,65,913423,6,0,P|139:108|154:165,1,85,2|0,0:0|0:0,0:0:0:0:
74,239,913619,1,8,0:0:0:0:
74,239,913717,2,0,P|113:225|155:230,1,85,2|0,0:0|0:0,0:0:0:0:
300,294,913913,1,0,0:0:0:0:
300,294,914011,2,0,P|258:299|219:286,1,85,10|0,0:0|0:0,0:0:0:0:
310,51,914207,6,0,P|352:46|391:59,1,85,2|0,0:0|0:0,0:0:0:0:
348,194,914403,1,8,0:0:0:0:
266,216,914501,1,8,0:0:0:0:
205,156,914599,1,8,0:0:0:0:
227,73,914697,1,8,0:0:0:0:
154,27,914795,1,8,0:0:0:0:
87,82,914893,1,8,0:0:0:0:
119,162,914991,6,0,B|148:250|87:240|115:329,1,170,6|0,0:0|0:0,0:0:0:0:
393,162,915776,5,14,0:0:0:0:
