osu file format v14

[General]
AudioFilename: audio.mp3
AudioLeadIn: 0
PreviewTime: 1496216
Countdown: 1
SampleSet: None
StackLeniency: 0.7
Mode: 0
LetterboxInBreaks: 0
WidescreenStoryboard: 1

[Editor]
DistanceSpacing: 1
BeatDivisor: 4
GridSize: 32
TimelineZoom: 1

[Metadata]
Title:Alternator Marathon
TitleUnicode:Alternator Marathon
Artist:Various Artists
ArtistUnicode:Various Artists
Creator:Monstrata
Version:10. KINIRO GRAFFITI - ROTTENGRAFFTY (314 BPM)
Source:
Tags:sytarno l'arc en ciel FujuniseikouyuuP invasion of stray cats rica matsumoto satoshi kana boon yoko takahashi my first story boom satellites last alliance rottengraffty jam project spyair koji wada oral cigarettes flow linked horizon granrodeo nico touches walls do as infinity yousei teikoku terraspex fear loathing las vegas tk ling tosite sigure unravel man with mission goku full metal alchemist fma perfect insider pokemon neon genesis evangelion kiznaiver tokyo ghoul attack on titan dragonball super inuyasha haikyuu kuroko no basuke basketball naruto fighting dreamers noragami aragoto terraformars digimon gundam iron blooded orphans hajime no ippo one punch man amazing break kyouran hey kids sacred star milos aot compilation
BeatmapID:1901468
BeatmapSetID:911083

[Difficulty]
HPDrainRate:3
CircleSize:4
OverallDifficulty:8.5
ApproachRate:9.5
SliderMultiplier:1.7
SliderTickRate:1

[Events]
//Background and Video events
0,0,"YM6MZEr.jpg",0,0
//Break Periods
//Storyboard Layer 0 (Background)
Sprite,Background,Centre,"YM6MZEr.jpg",0,0
Sprite,Background,Centre,"sb\1.jpg",320,240 F,0,478,2478,0,1 S,0,478,87145,0.47 F,0,2478,87145,1 F,0,87145,92145,1,0
Sprite,Background,Centre,"sb\2.jpg",320,240 F,0,94987,102667,0,1 S,0,94987,148747,0.48 F,0,102667,148747,1 F,0,148747,153747,1,0
Sprite,Background,Centre,"sb\3.jpg",320,240 F,0,157987,162640,0,1 S,0,157987,183427,0.55 F,0,162640,183427,1 F,0,183427,185427,1,0
Sprite,Background,Centre,"sb\4.jpg",320,240 F,0,188027,198312,0,1 S,0,188027,218884,0.5 F,0,198312,218884,1 F,0,218884,223884,1,0
Sprite,Background,Centre,"sb\5.jpg",320,240 F,0,226598,239479,0,1 S,0,226598,315375,0.5 F,0,239479,315375,1 F,0,315375,320375,1,0
Sprite,Background,Centre,"sb\6.jpg",320,240 F,0,323894,334970,0,1 S,0,323894,390355,0.86 F,0,334970,390355,1 F,0,390355,395355,1,0
Sprite,Background,Centre,"sb\7.jpg",320,240 F,0,398663,406190,0,1 S,0,398663,486190,0.47 F,0,406190,486190,1 F,0,486190,491190,1,0
Sprite,Background,Centre,"sb\8.jpg",320,240 F,0,496745,501204,0,1 S,0,496745,555672,0.47 F,0,501204,555672,1 F,0,555672,560672,1,0
Sprite,Background,Centre,"sb\9.jpg",320,240 F,0,561702,563702,0,1 S,0,561702,615615,0.47 F,0,563702,615615,1 F,0,615615,617354,1,0
Sprite,Background,Centre,"sb\10.jpg",320,240 F,0,617354,620832,0,1 S,0,617354,634745,0.47 F,0,620832,634745,1 F,0,634745,639745,1,0
Sprite,Background,Centre,"sb\11.jpg",320,240 F,0,642038,649681,0,1 S,0,642038,710827,0.59 F,0,649681,710827,1 F,0,710827,717827,1,0
Sprite,Background,Centre,"sb\12.jpg",320,240 F,0,718796,734719,0,1 S,0,718796,811796,0.46 F,0,734719,811796,1 F,0,811796,815796,1,0
Sprite,Background,Centre,"sb\13.jpg",320,240 F,0,817698,825082,0,1 S,0,817698,863851,0.46 F,0,825082,863851,1 F,0,863851,867151,1,0
Sprite,Background,Centre,"sb\14.jpg",320,240 F,0,868129,877344,0,1 S,0,868129,915776,0.55 F,0,877344,915776,1 F,0,915776,919776,1,0
Sprite,Background,Centre,"sb\15.jpg",320,240 F,0,921854,924552,0,1 S,0,921854,980052,0.46 F,0,924552,980052,1 F,0,980052,982052,1,0
Sprite,Background,Centre,"sb\16.jpg",320,240 F,0,985302,989839,0,1 S,0,985302,1021839,0.46 F,0,989839,1021839,1 F,0,1021839,1025839,1,0
Sprite,Background,Centre,"sb\17.jpg",320,240 F,0,1027985,1029985,0,1 S,0,1027985,1062485,0.46 F,0,1029985,1062485,1 F,0,1062485,1066485,1,0
Sprite,Background,Centre,"sb\18.jpg",320,240 F,0,1066712,1069194,0,1 S,0,1066712,1099815,0.5 F,0,1069194,1099815,1 F,0,1099815,1103746,1,0
Sprite,Background,Centre,"sb\19.jpg",320,240 F,0,1105505,1108923,0,1 S,0,1105505,1136868,0.46 F,0,1108923,1136868,1 F,0,1136868,1139848,1,0
Sprite,Background,Centre,"sb\20.jpg",320,240 F,0,1140618,1143923,0,1 S,0,1140618,1174780,0.525 F,0,1143923,1174780,1 F,0,1174780,1178209,1,0
Sprite,Background,Centre,"sb\21.jpg",320,240 F,0,1180994,1192179,0,1 S,0,1180994,1272716,0.46 F,0,1192179,1272716,1 F,0,1272716,1279159,1,0
Sprite,Background,Centre,"sb\22.jpg",320,240 F,0,1282783,1285172,0,1 S,0,1282783,1317172,0.612 F,0,1285172,1317172,1 F,0,1317172,1320372,1,0
Sprite,Background,Centre,"sb\23.jpg",320,240 F,0,1324972,1328301,0,1 S,0,1324972,1372608,0.46 F,0,1328301,1372608,1 F,0,1372608,1375839,1,0
Sprite,Background,Centre,"sb\24.jpg",320,240 F,0,1377974,1386726,0,1 S,0,1377974,1433998,0.62 F,0,1386726,1433998,1 F,0,1433998,1440703,1,0
Sprite,Background,Centre,"sb\25.jpg",320,240 F,0,1443771,1446977,0,1 S,0,1443771,1489962,0.522 F,0,1446977,1489962,1 F,0,1489962,1493488,1,0
Sprite,Background,Centre,"sb\26.jpg",320,240 F,0,1494327,1497378,0,1 S,0,1494327,1549666,0.46 F,0,1497378,1549666,1 F,0,1549666,1550617,1,0
Sprite,Background,Centre,"sb\27.jpg",320,240 F,0,1552518,1563864,0,1 S,0,1552518,1646011,0.49 F,0,1563864,1646011,1 F,0,1646011,1646964,1,0
//Storyboard Layer 1 (Fail)
//Storyboard Layer 2 (Pass)
//Storyboard Layer 3 (Foreground)
//Storyboard Sound Samples

[TimingPoints]
479,208.333333333333,4,3,0,75,1,0
6312,-100,4,3,1,75,0,0
7145,-100,4,3,0,75,0,0
20478,-100,4,3,1,75,0,0
33812,-133.333333333333,4,2,1,75,0,0
60478,-100,4,3,1,75,0,0
94987,240,4,3,1,75,1,0
141067,-76.9230769230769,4,3,1,75,0,0
141307,-100,4,3,1,75,0,0
162640,236.220472440945,4,3,1,75,1,0
188022,428.571428571429,4,3,1,75,1,0
198307,-50,4,2,1,75,0,0
238543,468.490134378587,4,3,0,35,1,0
238543,-50,4,3,0,35,0,0
240416,-50,4,2,1,75,0,0
247444,-50,4,3,0,75,0,0
247911,-100,4,2,1,45,0,0
276489,-66.6666666666667,4,2,1,75,0,0
276958,-50,4,2,1,75,0,0
277895,-66.6666666666667,4,2,1,75,0,0
291949,-50,4,2,1,75,0,0
323894,230.769230769231,4,3,1,75,1,0
334970,-200,4,3,1,45,0,0
358855,-133.333333333333,4,3,1,75,0,0
360355,-200,4,3,1,75,0,0
360701,-100,4,3,2,75,0,0
399079,444.444444444444,4,2,1,75,1,0
406190,-200,4,2,1,45,0,0
413301,-166.666666666667,4,2,1,45,0,0
420412,-142.857142857143,4,2,1,75,0,0
425745,-133.333333333333,4,2,1,75,0,0
427523,-200,4,2,1,45,0,0
429301,-66.6666666666667,4,3,1,75,0,0
430634,-200,4,3,1,75,0,0
431078,-50,4,3,1,75,0,0
438190,-66.6666666666667,4,2,1,75,0,0
439967,-200,4,2,1,35,0,0
453078,-500,4,2,1,35,0,0
453745,-100,4,2,1,75,0,0
459078,-66.6666666666667,4,3,1,75,0,0
460412,-50,4,3,1,75,0,0
484412,-100,4,3,1,75,0,0
501204,425.531914893617,4,3,1,75,1,0
501204,-66.6666666666667,4,3,1,75,0,0
508012,-57.1428571428571,4,3,1,75,0,0
514821,-50,4,3,1,75,0,0
528438,-57.1428571428571,4,3,1,75,0,0
542055,-100,4,3,1,75,0,0
547161,-83.3333333333333,4,3,1,75,0,0
548863,-71.4285714285714,4,3,1,75,0,0
550565,-62.5,4,3,1,75,0,0
552267,-55.5555555555556,4,3,1,75,0,0
561702,434.782608695652,4,3,1,75,1,0
575615,-83.3333333333333,4,3,1,75,0,0
589528,-58.8235294117647,4,3,1,75,0,0
617354,-50,4,3,1,75,0,0
620832,217.391304347826,4,3,2,75,1,0
634745,-200,4,3,1,75,0,0
642038,191.082802547771,4,3,2,75,1,0
649681,-200,4,3,2,75,0,0
651209,-100,4,3,2,75,0,0
687515,-200,4,3,2,75,0,0
687897,-100,4,3,2,75,0,0
700127,-125,4,3,2,75,0,0
705477,-200,4,3,2,75,0,0
705859,-133.333333333333,4,3,2,75,0,0
706241,-100,4,3,2,75,0,0
718566,230.769230769231,4,3,2,75,1,0
751796,-117.647058823529,4,3,2,75,0,0
781335,-153.846153846154,4,3,2,75,0,0
788719,-117.647058823529,4,3,2,75,0,0
796104,-133.333333333333,4,3,2,75,0,0
803489,-100,4,3,2,75,0,0
810873,-133.333333333333,4,3,2,75,0,0
817698,230.769230769231,4,3,1,75,1,0
828774,-133.333333333333,4,3,1,75,0,0
830621,-114.285714285714,4,3,1,75,0,0
833851,-200,4,3,1,75,0,0
834313,-100,4,3,1,75,0,0
867933,196.078431372549,4,3,2,75,1,0
878913,-133.333333333333,4,3,2,75,0,0
888325,-300,4,3,2,75,0,0
890678,-100,4,3,2,75,0,0
895776,-83.3333333333333,4,3,2,75,0,0
896168,-71.4285714285714,4,3,2,75,0,0
896462,-100,4,3,2,75,0,0
901658,-76.9230769230769,4,3,2,75,0,0
902638,-100,4,3,2,75,0,0
914991,-200,4,3,2,75,0,0
924552,187.5,4,3,1,75,1,0
924552,-200,4,3,1,75,0,0
927552,-166.666666666667,4,3,1,75,0,0
930552,-133.333333333333,4,3,1,75,0,0
932052,-117.647058823529,4,3,1,75,0,0
936552,-100,4,3,1,75,0,0
961677,-133.333333333333,4,3,1,75,0,0
962052,-100,4,3,1,75,0,0
964677,-133.333333333333,4,3,1,75,0,0
965052,-100,4,3,1,75,0,0
985839,250,4,3,1,75,1,0
989339,-133.333333333333,4,3,1,75,0,0
996339,-114.285714285714,4,3,1,75,0,0
996839,-100,4,3,1,75,0,0
1019839,-133.333333333333,4,3,1,75,0,0
1020839,-200,4,3,1,75,0,0
1027985,187.5,4,2,1,45,1,0
1027985,-400,4,2,1,45,0,0
1033985,-285.714285714286,4,2,1,45,0,0
1039985,-200,4,2,1,45,0,0
1045985,-400,4,2,1,45,0,0
1048610,-200,4,2,1,45,0,0
1048985,-133.333333333333,4,3,1,75,0,0
1050485,-100,4,3,1,75,0,0
1051985,-100,4,3,2,75,0,0
1066712,206.896551724138,4,3,2,75,1,0
1105636,205.479452054795,4,3,1,75,1,0
1108923,-133.333333333333,4,3,1,75,0,0
1110156,-100,4,3,1,75,0,0
1132553,-153.846153846153,4,3,1,75,0,0
1133067,-133.333333333333,4,3,1,75,0,0
1133581,-100,4,3,1,75,0,0
1141352,214.285714285714,4,3,2,75,1,0
1143923,-133.333333333333,4,3,2,75,0,0
1147352,-100,4,3,2,75,0,0
1160423,-125,4,3,2,75,0,0
1161066,-142.857142857143,4,3,2,75,0,0
1167923,-100,4,3,2,75,0,0
1173066,-166.666666666667,4,3,2,75,0,0
1182515,201.342281879195,4,3,1,75,1,0
1192179,-200,4,2,1,45,0,0
1205065,-100,4,3,2,75,0,0
1227615,-200,4,2,1,45,0,0
1250166,-100,4,3,2,75,0,0
1283572,200,4,3,1,75,1,0
1285172,-133.333333333333,4,3,1,75,0,0
1288372,-114.285714285714,4,3,1,75,0,0
1290022,200,4,3,1,75,1,0
1290022,-114.285714285714,4,3,1,75,0,0
1291172,-114.285714285714,4,3,2,75,0,0
1291195,200,4,3,2,75,1,0
1291572,200,4,3,1,75,1,0
1291572,-100,4,3,1,75,0,0
1316572,-133.333333333333,4,3,1,75,0,0
1328301,230.769230769231,4,3,1,75,1,0
1386726,454.545454545455,4,2,1,75,1,0
1386726,-66.6666666666667,4,2,1,75,0,0
1390362,-50,4,2,1,75,0,0
1445186,223.880597014925,4,3,1,75,1,0
1446977,-200,4,2,1,75,0,0
1454141,-133.333333333333,4,2,1,75,0,0
1459514,-133.333333333333,4,3,2,75,0,0
1461305,-100,4,3,2,75,0,0
1495688,211.267605633803,4,3,2,75,1,0
1496533,-66.6666666666667,4,3,2,75,0,0
1497378,-100,4,3,2,75,0,0
1531603,-133.333333333333,4,2,1,55,0,0
1534561,-100,4,3,1,75,0,0
1546814,-100,4,3,2,75,0,0
1548082,-133.333333333333,4,3,1,75,0,0
1553191,190.597204574333,4,3,1,75,1,0
1563864,-400,4,2,1,35,0,0
1573013,-285.714285714286,4,2,1,45,0,0
1573775,-222.222222222222,4,2,1,55,0,0
1574728,-181.818181818182,4,2,1,65,0,0
1576062,-153.846153846154,4,2,1,75,0,0
1582161,-133.333333333333,4,2,1,75,0,0
1585211,-117.647058823529,4,2,1,75,0,0
1603318,-100,4,3,1,75,0,0
1603508,-100,4,3,1,75,0,0
1617994,-133.333333333333,4,3,1,75,0,0
1618756,-100,4,3,2,75,0,0
1624855,-90.9090909090909,4,3,2,75,0,0
1630954,-100,4,3,2,75,0,1
1646011,-100,4,3,2,75,0,0

[Colours]
Combo1 : 255,0,255
Combo2 : 255,128,0
Combo3 : 128,0,255
Combo4 : 0,255,255

[HitObjects]
182,87,649681,5,8,0:0:0:0:
182,87,651209,6,0,B|200:45|200:45|235:75|227:136|227:136|275:90|342:122,1,255,4|0,0:0|0:0,0:0:0:0:
292,198,651592,1,10,0:0:0:0:
376,188,651687,1,2,0:0:0:0:
426,255,651783,2,0,B|453:309|453:309|333:292,1,170,8|8,0:0|0:0,0:0:0:0:
344,293,652165,6,0,L|259:281,1,85
179,309,652356,1,10,0:0:0:0:
134,236,652452,1,2,0:0:0:0:
90,308,652547,2,0,L|5:319,1,85,2|0,0:0|0:0,0:0:0:0:
178,164,652738,6,0,B|186:130|166:97|166:97|219:133|292:117|292:117|332:117|351:149,1,255,12|0,0:0|0:0,0:0:0:0:
403,253,653120,1,10,0:0:0:0:
465,194,653216,1,2,0:0:0:0:
485,277,653311,2,0,B|473:324|430:343|394:341|394:341|343:377,1,170,2|8,0:0|0:0,0:0:0:0:
353,369,653694,6,0,L|256:355,1,85
167,286,653885,1,10,0:0:0:0:
244,251,653980,1,2,0:0:0:0:
135,212,654076,1,2,0:0:0:0:
212,177,654171,1,2,0:0:0:0:
165,112,654267,6,0,B|212:80|270:105|285:148|285:148|305:137|305:137|360:150|414:83,1,255,14|0,0:0|0:0,0:0:0:0:
512,39,654649,1,10,0:0:0:0:
426,37,654745,1,2,0:0:0:0:
385,112,654840,2,0,P|374:152|426:277,1,170,2|12,0:0|0:0,0:0:0:0:
416,268,655222,6,0,L|518:276,1,85
368,338,655413,1,10,0:0:0:0:
332,262,655509,1,2,0:0:0:0:
283,331,655604,2,0,L|181:323,1,85,2|0,0:0|0:0,0:0:0:0:
102,201,655795,6,0,B|115:165|115:165|107:132|107:132|158:186|158:186|123:307,1,255,12|0,0:0|0:0,0:0:0:0:
195,102,656178,1,10,0:0:0:0:
266,57,656273,1,2,0:0:0:0:
333,109,656369,2,0,B|342:144|342:144|324:201,1,85,2|0,0:0|0:0,0:0:0:0:
236,295,656560,6,0,B|227:260|227:260|245:203,1,85,8|0,0:0|0:0,0:0:0:0:
397,237,656751,2,0,L|505:197,1,85
511,131,656942,1,10,0:0:0:0:
482,52,657038,1,2,0:0:0:0:
405,17,657133,2,0,L|319:26,1,85,2|0,0:0|0:0,0:0:0:0:
294,107,657324,6,0,B|256:93|229:60|236:9|236:9|194:29|194:29|74:20,1,255,12|0,0:0|0:0,0:0:0:0:
22,154,657706,1,10,0:0:0:0:
96,111,657802,1,2,0:0:0:0:
155,170,657897,2,0,L|239:176,1,85,2|0,0:0|0:0,0:0:0:0:
378,113,658088,6,0,L|293:106,1,85,8|0,0:0|0:0,0:0:0:0:
283,255,658280,2,0,L|367:261,1,85
155,170,658471,1,10,0:0:0:0:
112,244,658567,1,2,0:0:0:0:
170,302,658662,2,0,P|186:342|181:383,1,85,2|0,0:0|0:0,0:0:0:0:
38,289,658853,6,0,B|15:251|23:198|70:168|70:168|77:109|114:86|169:83,1,255,12|0,0:0|0:0,0:0:0:0:
155,170,659235,1,10,0:0:0:0:
221,117,659330,1,2,0:0:0:0:
289,168,659426,2,0,L|389:186,1,85,2|0,0:0|0:0,0:0:0:0:
494,90,659617,6,0,L|411:106,1,85,8|0,0:0|0:0,0:0:0:0:
395,22,659808,2,0,L|410:105,1,85
437,238,659999,1,10,0:0:0:0:
494,174,660095,1,2,0:0:0:0:
437,238,660190,2,0,L|421:321,1,85,2|0,0:0|0:0,0:0:0:0:
315,216,660381,6,0,B|368:192|368:192|344:330|344:330|304:288,1,255,12|0,0:0|0:0,0:0:0:0:
112,169,660764,1,10,0:0:0:0:
176,114,660859,1,2,0:0:0:0:
245,161,660955,2,0,L|337:121,1,85,2|0,0:0|0:0,0:0:0:0:
371,12,661146,6,0,L|294:46,1,85,8|0,0:0|0:0,0:0:0:0:
185,29,661337,2,0,L|176:114,1,85
48,224,661528,1,10,0:0:0:0:
112,169,661623,1,2,0:0:0:0:
127,251,661719,2,0,L|117:335,1,85,2|0,0:0|0:0,0:0:0:0:
245,161,661910,6,0,B|304:128|365:168|365:168|424:206|485:170,1,255,12|0,0:0|0:0,0:0:0:0:
211,83,662292,1,10,0:0:0:0:
157,149,662388,1,2,0:0:0:0:
187,228,662483,2,0,L|227:331,1,85,2|0,0:0|0:0,0:0:0:0:
49,280,662674,6,0,L|103:214,1,85,12|0,0:0|0:0,0:0:0:0:
264,18,662866,1,0,0:0:0:0:
343,48,662961,1,8,0:0:0:0:
338,132,663057,1,8,0:0:0:0:
256,154,663152,1,8,0:0:0:0:
211,83,663248,1,8,0:0:0:0:
413,94,663439,6,0,P|441:160|407:273,1,170,6|8,0:0|0:0,0:0:0:0:
353,303,663725,2,0,P|338:342|348:382,1,85,2|0,0:0|0:0,0:0:0:0:
253,265,663916,1,2,0:0:0:0:
253,265,664012,2,0,P|263:305|248:344,1,85,8|0,0:0|0:0,0:0:0:0:
181,188,664203,6,0,B|238:172|238:172|369:180,1,170,2|8,0:0|0:0,0:0:0:0:
320,84,664490,1,0,0:0:0:0:
320,84,664585,2,0,B|401:111,1,85,2|0,0:0|0:0,0:0:0:0:
471,43,664776,6,0,B|487:100|487:100|479:231,1,170,10|0,0:0|0:0,0:0:0:0:
320,84,665063,1,0,0:0:0:0:
320,84,665159,2,0,B|304:141|304:141|312:272,1,170,10|0,0:0|0:0,0:0:0:0:
169,125,665445,1,0,0:0:0:0:
169,125,665541,6,0,B|185:182|185:182|177:313,1,170,10|0,0:0|0:0,0:0:0:0:
18,166,665827,1,0,0:0:0:0:
18,166,665923,2,0,B|9:195|9:195|13:262,1,85,10|0,0:0|0:0,0:0:0:0:
129,45,666114,2,0,B|183:41|183:41|212:49,1,85,2|0,0:0|0:0,0:0:0:0:
266,115,666305,2,0,B|320:118|320:118|349:110,1,85,8|0,0:0|0:0,0:0:0:0:
403,43,666496,6,0,B|387:100|387:100|395:231,1,170,2|8,0:0|0:0,0:0:0:0:
309,199,666783,1,2,0:0:0:0:
268,273,666878,2,0,L|153:286,1,85,2|0,0:0|0:0,0:0:0:0:
139,209,667069,1,10,0:0:0:0:
139,209,667165,2,0,L|54:199,1,85,2|0,0:0|0:0,0:0:0:0:
165,127,667356,5,2,0:0:0:0:
165,127,667452,2,0,L|280:140,2,85,10|0|2,0:0|0:0|0:0,0:0:0:0:
317,62,667738,1,2,0:0:0:0:
317,62,667834,2,0,L|337:166,1,85,10|0,0:0|0:0,0:0:0:0:
285,216,668025,5,2,0:0:0:0:
327,288,668120,2,0,B|356:298|356:298|429:285,1,85,2|8,0:0|0:0,0:0:0:0:
450,213,668311,2,0,B|421:203|421:203|348:216,1,85,2|0,0:0|0:0,0:0:0:0:
242,293,668502,1,2,0:0:0:0:
242,293,668598,2,0,L|190:209,1,85,10|0,0:0|0:0,0:0:0:0:
108,353,668789,6,0,L|128:271,1,85,2|0,0:0|0:0,0:0:0:0:
81,116,668980,1,8,0:0:0:0:
121,85,669076,1,8,0:0:0:0:
168,102,669171,1,8,0:0:0:0:
215,83,669267,1,8,0:0:0:0:
255,111,669362,1,8,0:0:0:0:
306,105,669458,1,8,0:0:0:0:
337,142,669553,6,0,B|389:139|389:139|435:111,1,85,2|0,0:0|0:0,0:0:0:0:
273,210,669745,1,8,0:0:0:0:
273,210,669840,2,0,B|300:227|300:227|464:221,1,170,2|0,0:0|0:0,0:0:0:0:
189,231,670127,2,0,L|186:338,1,85,10|0,0:0|0:0,0:0:0:0:
136,90,670318,6,0,B|121:147|121:147|134:198,1,85,2|0,0:0|0:0,0:0:0:0:
203,37,670509,2,0,B|332:34|332:34|307:51|300:79,1,170,8|0,0:0|0:0,0:0:0:0:
379,104,670795,1,0,0:0:0:0:
426,173,670891,2,0,P|438:214|435:256,1,85,10|0,0:0|0:0,0:0:0:0:
303,145,671082,6,0,P|281:204|313:312,1,170,2|8,0:0|0:0,0:0:0:0:
162,170,671369,2,0,P|175:209|203:241,1,85,2|0,0:0|0:0,0:0:0:0:
148,310,671560,1,0,0:0:0:0:
148,310,671655,2,0,P|227:282|307:305,1,170,10|0,0:0|0:0,0:0:0:0:
139,19,672038,6,0,P|116:55|77:70,1,85,10|0,0:0|0:0,0:0:0:0:
80,155,672229,2,0,P|121:156|153:183,1,85,2|0,0:0|0:0,0:0:0:0:
226,137,672420,2,0,P|206:101|213:59,1,85,8|0,0:0|0:0,0:0:0:0:
303,173,672611,5,2,0:0:0:0:
303,173,672706,2,0,L|408:177,1,85,2|8,0:0|0:0,0:0:0:0:
249,263,672897,1,2,0:0:0:0:
249,263,672992,2,0,L|354:267,1,85,2|0,0:0|0:0,0:0:0:0:
153,183,673184,2,0,L|149:288,1,85,10|0,0:0|0:0,0:0:0:0:
71,233,673375,5,2,0:0:0:0:
77,317,673471,2,0,P|109:346|150:355,1,85,2|8,0:0|0:0,0:0:0:0:
235,349,673662,1,2,0:0:0:0:
235,349,673757,2,0,P|275:336|316:345,1,85,2|0,0:0|0:0,0:0:0:0:
409,257,673948,2,0,P|369:269|328:261,1,85,10|0,0:0|0:0,0:0:0:0:
282,104,674139,6,0,P|294:144|286:186,1,85,2|0,0:0|0:0,0:0:0:0:
235,349,674330,2,0,P|222:308|231:267,1,85,10|0,0:0|0:0,0:0:0:0:
409,257,674522,5,2,0:0:0:0:
412,236,674617,5,2,0:0:0:0:
397,216,674713,37,2,0:0:0:0:
420,194,674808,5,2,0:0:0:0:
385,175,674904,37,2,0:0:0:0:
428,152,674999,5,2,0:0:0:0:
373,134,675095,37,2,0:0:0:0:
436,110,675190,5,2,0:0:0:0:
362,93,675286,38,0,B|293:59|293:59|315:39|315:39|313:76|313:76|266:52|179:85,1,255,8|0,0:0|0:0,0:0:0:0:
61,232,675668,6,0,P|102:227|209:314,1,170,6|0,0:0|0:0,0:0:0:0:
98,341,675955,1,0,0:0:0:0:
98,341,676050,1,8,0:0:0:0:
451,232,676241,6,0,P|410:227|303:314,1,170,2|0,0:0|0:0,0:0:0:0:
414,341,676528,1,0,0:0:0:0:
414,341,676623,1,8,0:0:0:0:
256,193,676815,6,0,B|221:145|257:107|257:107|298:104|251:128|231:68|231:68|272:42|255:0,1,255,12|0,0:0|0:0,0:0:0:0:
173,233,677197,6,0,B|339:216|339:216|289:236|281:276,1,255,2|0,0:0|0:0,0:0:0:0:
111,288,677579,2,0,P|90:251|93:209,1,85,8|0,0:0|0:0,0:0:0:0:
169,69,677770,2,0,P|172:111|152:148,1,85,2|0,0:0|0:0,0:0:0:0:
496,289,678104,6,0,L|370:303,1,127.5,2|0,0:0|0:0,0:0:0:0:
273,245,678343,2,0,B|297:211|297:211|293:348,1,170,8|0,0:0|0:0,0:0:0:0:
404,50,678725,6,0,P|400:134|426:214,1,170,2|0,0:0|0:0,0:0:0:0:
496,289,679012,1,8,0:0:0:0:
496,289,679108,1,8,0:0:0:0:
307,96,679299,6,0,P|310:180|284:260,1,170,2|0,0:0|0:0,0:0:0:0:
215,335,679586,1,8,0:0:0:0:
215,335,679682,1,8,0:0:0:0:
117,97,679872,6,0,P|115:139|133:177,1,85,2|0,0:0|0:0,0:0:0:0:
71,236,680063,2,0,P|106:258|148:261,1,85,8|0,0:0|0:0,0:0:0:0:
218,154,680254,6,0,B|238:145|238:145|310:154,1,85,2|0,0:0|0:0,0:0:0:0:
334,231,680445,2,8,B|314:240|314:240|242:231,1,85
282,70,680636,2,0,L|301:153,1,85,2|0,0:0|0:0,0:0:0:0:
270,315,680827,2,0,L|251:232,1,85,8|0,0:0|0:0,0:0:0:0:
390,159,681018,5,8,0:0:0:0:
390,159,681114,1,0,0:0:0:0:
390,159,681209,2,0,P|430:149|470:162,1,85,8|0,0:0|0:0,0:0:0:0:
201,74,681401,1,8,0:0:0:0:
201,74,681497,1,0,0:0:0:0:
201,74,681592,2,0,P|241:83|281:70,1,85,8|0,0:0|0:0,0:0:0:0:
51,174,681783,6,0,P|133:163|204:207,1,170,2|0,0:0|0:0,0:0:0:0:
242,310,682069,1,8,0:0:0:0:
242,310,682165,1,8,0:0:0:0:
387,110,682356,6,0,P|336:176|338:259,1,170,2|0,0:0|0:0,0:0:0:0:
409,343,682642,1,8,0:0:0:0:
409,343,682738,1,8,0:0:0:0:
465,41,682929,6,0,B|402:-4|328:23|328:23|308:41|308:41|259:54|221:14,1,255,12|0,0:0|0:0,0:0:0:0:
74,168,683311,6,0,B|145:223|119:328|119:328|68:342|27:294,1,255,2|0,0:0|0:0,0:0:0:0:
7,115,683694,2,0,P|40:89|81:83,1,85,8|0,0:0|0:0,0:0:0:0:
134,17,683885,2,0,P|159:50|165:91,1,85,8|0,0:0|0:0,0:0:0:0:
344,285,684171,5,8,0:0:0:0:
414,333,684267,2,0,L|516:322,1,85,8|0,0:0|0:0,0:0:0:0:
500,170,684458,2,0,B|534:226|534:226|497:323,1,170,12|0,0:0|0:0,0:0:0:0:
165,91,684840,6,0,B|199:147|199:147|162:244,1,170,8|0,0:0|0:0,0:0:0:0:
165,91,685127,2,0,L|348:85,1,170,8|0,0:0|0:0,0:0:0:0:
110,25,685413,2,0,L|7:57,1,85,8|0,0:0|0:0,0:0:0:0:
81,271,685604,6,0,L|162:245,1,85,2|0,0:0|0:0,0:0:0:0:
225,185,685795,2,0,L|307:203,1,85,8|0,0:0|0:0,0:0:0:0:
396,325,685987,2,0,L|385:241,1,85,8|0,0:0|0:0,0:0:0:0:
296,119,686178,2,0,L|307:203,1,85,8|0,0:0|0:0,0:0:0:0:
226,362,686369,6,0,L|143:344,1,85,8|0,0:0|0:0,0:0:0:0:
208,93,686560,2,0,L|125:111,1,85,8|0,0:0|0:0,0:0:0:0:
214,375,686751,6,0,L|131:357,1,85,8|0,0:0|0:0,0:0:0:0:
220,106,686942,2,0,L|137:124,1,85,8|0,0:0|0:0,0:0:0:0:
29,299,687133,6,0,L|204:259,1,170,12|0,0:0|0:0,0:0:0:0:
274,292,687420,1,0,0:0:0:0:
274,292,687515,6,0,P|334:310|394:280,1,127.5,2|0,0:0|0:0,0:0:0:0:
252,123,687897,6,0,P|244:165|256:205,1,85,6|0,0:0|0:0,0:0:0:0:
332,0,688088,2,0,P|339:41|327:81,1,85,8|0,0:0|0:0,0:0:0:0:
165,50,688280,1,2,0:0:0:0:
165,50,688375,1,0,0:0:0:0:
165,50,688471,2,0,L|271:33,1,85,10|0,0:0|0:0,0:0:0:0:
403,129,688662,6,0,B|466:133|466:133|493:110,1,85,2|0,0:0|0:0,0:0:0:0:
356,227,688853,2,0,B|397:274|397:274|433:277,1,85,8|0,0:0|0:0,0:0:0:0:
253,263,689044,2,0,B|249:326|249:326|271:353,1,85,2|0,0:0|0:0,0:0:0:0:
162,135,689235,2,0,B|176:151|176:151|172:214,1,85,10|0,0:0|0:0,0:0:0:0:
49,317,689426,6,0,P|89:304|131:301,1,85,2|0,0:0|0:0,0:0:0:0:
268,180,689617,2,0,P|264:222|252:262,1,85,8|0,0:0|0:0,0:0:0:0:
146,52,689808,1,2,0:0:0:0:
146,52,689904,1,0,0:0:0:0:
146,52,689999,2,0,P|149:94|161:134,1,85,8|0,0:0|0:0,0:0:0:0:
378,159,690190,6,0,L|484:128,1,85,2|0,0:0|0:0,0:0:0:0:
295,9,690381,2,0,P|300:45|282:120,1,85,8|0,0:0|0:0,0:0:0:0:
252,262,690573,2,0,P|218:271|139:263,1,85,2|0,0:0|0:0,0:0:0:0:
146,52,690764,2,0,P|112:43|33:51,1,85,10|0,0:0|0:0,0:0:0:0:
18,226,690955,6,0,P|59:216|101:217,1,85,2|0,0:0|0:0,0:0:0:0:
294,93,691146,2,0,L|263:199,1,85,8|0,0:0|0:0,0:0:0:0:
168,270,691337,1,2,0:0:0:0:
168,270,691432,1,0,0:0:0:0:
168,270,691528,2,0,L|191:188,1,85,10|0,0:0|0:0,0:0:0:0:
384,324,691719,6,0,P|425:333|467:332,1,85,2|0,0:0|0:0,0:0:0:0:
370,177,691910,2,0,P|349:214|320:245,1,85,8|0,0:0|0:0,0:0:0:0:
143,69,692101,2,0,P|163:106|192:137,1,85,2|0,0:0|0:0,0:0:0:0:
327,22,692292,2,0,P|328:64|318:105,1,85,10|0,0:0|0:0,0:0:0:0:
146,226,692483,6,0,B|208:233|208:233|254:218,1,85,2|0,0:0|0:0,0:0:0:0:
401,105,692674,2,0,B|339:98|339:98|293:113,1,85,8|0,0:0|0:0,0:0:0:0:
229,0,692866,1,2,0:0:0:0:
229,0,692961,1,0,0:0:0:0:
229,0,693057,2,0,L|246:87,1,85,8|0,0:0|0:0,0:0:0:0:
177,377,693248,6,0,P|180:293|229:225,1,170,4|0,0:0|0:0,0:0:0:0:
462,356,693630,2,0,P|457:314|433:279,1,85,2|0,0:0|0:0,0:0:0:0:
360,118,693821,1,10,0:0:0:0:
319,192,693916,1,0,0:0:0:0:
353,268,694012,6,0,P|391:285|432:279,1,85,2|0,0:0|0:0,0:0:0:0:
446,118,694203,2,0,B|465:153|465:153|463:199,1,85,8|0,0:0|0:0,0:0:0:0:
343,38,694394,1,2,0:0:0:0:
343,38,694490,1,0,0:0:0:0:
343,38,694585,2,0,B|340:83|340:83|360:119,1,85,10|0,0:0|0:0,0:0:0:0:
270,259,694776,6,0,P|309:272|351:268,1,85,2|0,0:0|0:0,0:0:0:0:
259,82,694967,2,0,P|217:77|177:91,1,85,10|0,0:0|0:0,0:0:0:0:
188,268,695159,2,0,P|229:272|270:259,1,85,2|0,0:0|0:0,0:0:0:0:
103,52,695350,2,0,L|84:155,1,85,10|0,0:0|0:0,0:0:0:0:
18,349,695541,6,0,L|123:326,1,85,2|0,0:0|0:0,0:0:0:0:
4,117,695732,2,0,L|109:140,1,85,10|0,0:0|0:0,0:0:0:0:
270,258,695923,1,2,0:0:0:0:
270,258,696018,1,0,0:0:0:0:
270,258,696114,2,0,B|285:204|285:204|274:176,1,85,10|0,0:0|0:0,0:0:0:0:
202,44,696305,6,0,B|187:98|187:98|198:126,1,85,2|0,0:0|0:0,0:0:0:0:
386,65,696496,2,0,L|508:51,1,85,8|0,0:0|0:0,0:0:0:0:
372,193,696687,2,0,L|456:202,1,85,2|0,0:0|0:0,0:0:0:0:
385,339,696878,2,0,L|470:330,1,85,8|0,0:0|0:0,0:0:0:0:
223,176,697069,6,0,P|206:230|216:269,1,85,2|0,0:0|0:0,0:0:0:0:
98,279,697260,2,0,P|136:295|163:327,1,85,10|0,0:0|0:0,0:0:0:0:
291,227,697452,2,0,P|308:281|298:320,1,85,2|0,0:0|0:0,0:0:0:0:
209,89,697643,2,0,P|170:105|143:137,1,85,10|0,0:0|0:0,0:0:0:0:
359,112,697834,6,0,P|376:166|366:205,1,85,2|0,0:0|0:0,0:0:0:0:
223,175,698025,2,0,P|206:214|210:256,1,85,10|0,0:0|0:0,0:0:0:0:
347,31,698216,2,0,P|364:85|354:124,1,85,2|0,0:0|0:0,0:0:0:0:
209,89,698407,1,10,0:0:0:0:
209,89,698502,1,0,0:0:0:0:
209,89,698598,6,0,L|67:72,1,85,2|0,0:0|0:0,0:0:0:0:
144,215,698789,2,0,L|59:225,1,85,8|0,0:0|0:0,0:0:0:0:
245,307,698980,2,0,L|330:317,1,85,2|0,0:0|0:0,0:0:0:0:
370,196,699171,2,0,L|359:111,1,85,10|0,0:0|0:0,0:0:0:0:
199,5,699362,6,0,L|209:89,1,85,2|0,0:0|0:0,0:0:0:0:
181,258,699553,1,8,0:0:0:0:
260,228,699648,1,8,0:0:0:0:
275,144,699744,1,8,0:0:0:0:
209,89,699839,1,8,0:0:0:0:
129,118,699935,1,8,0:0:0:0:
114,202,700031,1,8,0:0:0:0:
100,286,700127,6,0,P|144:336|245:313,1,136,2|0,0:0|0:0,0:0:0:0:
260,228,700413,1,0,0:0:0:0:
260,228,700509,2,0,P|326:230|369:280,1,136,10|2,0:0|0:0,0:0:0:0:
456,219,700795,1,0,0:0:0:0:
456,219,700891,6,0,L|445:355,1,136,10|0,0:0|0:0,0:0:0:0:
249,363,701178,1,0,0:0:0:0:
249,363,701273,2,0,L|260:227,1,136,2|2,0:0|0:0,0:0:0:0:
354,130,701560,1,0,0:0:0:0:
354,130,701655,6,0,P|420:127|463:77,1,136,8|0,0:0|0:0,0:0:0:0:
321,12,701942,1,0,0:0:0:0:
321,12,702038,2,0,P|312:77|353:129,1,136,2|0,0:0|0:0,0:0:0:0:
260,228,702324,1,0,0:0:0:0:
260,228,702420,6,0,P|268:162|227:110,1,136,10|0,0:0|0:0,0:0:0:0:
124,240,702706,1,0,0:0:0:0:
124,240,702802,2,0,L|260:228,1,136,10|2,0:0|0:0,0:0:0:0:
331,341,703088,1,0,0:0:0:0:
331,341,703184,6,0,L|466:353,1,136,10|0,0:0|0:0,0:0:0:0:
426,222,703471,1,0,0:0:0:0:
426,222,703566,2,0,P|452:161|439:95,1,136,8|2,0:0|0:0,0:0:0:0:
280,149,703853,1,0,0:0:0:0:
280,149,703948,6,0,P|253:87|266:21,1,136,10|0,0:0|0:0,0:0:0:0:
174,99,704235,1,0,0:0:0:0:
174,99,704330,2,0,P|112:72|46:85,1,136,10|2,0:0|0:0,0:0:0:0:
34,221,704617,1,0,0:0:0:0:
34,221,704713,6,0,P|95:247|161:234,1,136,10|2,0:0|0:0,0:0:0:0:
280,149,704999,1,0,0:0:0:0:
280,149,705095,2,0,P|345:135|407:162,1,136,10|0,0:0|0:0,0:0:0:0:
269,276,705381,1,0,0:0:0:0:
269,276,705477,6,0,L|283:117,1,127.5,8|0,0:0|0:0,0:0:0:0:
401,225,705859,6,0,L|409:129,1,63.7500024318696,2|0,0:0|0:0,0:0:0:0:
441,306,706050,2,0,L|514:244,1,63.7500024318696,10|0,0:0|0:0,0:0:0:0:
399,76,706241,6,0,L|407:171,1,85,2|0,0:0|0:0,0:0:0:0:
286,64,706432,2,0,L|278:148,1,85,8|0,0:0|0:0,0:0:0:0:
157,75,706623,2,0,L|165:160,1,85,2|0,0:0|0:0,0:0:0:0:
44,63,706815,2,0,L|36:147,1,85,10|0,0:0|0:0,0:0:0:0:
51,288,707006,6,0,P|86:311|128:312,1,85,2|0,0:0|0:0,0:0:0:0:
214,367,707197,2,0,P|249:343|291:342,1,85,10|0,0:0|0:0,0:0:0:0:
317,176,707388,2,0,P|340:212|342:254,1,85,2|0,0:0|0:0,0:0:0:0:
436,294,707579,2,0,P|437:252|460:216,1,85,10|0,0:0|0:0,0:0:0:0:
410,127,707770,6,0,L|496:82,1,85,2|0,0:0|0:0,0:0:0:0:
292,3,707961,2,0,P|333:13|363:42,1,85,10|0,0:0|0:0,0:0:0:0:
207,143,708152,2,0,L|282:103,1,85,2|0,0:0|0:0,0:0:0:0:
92,0,708343,2,0,P|123:28|135:69,1,85,10|0,0:0|0:0,0:0:0:0:
137,224,708534,6,0,P|106:252|94:293,1,85,2|0,0:0|0:0,0:0:0:0:
288,311,708725,2,0,P|316:341|357:353,1,85,10|0,0:0|0:0,0:0:0:0:
375,160,708916,2,0,P|405:131|417:90,1,85,2|0,0:0|0:0,0:0:0:0:
224,73,709108,1,10,0:0:0:0:
176,143,709203,1,0,0:0:0:0:
225,212,709299,6,0,P|312:190|418:245,1,170,4|0,0:0|0:0,0:0:0:0:
194,294,709681,1,2,0:0:0:0:
388,54,710063,6,0,P|410:141|355:247,1,170,4|0,0:0|0:0,0:0:0:0:
304,27,710445,1,2,0:0:0:0:
194,294,710827,5,4,0:0:0:0:
