osu file format v14

[General]
AudioFilename: 12.mp3
AudioLeadIn: 0
PreviewTime: 11744
Countdown: 0
SampleSet: Normal
StackLeniency: 0.7
Mode: 3
LetterboxInBreaks: 0
SpecialStyle: 0
WidescreenStoryboard: 0

[Editor]
DistanceSpacing: 0.8
BeatDivisor: 4
GridSize: 16
TimelineZoom: 1.2

[Metadata]
Title:Alpha speedjack pack
TitleUnicode:Alpha speedjack pack
Artist:Various Artists
ArtistUnicode:Various Artists
Creator:Asian Akali
Version:Tanin Jazz - Virtual Love 1.2x (Mid/High)
Source:Miya_koi
Tags:speedjack
BeatmapID:4555737
BeatmapSetID:2160395

[Difficulty]
HPDrainRate:8.5
CircleSize:4
OverallDifficulty:9
ApproachRate:5
SliderMultiplier:1.4
SliderTickRate:1

[Events]
//Background and Video events
0,0,"a12.jpg",0,0
//Break Periods
//Storyboard Layer 0 (Background)
//Storyboard Layer 1 (Fail)
//Storyboard Layer 2 (Pass)
//Storyboard Layer 3 (Foreground)
//Storyboard Layer 4 (Overlay)
//Storyboard Sound Samples

[TimingPoints]
315,357.142857142858,5,1,0,100,1,0
21744,-66.6666666666667,5,1,0,100,0,0
21833,-200,5,1,0,100,0,0
21922,-66.6666666666667,5,1,0,100,0,0
22011,-200,5,1,0,100,0,0
22100,-66.6666666666667,5,1,0,100,0,0
22190,-200,5,1,0,100,0,0
22280,-66.6666666666667,5,1,0,100,0,0
22369,-200,5,1,0,100,0,0
22458,-66.6666666666667,5,1,0,100,0,0
22547,-200,5,1,0,100,0,0
22636,-66.6666666666667,5,1,0,100,0,0
22725,-200,5,1,0,100,0,0
22815,-66.6666666666667,5,1,0,100,0,0
22905,-200,5,1,0,100,0,0
22994,-66.6666666666667,5,1,0,100,0,0
23083,-200,5,1,0,100,0,0
23172,-66.6666666666667,5,1,0,100,0,0
23261,-200,5,1,0,100,0,0
23350,-66.6666666666667,5,1,0,100,0,0
23440,-100,5,1,0,100,0,0

[HitObjects]
448,192,315,128,0,494:0:0:0:0:
320,192,672,128,0,850:0:0:0:0:
448,192,850,128,0,1030:0:0:0:0:
320,192,1030,128,0,1208:0:0:0:0:
448,192,1386,128,0,1565:0:0:0:0:
320,192,1565,128,0,1744:0:0:0:0:
448,192,1744,128,0,1922:0:0:0:0:
192,192,2458,128,0,2636:0:0:0:0:
448,192,2458,128,0,2636:0:0:0:0:
320,192,2636,128,0,2815:0:0:0:0:
64,192,2636,128,0,2815:0:0:0:0:
192,192,2815,128,0,2994:0:0:0:0:
448,192,2815,128,0,2994:0:0:0:0:
320,192,2994,128,0,3172:0:0:0:0:
64,192,2994,128,0,3172:0:0:0:0:
192,192,3172,128,0,3350:0:0:0:0:
448,192,3172,128,0,3350:0:0:0:0:
192,192,3530,128,0,3708:0:0:0:0:
64,192,3708,128,0,3886:0:0:0:0:
192,192,3886,128,0,4065:0:0:0:0:
64,192,4244,128,0,4422:0:0:0:0:
192,192,4422,128,0,4600:0:0:0:0:
64,192,4600,128,0,4780:0:0:0:0:
320,192,5315,128,0,5494:0:0:0:0:
64,192,5315,128,0,5494:0:0:0:0:
192,191,5494,128,0,5672:0:0:0:0:
448,192,5494,128,0,5672:0:0:0:0:
320,192,5672,128,0,5850:0:0:0:0:
64,192,5672,128,0,5850:0:0:0:0:
192,191,5850,128,0,6030:0:0:0:0:
448,192,5850,128,0,6030:0:0:0:0:
320,192,6030,128,0,6208:0:0:0:0:
64,192,6030,128,0,6208:0:0:0:0:
320,192,6386,128,0,6565:0:0:0:0:
448,192,6565,128,0,6744:0:0:0:0:
320,192,6744,128,0,6922:0:0:0:0:
448,192,7100,128,0,7280:0:0:0:0:
320,192,7280,128,0,7458:0:0:0:0:
448,192,7458,128,0,7636:0:0:0:0:
192,192,8172,128,0,8350:0:0:0:0:
448,192,8172,128,0,8350:0:0:0:0:
320,192,8350,128,0,8530:0:0:0:0:
64,192,8350,128,0,8530:0:0:0:0:
192,192,8530,128,0,8708:0:0:0:0:
448,192,8530,128,0,8708:0:0:0:0:
320,192,8708,128,0,8886:0:0:0:0:
64,192,8708,128,0,8886:0:0:0:0:
192,192,8886,128,0,9065:0:0:0:0:
448,192,8886,128,0,9065:0:0:0:0:
192,192,9244,128,0,9422:0:0:0:0:
64,192,9422,128,0,9600:0:0:0:0:
192,192,9600,128,0,9780:0:0:0:0:
64,192,9958,128,0,10136:0:0:0:0:
192,192,10136,128,0,10315:0:0:0:0:
64,192,10315,128,0,10494:0:0:0:0:
320,192,11030,128,0,11208:0:0:0:0:
64,192,11030,128,0,11208:0:0:0:0:
192,191,11208,128,0,11386:0:0:0:0:
448,192,11208,128,0,11386:0:0:0:0:
320,192,11386,128,0,11565:0:0:0:0:
64,192,11386,128,0,11565:0:0:0:0:
192,191,11565,128,0,11655:0:0:0:0:
448,192,11565,128,0,11655:0:0:0:0:
320,192,11744,1,0,0:0:0:0:
64,192,11744,1,0,0:0:0:0:
448,192,11744,1,0,0:0:0:0:
192,192,11744,1,0,0:0:0:0:
192,192,11833,1,0,0:0:0:0:
320,192,11922,1,0,0:0:0:0:
448,192,11922,1,0,0:0:0:0:
192,192,12011,1,0,0:0:0:0:
64,192,12011,1,0,0:0:0:0:
320,192,12100,1,0,0:0:0:0:
192,192,12100,1,0,0:0:0:0:
448,192,12100,1,0,0:0:0:0:
64,192,12190,1,0,0:0:0:0:
192,192,12280,1,0,0:0:0:0:
320,192,12280,1,0,0:0:0:0:
448,192,12369,1,0,0:0:0:0:
64,192,12369,1,0,0:0:0:0:
64,192,12458,1,0,0:0:0:0:
192,192,12458,1,0,0:0:0:0:
320,192,12458,1,0,0:0:0:0:
448,192,12458,1,0,0:0:0:0:
192,192,12547,1,0,0:0:0:0:
320,192,12636,1,0,0:0:0:0:
64,192,12636,1,0,0:0:0:0:
448,192,12725,1,0,0:0:0:0:
192,192,12725,1,0,0:0:0:0:
448,192,12815,1,0,0:0:0:0:
320,192,12815,1,0,0:0:0:0:
64,192,12815,1,0,0:0:0:0:
320,192,12905,1,0,0:0:0:0:
64,192,12994,1,0,0:0:0:0:
448,192,12994,1,0,0:0:0:0:
192,192,13083,1,0,0:0:0:0:
320,192,13083,1,0,0:0:0:0:
320,192,13172,1,0,0:0:0:0:
64,192,13172,1,0,0:0:0:0:
192,192,13172,1,0,0:0:0:0:
448,192,13172,1,0,0:0:0:0:
64,192,13261,1,0,0:0:0:0:
448,192,13350,1,0,0:0:0:0:
192,192,13350,1,0,0:0:0:0:
64,192,13440,1,0,0:0:0:0:
320,192,13440,1,0,0:0:0:0:
192,192,13530,1,0,0:0:0:0:
448,192,13530,1,0,0:0:0:0:
64,192,13530,1,0,0:0:0:0:
448,192,13619,1,0,0:0:0:0:
320,192,13708,1,0,0:0:0:0:
64,192,13708,1,0,0:0:0:0:
448,192,13797,1,0,0:0:0:0:
192,192,13797,1,0,0:0:0:0:
64,192,13886,1,0,0:0:0:0:
448,192,13886,1,0,0:0:0:0:
192,192,13886,1,0,0:0:0:0:
320,192,13886,1,0,0:0:0:0:
64,192,13975,1,0,0:0:0:0:
448,192,14065,1,0,0:0:0:0:
320,192,14065,1,0,0:0:0:0:
64,192,14155,1,0,0:0:0:0:
192,192,14155,1,0,0:0:0:0:
320,192,14244,1,0,0:0:0:0:
64,192,14244,1,0,0:0:0:0:
448,192,14244,1,0,0:0:0:0:
192,192,14333,1,0,0:0:0:0:
448,192,14422,1,0,0:0:0:0:
64,192,14422,1,0,0:0:0:0:
320,192,14511,1,0,0:0:0:0:
192,192,14511,1,0,0:0:0:0:
64,192,14600,1,0,0:0:0:0:
448,192,14600,1,0,0:0:0:0:
192,192,14600,1,0,0:0:0:0:
320,192,14600,1,0,0:0:0:0:
64,192,14690,1,0,0:0:0:0:
448,192,14780,1,0,0:0:0:0:
192,192,14780,1,0,0:0:0:0:
320,192,14869,1,0,0:0:0:0:
64,192,14869,1,0,0:0:0:0:
192,192,14958,1,0,0:0:0:0:
320,192,14958,1,0,0:0:0:0:
448,192,14958,1,0,0:0:0:0:
64,192,15047,1,0,0:0:0:0:
192,192,15136,1,0,0:0:0:0:
64,192,15136,1,0,0:0:0:0:
448,192,15225,1,0,0:0:0:0:
320,192,15225,1,0,0:0:0:0:
64,192,15315,1,0,0:0:0:0:
192,192,15315,1,0,0:0:0:0:
320,192,15315,1,0,0:0:0:0:
448,192,15315,1,0,0:0:0:0:
192,192,15405,1,0,0:0:0:0:
448,192,15494,1,0,0:0:0:0:
64,192,15494,1,0,0:0:0:0:
192,192,15583,1,0,0:0:0:0:
320,192,15583,1,0,0:0:0:0:
448,192,15672,1,0,0:0:0:0:
192,192,15672,1,0,0:0:0:0:
64,192,15672,1,0,0:0:0:0:
320,192,15761,1,0,0:0:0:0:
320,192,15850,1,0,0:0:0:0:
448,192,15850,1,0,0:0:0:0:
192,192,15940,1,0,0:0:0:0:
64,192,15940,1,0,0:0:0:0:
320,192,16030,1,0,0:0:0:0:
64,192,16030,1,0,0:0:0:0:
192,192,16030,1,0,0:0:0:0:
448,192,16030,1,0,0:0:0:0:
448,192,16119,1,0,0:0:0:0:
320,192,16208,1,0,0:0:0:0:
64,192,16208,1,0,0:0:0:0:
320,192,16297,1,0,0:0:0:0:
448,192,16297,1,0,0:0:0:0:
192,192,16386,1,0,0:0:0:0:
448,192,16386,1,0,0:0:0:0:
64,192,16386,1,0,0:0:0:0:
320,192,16475,1,0,0:0:0:0:
192,192,16565,1,0,0:0:0:0:
64,192,16565,1,0,0:0:0:0:
448,192,16655,1,0,0:0:0:0:
320,192,16655,1,0,0:0:0:0:
64,192,16744,1,0,0:0:0:0:
192,192,16744,1,0,0:0:0:0:
448,192,16744,1,0,0:0:0:0:
320,192,16744,1,0,0:0:0:0:
192,192,16833,1,0,0:0:0:0:
448,192,16922,1,0,0:0:0:0:
64,192,16922,1,0,0:0:0:0:
192,192,17011,1,0,0:0:0:0:
320,192,17011,1,0,0:0:0:0:
64,192,17100,1,0,0:0:0:0:
448,192,17100,1,0,0:0:0:0:
320,192,17100,1,0,0:0:0:0:
192,192,17190,1,0,0:0:0:0:
320,192,17280,1,0,0:0:0:0:
448,192,17280,1,0,0:0:0:0:
64,192,17369,1,0,0:0:0:0:
192,192,17369,1,0,0:0:0:0:
192,192,17458,1,0,0:0:0:0:
64,192,17458,1,0,0:0:0:0:
320,192,17458,1,0,0:0:0:0:
448,192,17458,1,0,0:0:0:0:
448,192,17547,1,0,0:0:0:0:
320,192,17636,1,0,0:0:0:0:
192,192,17636,1,0,0:0:0:0:
448,192,17725,1,0,0:0:0:0:
64,192,17725,1,0,0:0:0:0:
192,192,17815,1,0,0:0:0:0:
320,192,17815,1,0,0:0:0:0:
448,192,17815,1,0,0:0:0:0:
64,192,17905,1,0,0:0:0:0:
320,192,17994,1,0,0:0:0:0:
448,192,17994,1,0,0:0:0:0:
192,192,18083,1,0,0:0:0:0:
64,192,18083,1,0,0:0:0:0:
64,192,18172,1,0,0:0:0:0:
192,192,18172,1,0,0:0:0:0:
320,192,18172,1,0,0:0:0:0:
448,192,18172,1,0,0:0:0:0:
320,192,18261,1,0,0:0:0:0:
192,192,18350,1,0,0:0:0:0:
448,192,18350,1,0,0:0:0:0:
320,192,18440,1,0,0:0:0:0:
192,192,18440,1,0,0:0:0:0:
448,192,18530,1,0,0:0:0:0:
320,192,18530,1,0,0:0:0:0:
64,192,18530,1,0,0:0:0:0:
192,192,18619,1,0,0:0:0:0:
64,192,18708,1,0,0:0:0:0:
448,192,18708,1,0,0:0:0:0:
192,192,18797,1,0,0:0:0:0:
320,192,18797,1,0,0:0:0:0:
320,192,18886,1,0,0:0:0:0:
64,192,18886,1,0,0:0:0:0:
192,192,18886,1,0,0:0:0:0:
448,192,18886,1,0,0:0:0:0:
64,192,18975,1,0,0:0:0:0:
448,192,19065,1,0,0:0:0:0:
320,192,19065,1,0,0:0:0:0:
192,192,19155,1,0,0:0:0:0:
64,192,19155,1,0,0:0:0:0:
320,192,19244,1,0,0:0:0:0:
64,192,19244,1,0,0:0:0:0:
448,192,19244,1,0,0:0:0:0:
192,192,19333,1,0,0:0:0:0:
320,192,19422,1,0,0:0:0:0:
64,192,19422,1,0,0:0:0:0:
448,192,19511,1,0,0:0:0:0:
192,192,19511,1,0,0:0:0:0:
448,192,19600,1,0,0:0:0:0:
320,192,19600,1,0,0:0:0:0:
64,192,19600,1,0,0:0:0:0:
192,192,19600,1,0,0:0:0:0:
320,192,19690,1,0,0:0:0:0:
192,192,19780,1,0,0:0:0:0:
448,192,19780,1,0,0:0:0:0:
64,192,19869,1,0,0:0:0:0:
320,192,19869,1,0,0:0:0:0:
320,192,19958,1,0,0:0:0:0:
448,192,19958,1,0,0:0:0:0:
192,192,19958,1,0,0:0:0:0:
64,192,20047,1,0,0:0:0:0:
448,192,20136,1,0,0:0:0:0:
64,192,20136,1,0,0:0:0:0:
192,192,20225,1,0,0:0:0:0:
320,192,20225,1,0,0:0:0:0:
320,192,20315,1,0,0:0:0:0:
448,192,20315,1,0,0:0:0:0:
192,192,20315,1,0,0:0:0:0:
64,192,20315,1,0,0:0:0:0:
64,192,20405,1,0,0:0:0:0:
448,192,20494,1,0,0:0:0:0:
320,192,20494,1,0,0:0:0:0:
192,192,20583,1,0,0:0:0:0:
64,192,20583,1,0,0:0:0:0:
192,192,20672,1,0,0:0:0:0:
320,192,20672,1,0,0:0:0:0:
448,192,20672,1,0,0:0:0:0:
64,192,20761,1,0,0:0:0:0:
448,192,20850,1,0,0:0:0:0:
192,192,20850,1,0,0:0:0:0:
320,192,20940,1,0,0:0:0:0:
64,192,20940,1,0,0:0:0:0:
64,192,21030,1,0,0:0:0:0:
192,192,21030,1,0,0:0:0:0:
320,192,21030,1,0,0:0:0:0:
448,192,21030,1,0,0:0:0:0:
448,192,21119,1,0,0:0:0:0:
64,192,21208,1,0,0:0:0:0:
192,192,21208,1,0,0:0:0:0:
320,192,21297,1,0,0:0:0:0:
64,192,21297,1,0,0:0:0:0:
448,192,21386,1,0,0:0:0:0:
320,192,21386,1,0,0:0:0:0:
192,192,21386,1,0,0:0:0:0:
192,192,21475,1,0,0:0:0:0:
64,192,21565,1,0,0:0:0:0:
448,192,21565,1,0,0:0:0:0:
320,192,21655,1,0,0:0:0:0:
192,192,21655,1,0,0:0:0:0:
192,192,21744,1,0,0:0:0:0:
64,192,21744,1,0,0:0:0:0:
448,192,21744,1,0,0:0:0:0:
320,192,21922,1,0,0:0:0:0:
192,192,21922,1,0,0:0:0:0:
64,192,21922,1,0,0:0:0:0:
192,192,22100,1,0,0:0:0:0:
320,192,22100,1,0,0:0:0:0:
448,192,22100,1,0,0:0:0:0:
448,192,22280,1,0,0:0:0:0:
192,192,22280,1,0,0:0:0:0:
64,192,22280,1,0,0:0:0:0:
192,192,22458,1,0,0:0:0:0:
448,192,22458,1,0,0:0:0:0:
320,192,22458,1,0,0:0:0:0:
448,192,22636,1,0,0:0:0:0:
320,192,22636,1,0,0:0:0:0:
64,192,22636,1,0,0:0:0:0:
320,192,22815,1,0,0:0:0:0:
64,192,22815,1,0,0:0:0:0:
192,192,22815,1,0,0:0:0:0:
64,192,22994,1,0,0:0:0:0:
192,192,22994,1,0,0:0:0:0:
448,192,22994,1,0,0:0:0:0:
448,192,23172,1,0,0:0:0:0:
320,192,23172,1,0,0:0:0:0:
192,192,23172,1,0,0:0:0:0:
64,192,23350,1,0,0:0:0:0:
320,192,23350,1,0,0:0:0:0:
448,192,23350,1,0,0:0:0:0:
320,192,23530,1,0,0:0:0:0:
64,192,23530,1,0,0:0:0:0:
448,192,23530,1,0,0:0:0:0:
192,192,23530,1,0,0:0:0:0:
64,192,23619,1,0,0:0:0:0:
320,192,23708,1,0,0:0:0:0:
448,192,23708,1,0,0:0:0:0:
192,192,23797,1,0,0:0:0:0:
64,192,23797,1,0,0:0:0:0:
192,192,23886,1,0,0:0:0:0:
320,192,23886,1,0,0:0:0:0:
448,192,23886,1,0,0:0:0:0:
320,192,23975,1,0,0:0:0:0:
192,192,24065,1,0,0:0:0:0:
448,192,24065,1,0,0:0:0:0:
320,192,24155,1,0,0:0:0:0:
64,192,24155,1,0,0:0:0:0:
64,192,24244,1,0,0:0:0:0:
192,192,24244,1,0,0:0:0:0:
320,192,24244,1,0,0:0:0:0:
448,192,24244,1,0,0:0:0:0:
192,192,24333,1,0,0:0:0:0:
320,192,24422,1,0,0:0:0:0:
64,192,24422,1,0,0:0:0:0:
448,192,24511,1,0,0:0:0:0:
192,192,24511,1,0,0:0:0:0:
448,192,24600,1,0,0:0:0:0:
320,192,24600,1,0,0:0:0:0:
64,192,24600,1,0,0:0:0:0:
192,192,24690,1,0,0:0:0:0:
64,192,24780,1,0,0:0:0:0:
192,192,24780,1,0,0:0:0:0:
320,192,24869,1,0,0:0:0:0:
448,192,24869,1,0,0:0:0:0:
320,192,24958,1,0,0:0:0:0:
64,192,24958,1,0,0:0:0:0:
192,192,24958,1,0,0:0:0:0:
448,192,24958,1,0,0:0:0:0:
64,192,25047,1,0,0:0:0:0:
448,192,25136,1,0,0:0:0:0:
320,192,25136,1,0,0:0:0:0:
192,192,25225,1,0,0:0:0:0:
448,192,25225,1,0,0:0:0:0:
192,192,25315,1,0,0:0:0:0:
320,192,25315,1,0,0:0:0:0:
64,192,25315,1,0,0:0:0:0:
448,192,25405,1,0,0:0:0:0:
320,192,25494,1,0,0:0:0:0:
64,192,25494,1,0,0:0:0:0:
448,192,25583,1,0,0:0:0:0:
192,192,25583,1,0,0:0:0:0:
64,192,25672,1,0,0:0:0:0:
192,192,25672,1,0,0:0:0:0:
448,192,25672,1,0,0:0:0:0:
320,192,25672,1,0,0:0:0:0:
320,192,25761,1,0,0:0:0:0:
192,192,25850,1,0,0:0:0:0:
64,192,25850,1,0,0:0:0:0:
448,192,25940,1,0,0:0:0:0:
320,192,25940,1,0,0:0:0:0:
64,192,26030,1,0,0:0:0:0:
448,192,26030,1,0,0:0:0:0:
192,192,26030,1,0,0:0:0:0:
320,192,26119,1,0,0:0:0:0:
192,192,26208,1,0,0:0:0:0:
448,192,26208,1,0,0:0:0:0:
64,192,26297,1,0,0:0:0:0:
320,192,26297,1,0,0:0:0:0:
192,192,26386,1,0,0:0:0:0:
64,192,26386,1,0,0:0:0:0:
320,192,26386,1,0,0:0:0:0:
448,192,26386,1,0,0:0:0:0:
448,192,26475,1,0,0:0:0:0:
64,192,26565,1,0,0:0:0:0:
192,192,26565,1,0,0:0:0:0:
448,192,26655,1,0,0:0:0:0:
64,192,26655,1,0,0:0:0:0:
192,192,26744,1,0,0:0:0:0:
320,192,26744,1,0,0:0:0:0:
448,192,26744,1,0,0:0:0:0:
64,192,26833,1,0,0:0:0:0:
192,192,26922,1,0,0:0:0:0:
64,192,26922,1,0,0:0:0:0:
448,192,27011,1,0,0:0:0:0:
320,192,27011,1,0,0:0:0:0:
64,192,27100,1,0,0:0:0:0:
192,192,27100,1,0,0:0:0:0:
320,192,27100,1,0,0:0:0:0:
448,192,27100,1,0,0:0:0:0:
192,192,27190,1,0,0:0:0:0:
320,192,27280,1,0,0:0:0:0:
64,192,27280,1,0,0:0:0:0:
448,192,27369,1,0,0:0:0:0:
192,192,27369,1,0,0:0:0:0:
448,192,27458,1,0,0:0:0:0:
192,192,27458,1,0,0:0:0:0:
64,192,27458,1,0,0:0:0:0:
320,192,27547,1,0,0:0:0:0:
320,192,27636,1,0,0:0:0:0:
448,192,27636,1,0,0:0:0:0:
192,192,27725,1,0,0:0:0:0:
64,192,27725,1,0,0:0:0:0:
320,192,27815,1,0,0:0:0:0:
64,192,27815,1,0,0:0:0:0:
192,192,27815,1,0,0:0:0:0:
448,192,27815,1,0,0:0:0:0:
448,192,27905,1,0,0:0:0:0:
320,192,27994,1,0,0:0:0:0:
64,192,27994,1,0,0:0:0:0:
320,192,28083,1,0,0:0:0:0:
448,192,28083,1,0,0:0:0:0:
192,192,28172,1,0,0:0:0:0:
448,192,28172,1,0,0:0:0:0:
64,192,28172,1,0,0:0:0:0:
320,192,28261,1,0,0:0:0:0:
192,192,28350,1,0,0:0:0:0:
64,192,28350,1,0,0:0:0:0:
448,192,28440,1,0,0:0:0:0:
320,192,28440,1,0,0:0:0:0:
448,192,28530,1,0,0:0:0:0:
320,192,28530,1,0,0:0:0:0:
64,192,28530,1,0,0:0:0:0:
192,192,28530,1,0,0:0:0:0:
192,192,28619,1,0,0:0:0:0:
320,192,28708,1,0,0:0:0:0:
448,192,28708,1,0,0:0:0:0:
64,192,28797,1,0,0:0:0:0:
192,192,28797,1,0,0:0:0:0:
320,192,28886,1,0,0:0:0:0:
448,192,28886,1,0,0:0:0:0:
192,192,28886,1,0,0:0:0:0:
64,192,28975,1,0,0:0:0:0:
448,192,29065,1,0,0:0:0:0:
192,192,29065,1,0,0:0:0:0:
320,192,29155,1,0,0:0:0:0:
64,192,29155,1,0,0:0:0:0:
320,192,29244,1,0,0:0:0:0:
448,192,29244,1,0,0:0:0:0:
192,192,29244,1,0,0:0:0:0:
64,192,29244,1,0,0:0:0:0:
448,192,29333,1,0,0:0:0:0:
320,192,29422,1,0,0:0:0:0:
192,192,29422,1,0,0:0:0:0:
448,192,29511,1,0,0:0:0:0:
64,192,29511,1,0,0:0:0:0:
192,192,29600,1,0,0:0:0:0:
320,192,29600,1,0,0:0:0:0:
448,192,29600,1,0,0:0:0:0:
320,192,29690,1,0,0:0:0:0:
192,192,29780,1,0,0:0:0:0:
64,192,29780,1,0,0:0:0:0:
448,192,29869,1,0,0:0:0:0:
320,192,29869,1,0,0:0:0:0:
64,192,29958,1,0,0:0:0:0:
192,192,29958,1,0,0:0:0:0:
320,192,29958,1,0,0:0:0:0:
448,192,29958,1,0,0:0:0:0:
64,192,30047,1,0,0:0:0:0:
192,192,30136,1,0,0:0:0:0:
320,192,30136,1,0,0:0:0:0:
448,192,30225,1,0,0:0:0:0:
64,192,30225,1,0,0:0:0:0:
448,192,30315,1,0,0:0:0:0:
320,192,30315,1,0,0:0:0:0:
192,192,30315,1,0,0:0:0:0:
64,192,30405,1,0,0:0:0:0:
320,192,30494,1,0,0:0:0:0:
448,192,30494,1,0,0:0:0:0:
192,192,30583,1,0,0:0:0:0:
64,192,30583,1,0,0:0:0:0:
320,192,30672,1,0,0:0:0:0:
64,192,30672,1,0,0:0:0:0:
192,192,30672,1,0,0:0:0:0:
448,192,30672,1,0,0:0:0:0:
320,192,30761,1,0,0:0:0:0:
448,192,30850,1,0,0:0:0:0:
192,192,30850,1,0,0:0:0:0:
320,192,30940,1,0,0:0:0:0:
64,192,30940,1,0,0:0:0:0:
192,192,31030,1,0,0:0:0:0:
320,192,31030,1,0,0:0:0:0:
448,192,31030,1,0,0:0:0:0:
64,192,31119,1,0,0:0:0:0:
320,192,31208,1,0,0:0:0:0:
64,192,31208,1,0,0:0:0:0:
448,192,31297,1,0,0:0:0:0:
192,192,31297,1,0,0:0:0:0:
64,192,31386,1,0,0:0:0:0:
192,192,31386,1,0,0:0:0:0:
448,192,31386,1,0,0:0:0:0:
320,192,31386,1,0,0:0:0:0:
64,192,31475,1,0,0:0:0:0:
448,192,31565,1,0,0:0:0:0:
320,192,31565,1,0,0:0:0:0:
192,192,31655,1,0,0:0:0:0:
64,192,31655,1,0,0:0:0:0:
64,192,31744,1,0,0:0:0:0:
448,192,31744,1,0,0:0:0:0:
320,192,31744,1,0,0:0:0:0:
192,192,31833,1,0,0:0:0:0:
64,192,31922,1,0,0:0:0:0:
448,192,31922,1,0,0:0:0:0:
320,192,32011,1,0,0:0:0:0:
192,192,32011,1,0,0:0:0:0:
192,192,32100,1,0,0:0:0:0:
64,192,32100,1,0,0:0:0:0:
320,192,32100,1,0,0:0:0:0:
448,192,32100,1,0,0:0:0:0:
64,192,32190,1,0,0:0:0:0:
448,192,32280,1,0,0:0:0:0:
192,192,32280,1,0,0:0:0:0:
320,192,32369,1,0,0:0:0:0:
64,192,32369,1,0,0:0:0:0:
192,192,32458,1,0,0:0:0:0:
320,192,32458,1,0,0:0:0:0:
448,192,32458,1,0,0:0:0:0:
64,192,32547,1,0,0:0:0:0:
448,192,32636,1,0,0:0:0:0:
192,192,32636,1,0,0:0:0:0:
320,192,32725,1,0,0:0:0:0:
64,192,32725,1,0,0:0:0:0:
64,192,32815,1,0,0:0:0:0:
192,192,32815,1,0,0:0:0:0:
320,192,32815,1,0,0:0:0:0:
448,192,32815,1,0,0:0:0:0:
448,192,32905,1,0,0:0:0:0:
64,192,32994,1,0,0:0:0:0:
192,192,32994,1,0,0:0:0:0:
320,192,33083,1,0,0:0:0:0:
64,192,33083,1,0,0:0:0:0:
448,192,33172,1,0,0:0:0:0:
320,192,33172,1,0,0:0:0:0:
192,192,33172,1,0,0:0:0:0:
192,192,33261,1,0,0:0:0:0:
64,192,33350,1,0,0:0:0:0:
448,192,33350,1,0,0:0:0:0:
320,192,33440,1,0,0:0:0:0:
192,192,33440,1,0,0:0:0:0:
192,192,33530,1,0,0:0:0:0:
64,192,33530,1,0,0:0:0:0:
448,192,33530,1,0,0:0:0:0:
192,192,33708,1,0,0:0:0:0:
64,192,33708,1,0,0:0:0:0:
320,192,33708,1,0,0:0:0:0:
448,192,33886,1,0,0:0:0:0:
192,192,33886,1,0,0:0:0:0:
320,192,33886,1,0,0:0:0:0:
192,192,34065,1,0,0:0:0:0:
448,192,34065,1,0,0:0:0:0:
64,192,34065,1,0,0:0:0:0:
192,192,34244,1,0,0:0:0:0:
320,192,34244,1,0,0:0:0:0:
448,192,34244,1,0,0:0:0:0:
64,192,34600,1,0,0:0:0:0:
320,192,34600,1,0,0:0:0:0:
448,192,34600,1,0,0:0:0:0:
192,192,34780,1,0,0:0:0:0:
448,192,34780,1,0,0:0:0:0:
64,192,34780,1,0,0:0:0:0:
192,192,34958,128,0,35315:0:0:0:0:
320,192,34958,128,0,35315:0:0:0:0:
448,192,34958,128,0,35315:0:0:0:0:
448,192,36565,1,0,0:0:0:0:
192,192,36565,1,0,0:0:0:0:
64,192,36565,1,0,0:0:0:0:
448,192,36744,1,0,0:0:0:0:
320,192,36744,1,0,0:0:0:0:
64,192,36744,1,0,0:0:0:0:
192,192,36922,1,0,0:0:0:0:
320,192,36922,1,0,0:0:0:0:
64,192,36922,1,0,0:0:0:0:
448,192,37100,1,0,0:0:0:0:
320,192,37100,1,0,0:0:0:0:
192,192,37100,1,0,0:0:0:0:
448,192,37458,1,0,0:0:0:0:
192,192,37458,1,0,0:0:0:0:
64,192,37458,1,0,0:0:0:0:
192,192,37636,1,0,0:0:0:0:
448,192,37636,1,0,0:0:0:0:
320,192,37636,1,0,0:0:0:0:
64,192,37815,128,0,38172:0:0:0:0:
192,192,37815,128,0,38172:0:0:0:0:
320,192,37815,128,0,38172:0:0:0:0:
448,192,39422,1,0,0:0:0:0:
320,192,39422,1,0,0:0:0:0:
192,192,39422,1,0,0:0:0:0:
320,192,39600,1,0,0:0:0:0:
192,192,39600,1,0,0:0:0:0:
64,192,39600,1,0,0:0:0:0:
448,192,39780,1,0,0:0:0:0:
320,192,39780,1,0,0:0:0:0:
64,192,39780,1,0,0:0:0:0:
448,192,39958,1,0,0:0:0:0:
320,192,39958,1,0,0:0:0:0:
192,192,39958,1,0,0:0:0:0:
448,192,40315,1,0,0:0:0:0:
192,192,40315,1,0,0:0:0:0:
320,192,40315,1,0,0:0:0:0:
192,192,40494,1,0,0:0:0:0:
64,192,40494,1,0,0:0:0:0:
320,192,40494,1,0,0:0:0:0:
448,192,40672,128,0,40940:0:0:0:0:
192,192,40672,128,0,40940:0:0:0:0:
64,192,40672,128,0,40940:0:0:0:0:
192,192,42280,1,0,0:0:0:0:
320,192,42280,1,0,0:0:0:0:
448,192,42280,1,0,0:0:0:0:
64,192,42458,1,0,0:0:0:0:
320,192,42458,1,0,0:0:0:0:
448,192,42458,1,0,0:0:0:0:
64,192,42636,1,0,0:0:0:0:
320,192,42636,1,0,0:0:0:0:
192,192,42636,1,0,0:0:0:0:
192,192,42815,1,0,0:0:0:0:
448,192,42815,1,0,0:0:0:0:
64,192,42815,1,0,0:0:0:0:
320,192,43172,1,0,0:0:0:0:
192,192,43172,1,0,0:0:0:0:
448,192,43172,1,0,0:0:0:0:
320,192,43350,1,0,0:0:0:0:
64,192,43350,1,0,0:0:0:0:
192,192,43350,1,0,0:0:0:0:
64,192,43530,128,0,43708:0:0:0:0:
320,192,43530,128,0,43708:0:0:0:0:
448,192,43530,128,0,43708:0:0:0:0:
192,192,43708,128,0,44065:0:0:0:0:
320,192,44244,128,0,44690:0:0:0:0:
320,192,44780,1,0,0:0:0:0:
192,192,45136,128,0,45315:0:0:0:0:
320,192,45315,128,0,45494:0:0:0:0:
64,192,45494,128,0,45672:0:0:0:0:
192,192,45672,128,0,45850:0:0:0:0:
320,192,45850,128,0,46208:0:0:0:0:
192,192,46208,128,0,46565:0:0:0:0:
320,192,46565,128,0,46744:0:0:0:0:
64,192,46565,128,0,46744:0:0:0:0:
448,192,46744,128,0,46922:0:0:0:0:
192,192,46744,128,0,46922:0:0:0:0:
320,192,46922,128,0,47100:0:0:0:0:
64,192,46922,128,0,47100:0:0:0:0:
192,192,47100,128,0,47458:0:0:0:0:
448,192,47100,128,0,47458:0:0:0:0:
64,192,47458,128,0,47636:0:0:0:0:
192,192,47636,128,0,47815:0:0:0:0:
320,192,47815,128,0,47994:0:0:0:0:
192,192,47994,128,0,48172:0:0:0:0:
448,192,48172,128,0,48350:0:0:0:0:
320,192,48350,128,0,48530:0:0:0:0:
192,192,48530,128,0,48708:0:0:0:0:
320,192,48708,128,0,48886:0:0:0:0:
64,192,48886,128,0,49065:0:0:0:0:
192,192,49065,128,0,49155:0:0:0:0:
320,192,49244,1,0,0:0:0:0:
64,192,49244,1,0,0:0:0:0:
448,192,49244,1,0,0:0:0:0:
192,192,49244,1,0,0:0:0:0:
448,192,49333,1,0,0:0:0:0:
192,192,49422,1,0,0:0:0:0:
64,192,49422,1,0,0:0:0:0:
448,192,49511,1,0,0:0:0:0:
192,192,49511,1,0,0:0:0:0:
320,192,49600,1,0,0:0:0:0:
64,192,49600,1,0,0:0:0:0:
448,192,49600,1,0,0:0:0:0:
192,192,49690,1,0,0:0:0:0:
448,192,49780,1,0,0:0:0:0:
320,192,49780,1,0,0:0:0:0:
192,192,49869,1,0,0:0:0:0:
64,192,49869,1,0,0:0:0:0:
64,192,49958,1,0,0:0:0:0:
192,192,49958,1,0,0:0:0:0:
320,192,49958,1,0,0:0:0:0:
448,192,49958,1,0,0:0:0:0:
448,192,50047,1,0,0:0:0:0:
320,192,50136,1,0,0:0:0:0:
64,192,50136,1,0,0:0:0:0:
448,192,50225,1,0,0:0:0:0:
192,192,50225,1,0,0:0:0:0:
448,192,50315,1,0,0:0:0:0:
320,192,50315,1,0,0:0:0:0:
64,192,50315,1,0,0:0:0:0:
192,192,50405,1,0,0:0:0:0:
64,192,50494,1,0,0:0:0:0:
192,192,50494,1,0,0:0:0:0:
320,192,50583,1,0,0:0:0:0:
448,192,50583,1,0,0:0:0:0:
320,192,50672,1,0,0:0:0:0:
64,192,50672,1,0,0:0:0:0:
192,192,50672,1,0,0:0:0:0:
448,192,50672,1,0,0:0:0:0:
64,192,50761,1,0,0:0:0:0:
448,192,50850,1,0,0:0:0:0:
192,192,50850,1,0,0:0:0:0:
64,192,50940,1,0,0:0:0:0:
320,192,50940,1,0,0:0:0:0:
192,192,51030,1,0,0:0:0:0:
448,192,51030,1,0,0:0:0:0:
64,192,51030,1,0,0:0:0:0:
320,192,51119,1,0,0:0:0:0:
320,192,51208,1,0,0:0:0:0:
192,192,51208,1,0,0:0:0:0:
448,192,51297,1,0,0:0:0:0:
64,192,51297,1,0,0:0:0:0:
64,192,51386,1,0,0:0:0:0:
448,192,51386,1,0,0:0:0:0:
192,192,51386,1,0,0:0:0:0:
320,192,51386,1,0,0:0:0:0:
192,192,51475,1,0,0:0:0:0:
448,192,51565,1,0,0:0:0:0:
320,192,51565,1,0,0:0:0:0:
64,192,51655,1,0,0:0:0:0:
192,192,51655,1,0,0:0:0:0:
320,192,51744,1,0,0:0:0:0:
64,192,51744,1,0,0:0:0:0:
448,192,51744,1,0,0:0:0:0:
192,192,51833,1,0,0:0:0:0:
448,192,51922,1,0,0:0:0:0:
64,192,51922,1,0,0:0:0:0:
320,192,52011,1,0,0:0:0:0:
192,192,52011,1,0,0:0:0:0:
64,192,52100,1,0,0:0:0:0:
448,192,52100,1,0,0:0:0:0:
192,192,52100,1,0,0:0:0:0:
320,192,52100,1,0,0:0:0:0:
448,192,52190,1,0,0:0:0:0:
320,192,52280,1,0,0:0:0:0:
192,192,52280,1,0,0:0:0:0:
448,192,52369,1,0,0:0:0:0:
64,192,52369,1,0,0:0:0:0:
192,192,52458,1,0,0:0:0:0:
320,192,52458,1,0,0:0:0:0:
448,192,52458,1,0,0:0:0:0:
64,192,52547,1,0,0:0:0:0:
320,192,52636,1,0,0:0:0:0:
192,192,52636,1,0,0:0:0:0:
448,192,52725,1,0,0:0:0:0:
64,192,52725,1,0,0:0:0:0:
64,192,52815,1,0,0:0:0:0:
192,192,52815,1,0,0:0:0:0:
320,192,52815,1,0,0:0:0:0:
448,192,52815,1,0,0:0:0:0:
192,192,52905,1,0,0:0:0:0:
448,192,52994,1,0,0:0:0:0:
64,192,52994,1,0,0:0:0:0:
192,192,53083,1,0,0:0:0:0:
320,192,53083,1,0,0:0:0:0:
448,192,53172,1,0,0:0:0:0:
192,192,53172,1,0,0:0:0:0:
64,192,53172,1,0,0:0:0:0:
320,192,53261,1,0,0:0:0:0:
320,192,53350,1,0,0:0:0:0:
448,192,53350,1,0,0:0:0:0:
192,192,53440,1,0,0:0:0:0:
64,192,53440,1,0,0:0:0:0:
320,192,53530,1,0,0:0:0:0:
64,192,53530,1,0,0:0:0:0:
192,192,53530,1,0,0:0:0:0:
448,192,53530,1,0,0:0:0:0:
448,192,53619,1,0,0:0:0:0:
320,192,53708,1,0,0:0:0:0:
64,192,53708,1,0,0:0:0:0:
320,192,53797,1,0,0:0:0:0:
448,192,53797,1,0,0:0:0:0:
192,192,53886,1,0,0:0:0:0:
448,192,53886,1,0,0:0:0:0:
64,192,53886,1,0,0:0:0:0:
64,192,53975,1,0,0:0:0:0:
320,192,54065,1,0,0:0:0:0:
192,192,54065,1,0,0:0:0:0:
448,192,54155,1,0,0:0:0:0:
64,192,54155,1,0,0:0:0:0:
64,192,54244,1,0,0:0:0:0:
192,192,54244,1,0,0:0:0:0:
448,192,54244,1,0,0:0:0:0:
320,192,54244,1,0,0:0:0:0:
192,192,54333,1,0,0:0:0:0:
448,192,54422,1,0,0:0:0:0:
64,192,54422,1,0,0:0:0:0:
192,192,54511,1,0,0:0:0:0:
320,192,54511,1,0,0:0:0:0:
64,192,54600,1,0,0:0:0:0:
448,192,54600,1,0,0:0:0:0:
320,192,54600,1,0,0:0:0:0:
192,192,54690,1,0,0:0:0:0:
320,192,54780,1,0,0:0:0:0:
448,192,54780,1,0,0:0:0:0:
64,192,54869,1,0,0:0:0:0:
192,192,54869,1,0,0:0:0:0:
192,192,54958,1,0,0:0:0:0:
64,192,54958,1,0,0:0:0:0:
320,192,54958,1,0,0:0:0:0:
448,192,54958,1,0,0:0:0:0:
320,192,55047,1,0,0:0:0:0:
448,192,55136,1,0,0:0:0:0:
192,192,55136,1,0,0:0:0:0:
320,192,55225,1,0,0:0:0:0:
64,192,55225,1,0,0:0:0:0:
192,192,55315,1,0,0:0:0:0:
320,192,55315,1,0,0:0:0:0:
448,192,55315,1,0,0:0:0:0:
64,192,55405,1,0,0:0:0:0:
448,192,55494,1,0,0:0:0:0:
192,192,55494,1,0,0:0:0:0:
320,192,55583,1,0,0:0:0:0:
64,192,55583,1,0,0:0:0:0:
64,192,55672,1,0,0:0:0:0:
192,192,55672,1,0,0:0:0:0:
320,192,55672,1,0,0:0:0:0:
448,192,55672,1,0,0:0:0:0:
64,192,55761,1,0,0:0:0:0:
192,192,55850,1,0,0:0:0:0:
448,192,55850,1,0,0:0:0:0:
320,192,55940,1,0,0:0:0:0:
192,192,55940,1,0,0:0:0:0:
448,192,56030,1,0,0:0:0:0:
320,192,56030,1,0,0:0:0:0:
64,192,56030,1,0,0:0:0:0:
64,192,56119,1,0,0:0:0:0:
320,192,56208,1,0,0:0:0:0:
448,192,56208,1,0,0:0:0:0:
192,192,56297,1,0,0:0:0:0:
64,192,56297,1,0,0:0:0:0:
320,192,56386,1,0,0:0:0:0:
64,192,56386,1,0,0:0:0:0:
192,192,56386,1,0,0:0:0:0:
448,192,56386,1,0,0:0:0:0:
448,192,56475,1,0,0:0:0:0:
192,192,56565,1,0,0:0:0:0:
320,192,56565,1,0,0:0:0:0:
192,192,56655,1,0,0:0:0:0:
64,192,56655,1,0,0:0:0:0:
320,192,56744,1,0,0:0:0:0:
64,192,56744,1,0,0:0:0:0:
448,192,56744,1,0,0:0:0:0:
192,192,56833,1,0,0:0:0:0:
320,192,56922,1,0,0:0:0:0:
64,192,56922,1,0,0:0:0:0:
448,192,57011,1,0,0:0:0:0:
192,192,57011,1,0,0:0:0:0:
448,192,57100,1,0,0:0:0:0:
320,192,57100,1,0,0:0:0:0:
64,192,57100,1,0,0:0:0:0:
192,192,57100,1,0,0:0:0:0:
64,192,57190,1,0,0:0:0:0:
320,192,57280,1,0,0:0:0:0:
448,192,57280,1,0,0:0:0:0:
64,192,57369,1,0,0:0:0:0:
192,192,57369,1,0,0:0:0:0:
320,192,57458,1,0,0:0:0:0:
448,192,57458,1,0,0:0:0:0:
192,192,57458,1,0,0:0:0:0:
320,192,57547,1,0,0:0:0:0:
448,192,57636,1,0,0:0:0:0:
64,192,57636,1,0,0:0:0:0:
192,192,57725,1,0,0:0:0:0:
320,192,57725,1,0,0:0:0:0:
320,192,57815,1,0,0:0:0:0:
448,192,57815,1,0,0:0:0:0:
192,192,57815,1,0,0:0:0:0:
64,192,57815,1,0,0:0:0:0:
320,192,58530,128,0,59244:0:0:0:0:
192,192,59244,128,0,59422:0:0:0:0:
448,192,59422,128,0,59600:0:0:0:0:
320,192,59600,128,0,59780:0:0:0:0:
192,192,59780,128,0,59958:0:0:0:0:
448,192,59958,128,0,60136:0:0:0:0:
320,192,60136,128,0,60315:0:0:0:0:
64,192,60315,128,0,60494:0:0:0:0:
192,192,60494,128,0,60672:0:0:0:0:
320,192,60672,128,0,60850:0:0:0:0:
192,192,61386,128,0,62100:0:0:0:0:
320,192,62100,128,0,62280:0:0:0:0:
64,192,62280,128,0,62458:0:0:0:0:
192,192,62458,128,0,62636:0:0:0:0:
320,192,62636,128,0,62815:0:0:0:0:
192,192,62815,128,0,62994:0:0:0:0:
448,192,62994,128,0,63172:0:0:0:0:
320,192,63172,128,0,63350:0:0:0:0:
192,192,63350,128,0,63530:0:0:0:0:
320,192,63530,128,0,63708:0:0:0:0:
320,192,64244,128,0,64958:0:0:0:0:
448,192,64958,128,0,65136:0:0:0:0:
64,192,65136,128,0,65315:0:0:0:0:
192,192,65315,128,0,65494:0:0:0:0:
320,192,65494,128,0,65672:0:0:0:0:
64,192,65672,128,0,65850:0:0:0:0:
192,192,65850,128,0,66030:0:0:0:0:
320,192,66030,128,0,66208:0:0:0:0:
448,192,66208,128,0,66386:0:0:0:0:
320,192,66386,128,0,66565:0:0:0:0:
320,192,67100,128,0,67815:0:0:0:0:
192,192,67815,128,0,67994:0:0:0:0:
448,192,67994,128,0,68172:0:0:0:0:
320,192,68172,128,0,68350:0:0:0:0:
192,192,68350,128,0,68530:0:0:0:0:
320,192,68530,128,0,68708:0:0:0:0:
64,192,68708,128,0,68886:0:0:0:0:
192,192,68886,128,0,69065:0:0:0:0:
320,192,69065,128,0,69244:0:0:0:0:
192,192,69244,128,0,69422:0:0:0:0:
320,192,69958,128,0,70672:0:0:0:0:
192,192,70672,128,0,70850:0:0:0:0:
448,192,70850,128,0,71030:0:0:0:0:
320,192,71030,128,0,71208:0:0:0:0:
192,192,71208,128,0,71386:0:0:0:0:
448,192,71386,128,0,71565:0:0:0:0:
320,192,71565,128,0,71744:0:0:0:0:
64,192,71744,128,0,71922:0:0:0:0:
192,192,71922,128,0,72100:0:0:0:0:
448,192,72100,128,0,72280:0:0:0:0:
320,192,72458,128,0,72636:0:0:0:0:
448,192,72636,128,0,72815:0:0:0:0:
320,192,72815,128,0,72994:0:0:0:0:
448,192,73172,128,0,73350:0:0:0:0:
320,192,73350,128,0,73530:0:0:0:0:
448,192,73530,128,0,73708:0:0:0:0:
192,192,74244,128,0,74422:0:0:0:0:
448,192,74244,128,0,74422:0:0:0:0:
320,192,74422,128,0,74600:0:0:0:0:
64,192,74422,128,0,74600:0:0:0:0:
192,192,74600,128,0,74780:0:0:0:0:
448,192,74600,128,0,74780:0:0:0:0:
320,192,74780,128,0,74958:0:0:0:0:
64,192,74780,128,0,74958:0:0:0:0:
192,192,74958,128,0,75136:0:0:0:0:
448,192,74958,128,0,75136:0:0:0:0:
192,192,75315,128,0,75494:0:0:0:0:
64,192,75494,128,0,75672:0:0:0:0:
192,192,75672,128,0,75850:0:0:0:0:
64,192,76030,128,0,76208:0:0:0:0:
192,192,76208,128,0,76386:0:0:0:0:
64,192,76386,128,0,76565:0:0:0:0:
320,192,77100,128,0,77280:0:0:0:0:
64,192,77100,128,0,77280:0:0:0:0:
192,191,77280,128,0,77458:0:0:0:0:
448,192,77280,128,0,77458:0:0:0:0:
320,192,77458,128,0,77636:0:0:0:0:
64,192,77458,128,0,77636:0:0:0:0:
192,191,77636,128,0,77815:0:0:0:0:
448,192,77636,128,0,77815:0:0:0:0:
320,192,77815,128,0,77994:0:0:0:0:
64,192,77815,128,0,77994:0:0:0:0:
320,192,78172,128,0,78350:0:0:0:0:
448,192,78350,128,0,78530:0:0:0:0:
320,192,78530,128,0,78708:0:0:0:0:
448,192,78886,128,0,79065:0:0:0:0:
320,192,79065,128,0,79244:0:0:0:0:
448,192,79244,128,0,79422:0:0:0:0:
192,192,79958,128,0,80136:0:0:0:0:
448,192,79958,128,0,80136:0:0:0:0:
320,192,80136,128,0,80315:0:0:0:0:
64,192,80136,128,0,80315:0:0:0:0:
192,192,80315,128,0,80494:0:0:0:0:
448,192,80315,128,0,80494:0:0:0:0:
320,192,80494,128,0,80672:0:0:0:0:
64,192,80494,128,0,80672:0:0:0:0:
192,192,80672,128,0,80850:0:0:0:0:
448,192,80672,128,0,80850:0:0:0:0:
192,192,81030,128,0,81208:0:0:0:0:
64,192,81208,128,0,81386:0:0:0:0:
192,192,81386,128,0,81565:0:0:0:0:
64,192,81744,128,0,81922:0:0:0:0:
192,192,81922,128,0,82100:0:0:0:0:
64,192,82100,128,0,82280:0:0:0:0:
320,192,82815,128,0,82994:0:0:0:0:
64,192,82815,128,0,82994:0:0:0:0:
192,191,82994,128,0,83172:0:0:0:0:
448,192,82994,128,0,83172:0:0:0:0:
320,192,83172,128,0,83350:0:0:0:0:
64,192,83172,128,0,83350:0:0:0:0:
192,191,83350,128,0,83440:0:0:0:0:
448,192,83350,128,0,83440:0:0:0:0:
320,192,83530,5,0,0:0:0:0:
64,192,83530,1,0,0:0:0:0:
448,192,83530,1,0,0:0:0:0:
192,192,83530,1,0,0:0:0:0:
192,192,83619,1,0,0:0:0:0:
320,192,83708,1,0,0:0:0:0:
448,192,83708,1,0,0:0:0:0:
192,192,83797,1,0,0:0:0:0:
64,192,83797,1,0,0:0:0:0:
320,192,83886,1,0,0:0:0:0:
192,192,83886,1,0,0:0:0:0:
448,192,83886,1,0,0:0:0:0:
64,192,83975,1,0,0:0:0:0:
192,192,84065,1,0,0:0:0:0:
320,192,84065,1,0,0:0:0:0:
448,192,84155,1,0,0:0:0:0:
64,192,84155,1,0,0:0:0:0:
64,192,84244,1,0,0:0:0:0:
192,192,84244,1,0,0:0:0:0:
320,192,84244,1,0,0:0:0:0:
448,192,84244,1,0,0:0:0:0:
192,192,84333,1,0,0:0:0:0:
320,192,84422,1,0,0:0:0:0:
64,192,84422,1,0,0:0:0:0:
448,192,84511,1,0,0:0:0:0:
192,192,84511,1,0,0:0:0:0:
448,192,84600,1,0,0:0:0:0:
320,192,84600,1,0,0:0:0:0:
64,192,84600,1,0,0:0:0:0:
320,192,84690,1,0,0:0:0:0:
64,192,84780,1,0,0:0:0:0:
448,192,84780,1,0,0:0:0:0:
192,192,84869,1,0,0:0:0:0:
320,192,84869,1,0,0:0:0:0:
320,192,84958,1,0,0:0:0:0:
64,192,84958,1,0,0:0:0:0:
192,192,84958,1,0,0:0:0:0:
448,192,84958,1,0,0:0:0:0:
64,192,85047,1,0,0:0:0:0:
448,192,85136,1,0,0:0:0:0:
192,192,85136,1,0,0:0:0:0:
64,192,85225,1,0,0:0:0:0:
320,192,85225,1,0,0:0:0:0:
192,192,85315,1,0,0:0:0:0:
448,192,85315,1,0,0:0:0:0:
64,192,85315,1,0,0:0:0:0:
448,192,85405,1,0,0:0:0:0:
320,192,85494,1,0,0:0:0:0:
64,192,85494,1,0,0:0:0:0:
448,192,85583,1,0,0:0:0:0:
192,192,85583,1,0,0:0:0:0:
64,192,85672,1,0,0:0:0:0:
448,192,85672,1,0,0:0:0:0:
192,192,85672,1,0,0:0:0:0:
320,192,85672,1,0,0:0:0:0:
64,192,85761,1,0,0:0:0:0:
448,192,85850,1,0,0:0:0:0:
320,192,85850,1,0,0:0:0:0:
64,192,85940,1,0,0:0:0:0:
192,192,85940,1,0,0:0:0:0:
320,192,86030,1,0,0:0:0:0:
64,192,86030,1,0,0:0:0:0:
448,192,86030,1,0,0:0:0:0:
192,192,86119,1,0,0:0:0:0:
448,192,86208,1,0,0:0:0:0:
64,192,86208,1,0,0:0:0:0:
320,192,86297,1,0,0:0:0:0:
192,192,86297,1,0,0:0:0:0:
64,192,86386,1,0,0:0:0:0:
448,192,86386,1,0,0:0:0:0:
192,192,86386,1,0,0:0:0:0:
320,192,86386,1,0,0:0:0:0:
64,192,86475,1,0,0:0:0:0:
448,192,86565,1,0,0:0:0:0:
192,192,86565,1,0,0:0:0:0:
320,192,86655,1,0,0:0:0:0:
64,192,86655,1,0,0:0:0:0:
192,192,86744,1,0,0:0:0:0:
320,192,86744,1,0,0:0:0:0:
448,192,86744,1,0,0:0:0:0:
64,192,86833,1,0,0:0:0:0:
192,192,86922,1,0,0:0:0:0:
64,192,86922,1,0,0:0:0:0:
448,192,87011,1,0,0:0:0:0:
320,192,87011,1,0,0:0:0:0:
64,192,87100,1,0,0:0:0:0:
192,192,87100,1,0,0:0:0:0:
320,192,87100,1,0,0:0:0:0:
448,192,87100,1,0,0:0:0:0:
192,192,87190,1,0,0:0:0:0:
448,192,87280,1,0,0:0:0:0:
64,192,87280,1,0,0:0:0:0:
192,192,87369,1,0,0:0:0:0:
320,192,87369,1,0,0:0:0:0:
448,192,87458,1,0,0:0:0:0:
192,192,87458,1,0,0:0:0:0:
64,192,87458,1,0,0:0:0:0:
320,192,87547,1,0,0:0:0:0:
320,192,87636,1,0,0:0:0:0:
448,192,87636,1,0,0:0:0:0:
192,192,87725,1,0,0:0:0:0:
64,192,87725,1,0,0:0:0:0:
320,192,87815,1,0,0:0:0:0:
64,192,87815,1,0,0:0:0:0:
192,192,87815,1,0,0:0:0:0:
448,192,87815,1,0,0:0:0:0:
448,192,87905,1,0,0:0:0:0:
320,192,87994,1,0,0:0:0:0:
64,192,87994,1,0,0:0:0:0:
320,192,88083,1,0,0:0:0:0:
448,192,88083,1,0,0:0:0:0:
192,192,88172,1,0,0:0:0:0:
448,192,88172,1,0,0:0:0:0:
64,192,88172,1,0,0:0:0:0:
320,192,88261,1,0,0:0:0:0:
192,192,88350,1,0,0:0:0:0:
64,192,88350,1,0,0:0:0:0:
448,192,88440,1,0,0:0:0:0:
320,192,88440,1,0,0:0:0:0:
64,192,88530,1,0,0:0:0:0:
192,192,88530,1,0,0:0:0:0:
448,192,88530,1,0,0:0:0:0:
320,192,88530,1,0,0:0:0:0:
192,192,88619,1,0,0:0:0:0:
448,192,88708,1,0,0:0:0:0:
64,192,88708,1,0,0:0:0:0:
192,192,88797,1,0,0:0:0:0:
320,192,88797,1,0,0:0:0:0:
64,192,88886,1,0,0:0:0:0:
448,192,88886,1,0,0:0:0:0:
320,192,88886,1,0,0:0:0:0:
192,192,88975,1,0,0:0:0:0:
320,192,89065,1,0,0:0:0:0:
448,192,89065,1,0,0:0:0:0:
64,192,89155,1,0,0:0:0:0:
192,192,89155,1,0,0:0:0:0:
192,192,89244,1,0,0:0:0:0:
64,192,89244,1,0,0:0:0:0:
320,192,89244,1,0,0:0:0:0:
448,192,89244,1,0,0:0:0:0:
448,192,89333,1,0,0:0:0:0:
320,192,89422,1,0,0:0:0:0:
192,192,89422,1,0,0:0:0:0:
448,192,89511,1,0,0:0:0:0:
64,192,89511,1,0,0:0:0:0:
192,192,89600,1,0,0:0:0:0:
320,192,89600,1,0,0:0:0:0:
448,192,89600,1,0,0:0:0:0:
192,192,89690,1,0,0:0:0:0:
320,192,89780,1,0,0:0:0:0:
64,192,89780,1,0,0:0:0:0:
192,192,89869,1,0,0:0:0:0:
448,192,89869,1,0,0:0:0:0:
64,192,89958,1,0,0:0:0:0:
192,192,89958,1,0,0:0:0:0:
320,192,89958,1,0,0:0:0:0:
448,192,89958,1,0,0:0:0:0:
64,192,90047,1,0,0:0:0:0:
192,192,90136,1,0,0:0:0:0:
448,192,90136,1,0,0:0:0:0:
320,192,90225,1,0,0:0:0:0:
192,192,90225,1,0,0:0:0:0:
448,192,90315,1,0,0:0:0:0:
320,192,90315,1,0,0:0:0:0:
64,192,90315,1,0,0:0:0:0:
64,192,90405,1,0,0:0:0:0:
320,192,90494,1,0,0:0:0:0:
192,192,90494,1,0,0:0:0:0:
64,192,90583,1,0,0:0:0:0:
448,192,90583,1,0,0:0:0:0:
320,192,90672,1,0,0:0:0:0:
64,192,90672,1,0,0:0:0:0:
192,192,90672,1,0,0:0:0:0:
448,192,90672,1,0,0:0:0:0:
192,192,90761,1,0,0:0:0:0:
448,192,90850,1,0,0:0:0:0:
320,192,90850,1,0,0:0:0:0:
192,192,90940,1,0,0:0:0:0:
64,192,90940,1,0,0:0:0:0:
320,192,91030,1,0,0:0:0:0:
64,192,91030,1,0,0:0:0:0:
448,192,91030,1,0,0:0:0:0:
192,192,91119,1,0,0:0:0:0:
320,192,91208,1,0,0:0:0:0:
64,192,91208,1,0,0:0:0:0:
448,192,91297,1,0,0:0:0:0:
192,192,91297,1,0,0:0:0:0:
448,192,91386,1,0,0:0:0:0:
320,192,91386,1,0,0:0:0:0:
64,192,91386,1,0,0:0:0:0:
192,192,91386,1,0,0:0:0:0:
64,192,91475,1,0,0:0:0:0:
320,192,91565,1,0,0:0:0:0:
448,192,91565,1,0,0:0:0:0:
64,192,91655,1,0,0:0:0:0:
192,192,91655,1,0,0:0:0:0:
320,192,91744,1,0,0:0:0:0:
448,192,91744,1,0,0:0:0:0:
192,192,91744,1,0,0:0:0:0:
320,192,91833,1,0,0:0:0:0:
448,192,91922,1,0,0:0:0:0:
64,192,91922,1,0,0:0:0:0:
192,192,92011,1,0,0:0:0:0:
320,192,92011,1,0,0:0:0:0:
320,192,92100,1,0,0:0:0:0:
448,192,92100,1,0,0:0:0:0:
192,192,92100,1,0,0:0:0:0:
64,192,92100,1,0,0:0:0:0:
64,192,92190,1,0,0:0:0:0:
448,192,92280,1,0,0:0:0:0:
320,192,92280,1,0,0:0:0:0:
192,192,92369,1,0,0:0:0:0:
64,192,92369,1,0,0:0:0:0:
192,192,92458,1,0,0:0:0:0:
320,192,92458,1,0,0:0:0:0:
448,192,92458,1,0,0:0:0:0:
64,192,92547,1,0,0:0:0:0:
448,192,92636,1,0,0:0:0:0:
192,192,92636,1,0,0:0:0:0:
320,192,92725,1,0,0:0:0:0:
64,192,92725,1,0,0:0:0:0:
64,192,92815,1,0,0:0:0:0:
192,192,92815,1,0,0:0:0:0:
320,192,92815,1,0,0:0:0:0:
448,192,92815,1,0,0:0:0:0:
448,192,92905,1,0,0:0:0:0:
64,192,92994,1,0,0:0:0:0:
192,192,92994,1,0,0:0:0:0:
320,192,93083,1,0,0:0:0:0:
64,192,93083,1,0,0:0:0:0:
448,192,93172,1,0,0:0:0:0:
320,192,93172,1,0,0:0:0:0:
192,192,93172,1,0,0:0:0:0:
192,192,93261,1,0,0:0:0:0:
64,192,93350,1,0,0:0:0:0:
448,192,93350,1,0,0:0:0:0:
320,192,93440,1,0,0:0:0:0:
192,192,93440,1,0,0:0:0:0:
320,192,93530,1,0,0:0:0:0:
64,192,93530,1,0,0:0:0:0:
448,192,93530,1,0,0:0:0:0:
64,192,93708,1,0,0:0:0:0:
448,192,93708,1,0,0:0:0:0:
192,192,93708,1,0,0:0:0:0:
320,192,93886,1,0,0:0:0:0:
64,192,93886,1,0,0:0:0:0:
448,192,93886,1,0,0:0:0:0:
64,192,94065,1,0,0:0:0:0:
320,192,94065,1,0,0:0:0:0:
192,192,94065,1,0,0:0:0:0:
192,192,94244,1,0,0:0:0:0:
448,192,94244,1,0,0:0:0:0:
64,192,94244,1,0,0:0:0:0:
448,192,94600,1,0,0:0:0:0:
320,192,94600,1,0,0:0:0:0:
192,192,94600,1,0,0:0:0:0:
64,192,94780,1,0,0:0:0:0:
320,192,94780,1,0,0:0:0:0:
448,192,94780,1,0,0:0:0:0:
192,192,94958,128,0,95225:0:0:0:0:
64,192,94958,128,0,95225:0:0:0:0:
448,192,94958,128,0,95225:0:0:0:0:
448,192,95315,1,0,0:0:0:0:
192,192,95315,1,0,0:0:0:0:
320,192,95315,1,0,0:0:0:0:
64,192,95315,1,0,0:0:0:0:
192,192,95405,1,0,0:0:0:0:
448,192,95494,1,0,0:0:0:0:
320,192,95494,1,0,0:0:0:0:
64,192,95583,1,0,0:0:0:0:
192,192,95583,1,0,0:0:0:0:
448,192,95672,1,0,0:0:0:0:
192,192,95672,1,0,0:0:0:0:
320,192,95672,1,0,0:0:0:0:
64,192,95761,1,0,0:0:0:0:
320,192,95850,1,0,0:0:0:0:
192,192,95850,1,0,0:0:0:0:
64,192,95940,1,0,0:0:0:0:
448,192,95940,1,0,0:0:0:0:
320,192,96030,1,0,0:0:0:0:
448,192,96030,1,0,0:0:0:0:
64,192,96030,1,0,0:0:0:0:
192,192,96030,1,0,0:0:0:0:
192,192,96119,1,0,0:0:0:0:
64,192,96208,1,0,0:0:0:0:
320,192,96208,1,0,0:0:0:0:
192,192,96297,1,0,0:0:0:0:
448,192,96297,1,0,0:0:0:0:
64,192,96386,1,0,0:0:0:0:
320,192,96386,1,0,0:0:0:0:
448,192,96386,1,0,0:0:0:0:
320,192,96475,1,0,0:0:0:0:
448,192,96565,1,0,0:0:0:0:
64,192,96565,1,0,0:0:0:0:
320,192,96655,1,0,0:0:0:0:
192,192,96655,1,0,0:0:0:0:
192,192,96744,1,0,0:0:0:0:
448,192,96744,1,0,0:0:0:0:
320,192,96744,1,0,0:0:0:0:
64,192,96744,1,0,0:0:0:0:
64,192,96833,1,0,0:0:0:0:
192,192,96922,1,0,0:0:0:0:
448,192,96922,1,0,0:0:0:0:
320,192,97011,1,0,0:0:0:0:
64,192,97011,1,0,0:0:0:0:
64,192,97100,1,0,0:0:0:0:
448,192,97100,1,0,0:0:0:0:
192,192,97100,1,0,0:0:0:0:
448,192,97190,1,0,0:0:0:0:
64,192,97280,1,0,0:0:0:0:
320,192,97280,1,0,0:0:0:0:
192,192,97369,1,0,0:0:0:0:
448,192,97369,1,0,0:0:0:0:
192,192,97458,1,0,0:0:0:0:
320,192,97458,1,0,0:0:0:0:
64,192,97458,1,0,0:0:0:0:
448,192,97458,1,0,0:0:0:0:
64,192,97547,1,0,0:0:0:0:
320,192,97636,1,0,0:0:0:0:
448,192,97636,1,0,0:0:0:0:
192,192,97725,1,0,0:0:0:0:
64,192,97725,1,0,0:0:0:0:
448,192,97815,1,0,0:0:0:0:
64,192,97815,1,0,0:0:0:0:
320,192,97815,1,0,0:0:0:0:
192,192,97905,1,0,0:0:0:0:
64,192,97994,1,0,0:0:0:0:
448,192,97994,1,0,0:0:0:0:
192,192,98083,1,0,0:0:0:0:
320,192,98083,1,0,0:0:0:0:
192,192,98172,1,0,0:0:0:0:
320,192,98172,1,0,0:0:0:0:
64,192,98172,1,0,0:0:0:0:
448,192,98172,1,0,0:0:0:0:
64,192,98261,1,0,0:0:0:0:
192,192,98350,1,0,0:0:0:0:
448,192,98350,1,0,0:0:0:0:
64,192,98440,1,0,0:0:0:0:
320,192,98440,1,0,0:0:0:0:
448,192,98530,1,0,0:0:0:0:
320,192,98530,1,0,0:0:0:0:
192,192,98530,1,0,0:0:0:0:
64,192,98619,1,0,0:0:0:0:
64,192,98708,1,0,0:0:0:0:
192,192,98708,1,0,0:0:0:0:
320,192,98797,1,0,0:0:0:0:
448,192,98797,1,0,0:0:0:0:
320,192,98886,1,0,0:0:0:0:
448,192,98886,1,0,0:0:0:0:
64,192,98886,1,0,0:0:0:0:
192,192,98886,1,0,0:0:0:0:
192,192,98975,1,0,0:0:0:0:
64,192,99065,1,0,0:0:0:0:
448,192,99065,1,0,0:0:0:0:
320,192,99155,1,0,0:0:0:0:
192,192,99155,1,0,0:0:0:0:
64,192,99244,1,0,0:0:0:0:
192,192,99244,1,0,0:0:0:0:
448,192,99244,1,0,0:0:0:0:
320,192,99333,1,0,0:0:0:0:
448,192,99422,1,0,0:0:0:0:
320,192,99422,1,0,0:0:0:0:
64,192,99511,1,0,0:0:0:0:
192,192,99511,1,0,0:0:0:0:
192,192,99600,1,0,0:0:0:0:
448,192,99600,1,0,0:0:0:0:
320,192,99600,1,0,0:0:0:0:
64,192,99600,1,0,0:0:0:0:
448,192,99690,1,0,0:0:0:0:
64,192,99780,1,0,0:0:0:0:
320,192,99780,1,0,0:0:0:0:
448,192,99869,1,0,0:0:0:0:
320,192,99869,1,0,0:0:0:0:
64,192,99958,1,0,0:0:0:0:
448,192,99958,1,0,0:0:0:0:
192,192,99958,1,0,0:0:0:0:
320,192,100047,1,0,0:0:0:0:
64,192,100136,1,0,0:0:0:0:
192,192,100136,1,0,0:0:0:0:
320,192,100225,1,0,0:0:0:0:
448,192,100225,1,0,0:0:0:0:
448,192,100315,1,0,0:0:0:0:
320,192,100315,1,0,0:0:0:0:
64,192,100315,1,0,0:0:0:0:
192,192,100315,1,0,0:0:0:0:
192,192,100405,1,0,0:0:0:0:
64,192,100494,1,0,0:0:0:0:
448,192,100494,1,0,0:0:0:0:
320,192,100583,1,0,0:0:0:0:
192,192,100583,1,0,0:0:0:0:
320,192,100672,1,0,0:0:0:0:
448,192,100672,1,0,0:0:0:0:
64,192,100672,1,0,0:0:0:0:
192,192,100761,1,0,0:0:0:0:
448,192,100850,1,0,0:0:0:0:
320,192,100850,1,0,0:0:0:0:
192,192,100940,1,0,0:0:0:0:
64,192,100940,1,0,0:0:0:0:
320,192,101030,1,0,0:0:0:0:
448,192,101030,1,0,0:0:0:0:
192,192,101030,1,0,0:0:0:0:
64,192,101030,1,0,0:0:0:0:
448,192,101119,1,0,0:0:0:0:
192,192,101208,1,0,0:0:0:0:
320,192,101208,1,0,0:0:0:0:
64,192,101297,1,0,0:0:0:0:
448,192,101297,1,0,0:0:0:0:
448,192,101386,1,0,0:0:0:0:
320,192,101386,1,0,0:0:0:0:
192,192,101386,1,0,0:0:0:0:
192,192,101475,1,0,0:0:0:0:
64,192,101565,1,0,0:0:0:0:
320,192,101565,1,0,0:0:0:0:
448,192,101655,1,0,0:0:0:0:
192,192,101655,1,0,0:0:0:0:
320,192,101744,1,0,0:0:0:0:
448,192,101744,1,0,0:0:0:0:
64,192,101744,1,0,0:0:0:0:
192,192,101744,1,0,0:0:0:0:
64,192,101833,1,0,0:0:0:0:
448,192,101922,1,0,0:0:0:0:
192,192,101922,1,0,0:0:0:0:
192,192,102011,1,0,0:0:0:0:
320,192,102011,1,0,0:0:0:0:
64,192,102100,1,0,0:0:0:0:
320,192,102100,1,0,0:0:0:0:
448,192,102100,1,0,0:0:0:0:
64,192,102190,1,0,0:0:0:0:
448,192,102280,1,0,0:0:0:0:
320,192,102280,1,0,0:0:0:0:
64,192,102369,1,0,0:0:0:0:
192,192,102369,1,0,0:0:0:0:
192,192,102458,1,0,0:0:0:0:
448,192,102458,1,0,0:0:0:0:
320,192,102458,1,0,0:0:0:0:
64,192,102458,1,0,0:0:0:0:
320,192,102547,1,0,0:0:0:0:
192,192,102636,1,0,0:0:0:0:
448,192,102636,1,0,0:0:0:0:
64,192,102725,1,0,0:0:0:0:
192,192,102725,1,0,0:0:0:0:
448,192,102815,1,0,0:0:0:0:
64,192,102815,1,0,0:0:0:0:
320,192,102815,1,0,0:0:0:0:
192,192,102905,1,0,0:0:0:0:
64,192,102994,1,0,0:0:0:0:
320,192,102994,1,0,0:0:0:0:
192,192,103083,1,0,0:0:0:0:
448,192,103083,1,0,0:0:0:0:
64,192,103172,1,0,0:0:0:0:
192,192,103172,1,0,0:0:0:0:
448,192,103172,1,0,0:0:0:0:
320,192,103172,1,0,0:0:0:0:
64,192,103261,1,0,0:0:0:0:
448,192,103350,1,0,0:0:0:0:
320,192,103350,1,0,0:0:0:0:
192,192,103440,1,0,0:0:0:0:
64,192,103440,1,0,0:0:0:0:
192,192,103530,1,0,0:0:0:0:
448,192,103530,1,0,0:0:0:0:
320,192,103530,1,0,0:0:0:0:
320,192,103619,1,0,0:0:0:0:
64,192,103708,1,0,0:0:0:0:
448,192,103708,1,0,0:0:0:0:
320,192,103797,1,0,0:0:0:0:
192,192,103797,1,0,0:0:0:0:
192,192,103886,1,0,0:0:0:0:
64,192,103886,1,0,0:0:0:0:
320,192,103886,1,0,0:0:0:0:
448,192,103886,1,0,0:0:0:0:
64,192,103975,1,0,0:0:0:0:
320,192,104065,1,0,0:0:0:0:
448,192,104065,1,0,0:0:0:0:
64,192,104155,1,0,0:0:0:0:
192,192,104155,1,0,0:0:0:0:
448,192,104244,1,0,0:0:0:0:
320,192,104244,1,0,0:0:0:0:
192,192,104244,1,0,0:0:0:0:
64,192,104333,1,0,0:0:0:0:
192,192,104422,1,0,0:0:0:0:
448,192,104422,1,0,0:0:0:0:
64,192,104511,1,0,0:0:0:0:
320,192,104511,1,0,0:0:0:0:
320,192,104600,1,0,0:0:0:0:
448,192,104600,1,0,0:0:0:0:
64,192,104600,1,0,0:0:0:0:
192,192,104600,1,0,0:0:0:0:
448,192,104690,1,0,0:0:0:0:
192,192,104780,1,0,0:0:0:0:
64,192,104780,1,0,0:0:0:0:
64,192,104869,1,0,0:0:0:0:
320,192,104869,1,0,0:0:0:0:
192,192,104958,1,0,0:0:0:0:
320,192,104958,1,0,0:0:0:0:
448,192,104958,1,0,0:0:0:0:
192,192,105047,1,0,0:0:0:0:
448,192,105136,1,0,0:0:0:0:
64,192,105136,1,0,0:0:0:0:
192,192,105225,1,0,0:0:0:0:
320,192,105225,1,0,0:0:0:0:
320,192,105315,1,0,0:0:0:0:
448,191,105315,1,0,0:0:0:0:
64,192,105315,1,0,0:0:0:0:
320,192,105494,1,0,0:0:0:0:
448,191,105494,1,0,0:0:0:0:
192,191,105494,1,0,0:0:0:0:
64,192,105672,1,0,0:0:0:0:
320,192,105672,1,0,0:0:0:0:
192,191,105672,1,0,0:0:0:0:
320,192,105850,1,0,0:0:0:0:
64,192,105850,1,0,0:0:0:0:
448,191,105850,1,0,0:0:0:0:
320,192,106030,1,0,0:0:0:0:
192,191,106030,1,0,0:0:0:0:
64,192,106030,1,0,0:0:0:0:
448,191,106386,1,0,0:0:0:0:
192,191,106386,1,0,0:0:0:0:
64,192,106386,1,0,0:0:0:0:
320,192,106565,1,0,0:0:0:0:
64,192,106565,1,0,0:0:0:0:
448,191,106565,1,0,0:0:0:0:
320,192,106744,128,0,107100:0:0:0:0:
192,191,106744,128,0,107100:0:0:0:0:
64,192,106744,128,0,107100:0:0:0:0:
64,192,108350,1,0,0:0:0:0:
320,192,108350,1,0,0:0:0:0:
448,191,108350,1,0,0:0:0:0:
64,192,108530,1,0,0:0:0:0:
192,191,108530,1,0,0:0:0:0:
448,191,108530,1,0,0:0:0:0:
320,192,108708,1,0,0:0:0:0:
192,191,108708,1,0,0:0:0:0:
448,191,108708,1,0,0:0:0:0:
64,192,108886,1,0,0:0:0:0:
192,191,108886,1,0,0:0:0:0:
320,192,108886,1,0,0:0:0:0:
64,192,109244,1,0,0:0:0:0:
320,192,109244,1,0,0:0:0:0:
448,191,109244,1,0,0:0:0:0:
320,192,109422,1,0,0:0:0:0:
64,192,109422,1,0,0:0:0:0:
192,191,109422,1,0,0:0:0:0:
448,191,109600,128,0,109958:0:0:0:0:
320,192,109600,128,0,109958:0:0:0:0:
192,191,109600,128,0,109958:0:0:0:0:
64,192,111208,1,0,0:0:0:0:
192,191,111208,1,0,0:0:0:0:
320,192,111208,1,0,0:0:0:0:
192,191,111386,1,0,0:0:0:0:
320,192,111386,1,0,0:0:0:0:
448,191,111386,1,0,0:0:0:0:
64,192,111565,1,0,0:0:0:0:
192,191,111565,1,0,0:0:0:0:
448,191,111565,1,0,0:0:0:0:
64,192,111744,1,0,0:0:0:0:
192,191,111744,1,0,0:0:0:0:
320,192,111744,1,0,0:0:0:0:
64,192,112100,1,0,0:0:0:0:
320,192,112100,1,0,0:0:0:0:
192,191,112100,1,0,0:0:0:0:
320,192,112280,1,0,0:0:0:0:
448,191,112280,1,0,0:0:0:0:
192,191,112280,1,0,0:0:0:0:
64,192,112458,128,0,112725:0:0:0:0:
320,192,112458,128,0,112725:0:0:0:0:
448,191,112458,128,0,112725:0:0:0:0:
320,192,114065,1,0,0:0:0:0:
192,191,114065,1,0,0:0:0:0:
64,192,114065,1,0,0:0:0:0:
448,191,114244,1,0,0:0:0:0:
192,191,114244,1,0,0:0:0:0:
64,192,114244,1,0,0:0:0:0:
448,191,114422,1,0,0:0:0:0:
192,191,114422,1,0,0:0:0:0:
320,192,114422,1,0,0:0:0:0:
320,192,114600,1,0,0:0:0:0:
64,192,114600,1,0,0:0:0:0:
448,191,114600,1,0,0:0:0:0:
192,191,114958,1,0,0:0:0:0:
320,192,114958,1,0,0:0:0:0:
64,192,114958,1,0,0:0:0:0:
192,191,115136,1,0,0:0:0:0:
448,191,115136,1,0,0:0:0:0:
320,192,115136,1,0,0:0:0:0:
448,191,115315,128,0,115494:0:0:0:0:
192,191,115315,128,0,115494:0:0:0:0:
64,192,115315,128,0,115494:0:0:0:0:
320,192,115494,128,0,115850:0:0:0:0:
192,191,116030,128,0,116475:0:0:0:0:
192,191,116565,1,0,0:0:0:0:
320,192,116922,128,0,117100:0:0:0:0:
192,191,117100,128,0,117280:0:0:0:0:
448,191,117280,128,0,117458:0:0:0:0:
320,192,117458,128,0,117636:0:0:0:0:
192,191,117636,128,0,117994:0:0:0:0:
320,192,117994,128,0,118350:0:0:0:0:
192,191,118350,128,0,118530:0:0:0:0:
448,191,118350,128,0,118530:0:0:0:0:
64,192,118530,128,0,118708:0:0:0:0:
320,192,118530,128,0,118708:0:0:0:0:
192,191,118708,128,0,118886:0:0:0:0:
448,191,118708,128,0,118886:0:0:0:0:
320,192,118886,128,0,119244:0:0:0:0:
64,192,118886,128,0,119244:0:0:0:0:
448,191,119244,128,0,119422:0:0:0:0:
320,192,119422,128,0,119600:0:0:0:0:
192,191,119600,128,0,119780:0:0:0:0:
320,192,119780,128,0,119958:0:0:0:0:
64,192,119958,128,0,120136:0:0:0:0:
192,191,120136,128,0,120315:0:0:0:0:
320,192,120315,128,0,120494:0:0:0:0:
192,191,120494,128,0,120672:0:0:0:0:
448,191,120672,128,0,120850:0:0:0:0:
320,192,120850,128,0,120940:0:0:0:0:
320,192,121030,5,0,0:0:0:0:
64,192,121030,1,0,0:0:0:0:
448,192,121030,1,0,0:0:0:0:
192,192,121030,1,0,0:0:0:0:
192,192,121119,1,0,0:0:0:0:
320,192,121208,1,0,0:0:0:0:
448,192,121208,1,0,0:0:0:0:
192,192,121297,1,0,0:0:0:0:
64,192,121297,1,0,0:0:0:0:
320,192,121386,1,0,0:0:0:0:
192,192,121386,1,0,0:0:0:0:
448,192,121386,1,0,0:0:0:0:
64,192,121475,1,0,0:0:0:0:
192,192,121565,1,0,0:0:0:0:
320,192,121565,1,0,0:0:0:0:
448,192,121655,1,0,0:0:0:0:
64,192,121655,1,0,0:0:0:0:
64,192,121744,1,0,0:0:0:0:
192,192,121744,1,0,0:0:0:0:
320,192,121744,1,0,0:0:0:0:
448,192,121744,1,0,0:0:0:0:
192,192,121833,1,0,0:0:0:0:
320,192,121922,1,0,0:0:0:0:
64,192,121922,1,0,0:0:0:0:
448,192,122011,1,0,0:0:0:0:
192,192,122011,1,0,0:0:0:0:
448,192,122100,1,0,0:0:0:0:
320,192,122100,1,0,0:0:0:0:
64,192,122100,1,0,0:0:0:0:
320,192,122190,1,0,0:0:0:0:
64,192,122280,1,0,0:0:0:0:
448,192,122280,1,0,0:0:0:0:
192,192,122369,1,0,0:0:0:0:
320,192,122369,1,0,0:0:0:0:
320,192,122458,1,0,0:0:0:0:
64,192,122458,1,0,0:0:0:0:
192,192,122458,1,0,0:0:0:0:
448,192,122458,1,0,0:0:0:0:
64,192,122547,1,0,0:0:0:0:
448,192,122636,1,0,0:0:0:0:
192,192,122636,1,0,0:0:0:0:
64,192,122725,1,0,0:0:0:0:
320,192,122725,1,0,0:0:0:0:
192,192,122815,1,0,0:0:0:0:
448,192,122815,1,0,0:0:0:0:
64,192,122815,1,0,0:0:0:0:
448,192,122905,1,0,0:0:0:0:
320,192,122994,1,0,0:0:0:0:
64,192,122994,1,0,0:0:0:0:
448,192,123083,1,0,0:0:0:0:
192,192,123083,1,0,0:0:0:0:
64,192,123172,1,0,0:0:0:0:
448,192,123172,1,0,0:0:0:0:
192,192,123172,1,0,0:0:0:0:
320,192,123172,1,0,0:0:0:0:
64,192,123261,1,0,0:0:0:0:
448,192,123350,1,0,0:0:0:0:
320,192,123350,1,0,0:0:0:0:
64,192,123440,1,0,0:0:0:0:
192,192,123440,1,0,0:0:0:0:
320,192,123530,1,0,0:0:0:0:
64,192,123530,1,0,0:0:0:0:
448,192,123530,1,0,0:0:0:0:
192,192,123619,1,0,0:0:0:0:
448,192,123708,1,0,0:0:0:0:
64,192,123708,1,0,0:0:0:0:
320,192,123797,1,0,0:0:0:0:
192,192,123797,1,0,0:0:0:0:
64,192,123886,1,0,0:0:0:0:
448,192,123886,1,0,0:0:0:0:
192,192,123886,1,0,0:0:0:0:
320,192,123886,1,0,0:0:0:0:
64,192,123975,1,0,0:0:0:0:
448,192,124065,1,0,0:0:0:0:
192,192,124065,1,0,0:0:0:0:
320,192,124155,1,0,0:0:0:0:
64,192,124155,1,0,0:0:0:0:
192,192,124244,1,0,0:0:0:0:
320,192,124244,1,0,0:0:0:0:
448,192,124244,1,0,0:0:0:0:
64,192,124333,1,0,0:0:0:0:
192,192,124422,1,0,0:0:0:0:
64,192,124422,1,0,0:0:0:0:
448,192,124511,1,0,0:0:0:0:
320,192,124511,1,0,0:0:0:0:
64,192,124600,1,0,0:0:0:0:
192,192,124600,1,0,0:0:0:0:
320,192,124600,1,0,0:0:0:0:
448,192,124600,1,0,0:0:0:0:
192,192,124690,1,0,0:0:0:0:
448,192,124780,1,0,0:0:0:0:
64,192,124780,1,0,0:0:0:0:
192,192,124869,1,0,0:0:0:0:
320,192,124869,1,0,0:0:0:0:
448,192,124958,1,0,0:0:0:0:
192,192,124958,1,0,0:0:0:0:
64,192,124958,1,0,0:0:0:0:
320,192,125047,1,0,0:0:0:0:
320,192,125136,1,0,0:0:0:0:
448,192,125136,1,0,0:0:0:0:
192,192,125225,1,0,0:0:0:0:
64,192,125225,1,0,0:0:0:0:
320,192,125315,1,0,0:0:0:0:
64,192,125315,1,0,0:0:0:0:
192,192,125315,1,0,0:0:0:0:
448,192,125315,1,0,0:0:0:0:
448,192,125405,1,0,0:0:0:0:
320,192,125494,1,0,0:0:0:0:
64,192,125494,1,0,0:0:0:0:
320,192,125583,1,0,0:0:0:0:
448,192,125583,1,0,0:0:0:0:
192,192,125672,1,0,0:0:0:0:
448,192,125672,1,0,0:0:0:0:
64,192,125672,1,0,0:0:0:0:
320,192,125761,1,0,0:0:0:0:
192,192,125850,1,0,0:0:0:0:
64,192,125850,1,0,0:0:0:0:
448,192,125940,1,0,0:0:0:0:
320,192,125940,1,0,0:0:0:0:
64,192,126030,1,0,0:0:0:0:
192,192,126030,1,0,0:0:0:0:
448,192,126030,1,0,0:0:0:0:
320,192,126030,1,0,0:0:0:0:
192,192,126119,1,0,0:0:0:0:
448,192,126208,1,0,0:0:0:0:
64,192,126208,1,0,0:0:0:0:
192,192,126297,1,0,0:0:0:0:
320,192,126297,1,0,0:0:0:0:
64,192,126386,1,0,0:0:0:0:
448,192,126386,1,0,0:0:0:0:
320,192,126386,1,0,0:0:0:0:
192,192,126475,1,0,0:0:0:0:
320,192,126565,1,0,0:0:0:0:
448,192,126565,1,0,0:0:0:0:
64,192,126655,1,0,0:0:0:0:
192,192,126655,1,0,0:0:0:0:
192,192,126744,1,0,0:0:0:0:
64,192,126744,1,0,0:0:0:0:
320,192,126744,1,0,0:0:0:0:
448,192,126744,1,0,0:0:0:0:
448,192,126833,1,0,0:0:0:0:
320,192,126922,1,0,0:0:0:0:
192,192,126922,1,0,0:0:0:0:
448,192,127011,1,0,0:0:0:0:
64,192,127011,1,0,0:0:0:0:
192,192,127100,1,0,0:0:0:0:
320,192,127100,1,0,0:0:0:0:
448,192,127100,1,0,0:0:0:0:
192,192,127190,1,0,0:0:0:0:
320,192,127280,1,0,0:0:0:0:
64,192,127280,1,0,0:0:0:0:
192,192,127369,1,0,0:0:0:0:
448,192,127369,1,0,0:0:0:0:
64,192,127458,1,0,0:0:0:0:
192,192,127458,1,0,0:0:0:0:
320,192,127458,1,0,0:0:0:0:
448,192,127458,1,0,0:0:0:0:
64,192,127547,1,0,0:0:0:0:
192,192,127636,1,0,0:0:0:0:
448,192,127636,1,0,0:0:0:0:
320,192,127725,1,0,0:0:0:0:
192,192,127725,1,0,0:0:0:0:
448,192,127815,1,0,0:0:0:0:
320,192,127815,1,0,0:0:0:0:
64,192,127815,1,0,0:0:0:0:
64,192,127905,1,0,0:0:0:0:
320,192,127994,1,0,0:0:0:0:
448,192,127994,1,0,0:0:0:0:
192,192,128083,1,0,0:0:0:0:
64,192,128083,1,0,0:0:0:0:
320,192,128172,1,0,0:0:0:0:
64,192,128172,1,0,0:0:0:0:
192,192,128172,1,0,0:0:0:0:
448,192,128172,1,0,0:0:0:0:
320,192,128261,1,0,0:0:0:0:
448,192,128350,1,0,0:0:0:0:
64,192,128350,1,0,0:0:0:0:
192,192,128440,1,0,0:0:0:0:
320,192,128440,1,0,0:0:0:0:
320,192,128530,1,0,0:0:0:0:
64,192,128530,1,0,0:0:0:0:
448,192,128530,1,0,0:0:0:0:
192,192,128619,1,0,0:0:0:0:
320,192,128708,1,0,0:0:0:0:
64,192,128708,1,0,0:0:0:0:
448,192,128797,1,0,0:0:0:0:
192,192,128797,1,0,0:0:0:0:
448,192,128886,1,0,0:0:0:0:
320,192,128886,1,0,0:0:0:0:
64,192,128886,1,0,0:0:0:0:
192,192,128886,1,0,0:0:0:0:
64,192,128975,1,0,0:0:0:0:
320,192,129065,1,0,0:0:0:0:
448,192,129065,1,0,0:0:0:0:
64,192,129155,1,0,0:0:0:0:
192,192,129155,1,0,0:0:0:0:
320,192,129244,1,0,0:0:0:0:
448,192,129244,1,0,0:0:0:0:
192,192,129244,1,0,0:0:0:0:
320,192,129333,1,0,0:0:0:0:
448,192,129422,1,0,0:0:0:0:
64,192,129422,1,0,0:0:0:0:
192,192,129511,1,0,0:0:0:0:
320,192,129511,1,0,0:0:0:0:
320,192,129600,1,0,0:0:0:0:
448,192,129600,1,0,0:0:0:0:
192,192,129600,1,0,0:0:0:0:
64,192,129600,1,0,0:0:0:0:
192,192,130315,128,0,131030:0:0:0:0:
320,191,131030,128,0,131208:0:0:0:0:
64,192,131208,128,0,131386:0:0:0:0:
192,192,131386,128,0,131565:0:0:0:0:
320,191,131565,128,0,131744:0:0:0:0:
64,192,131744,128,0,131922:0:0:0:0:
192,192,131922,128,0,132100:0:0:0:0:
447,191,132100,128,0,132280:0:0:0:0:
320,191,132280,128,0,132458:0:0:0:0:
192,192,132458,128,0,132636:0:0:0:0:
320,191,133172,128,0,133886:0:0:0:0:
192,192,133886,128,0,134065:0:0:0:0:
447,191,134065,128,0,134244:0:0:0:0:
320,191,134244,128,0,134422:0:0:0:0:
192,192,134422,128,0,134600:0:0:0:0:
320,191,134600,128,0,134780:0:0:0:0:
64,192,134780,128,0,134958:0:0:0:0:
192,192,134958,128,0,135136:0:0:0:0:
320,191,135136,128,0,135315:0:0:0:0:
192,192,135315,128,0,135494:0:0:0:0:
192,192,136030,128,0,136744:0:0:0:0:
64,192,136744,128,0,136922:0:0:0:0:
447,191,136922,128,0,137100:0:0:0:0:
320,191,137100,128,0,137280:0:0:0:0:
192,192,137280,128,0,137458:0:0:0:0:
447,191,137458,128,0,137636:0:0:0:0:
320,191,137636,128,0,137815:0:0:0:0:
192,192,137815,128,0,137994:0:0:0:0:
64,192,137994,128,0,138172:0:0:0:0:
192,192,138172,128,0,138350:0:0:0:0:
192,192,138886,128,0,139600:0:0:0:0:
320,191,139600,128,0,139780:0:0:0:0:
64,192,139780,128,0,139958:0:0:0:0:
192,192,139958,128,0,140136:0:0:0:0:
320,191,140136,128,0,140315:0:0:0:0:
192,192,140315,128,0,140494:0:0:0:0:
447,191,140494,128,0,140672:0:0:0:0:
320,191,140672,128,0,140850:0:0:0:0:
192,192,140850,128,0,141030:0:0:0:0:
320,191,141030,128,0,141208:0:0:0:0:
192,192,141744,128,0,142458:0:0:0:0:
320,191,142458,128,0,142636:0:0:0:0:
64,192,142636,128,0,142815:0:0:0:0:
192,192,142815,128,0,142994:0:0:0:0:
320,191,142994,128,0,143172:0:0:0:0:
64,192,143172,128,0,143350:0:0:0:0:
192,192,143350,128,0,143530:0:0:0:0:
447,191,143530,128,0,143708:0:0:0:0:
320,191,143708,128,0,143886:0:0:0:0:
192,192,143886,128,0,144065:0:0:0:0:
