osu file format v14

[General]
AudioFilename: 11.mp3
AudioLeadIn: 0
PreviewTime: 86162
Countdown: 0
SampleSet: Normal
StackLeniency: 0.7
Mode: 3
LetterboxInBreaks: 0
SpecialStyle: 0
WidescreenStoryboard: 0

[Editor]
DistanceSpacing: 0.8
BeatDivisor: 4
GridSize: 16
TimelineZoom: 2.6

[Metadata]
Title:Alpha speedjack pack
TitleUnicode:Alpha speedjack pack
Artist:Various Artists
ArtistUnicode:Various Artists
Creator:Asian Akali
Version:Steriogram - Walkie Talkie Man 1.2x (Mid/High)
Source:Fishing Rod
Tags:speedjack
BeatmapID:4555736
BeatmapSetID:2160395

[Difficulty]
HPDrainRate:8.5
CircleSize:4
OverallDifficulty:9
ApproachRate:5
SliderMultiplier:1.4
SliderTickRate:1

[Events]
//Background and Video events
0,0,"a11.jpg",0,0
//Break Periods
//Storyboard Layer 0 (Background)
//Storyboard Layer 1 (Fail)
//Storyboard Layer 2 (Pass)
//Storyboard Layer 3 (Foreground)
//Storyboard Layer 4 (Overlay)
//Storyboard Sound Samples

[TimingPoints]
408,354.358284914618,4,1,0,52,1,0

[HitObjects]
64,192,1825,5,0,0:0:0:0:
448,192,1825,128,0,2179:0:0:0:0:
64,192,2002,1,0,0:0:0:0:
192,192,2180,128,0,2357:0:0:0:0:
320,192,2180,1,0,0:0:0:0:
64,192,2356,1,0,0:0:0:0:
448,192,2356,128,0,2533:0:0:0:0:
192,192,2534,1,0,0:0:0:0:
320,192,2534,128,0,2888:0:0:0:0:
192,192,2710,1,0,0:0:0:0:
64,192,2888,128,0,3065:0:0:0:0:
448,192,2888,1,0,0:0:0:0:
192,192,3065,1,0,0:0:0:0:
320,192,3065,128,0,3243:0:0:0:0:
192,192,3242,128,0,3596:0:0:0:0:
448,192,3242,1,0,0:0:0:0:
448,192,3420,1,0,0:0:0:0:
64,192,3597,1,0,0:0:0:0:
320,192,3597,128,0,3774:0:0:0:0:
192,192,3774,128,0,3951:0:0:0:0:
448,192,3774,1,0,0:0:0:0:
320,192,3951,1,0,0:0:0:0:
64,192,3951,128,0,4305:0:0:0:0:
320,192,4128,1,0,0:0:0:0:
192,192,4305,128,0,4483:0:0:0:0:
448,192,4305,1,0,0:0:0:0:
320,192,4483,128,0,4660:0:0:0:0:
64,192,4483,1,0,0:0:0:0:
448,192,4660,128,0,5014:0:0:0:0:
192,192,4660,1,0,0:0:0:0:
192,192,4837,1,0,0:0:0:0:
64,192,5014,128,0,5191:0:0:0:0:
320,192,5014,1,0,0:0:0:0:
320,192,5191,128,0,5368:0:0:0:0:
192,192,5191,1,0,0:0:0:0:
64,192,5369,1,0,0:0:0:0:
448,192,5369,128,0,5724:0:0:0:0:
64,192,5545,1,0,0:0:0:0:
192,192,5723,1,0,0:0:0:0:
320,192,5723,128,0,5900:0:0:0:0:
192,192,5900,128,0,6078:0:0:0:0:
448,192,5900,1,0,0:0:0:0:
64,192,6077,128,0,6431:0:0:0:0:
320,192,6077,1,0,0:0:0:0:
320,192,6255,1,0,0:0:0:0:
192,192,6431,128,0,6608:0:0:0:0:
448,192,6431,1,0,0:0:0:0:
448,192,6609,128,0,6786:0:0:0:0:
320,192,6609,1,0,0:0:0:0:
64,192,6786,128,0,6964:0:0:0:0:
320,192,6786,1,0,0:0:0:0:
192,192,6963,128,0,7051:0:0:0:0:
320,192,6963,128,0,7051:0:0:0:0:
448,192,6963,128,0,7051:0:0:0:0:
192,192,7140,128,0,7229:0:0:0:0:
320,192,7140,128,0,7229:0:0:0:0:
448,192,7140,128,0,7229:0:0:0:0:
192,192,7317,128,0,7405:0:0:0:0:
320,192,7317,128,0,7405:0:0:0:0:
448,192,7317,128,0,7405:0:0:0:0:
64,192,7495,1,0,0:0:0:0:
448,192,7495,1,0,0:0:0:0:
192,192,7495,1,0,0:0:0:0:
64,192,7672,1,0,0:0:0:0:
448,192,7672,1,0,0:0:0:0:
192,192,7672,1,0,0:0:0:0:
320,192,7849,1,0,0:0:0:0:
448,192,7849,1,0,0:0:0:0:
64,192,7849,1,0,0:0:0:0:
192,192,8026,1,0,0:0:0:0:
320,192,8026,1,0,0:0:0:0:
448,192,8115,1,0,0:0:0:0:
192,192,8204,1,0,0:0:0:0:
64,192,8204,1,0,0:0:0:0:
320,192,8204,1,0,0:0:0:0:
64,192,8380,1,0,0:0:0:0:
320,192,8380,1,0,0:0:0:0:
192,192,8380,1,0,0:0:0:0:
64,192,8558,1,0,0:0:0:0:
320,192,8558,1,0,0:0:0:0:
448,192,8558,1,0,0:0:0:0:
448,192,8735,1,0,0:0:0:0:
192,192,8735,1,0,0:0:0:0:
320,192,8824,1,0,0:0:0:0:
64,192,8912,1,0,0:0:0:0:
448,192,8912,1,0,0:0:0:0:
192,192,8912,1,0,0:0:0:0:
64,192,9090,1,0,0:0:0:0:
192,192,9090,1,0,0:0:0:0:
448,192,9090,1,0,0:0:0:0:
320,192,9266,1,0,0:0:0:0:
448,192,9266,1,0,0:0:0:0:
192,192,9266,1,0,0:0:0:0:
64,192,9444,1,0,0:0:0:0:
192,192,9444,1,0,0:0:0:0:
448,192,9532,1,0,0:0:0:0:
320,192,9620,1,0,0:0:0:0:
192,192,9620,1,0,0:0:0:0:
64,192,9620,1,0,0:0:0:0:
64,192,9798,1,0,0:0:0:0:
192,192,9798,1,0,0:0:0:0:
320,192,9798,1,0,0:0:0:0:
320,192,9975,1,0,0:0:0:0:
448,192,9975,1,0,0:0:0:0:
64,192,9975,1,0,0:0:0:0:
192,192,10152,1,0,0:0:0:0:
64,192,10152,1,0,0:0:0:0:
448,192,10152,1,0,0:0:0:0:
320,192,10330,1,0,0:0:0:0:
448,192,10330,1,0,0:0:0:0:
64,192,10330,1,0,0:0:0:0:
64,192,10507,1,0,0:0:0:0:
320,192,10507,1,0,0:0:0:0:
448,192,10507,1,0,0:0:0:0:
192,192,10684,1,0,0:0:0:0:
64,192,10684,1,0,0:0:0:0:
320,192,10684,1,0,0:0:0:0:
448,192,10861,1,0,0:0:0:0:
192,192,10861,1,0,0:0:0:0:
64,192,10950,1,0,0:0:0:0:
192,192,11038,1,0,0:0:0:0:
320,192,11038,1,0,0:0:0:0:
448,192,11038,1,0,0:0:0:0:
192,192,11215,1,0,0:0:0:0:
320,192,11215,1,0,0:0:0:0:
448,192,11215,1,0,0:0:0:0:
192,192,11393,1,0,0:0:0:0:
64,192,11393,1,0,0:0:0:0:
448,192,11393,1,0,0:0:0:0:
320,192,11570,1,0,0:0:0:0:
448,192,11570,1,0,0:0:0:0:
192,192,11659,1,0,0:0:0:0:
448,192,11747,1,0,0:0:0:0:
64,192,11747,1,0,0:0:0:0:
320,192,11747,1,0,0:0:0:0:
64,192,11924,1,0,0:0:0:0:
320,192,11924,1,0,0:0:0:0:
448,192,11924,1,0,0:0:0:0:
192,192,12101,1,0,0:0:0:0:
64,192,12101,1,0,0:0:0:0:
448,192,12101,1,0,0:0:0:0:
320,192,12279,1,0,0:0:0:0:
448,192,12279,1,0,0:0:0:0:
64,192,12279,1,0,0:0:0:0:
64,192,12455,1,0,0:0:0:0:
192,192,12455,1,0,0:0:0:0:
448,192,12455,1,0,0:0:0:0:
320,192,12545,1,0,0:0:0:0:
320,192,12633,1,0,0:0:0:0:
448,192,12633,1,0,0:0:0:0:
64,192,12721,1,0,0:0:0:0:
192,192,12721,1,0,0:0:0:0:
64,192,12810,1,0,0:0:0:0:
320,192,12810,1,0,0:0:0:0:
448,192,12810,1,0,0:0:0:0:
192,192,12899,1,0,0:0:0:0:
448,192,12899,1,0,0:0:0:0:
320,192,12987,1,0,0:0:0:0:
192,192,12987,1,0,0:0:0:0:
320,192,13075,1,0,0:0:0:0:
64,192,13075,1,0,0:0:0:0:
192,192,13165,1,0,0:0:0:0:
64,192,13165,1,0,0:0:0:0:
448,192,13165,1,0,0:0:0:0:
320,192,13253,1,0,0:0:0:0:
64,192,13253,1,0,0:0:0:0:
192,192,13341,1,0,0:0:0:0:
320,192,13341,1,0,0:0:0:0:
448,192,13341,128,0,13519:0:0:0:0:
64,192,13519,1,0,0:0:0:0:
192,192,13519,1,0,0:0:0:0:
320,192,13519,1,0,0:0:0:0:
320,192,13607,1,0,0:0:0:0:
64,192,13607,1,0,0:0:0:0:
192,192,13696,1,0,0:0:0:0:
448,192,13696,1,0,0:0:0:0:
64,192,13785,1,0,0:0:0:0:
192,192,13785,1,0,0:0:0:0:
64,192,13873,1,0,0:0:0:0:
320,192,13873,1,0,0:0:0:0:
448,192,13873,1,0,0:0:0:0:
320,192,13962,1,0,0:0:0:0:
448,192,13962,1,0,0:0:0:0:
192,192,14050,1,0,0:0:0:0:
64,192,14050,1,0,0:0:0:0:
192,192,14139,1,0,0:0:0:0:
448,192,14139,1,0,0:0:0:0:
320,192,14227,1,0,0:0:0:0:
448,192,14227,1,0,0:0:0:0:
64,192,14227,1,0,0:0:0:0:
64,192,14316,1,0,0:0:0:0:
320,192,14316,1,0,0:0:0:0:
192,192,14405,1,0,0:0:0:0:
448,192,14405,1,0,0:0:0:0:
320,192,14493,1,0,0:0:0:0:
192,192,14493,1,0,0:0:0:0:
320,192,14582,1,0,0:0:0:0:
64,192,14582,1,0,0:0:0:0:
448,192,14582,1,0,0:0:0:0:
448,192,14670,1,0,0:0:0:0:
320,192,14670,1,0,0:0:0:0:
64,192,14759,1,0,0:0:0:0:
192,192,14759,1,0,0:0:0:0:
64,192,14848,1,0,0:0:0:0:
448,192,14848,1,0,0:0:0:0:
320,192,14936,1,0,0:0:0:0:
192,192,14936,1,0,0:0:0:0:
64,192,14936,1,0,0:0:0:0:
192,192,15025,1,0,0:0:0:0:
320,192,15025,1,0,0:0:0:0:
64,192,15114,1,0,0:0:0:0:
448,192,15114,1,0,0:0:0:0:
192,192,15290,1,0,0:0:0:0:
320,192,15290,1,0,0:0:0:0:
448,192,15290,1,0,0:0:0:0:
320,192,15379,1,0,0:0:0:0:
192,192,15379,1,0,0:0:0:0:
64,192,15468,1,0,0:0:0:0:
448,192,15468,1,0,0:0:0:0:
320,192,15556,1,0,0:0:0:0:
64,192,15556,1,0,0:0:0:0:
192,192,15645,1,0,0:0:0:0:
320,192,15645,1,0,0:0:0:0:
448,192,15645,1,0,0:0:0:0:
192,192,15734,1,0,0:0:0:0:
448,192,15734,1,0,0:0:0:0:
64,192,15822,1,0,0:0:0:0:
320,192,15822,1,0,0:0:0:0:
192,192,15910,1,0,0:0:0:0:
64,192,15910,1,0,0:0:0:0:
64,192,16000,1,0,0:0:0:0:
320,192,16000,1,0,0:0:0:0:
448,192,16000,1,0,0:0:0:0:
192,192,16088,1,0,0:0:0:0:
320,192,16088,1,0,0:0:0:0:
448,192,16176,1,0,0:0:0:0:
192,192,16176,1,0,0:0:0:0:
64,192,16265,1,0,0:0:0:0:
320,192,16265,1,0,0:0:0:0:
192,192,16354,1,0,0:0:0:0:
448,192,16354,1,0,0:0:0:0:
320,192,16354,128,0,16530:0:0:0:0:
192,192,16530,1,0,0:0:0:0:
64,192,16530,1,0,0:0:0:0:
192,192,16620,1,0,0:0:0:0:
320,192,16620,1,0,0:0:0:0:
320,192,16708,1,0,0:0:0:0:
448,192,16708,1,0,0:0:0:0:
64,192,16708,1,0,0:0:0:0:
192,192,16796,1,0,0:0:0:0:
64,192,16796,1,0,0:0:0:0:
320,192,16885,1,0,0:0:0:0:
64,192,16885,1,0,0:0:0:0:
320,192,16974,1,0,0:0:0:0:
448,192,16974,1,0,0:0:0:0:
192,192,17062,1,0,0:0:0:0:
64,192,17062,1,0,0:0:0:0:
448,192,17062,128,0,17240:0:0:0:0:
320,192,17240,1,0,0:0:0:0:
192,192,17240,1,0,0:0:0:0:
64,192,17328,1,0,0:0:0:0:
192,192,17328,1,0,0:0:0:0:
320,192,17417,1,0,0:0:0:0:
448,192,17417,1,0,0:0:0:0:
192,192,17417,1,0,0:0:0:0:
320,192,17505,1,0,0:0:0:0:
448,192,17594,1,0,0:0:0:0:
64,192,17594,1,0,0:0:0:0:
192,192,17594,1,0,0:0:0:0:
320,192,17682,1,0,0:0:0:0:
64,192,17682,1,0,0:0:0:0:
448,192,17682,1,0,0:0:0:0:
64,192,17771,1,0,0:0:0:0:
192,192,17771,1,0,0:0:0:0:
320,192,17860,1,0,0:0:0:0:
448,192,17860,1,0,0:0:0:0:
64,192,17948,1,0,0:0:0:0:
448,192,17948,1,0,0:0:0:0:
192,192,17948,1,0,0:0:0:0:
320,192,18037,1,0,0:0:0:0:
192,192,18125,1,0,0:0:0:0:
320,192,18125,1,0,0:0:0:0:
448,192,18125,1,0,0:0:0:0:
320,192,18214,1,0,0:0:0:0:
64,192,18303,1,0,0:0:0:0:
192,192,18303,1,0,0:0:0:0:
64,192,18391,1,0,0:0:0:0:
448,192,18391,1,0,0:0:0:0:
192,192,18480,1,0,0:0:0:0:
320,192,18480,1,0,0:0:0:0:
448,192,18480,128,0,18656:0:0:0:0:
192,192,18657,1,0,0:0:0:0:
64,192,18657,128,0,18835:0:0:0:0:
320,192,18657,1,0,0:0:0:0:
192,192,18834,1,0,0:0:0:0:
448,192,18834,1,0,0:0:0:0:
320,192,18834,1,0,0:0:0:0:
448,192,18923,1,0,0:0:0:0:
192,192,18923,1,0,0:0:0:0:
320,192,19011,1,0,0:0:0:0:
448,192,19011,1,0,0:0:0:0:
64,192,19100,1,0,0:0:0:0:
192,192,19100,1,0,0:0:0:0:
64,192,19189,1,0,0:0:0:0:
320,192,19189,1,0,0:0:0:0:
448,192,19189,1,0,0:0:0:0:
448,192,19277,1,0,0:0:0:0:
192,192,19365,1,0,0:0:0:0:
320,192,19365,1,0,0:0:0:0:
64,192,19365,1,0,0:0:0:0:
64,192,19455,1,0,0:0:0:0:
320,192,19543,1,0,0:0:0:0:
192,192,19543,1,0,0:0:0:0:
448,192,19543,1,0,0:0:0:0:
320,192,19631,1,0,0:0:0:0:
64,192,19631,1,0,0:0:0:0:
192,192,19720,1,0,0:0:0:0:
64,192,19720,1,0,0:0:0:0:
64,192,19809,1,0,0:0:0:0:
448,192,19809,1,0,0:0:0:0:
192,192,19897,1,0,0:0:0:0:
448,192,19897,1,0,0:0:0:0:
320,192,19897,1,0,0:0:0:0:
448,192,19985,1,0,0:0:0:0:
320,192,20075,1,0,0:0:0:0:
64,192,20075,1,0,0:0:0:0:
192,192,20075,1,0,0:0:0:0:
64,192,20163,1,0,0:0:0:0:
192,192,20163,1,0,0:0:0:0:
448,192,20251,1,0,0:0:0:0:
320,192,20251,1,0,0:0:0:0:
192,192,20251,1,0,0:0:0:0:
448,192,20340,1,0,0:0:0:0:
320,192,20429,1,0,0:0:0:0:
64,192,20429,1,0,0:0:0:0:
320,192,20517,1,0,0:0:0:0:
448,192,20517,1,0,0:0:0:0:
448,192,20606,1,0,0:0:0:0:
192,192,20606,1,0,0:0:0:0:
64,192,20606,1,0,0:0:0:0:
64,192,20695,1,0,0:0:0:0:
320,192,20695,1,0,0:0:0:0:
192,192,20783,1,0,0:0:0:0:
64,192,20783,1,0,0:0:0:0:
192,192,20872,1,0,0:0:0:0:
448,192,20872,1,0,0:0:0:0:
64,192,20960,1,0,0:0:0:0:
320,192,20960,1,0,0:0:0:0:
448,192,20960,1,0,0:0:0:0:
320,192,21049,1,0,0:0:0:0:
192,192,21049,1,0,0:0:0:0:
448,192,21137,1,0,0:0:0:0:
64,192,21137,1,0,0:0:0:0:
448,192,21226,1,0,0:0:0:0:
320,192,21226,1,0,0:0:0:0:
192,192,21315,1,0,0:0:0:0:
448,192,21315,1,0,0:0:0:0:
64,192,21315,1,0,0:0:0:0:
192,192,21403,1,0,0:0:0:0:
64,192,21403,1,0,0:0:0:0:
320,192,21492,128,0,21670:0:0:0:0:
192,192,21669,1,0,0:0:0:0:
64,192,21669,1,0,0:0:0:0:
448,192,21669,1,0,0:0:0:0:
320,192,21758,1,0,0:0:0:0:
192,192,21758,1,0,0:0:0:0:
64,192,21846,1,0,0:0:0:0:
448,192,21846,1,0,0:0:0:0:
320,192,21846,1,0,0:0:0:0:
192,192,21935,1,0,0:0:0:0:
192,192,22024,1,0,0:0:0:0:
64,192,22024,1,0,0:0:0:0:
448,192,22024,1,0,0:0:0:0:
320,192,22112,1,0,0:0:0:0:
448,192,22200,1,0,0:0:0:0:
320,192,22200,1,0,0:0:0:0:
64,192,22200,1,0,0:0:0:0:
192,192,22289,1,0,0:0:0:0:
64,192,22378,1,0,0:0:0:0:
192,192,22378,1,0,0:0:0:0:
448,192,22378,1,0,0:0:0:0:
320,192,22466,1,0,0:0:0:0:
448,192,22466,1,0,0:0:0:0:
64,192,22466,1,0,0:0:0:0:
192,192,22555,1,0,0:0:0:0:
64,192,22644,1,0,0:0:0:0:
448,192,22644,1,0,0:0:0:0:
192,192,22732,1,0,0:0:0:0:
320,192,22732,1,0,0:0:0:0:
448,192,22732,1,0,0:0:0:0:
320,192,22820,1,0,0:0:0:0:
192,192,22910,1,0,0:0:0:0:
64,192,22910,1,0,0:0:0:0:
448,192,22910,1,0,0:0:0:0:
64,192,22998,1,0,0:0:0:0:
192,192,23086,1,0,0:0:0:0:
320,192,23086,1,0,0:0:0:0:
448,192,23086,128,0,23441:0:0:0:0:
64,192,23264,1,0,0:0:0:0:
192,192,23264,1,0,0:0:0:0:
320,192,23440,1,0,0:0:0:0:
192,192,23440,1,0,0:0:0:0:
64,192,23440,128,0,23795:0:0:0:0:
448,192,23618,1,0,0:0:0:0:
192,192,23618,1,0,0:0:0:0:
192,192,23795,1,0,0:0:0:0:
320,192,23795,1,0,0:0:0:0:
448,192,23795,1,0,0:0:0:0:
320,192,23884,1,0,0:0:0:0:
448,192,23884,1,0,0:0:0:0:
192,192,23972,1,0,0:0:0:0:
64,192,23972,1,0,0:0:0:0:
320,192,23972,1,0,0:0:0:0:
192,192,24061,1,0,0:0:0:0:
64,192,24061,1,0,0:0:0:0:
64,192,24150,1,0,0:0:0:0:
320,192,24150,1,0,0:0:0:0:
448,192,24150,1,0,0:0:0:0:
192,192,24238,1,0,0:0:0:0:
320,192,24238,1,0,0:0:0:0:
192,192,24327,1,0,0:0:0:0:
64,192,24327,1,0,0:0:0:0:
448,192,24327,1,0,0:0:0:0:
320,192,24415,1,0,0:0:0:0:
192,192,24415,1,0,0:0:0:0:
320,192,24504,1,0,0:0:0:0:
448,192,24504,1,0,0:0:0:0:
64,192,24504,1,0,0:0:0:0:
64,192,24681,1,0,0:0:0:0:
448,192,24681,1,0,0:0:0:0:
192,192,24858,1,0,0:0:0:0:
320,192,24858,1,0,0:0:0:0:
64,192,24858,128,0,25212:0:0:0:0:
320,192,25035,1,0,0:0:0:0:
448,192,25035,1,0,0:0:0:0:
192,192,25213,1,0,0:0:0:0:
320,192,25213,1,0,0:0:0:0:
448,192,25213,128,0,25567:0:0:0:0:
64,192,25390,1,0,0:0:0:0:
192,192,25390,1,0,0:0:0:0:
192,192,25567,1,0,0:0:0:0:
64,192,25567,1,0,0:0:0:0:
320,192,25567,1,0,0:0:0:0:
320,192,25744,1,0,0:0:0:0:
448,192,25744,1,0,0:0:0:0:
64,192,25744,1,0,0:0:0:0:
448,192,25921,1,0,0:0:0:0:
192,192,25921,1,0,0:0:0:0:
320,192,25921,128,0,26275:0:0:0:0:
64,192,26099,1,0,0:0:0:0:
192,192,26099,1,0,0:0:0:0:
192,192,26275,1,0,0:0:0:0:
448,192,26275,1,0,0:0:0:0:
64,192,26275,128,0,26452:0:0:0:0:
320,192,26453,1,0,0:0:0:0:
448,192,26453,1,0,0:0:0:0:
192,192,26541,1,0,0:0:0:0:
448,192,26541,1,0,0:0:0:0:
64,192,26630,1,0,0:0:0:0:
320,192,26630,1,0,0:0:0:0:
192,192,26630,1,0,0:0:0:0:
448,192,26719,1,0,0:0:0:0:
64,192,26719,1,0,0:0:0:0:
192,192,26807,1,0,0:0:0:0:
448,192,26807,1,0,0:0:0:0:
320,192,26807,1,0,0:0:0:0:
320,192,26895,1,0,0:0:0:0:
192,192,26985,1,0,0:0:0:0:
64,192,26985,1,0,0:0:0:0:
448,192,26985,1,0,0:0:0:0:
64,192,27073,1,0,0:0:0:0:
192,192,27161,1,0,0:0:0:0:
320,192,27161,1,0,0:0:0:0:
448,192,27161,1,0,0:0:0:0:
448,192,27250,1,0,0:0:0:0:
320,192,27339,1,0,0:0:0:0:
192,192,27339,1,0,0:0:0:0:
64,192,27339,128,0,27693:0:0:0:0:
448,192,27516,1,0,0:0:0:0:
192,192,27693,1,0,0:0:0:0:
320,192,27693,1,0,0:0:0:0:
448,192,27693,1,0,0:0:0:0:
64,192,27870,1,0,0:0:0:0:
448,192,27870,1,0,0:0:0:0:
192,192,27959,1,0,0:0:0:0:
320,192,28047,1,0,0:0:0:0:
448,192,28047,1,0,0:0:0:0:
64,192,28047,1,0,0:0:0:0:
64,192,28225,1,0,0:0:0:0:
192,192,28225,1,0,0:0:0:0:
320,192,28225,1,0,0:0:0:0:
192,192,28402,1,0,0:0:0:0:
64,192,28402,1,0,0:0:0:0:
448,192,28402,1,0,0:0:0:0:
320,192,28579,1,0,0:0:0:0:
64,192,28579,1,0,0:0:0:0:
448,192,28579,128,0,28933:0:0:0:0:
192,192,28756,1,0,0:0:0:0:
320,192,28756,1,0,0:0:0:0:
64,192,28845,1,0,0:0:0:0:
192,192,28845,1,0,0:0:0:0:
64,192,28934,1,0,0:0:0:0:
320,192,28934,128,0,29288:0:0:0:0:
64,192,29110,1,0,0:0:0:0:
192,192,29110,1,0,0:0:0:0:
64,192,29288,1,0,0:0:0:0:
448,192,29288,1,0,0:0:0:0:
192,192,29376,1,0,0:0:0:0:
64,192,29465,1,0,0:0:0:0:
192,192,29465,1,0,0:0:0:0:
320,192,29465,1,0,0:0:0:0:
448,192,29554,1,0,0:0:0:0:
320,192,29642,1,0,0:0:0:0:
448,192,29642,1,0,0:0:0:0:
192,192,29642,1,0,0:0:0:0:
64,192,29730,1,0,0:0:0:0:
64,192,29820,1,0,0:0:0:0:
192,192,29820,1,0,0:0:0:0:
448,192,29820,1,0,0:0:0:0:
320,192,29908,1,0,0:0:0:0:
448,192,29996,1,0,0:0:0:0:
320,192,29996,1,0,0:0:0:0:
64,192,29996,1,0,0:0:0:0:
192,192,30085,1,0,0:0:0:0:
64,192,30174,1,0,0:0:0:0:
192,192,30174,1,0,0:0:0:0:
448,192,30174,1,0,0:0:0:0:
320,192,30350,1,0,0:0:0:0:
64,192,30350,1,0,0:0:0:0:
192,192,30528,1,0,0:0:0:0:
320,192,30528,1,0,0:0:0:0:
64,192,30528,128,0,30883:0:0:0:0:
448,192,30705,1,0,0:0:0:0:
192,192,30705,1,0,0:0:0:0:
448,192,30882,1,0,0:0:0:0:
192,192,30882,1,0,0:0:0:0:
320,192,30882,128,0,31236:0:0:0:0:
64,192,31060,1,0,0:0:0:0:
192,192,31060,1,0,0:0:0:0:
64,192,31237,1,0,0:0:0:0:
192,192,31237,1,0,0:0:0:0:
448,192,31237,1,0,0:0:0:0:
320,192,31414,1,0,0:0:0:0:
448,192,31414,1,0,0:0:0:0:
64,192,31414,1,0,0:0:0:0:
192,192,31591,1,0,0:0:0:0:
320,192,31591,1,0,0:0:0:0:
448,192,31591,128,0,31945:0:0:0:0:
192,192,31768,1,0,0:0:0:0:
64,192,31768,1,0,0:0:0:0:
192,192,31945,1,0,0:0:0:0:
320,192,31945,1,0,0:0:0:0:
64,192,31945,128,0,32123:0:0:0:0:
192,192,32123,1,0,0:0:0:0:
448,192,32123,1,0,0:0:0:0:
320,192,32211,1,0,0:0:0:0:
448,192,32211,1,0,0:0:0:0:
448,192,32300,1,0,0:0:0:0:
64,192,32300,1,0,0:0:0:0:
192,192,32300,1,0,0:0:0:0:
64,192,32389,1,0,0:0:0:0:
320,192,32389,1,0,0:0:0:0:
192,192,32477,1,0,0:0:0:0:
320,192,32477,1,0,0:0:0:0:
448,192,32477,1,0,0:0:0:0:
64,192,32565,1,0,0:0:0:0:
192,192,32654,1,0,0:0:0:0:
320,192,32654,1,0,0:0:0:0:
448,192,32654,1,0,0:0:0:0:
448,192,32743,1,0,0:0:0:0:
320,192,32831,1,0,0:0:0:0:
192,192,32831,1,0,0:0:0:0:
64,192,32831,1,0,0:0:0:0:
64,192,32920,1,0,0:0:0:0:
320,192,33009,1,0,0:0:0:0:
448,192,33009,1,0,0:0:0:0:
192,192,33009,128,0,33364:0:0:0:0:
320,192,33185,1,0,0:0:0:0:
448,192,33185,1,0,0:0:0:0:
64,192,33363,1,0,0:0:0:0:
320,192,33363,1,0,0:0:0:0:
448,192,33363,128,0,33540:0:0:0:0:
64,192,33540,128,0,33717:0:0:0:0:
320,192,33540,1,0,0:0:0:0:
192,192,33717,1,0,0:0:0:0:
320,192,33717,1,0,0:0:0:0:
448,192,33717,1,0,0:0:0:0:
64,192,33895,1,0,0:0:0:0:
192,192,33895,1,0,0:0:0:0:
448,192,33895,1,0,0:0:0:0:
320,192,34071,1,0,0:0:0:0:
448,192,34071,1,0,0:0:0:0:
64,192,34071,1,0,0:0:0:0:
320,192,34249,1,0,0:0:0:0:
192,192,34249,1,0,0:0:0:0:
64,192,34249,128,0,34604:0:0:0:0:
320,192,34426,1,0,0:0:0:0:
448,192,34426,1,0,0:0:0:0:
192,192,34603,1,0,0:0:0:0:
320,192,34603,1,0,0:0:0:0:
448,192,34603,1,0,0:0:0:0:
64,192,34780,1,0,0:0:0:0:
192,192,34780,1,0,0:0:0:0:
192,192,34957,1,0,0:0:0:0:
320,192,34957,1,0,0:0:0:0:
448,192,34957,1,0,0:0:0:0:
192,192,35135,1,0,0:0:0:0:
64,192,35135,1,0,0:0:0:0:
192,192,35312,1,0,0:0:0:0:
320,192,35312,1,0,0:0:0:0:
448,192,35312,1,0,0:0:0:0:
64,192,35489,1,0,0:0:0:0:
192,192,35489,1,0,0:0:0:0:
192,192,35666,1,0,0:0:0:0:
320,192,35666,1,0,0:0:0:0:
448,192,35666,128,0,35843:0:0:0:0:
320,192,35843,1,0,0:0:0:0:
192,192,35843,1,0,0:0:0:0:
64,192,35843,1,0,0:0:0:0:
64,192,36020,1,0,0:0:0:0:
192,192,36020,1,0,0:0:0:0:
320,192,36020,1,0,0:0:0:0:
64,192,36198,1,0,0:0:0:0:
320,192,36198,1,0,0:0:0:0:
448,192,36198,1,0,0:0:0:0:
192,192,36375,1,0,0:0:0:0:
448,192,36375,1,0,0:0:0:0:
320,192,36464,1,0,0:0:0:0:
448,192,36552,1,0,0:0:0:0:
192,192,36552,1,0,0:0:0:0:
64,192,36552,1,0,0:0:0:0:
192,192,36730,1,0,0:0:0:0:
448,192,36730,1,0,0:0:0:0:
64,192,36730,1,0,0:0:0:0:
320,192,36906,1,0,0:0:0:0:
448,192,36906,1,0,0:0:0:0:
192,192,36906,1,0,0:0:0:0:
64,192,37084,1,0,0:0:0:0:
320,192,37084,1,0,0:0:0:0:
448,192,37172,1,0,0:0:0:0:
320,192,37260,1,0,0:0:0:0:
192,192,37260,1,0,0:0:0:0:
64,192,37260,1,0,0:0:0:0:
64,192,37438,1,0,0:0:0:0:
192,192,37438,1,0,0:0:0:0:
320,192,37438,1,0,0:0:0:0:
192,192,37615,1,0,0:0:0:0:
64,192,37615,1,0,0:0:0:0:
448,192,37615,1,0,0:0:0:0:
320,192,37792,1,0,0:0:0:0:
448,192,37792,1,0,0:0:0:0:
64,192,37881,1,0,0:0:0:0:
192,192,37970,1,0,0:0:0:0:
320,192,37970,1,0,0:0:0:0:
448,192,37970,1,0,0:0:0:0:
192,192,38146,1,0,0:0:0:0:
448,192,38146,1,0,0:0:0:0:
320,192,38146,1,0,0:0:0:0:
64,192,38324,1,0,0:0:0:0:
320,192,38324,1,0,0:0:0:0:
448,192,38324,1,0,0:0:0:0:
64,192,38501,1,0,0:0:0:0:
192,192,38501,1,0,0:0:0:0:
448,192,38501,1,0,0:0:0:0:
320,192,38590,1,0,0:0:0:0:
448,192,38678,1,0,0:0:0:0:
320,192,38678,1,0,0:0:0:0:
64,192,38678,1,0,0:0:0:0:
64,192,38855,1,0,0:0:0:0:
320,192,38855,1,0,0:0:0:0:
448,192,38855,1,0,0:0:0:0:
64,192,39033,1,0,0:0:0:0:
192,192,39033,1,0,0:0:0:0:
448,192,39033,1,0,0:0:0:0:
320,192,39210,1,0,0:0:0:0:
192,192,39210,1,0,0:0:0:0:
64,192,39298,1,0,0:0:0:0:
192,192,39387,1,0,0:0:0:0:
320,192,39387,1,0,0:0:0:0:
448,192,39387,1,0,0:0:0:0:
192,192,39564,1,0,0:0:0:0:
320,192,39564,1,0,0:0:0:0:
448,192,39564,1,0,0:0:0:0:
64,192,39741,1,0,0:0:0:0:
192,192,39741,1,0,0:0:0:0:
448,192,39741,1,0,0:0:0:0:
320,192,39919,1,0,0:0:0:0:
64,192,39919,1,0,0:0:0:0:
192,192,40007,1,0,0:0:0:0:
320,192,40095,1,0,0:0:0:0:
448,192,40095,1,0,0:0:0:0:
64,192,40095,1,0,0:0:0:0:
64,192,40273,1,0,0:0:0:0:
448,192,40273,128,0,40450:0:0:0:0:
192,192,40450,1,0,0:0:0:0:
320,192,40450,128,0,40627:0:0:0:0:
64,192,40627,128,0,40804:0:0:0:0:
448,192,40627,1,0,0:0:0:0:
192,192,40805,128,0,40982:0:0:0:0:
320,192,40805,1,0,0:0:0:0:
64,192,40981,1,0,0:0:0:0:
448,192,40981,128,0,41159:0:0:0:0:
320,192,41159,128,0,41335:0:0:0:0:
192,192,41159,1,0,0:0:0:0:
192,192,41336,1,0,0:0:0:0:
64,192,41336,1,0,0:0:0:0:
64,192,41425,1,0,0:0:0:0:
448,192,41425,1,0,0:0:0:0:
320,192,41513,1,0,0:0:0:0:
192,192,41513,1,0,0:0:0:0:
448,192,41513,1,0,0:0:0:0:
64,192,41601,1,0,0:0:0:0:
320,192,41601,1,0,0:0:0:0:
192,192,41690,1,0,0:0:0:0:
448,192,41690,1,0,0:0:0:0:
64,192,41690,128,0,41868:0:0:0:0:
192,192,41867,1,0,0:0:0:0:
320,192,41867,1,0,0:0:0:0:
448,192,41867,1,0,0:0:0:0:
320,192,41956,1,0,0:0:0:0:
448,192,41956,1,0,0:0:0:0:
192,192,42045,1,0,0:0:0:0:
320,192,42045,1,0,0:0:0:0:
64,192,42133,1,0,0:0:0:0:
448,192,42133,1,0,0:0:0:0:
192,192,42222,1,0,0:0:0:0:
64,192,42222,1,0,0:0:0:0:
320,192,42222,1,0,0:0:0:0:
64,192,42310,1,0,0:0:0:0:
448,192,42310,1,0,0:0:0:0:
192,192,42399,1,0,0:0:0:0:
448,192,42399,1,0,0:0:0:0:
320,192,42488,1,0,0:0:0:0:
192,192,42488,1,0,0:0:0:0:
64,192,42576,1,0,0:0:0:0:
320,192,42576,1,0,0:0:0:0:
448,192,42576,1,0,0:0:0:0:
192,192,42665,1,0,0:0:0:0:
64,192,42665,1,0,0:0:0:0:
64,192,42753,1,0,0:0:0:0:
448,192,42753,1,0,0:0:0:0:
320,192,42842,1,0,0:0:0:0:
192,192,42842,1,0,0:0:0:0:
192,192,42930,1,0,0:0:0:0:
448,192,42930,1,0,0:0:0:0:
320,192,42930,1,0,0:0:0:0:
320,192,43019,1,0,0:0:0:0:
64,192,43019,1,0,0:0:0:0:
448,192,43108,1,0,0:0:0:0:
64,192,43108,1,0,0:0:0:0:
320,192,43196,1,0,0:0:0:0:
448,192,43196,1,0,0:0:0:0:
448,192,43285,1,0,0:0:0:0:
64,192,43285,1,0,0:0:0:0:
192,192,43285,1,0,0:0:0:0:
320,192,43374,1,0,0:0:0:0:
64,192,43374,1,0,0:0:0:0:
64,192,43462,1,0,0:0:0:0:
192,192,43462,1,0,0:0:0:0:
320,192,43550,1,0,0:0:0:0:
448,192,43550,1,0,0:0:0:0:
64,192,43640,1,0,0:0:0:0:
320,192,43640,1,0,0:0:0:0:
192,192,43640,1,0,0:0:0:0:
64,192,43728,1,0,0:0:0:0:
320,192,43728,1,0,0:0:0:0:
192,192,43816,1,0,0:0:0:0:
448,192,43816,1,0,0:0:0:0:
320,192,43905,1,0,0:0:0:0:
192,192,43905,1,0,0:0:0:0:
64,192,43994,1,0,0:0:0:0:
320,192,43994,1,0,0:0:0:0:
448,192,43994,1,0,0:0:0:0:
192,192,44082,1,0,0:0:0:0:
64,192,44082,1,0,0:0:0:0:
448,192,44170,1,0,0:0:0:0:
320,192,44170,1,0,0:0:0:0:
192,192,44260,1,0,0:0:0:0:
320,192,44260,1,0,0:0:0:0:
448,192,44348,1,0,0:0:0:0:
320,192,44348,1,0,0:0:0:0:
64,192,44348,1,0,0:0:0:0:
192,192,44436,1,0,0:0:0:0:
448,192,44436,1,0,0:0:0:0:
320,192,44525,1,0,0:0:0:0:
64,192,44525,1,0,0:0:0:0:
64,192,44614,1,0,0:0:0:0:
448,192,44614,1,0,0:0:0:0:
448,192,44702,1,0,0:0:0:0:
192,192,44702,1,0,0:0:0:0:
320,192,44702,128,0,44880:0:0:0:0:
192,192,44880,1,0,0:0:0:0:
64,192,44880,1,0,0:0:0:0:
448,192,44968,1,0,0:0:0:0:
320,192,44968,1,0,0:0:0:0:
192,192,45056,1,0,0:0:0:0:
320,192,45056,1,0,0:0:0:0:
64,192,45056,1,0,0:0:0:0:
192,192,45145,1,0,0:0:0:0:
320,192,45234,1,0,0:0:0:0:
64,192,45234,1,0,0:0:0:0:
448,192,45234,1,0,0:0:0:0:
192,192,45322,1,0,0:0:0:0:
64,192,45411,1,0,0:0:0:0:
192,192,45411,1,0,0:0:0:0:
320,192,45411,1,0,0:0:0:0:
448,192,45500,1,0,0:0:0:0:
320,192,45588,1,0,0:0:0:0:
448,192,45588,1,0,0:0:0:0:
64,192,45677,1,0,0:0:0:0:
192,192,45677,1,0,0:0:0:0:
64,192,45765,1,0,0:0:0:0:
192,192,45765,1,0,0:0:0:0:
320,192,45765,1,0,0:0:0:0:
448,192,45854,1,0,0:0:0:0:
64,192,45943,1,0,0:0:0:0:
320,192,45943,1,0,0:0:0:0:
64,192,46031,1,0,0:0:0:0:
192,192,46031,1,0,0:0:0:0:
448,192,46031,1,0,0:0:0:0:
192,192,46120,1,0,0:0:0:0:
448,192,46120,1,0,0:0:0:0:
320,192,46120,1,0,0:0:0:0:
448,192,46208,1,0,0:0:0:0:
192,192,46208,1,0,0:0:0:0:
64,192,46297,1,0,0:0:0:0:
320,192,46297,1,0,0:0:0:0:
448,192,46385,1,0,0:0:0:0:
64,192,46385,1,0,0:0:0:0:
64,192,46474,1,0,0:0:0:0:
192,192,46474,1,0,0:0:0:0:
320,192,46474,1,0,0:0:0:0:
448,192,46563,1,0,0:0:0:0:
320,192,46651,1,0,0:0:0:0:
192,192,46651,1,0,0:0:0:0:
64,192,46651,1,0,0:0:0:0:
64,192,46740,1,0,0:0:0:0:
192,192,46829,1,0,0:0:0:0:
448,192,46829,1,0,0:0:0:0:
320,192,46829,1,0,0:0:0:0:
64,192,46917,1,0,0:0:0:0:
448,192,46917,1,0,0:0:0:0:
320,192,47005,1,0,0:0:0:0:
192,192,47005,1,0,0:0:0:0:
64,192,47005,1,0,0:0:0:0:
64,192,47095,1,0,0:0:0:0:
448,192,47095,1,0,0:0:0:0:
192,192,47183,1,0,0:0:0:0:
320,192,47183,1,0,0:0:0:0:
448,192,47183,1,0,0:0:0:0:
192,192,47271,1,0,0:0:0:0:
64,192,47271,1,0,0:0:0:0:
320,192,47360,1,0,0:0:0:0:
448,192,47360,128,0,47536:0:0:0:0:
320,192,47537,1,0,0:0:0:0:
192,192,47537,1,0,0:0:0:0:
64,192,47537,1,0,0:0:0:0:
192,192,47715,1,0,0:0:0:0:
448,192,47715,1,0,0:0:0:0:
64,192,47715,128,0,47891:0:0:0:0:
192,192,47891,1,0,0:0:0:0:
320,192,47891,1,0,0:0:0:0:
448,192,47891,1,0,0:0:0:0:
64,192,48069,1,0,0:0:0:0:
192,192,48069,1,0,0:0:0:0:
320,192,48069,1,0,0:0:0:0:
64,192,48157,1,0,0:0:0:0:
320,192,48157,1,0,0:0:0:0:
320,192,48246,1,0,0:0:0:0:
192,192,48246,1,0,0:0:0:0:
448,192,48246,1,0,0:0:0:0:
320,192,48423,1,0,0:0:0:0:
448,192,48423,1,0,0:0:0:0:
64,192,48423,128,0,48600:0:0:0:0:
192,192,48600,1,0,0:0:0:0:
320,192,48600,1,0,0:0:0:0:
448,192,48600,1,0,0:0:0:0:
192,192,48689,1,0,0:0:0:0:
320,192,48689,1,0,0:0:0:0:
64,192,48777,1,0,0:0:0:0:
192,192,48777,1,0,0:0:0:0:
320,192,48866,1,0,0:0:0:0:
448,192,48866,1,0,0:0:0:0:
192,192,48955,1,0,0:0:0:0:
64,192,48955,1,0,0:0:0:0:
320,192,48955,128,0,49131:0:0:0:0:
64,192,49132,1,0,0:0:0:0:
448,192,49132,1,0,0:0:0:0:
320,192,49220,1,0,0:0:0:0:
192,192,49220,1,0,0:0:0:0:
448,192,49309,1,0,0:0:0:0:
64,192,49309,1,0,0:0:0:0:
320,192,49309,1,0,0:0:0:0:
192,192,49398,1,0,0:0:0:0:
64,192,49398,1,0,0:0:0:0:
448,192,49486,1,0,0:0:0:0:
64,192,49486,1,0,0:0:0:0:
192,192,49575,1,0,0:0:0:0:
320,192,49575,1,0,0:0:0:0:
64,192,49663,1,0,0:0:0:0:
448,192,49663,1,0,0:0:0:0:
320,192,49663,1,0,0:0:0:0:
64,192,49840,1,0,0:0:0:0:
448,192,49840,1,0,0:0:0:0:
192,192,49840,1,0,0:0:0:0:
64,192,50018,1,0,0:0:0:0:
192,192,50018,1,0,0:0:0:0:
320,192,50018,1,0,0:0:0:0:
320,192,50106,1,0,0:0:0:0:
448,192,50106,1,0,0:0:0:0:
320,192,50195,1,0,0:0:0:0:
64,192,50195,1,0,0:0:0:0:
192,192,50284,1,0,0:0:0:0:
192,192,50372,1,0,0:0:0:0:
448,192,50372,1,0,0:0:0:0:
64,192,50372,1,0,0:0:0:0:
192,192,50460,1,0,0:0:0:0:
320,192,50550,1,0,0:0:0:0:
64,192,50550,1,0,0:0:0:0:
448,192,50550,1,0,0:0:0:0:
320,192,50638,1,0,0:0:0:0:
192,192,50726,1,0,0:0:0:0:
64,192,50726,1,0,0:0:0:0:
448,192,50726,1,0,0:0:0:0:
320,192,50815,1,0,0:0:0:0:
448,192,50815,1,0,0:0:0:0:
64,192,50815,1,0,0:0:0:0:
192,192,50904,1,0,0:0:0:0:
64,192,50992,1,0,0:0:0:0:
320,192,50992,1,0,0:0:0:0:
192,192,51080,1,0,0:0:0:0:
320,192,51080,1,0,0:0:0:0:
448,192,51080,128,0,51257:0:0:0:0:
320,192,51258,1,0,0:0:0:0:
192,192,51258,1,0,0:0:0:0:
64,192,51258,128,0,51435:0:0:0:0:
192,192,51435,1,0,0:0:0:0:
320,192,51435,1,0,0:0:0:0:
448,192,51435,128,0,51790:0:0:0:0:
192,192,51612,1,0,0:0:0:0:
64,192,51612,1,0,0:0:0:0:
320,192,51790,1,0,0:0:0:0:
192,192,51790,1,0,0:0:0:0:
64,192,51790,128,0,52144:0:0:0:0:
320,192,51966,1,0,0:0:0:0:
448,192,51966,1,0,0:0:0:0:
192,192,52144,1,0,0:0:0:0:
320,192,52144,1,0,0:0:0:0:
448,192,52144,1,0,0:0:0:0:
448,192,52232,1,0,0:0:0:0:
320,192,52232,1,0,0:0:0:0:
64,192,52321,1,0,0:0:0:0:
192,192,52321,1,0,0:0:0:0:
320,192,52321,1,0,0:0:0:0:
192,192,52410,1,0,0:0:0:0:
64,192,52410,1,0,0:0:0:0:
64,192,52498,1,0,0:0:0:0:
320,192,52498,1,0,0:0:0:0:
448,192,52498,1,0,0:0:0:0:
192,192,52587,1,0,0:0:0:0:
448,192,52587,1,0,0:0:0:0:
320,192,52675,1,0,0:0:0:0:
192,192,52675,1,0,0:0:0:0:
64,192,52675,1,0,0:0:0:0:
64,192,52764,1,0,0:0:0:0:
448,192,52764,1,0,0:0:0:0:
192,192,52853,1,0,0:0:0:0:
320,192,52853,1,0,0:0:0:0:
448,192,52853,1,0,0:0:0:0:
192,192,53030,1,0,0:0:0:0:
320,192,53030,1,0,0:0:0:0:
320,192,53207,1,0,0:0:0:0:
64,192,53207,1,0,0:0:0:0:
448,192,53207,128,0,53561:0:0:0:0:
192,192,53384,1,0,0:0:0:0:
64,192,53384,1,0,0:0:0:0:
320,192,53561,1,0,0:0:0:0:
192,192,53561,1,0,0:0:0:0:
64,192,53561,128,0,53916:0:0:0:0:
448,192,53739,1,0,0:0:0:0:
320,192,53739,1,0,0:0:0:0:
320,192,53915,1,0,0:0:0:0:
448,192,53915,1,0,0:0:0:0:
192,192,53915,1,0,0:0:0:0:
192,192,54093,1,0,0:0:0:0:
64,192,54093,1,0,0:0:0:0:
448,192,54093,1,0,0:0:0:0:
64,192,54270,1,0,0:0:0:0:
320,192,54270,1,0,0:0:0:0:
192,192,54270,128,0,54624:0:0:0:0:
448,192,54447,1,0,0:0:0:0:
320,192,54447,1,0,0:0:0:0:
320,192,54625,1,0,0:0:0:0:
64,192,54625,1,0,0:0:0:0:
448,192,54625,128,0,54801:0:0:0:0:
192,192,54801,1,0,0:0:0:0:
64,192,54801,1,0,0:0:0:0:
320,192,54890,1,0,0:0:0:0:
64,192,54890,1,0,0:0:0:0:
448,192,54979,1,0,0:0:0:0:
192,192,54979,1,0,0:0:0:0:
320,192,54979,1,0,0:0:0:0:
64,192,55067,1,0,0:0:0:0:
448,192,55067,1,0,0:0:0:0:
320,192,55156,1,0,0:0:0:0:
64,192,55156,1,0,0:0:0:0:
192,192,55156,1,0,0:0:0:0:
192,192,55245,1,0,0:0:0:0:
320,192,55333,1,0,0:0:0:0:
448,192,55333,1,0,0:0:0:0:
64,192,55333,1,0,0:0:0:0:
448,192,55421,1,0,0:0:0:0:
320,192,55510,1,0,0:0:0:0:
192,192,55510,1,0,0:0:0:0:
64,192,55510,1,0,0:0:0:0:
64,192,55599,1,0,0:0:0:0:
192,192,55687,1,0,0:0:0:0:
320,192,55687,1,0,0:0:0:0:
448,192,55687,128,0,56041:0:0:0:0:
64,192,55865,1,0,0:0:0:0:
320,192,56042,1,0,0:0:0:0:
192,192,56042,1,0,0:0:0:0:
64,192,56042,1,0,0:0:0:0:
448,192,56219,1,0,0:0:0:0:
64,192,56219,1,0,0:0:0:0:
320,192,56308,1,0,0:0:0:0:
192,192,56396,1,0,0:0:0:0:
64,192,56396,1,0,0:0:0:0:
448,192,56396,1,0,0:0:0:0:
448,192,56573,1,0,0:0:0:0:
320,192,56573,1,0,0:0:0:0:
192,192,56573,1,0,0:0:0:0:
320,192,56750,1,0,0:0:0:0:
448,192,56750,1,0,0:0:0:0:
64,192,56750,1,0,0:0:0:0:
192,192,56928,1,0,0:0:0:0:
448,192,56928,1,0,0:0:0:0:
64,192,56928,128,0,57282:0:0:0:0:
320,192,57105,1,0,0:0:0:0:
192,192,57105,1,0,0:0:0:0:
448,192,57194,1,0,0:0:0:0:
320,192,57194,1,0,0:0:0:0:
448,192,57282,1,0,0:0:0:0:
192,192,57282,128,0,57637:0:0:0:0:
448,192,57460,1,0,0:0:0:0:
320,192,57460,1,0,0:0:0:0:
448,192,57636,1,0,0:0:0:0:
64,192,57636,1,0,0:0:0:0:
320,192,57725,1,0,0:0:0:0:
448,192,57814,1,0,0:0:0:0:
192,192,57814,1,0,0:0:0:0:
64,192,57814,1,0,0:0:0:0:
192,192,57902,1,0,0:0:0:0:
64,192,57990,1,0,0:0:0:0:
320,192,57990,1,0,0:0:0:0:
448,192,57990,1,0,0:0:0:0:
320,192,58080,1,0,0:0:0:0:
448,192,58168,1,0,0:0:0:0:
64,192,58168,1,0,0:0:0:0:
192,192,58168,1,0,0:0:0:0:
64,192,58256,1,0,0:0:0:0:
192,192,58345,1,0,0:0:0:0:
448,192,58345,1,0,0:0:0:0:
320,192,58345,1,0,0:0:0:0:
448,192,58434,1,0,0:0:0:0:
320,192,58522,1,0,0:0:0:0:
64,192,58522,1,0,0:0:0:0:
192,192,58522,1,0,0:0:0:0:
192,192,58700,1,0,0:0:0:0:
448,192,58700,1,0,0:0:0:0:
320,192,58876,1,0,0:0:0:0:
192,192,58876,1,0,0:0:0:0:
448,192,58876,128,0,59230:0:0:0:0:
64,192,59054,1,0,0:0:0:0:
320,192,59054,1,0,0:0:0:0:
64,192,59231,1,0,0:0:0:0:
320,192,59231,1,0,0:0:0:0:
192,192,59231,128,0,59585:0:0:0:0:
448,192,59408,1,0,0:0:0:0:
320,192,59408,1,0,0:0:0:0:
448,192,59585,1,0,0:0:0:0:
320,192,59585,1,0,0:0:0:0:
64,192,59585,1,0,0:0:0:0:
192,192,59763,1,0,0:0:0:0:
64,192,59763,1,0,0:0:0:0:
448,192,59763,1,0,0:0:0:0:
320,192,59940,1,0,0:0:0:0:
192,192,59940,1,0,0:0:0:0:
64,192,59940,128,0,60294:0:0:0:0:
320,192,60117,1,0,0:0:0:0:
448,192,60117,1,0,0:0:0:0:
320,192,60294,1,0,0:0:0:0:
192,192,60294,1,0,0:0:0:0:
448,192,60294,128,0,60471:0:0:0:0:
320,192,60471,1,0,0:0:0:0:
64,192,60471,1,0,0:0:0:0:
192,192,60560,1,0,0:0:0:0:
64,192,60560,1,0,0:0:0:0:
64,192,60649,1,0,0:0:0:0:
448,192,60649,1,0,0:0:0:0:
320,192,60649,1,0,0:0:0:0:
448,192,60737,1,0,0:0:0:0:
192,192,60737,1,0,0:0:0:0:
320,192,60825,1,0,0:0:0:0:
192,192,60825,1,0,0:0:0:0:
64,192,60825,1,0,0:0:0:0:
448,192,60915,1,0,0:0:0:0:
192,192,61003,1,0,0:0:0:0:
64,192,61003,1,0,0:0:0:0:
320,192,61047,1,0,0:0:0:0:
192,192,61091,1,0,0:0:0:0:
320,192,61180,1,0,0:0:0:0:
448,192,61180,1,0,0:0:0:0:
192,192,61225,1,0,0:0:0:0:
320,192,61269,1,0,0:0:0:0:
192,192,61357,1,0,0:0:0:0:
64,192,61357,1,0,0:0:0:0:
448,192,61357,128,0,61711:0:0:0:0:
192,192,61535,1,0,0:0:0:0:
64,192,61535,1,0,0:0:0:0:
192,192,61711,1,0,0:0:0:0:
64,192,61711,128,0,61888:0:0:0:0:
320,192,61711,1,0,0:0:0:0:
448,192,61889,128,0,62066:0:0:0:0:
192,192,61889,1,0,0:0:0:0:
320,192,62066,1,0,0:0:0:0:
192,192,62066,1,0,0:0:0:0:
64,192,62066,1,0,0:0:0:0:
448,192,62243,1,0,0:0:0:0:
320,192,62243,1,0,0:0:0:0:
64,192,62243,1,0,0:0:0:0:
192,192,62420,1,0,0:0:0:0:
64,192,62420,1,0,0:0:0:0:
448,192,62420,1,0,0:0:0:0:
192,192,62597,1,0,0:0:0:0:
320,192,62597,1,0,0:0:0:0:
448,192,62597,128,0,62951:0:0:0:0:
192,192,62775,1,0,0:0:0:0:
64,192,62775,1,0,0:0:0:0:
320,192,62952,1,0,0:0:0:0:
192,192,62952,1,0,0:0:0:0:
64,192,62952,1,0,0:0:0:0:
448,192,63129,1,0,0:0:0:0:
320,192,63129,1,0,0:0:0:0:
64,192,63129,1,0,0:0:0:0:
320,192,63306,1,0,0:0:0:0:
448,192,63306,1,0,0:0:0:0:
192,192,63306,128,0,63838:0:0:0:0:
64,192,63483,1,0,0:0:0:0:
320,192,63483,1,0,0:0:0:0:
448,192,63483,1,0,0:0:0:0:
448,192,63660,1,0,0:0:0:0:
320,192,63749,1,0,0:0:0:0:
320,192,63838,1,0,0:0:0:0:
448,192,63838,1,0,0:0:0:0:
64,192,63838,1,0,0:0:0:0:
448,192,63926,1,0,0:0:0:0:
192,192,64015,1,0,0:0:0:0:
64,192,64015,1,0,0:0:0:0:
320,192,64104,1,0,0:0:0:0:
448,192,64192,1,0,0:0:0:0:
64,192,64192,1,0,0:0:0:0:
192,192,64192,1,0,0:0:0:0:
320,192,64370,1,0,0:0:0:0:
320,192,64546,1,0,0:0:0:0:
448,192,64546,128,0,64900:0:0:0:0:
64,192,64724,1,0,0:0:0:0:
320,192,64900,1,0,0:0:0:0:
192,192,64900,128,0,65255:0:0:0:0:
64,192,65255,1,0,0:0:0:0:
448,192,65255,128,0,65433:0:0:0:0:
320,192,65432,128,0,65609:0:0:0:0:
192,192,65610,1,0,0:0:0:0:
64,192,65610,128,0,65964:0:0:0:0:
448,192,65786,1,0,0:0:0:0:
320,192,65964,128,0,66319:0:0:0:0:
448,192,65964,1,0,0:0:0:0:
192,192,66141,1,0,0:0:0:0:
64,192,66318,128,0,66672:0:0:0:0:
192,192,66318,1,0,0:0:0:0:
448,192,66495,1,0,0:0:0:0:
320,192,66672,128,0,67026:0:0:0:0:
192,192,66672,1,0,0:0:0:0:
192,192,66850,1,0,0:0:0:0:
64,192,66938,1,0,0:0:0:0:
192,192,67027,1,0,0:0:0:0:
448,192,67027,1,0,0:0:0:0:
320,192,67204,1,0,0:0:0:0:
192,192,67381,1,0,0:0:0:0:
64,192,67381,1,0,0:0:0:0:
320,192,67559,1,0,0:0:0:0:
64,192,67647,1,0,0:0:0:0:
192,192,67735,1,0,0:0:0:0:
320,192,67735,1,0,0:0:0:0:
192,192,67913,1,0,0:0:0:0:
448,192,67913,1,0,0:0:0:0:
448,192,68090,1,0,0:0:0:0:
64,192,68090,1,0,0:0:0:0:
320,192,68267,1,0,0:0:0:0:
192,192,68267,1,0,0:0:0:0:
448,192,68355,1,0,0:0:0:0:
320,192,68445,1,0,0:0:0:0:
64,192,68445,1,0,0:0:0:0:
320,192,68621,1,0,0:0:0:0:
64,192,68621,1,0,0:0:0:0:
192,192,68799,1,0,0:0:0:0:
320,192,68975,1,0,0:0:0:0:
448,192,69065,1,0,0:0:0:0:
320,192,69153,1,0,0:0:0:0:
64,192,69153,1,0,0:0:0:0:
192,192,69153,1,0,0:0:0:0:
448,192,69241,1,0,0:0:0:0:
64,192,69241,1,0,0:0:0:0:
64,192,69419,1,0,0:0:0:0:
448,192,69419,1,0,0:0:0:0:
192,192,69507,1,0,0:0:0:0:
320,192,69507,1,0,0:0:0:0:
320,192,69596,1,0,0:0:0:0:
448,192,69596,1,0,0:0:0:0:
192,192,69685,1,0,0:0:0:0:
64,192,69685,1,0,0:0:0:0:
448,192,69773,1,0,0:0:0:0:
64,192,69773,1,0,0:0:0:0:
192,192,69862,1,0,0:0:0:0:
448,192,69862,1,0,0:0:0:0:
320,192,69862,1,0,0:0:0:0:
320,192,70039,1,0,0:0:0:0:
192,192,70039,1,0,0:0:0:0:
64,192,70216,1,0,0:0:0:0:
448,192,70216,128,0,70570:0:0:0:0:
192,192,70393,1,0,0:0:0:0:
64,192,70570,1,0,0:0:0:0:
320,192,70570,128,0,70925:0:0:0:0:
192,192,70925,1,0,0:0:0:0:
64,192,70925,1,0,0:0:0:0:
448,192,71102,1,0,0:0:0:0:
64,192,71102,1,0,0:0:0:0:
192,192,71279,1,0,0:0:0:0:
320,192,71279,128,0,71634:0:0:0:0:
64,192,71456,1,0,0:0:0:0:
192,192,71634,128,0,71988:0:0:0:0:
448,192,71634,1,0,0:0:0:0:
320,192,71810,1,0,0:0:0:0:
64,192,71988,1,0,0:0:0:0:
448,192,71988,128,0,72342:0:0:0:0:
320,192,72165,1,0,0:0:0:0:
192,192,72342,1,0,0:0:0:0:
64,192,72342,128,0,72696:0:0:0:0:
448,192,72520,1,0,0:0:0:0:
320,192,72608,1,0,0:0:0:0:
448,192,72696,1,0,0:0:0:0:
320,192,72696,1,0,0:0:0:0:
320,192,72874,1,0,0:0:0:0:
448,192,72874,1,0,0:0:0:0:
448,192,73051,1,0,0:0:0:0:
64,192,73051,1,0,0:0:0:0:
192,192,73228,1,0,0:0:0:0:
64,192,73228,1,0,0:0:0:0:
320,192,73405,1,0,0:0:0:0:
448,192,73405,1,0,0:0:0:0:
64,192,73582,1,0,0:0:0:0:
448,192,73582,1,0,0:0:0:0:
320,192,73760,1,0,0:0:0:0:
192,192,73760,1,0,0:0:0:0:
320,192,73937,1,0,0:0:0:0:
192,192,74025,1,0,0:0:0:0:
448,192,74114,1,0,0:0:0:0:
320,192,74114,128,0,75176:0:0:0:0:
192,192,74291,1,0,0:0:0:0:
64,192,74469,1,0,0:0:0:0:
192,192,74469,1,0,0:0:0:0:
192,192,74645,1,0,0:0:0:0:
64,192,74823,1,0,0:0:0:0:
192,192,74823,1,0,0:0:0:0:
192,192,75000,1,0,0:0:0:0:
448,192,75177,1,0,0:0:0:0:
64,192,75265,1,0,0:0:0:0:
448,192,75355,1,0,0:0:0:0:
320,192,75443,1,0,0:0:0:0:
448,192,75531,1,0,0:0:0:0:
64,192,75531,1,0,0:0:0:0:
64,192,75709,1,0,0:0:0:0:
320,192,75885,1,0,0:0:0:0:
320,192,76063,1,0,0:0:0:0:
192,192,76240,1,0,0:0:0:0:
192,192,76417,1,0,0:0:0:0:
448,192,76595,1,0,0:0:0:0:
448,192,76772,1,0,0:0:0:0:
64,192,76949,1,0,0:0:0:0:
64,192,77126,1,0,0:0:0:0:
320,192,77303,1,0,0:0:0:0:
320,192,77480,1,0,0:0:0:0:
448,192,77658,1,0,0:0:0:0:
448,192,77835,1,0,0:0:0:0:
192,192,78012,1,0,0:0:0:0:
192,192,78189,1,0,0:0:0:0:
64,192,78366,1,0,0:0:0:0:
64,192,78544,1,0,0:0:0:0:
448,192,78720,1,0,0:0:0:0:
448,192,78898,1,0,0:0:0:0:
192,192,79075,1,0,0:0:0:0:
192,192,79252,1,0,0:0:0:0:
320,192,79430,1,0,0:0:0:0:
448,192,79606,1,0,0:0:0:0:
320,192,79784,1,0,0:0:0:0:
320,192,79961,1,0,0:0:0:0:
192,192,80138,1,0,0:0:0:0:
448,192,80315,1,0,0:0:0:0:
192,192,80492,1,0,0:0:0:0:
320,192,80670,1,0,0:0:0:0:
64,192,80670,1,0,0:0:0:0:
192,192,80847,1,0,0:0:0:0:
448,192,81024,1,0,0:0:0:0:
64,192,81024,1,0,0:0:0:0:
192,192,81201,1,0,0:0:0:0:
320,192,81201,1,0,0:0:0:0:
448,192,81201,1,0,0:0:0:0:
192,192,81379,1,0,0:0:0:0:
320,192,81379,1,0,0:0:0:0:
448,192,81379,1,0,0:0:0:0:
64,192,81555,1,0,0:0:0:0:
192,192,81555,1,0,0:0:0:0:
320,192,81555,1,0,0:0:0:0:
192,192,81733,1,0,0:0:0:0:
64,192,81733,1,0,0:0:0:0:
320,192,81733,1,0,0:0:0:0:
192,192,81910,1,0,0:0:0:0:
64,192,81910,1,0,0:0:0:0:
448,192,81910,1,0,0:0:0:0:
448,192,82087,1,0,0:0:0:0:
192,192,82087,1,0,0:0:0:0:
64,192,82087,1,0,0:0:0:0:
64,192,82265,1,0,0:0:0:0:
320,192,82265,1,0,0:0:0:0:
448,192,82265,1,0,0:0:0:0:
448,192,82441,1,0,0:0:0:0:
320,192,82441,1,0,0:0:0:0:
64,192,82441,1,0,0:0:0:0:
192,192,82619,1,0,0:0:0:0:
320,192,82619,1,0,0:0:0:0:
448,192,82619,1,0,0:0:0:0:
192,192,82795,1,0,0:0:0:0:
320,192,82795,1,0,0:0:0:0:
448,192,82795,1,0,0:0:0:0:
192,192,82973,1,0,0:0:0:0:
64,192,82973,1,0,0:0:0:0:
448,192,82973,1,0,0:0:0:0:
192,192,83150,1,0,0:0:0:0:
64,192,83150,1,0,0:0:0:0:
448,192,83150,1,0,0:0:0:0:
320,192,83327,1,0,0:0:0:0:
448,192,83327,1,0,0:0:0:0:
64,192,83327,1,0,0:0:0:0:
64,192,83505,1,0,0:0:0:0:
320,192,83505,1,0,0:0:0:0:
448,192,83505,1,0,0:0:0:0:
64,192,83682,1,0,0:0:0:0:
320,192,83682,1,0,0:0:0:0:
192,192,83682,1,0,0:0:0:0:
64,192,83859,1,0,0:0:0:0:
192,192,83859,1,0,0:0:0:0:
320,192,83859,1,0,0:0:0:0:
192,192,84036,1,0,0:0:0:0:
320,192,84036,1,0,0:0:0:0:
448,192,84036,1,0,0:0:0:0:
192,192,84213,1,0,0:0:0:0:
320,192,84213,1,0,0:0:0:0:
448,192,84213,1,0,0:0:0:0:
320,192,84390,1,0,0:0:0:0:
448,192,84390,1,0,0:0:0:0:
64,192,84390,1,0,0:0:0:0:
64,192,84568,1,0,0:0:0:0:
320,192,84568,1,0,0:0:0:0:
448,192,84568,1,0,0:0:0:0:
192,192,84745,1,0,0:0:0:0:
448,192,84745,1,0,0:0:0:0:
64,192,84745,1,0,0:0:0:0:
192,192,84922,1,0,0:0:0:0:
448,192,84922,1,0,0:0:0:0:
320,192,84922,1,0,0:0:0:0:
64,192,85099,1,0,0:0:0:0:
192,192,85099,1,0,0:0:0:0:
448,192,85099,1,0,0:0:0:0:
320,192,85276,1,0,0:0:0:0:
448,192,85276,1,0,0:0:0:0:
64,192,85276,1,0,0:0:0:0:
192,192,85454,1,0,0:0:0:0:
320,192,85454,1,0,0:0:0:0:
448,192,85454,1,0,0:0:0:0:
64,192,85454,1,0,0:0:0:0:
320,192,86694,1,0,0:0:0:0:
448,192,86694,1,0,0:0:0:0:
192,192,86782,1,0,0:0:0:0:
64,192,86782,1,0,0:0:0:0:
448,192,86871,1,0,0:0:0:0:
320,192,86871,1,0,0:0:0:0:
64,192,86871,1,0,0:0:0:0:
192,192,86960,1,0,0:0:0:0:
320,192,86960,1,0,0:0:0:0:
64,192,87048,1,0,0:0:0:0:
192,192,87048,1,0,0:0:0:0:
448,192,87048,128,0,87225:0:0:0:0:
320,192,87225,1,0,0:0:0:0:
192,192,87225,1,0,0:0:0:0:
64,192,87225,1,0,0:0:0:0:
448,192,87314,1,0,0:0:0:0:
320,192,87314,1,0,0:0:0:0:
448,192,87402,1,0,0:0:0:0:
192,192,87402,1,0,0:0:0:0:
192,192,87491,1,0,0:0:0:0:
64,192,87491,1,0,0:0:0:0:
64,192,87580,1,0,0:0:0:0:
320,192,87580,1,0,0:0:0:0:
448,192,87580,1,0,0:0:0:0:
192,192,87668,1,0,0:0:0:0:
320,192,87668,1,0,0:0:0:0:
448,192,87757,1,0,0:0:0:0:
192,192,87757,1,0,0:0:0:0:
448,192,87845,1,0,0:0:0:0:
64,192,87845,1,0,0:0:0:0:
192,192,87934,1,0,0:0:0:0:
448,192,87934,1,0,0:0:0:0:
320,192,87934,1,0,0:0:0:0:
64,192,88023,1,0,0:0:0:0:
320,192,88023,1,0,0:0:0:0:
64,192,88111,1,0,0:0:0:0:
192,192,88111,1,0,0:0:0:0:
64,192,88200,1,0,0:0:0:0:
448,192,88200,1,0,0:0:0:0:
448,192,88289,1,0,0:0:0:0:
320,192,88289,1,0,0:0:0:0:
192,192,88289,1,0,0:0:0:0:
448,192,88377,1,0,0:0:0:0:
320,192,88377,1,0,0:0:0:0:
64,192,88465,1,0,0:0:0:0:
320,192,88465,1,0,0:0:0:0:
192,192,88554,1,0,0:0:0:0:
64,192,88554,1,0,0:0:0:0:
320,192,88643,1,0,0:0:0:0:
192,192,88643,1,0,0:0:0:0:
448,192,88643,1,0,0:0:0:0:
320,192,88731,1,0,0:0:0:0:
192,192,88731,1,0,0:0:0:0:
64,192,88820,1,0,0:0:0:0:
448,192,88820,1,0,0:0:0:0:
448,192,88909,1,0,0:0:0:0:
192,192,88909,1,0,0:0:0:0:
64,192,88997,1,0,0:0:0:0:
192,192,88997,1,0,0:0:0:0:
320,192,88997,1,0,0:0:0:0:
64,192,89085,1,0,0:0:0:0:
448,192,89085,1,0,0:0:0:0:
192,192,89175,1,0,0:0:0:0:
64,192,89175,1,0,0:0:0:0:
320,192,89263,1,0,0:0:0:0:
448,192,89263,1,0,0:0:0:0:
64,192,89351,1,0,0:0:0:0:
320,192,89351,1,0,0:0:0:0:
448,192,89351,1,0,0:0:0:0:
192,192,89440,1,0,0:0:0:0:
320,192,89440,1,0,0:0:0:0:
192,192,89529,1,0,0:0:0:0:
64,192,89529,1,0,0:0:0:0:
448,192,89617,1,0,0:0:0:0:
192,192,89617,1,0,0:0:0:0:
320,192,89705,1,0,0:0:0:0:
448,192,89705,1,0,0:0:0:0:
64,192,89705,1,0,0:0:0:0:
448,192,89795,1,0,0:0:0:0:
192,192,89795,1,0,0:0:0:0:
320,192,89883,1,0,0:0:0:0:
192,192,89883,1,0,0:0:0:0:
320,192,89971,1,0,0:0:0:0:
64,192,89971,1,0,0:0:0:0:
320,192,90060,1,0,0:0:0:0:
192,192,90060,1,0,0:0:0:0:
448,192,90060,128,0,90237:0:0:0:0:
64,192,90237,1,0,0:0:0:0:
320,192,90237,1,0,0:0:0:0:
192,192,90326,1,0,0:0:0:0:
64,192,90326,1,0,0:0:0:0:
320,192,90415,1,0,0:0:0:0:
448,192,90415,1,0,0:0:0:0:
64,192,90415,1,0,0:0:0:0:
192,192,90503,1,0,0:0:0:0:
320,192,90503,1,0,0:0:0:0:
448,192,90592,1,0,0:0:0:0:
64,192,90592,1,0,0:0:0:0:
448,192,90680,1,0,0:0:0:0:
320,192,90680,1,0,0:0:0:0:
320,192,90769,1,0,0:0:0:0:
192,192,90769,1,0,0:0:0:0:
64,192,90769,128,0,90946:0:0:0:0:
448,192,90946,1,0,0:0:0:0:
320,192,90946,1,0,0:0:0:0:
192,192,91035,1,0,0:0:0:0:
64,192,91035,1,0,0:0:0:0:
192,192,91123,1,0,0:0:0:0:
320,192,91123,1,0,0:0:0:0:
448,192,91123,1,0,0:0:0:0:
320,192,91212,1,0,0:0:0:0:
192,192,91212,1,0,0:0:0:0:
64,192,91300,1,0,0:0:0:0:
320,192,91300,1,0,0:0:0:0:
192,192,91389,1,0,0:0:0:0:
64,192,91389,1,0,0:0:0:0:
448,192,91389,1,0,0:0:0:0:
320,192,91478,1,0,0:0:0:0:
448,192,91478,1,0,0:0:0:0:
64,192,91566,1,0,0:0:0:0:
320,192,91566,1,0,0:0:0:0:
192,192,91655,1,0,0:0:0:0:
64,192,91655,1,0,0:0:0:0:
448,192,91655,1,0,0:0:0:0:
320,192,91744,1,0,0:0:0:0:
192,192,91744,1,0,0:0:0:0:
448,192,91832,1,0,0:0:0:0:
64,192,91832,1,0,0:0:0:0:
320,192,91832,1,0,0:0:0:0:
192,192,91920,1,0,0:0:0:0:
64,192,91920,1,0,0:0:0:0:
320,192,92009,1,0,0:0:0:0:
448,192,92009,1,0,0:0:0:0:
448,192,92098,1,0,0:0:0:0:
192,192,92098,1,0,0:0:0:0:
320,192,92186,1,0,0:0:0:0:
448,192,92186,1,0,0:0:0:0:
64,192,92186,1,0,0:0:0:0:
64,192,92275,1,0,0:0:0:0:
192,192,92275,1,0,0:0:0:0:
192,192,92364,1,0,0:0:0:0:
320,192,92364,1,0,0:0:0:0:
320,192,92452,1,0,0:0:0:0:
448,192,92452,1,0,0:0:0:0:
320,192,92540,1,0,0:0:0:0:
192,192,92540,1,0,0:0:0:0:
64,192,92540,1,0,0:0:0:0:
64,192,92630,1,0,0:0:0:0:
448,192,92630,1,0,0:0:0:0:
320,192,92718,1,0,0:0:0:0:
192,192,92718,1,0,0:0:0:0:
192,192,92806,1,0,0:0:0:0:
320,192,92806,1,0,0:0:0:0:
64,192,92895,1,0,0:0:0:0:
320,192,92895,1,0,0:0:0:0:
448,192,92895,1,0,0:0:0:0:
192,192,92984,1,0,0:0:0:0:
64,192,92984,1,0,0:0:0:0:
448,192,93072,1,0,0:0:0:0:
320,192,93072,1,0,0:0:0:0:
448,192,93160,1,0,0:0:0:0:
64,192,93160,1,0,0:0:0:0:
320,192,93250,1,0,0:0:0:0:
448,192,93250,1,0,0:0:0:0:
192,192,93250,1,0,0:0:0:0:
192,192,93338,1,0,0:0:0:0:
64,192,93338,1,0,0:0:0:0:
448,192,93426,1,0,0:0:0:0:
64,192,93426,1,0,0:0:0:0:
320,192,93515,1,0,0:0:0:0:
192,192,93515,1,0,0:0:0:0:
320,192,93604,1,0,0:0:0:0:
192,192,93604,1,0,0:0:0:0:
64,192,93604,1,0,0:0:0:0:
448,192,93692,1,0,0:0:0:0:
64,192,93692,1,0,0:0:0:0:
320,192,93781,1,0,0:0:0:0:
448,192,93781,1,0,0:0:0:0:
192,192,93870,1,0,0:0:0:0:
64,192,93870,1,0,0:0:0:0:
192,192,93958,1,0,0:0:0:0:
320,192,93958,1,0,0:0:0:0:
64,192,93958,1,0,0:0:0:0:
448,192,94047,1,0,0:0:0:0:
64,192,94047,1,0,0:0:0:0:
448,192,94135,1,0,0:0:0:0:
320,192,94135,1,0,0:0:0:0:
192,192,94224,1,0,0:0:0:0:
448,192,94224,1,0,0:0:0:0:
64,192,94312,1,0,0:0:0:0:
192,192,94312,1,0,0:0:0:0:
320,192,94312,1,0,0:0:0:0:
64,192,94401,1,0,0:0:0:0:
448,192,94401,1,0,0:0:0:0:
64,192,94490,1,0,0:0:0:0:
320,192,94490,1,0,0:0:0:0:
192,192,94578,1,0,0:0:0:0:
320,192,94578,1,0,0:0:0:0:
192,192,94667,1,0,0:0:0:0:
448,192,94667,1,0,0:0:0:0:
64,192,94667,1,0,0:0:0:0:
320,192,94755,1,0,0:0:0:0:
448,192,94755,1,0,0:0:0:0:
192,192,94844,1,0,0:0:0:0:
64,192,94844,1,0,0:0:0:0:
448,192,94844,1,0,0:0:0:0:
64,192,94933,1,0,0:0:0:0:
192,192,95021,1,0,0:0:0:0:
320,192,95021,1,0,0:0:0:0:
448,192,95021,1,0,0:0:0:0:
320,192,95110,1,0,0:0:0:0:
64,192,95199,1,0,0:0:0:0:
448,192,95199,1,0,0:0:0:0:
320,192,95287,1,0,0:0:0:0:
192,192,95287,1,0,0:0:0:0:
448,192,95375,1,0,0:0:0:0:
64,192,95375,1,0,0:0:0:0:
320,192,95375,1,0,0:0:0:0:
192,192,95464,1,0,0:0:0:0:
64,192,95464,1,0,0:0:0:0:
64,192,95553,1,0,0:0:0:0:
320,192,95553,1,0,0:0:0:0:
448,192,95553,1,0,0:0:0:0:
320,192,95641,1,0,0:0:0:0:
64,192,95730,1,0,0:0:0:0:
448,192,95730,1,0,0:0:0:0:
192,192,95730,1,0,0:0:0:0:
320,192,95819,1,0,0:0:0:0:
448,192,95819,1,0,0:0:0:0:
320,192,95907,1,0,0:0:0:0:
64,192,95907,1,0,0:0:0:0:
64,192,95995,1,0,0:0:0:0:
192,192,95995,1,0,0:0:0:0:
320,192,96085,1,0,0:0:0:0:
192,192,96085,1,0,0:0:0:0:
448,192,96085,1,0,0:0:0:0:
64,192,96173,1,0,0:0:0:0:
448,192,96173,1,0,0:0:0:0:
320,192,96173,1,0,0:0:0:0:
192,192,96261,1,0,0:0:0:0:
64,192,96350,1,0,0:0:0:0:
320,192,96350,1,0,0:0:0:0:
320,192,96439,1,0,0:0:0:0:
192,192,96439,1,0,0:0:0:0:
448,192,96439,1,0,0:0:0:0:
448,192,96527,1,0,0:0:0:0:
320,192,96615,1,0,0:0:0:0:
192,192,96615,1,0,0:0:0:0:
64,192,96615,1,0,0:0:0:0:
64,192,96705,1,0,0:0:0:0:
320,192,96793,1,0,0:0:0:0:
192,192,96793,1,0,0:0:0:0:
448,192,96793,128,0,97147:0:0:0:0:
192,192,96970,1,0,0:0:0:0:
64,192,96970,1,0,0:0:0:0:
192,192,97147,1,0,0:0:0:0:
320,192,97147,1,0,0:0:0:0:
64,192,97147,128,0,97501:0:0:0:0:
448,192,97325,1,0,0:0:0:0:
320,192,97325,1,0,0:0:0:0:
192,192,97502,1,0,0:0:0:0:
320,192,97502,1,0,0:0:0:0:
448,192,97502,1,0,0:0:0:0:
448,192,97590,1,0,0:0:0:0:
320,192,97679,1,0,0:0:0:0:
192,192,97679,1,0,0:0:0:0:
64,192,97679,1,0,0:0:0:0:
64,192,97767,1,0,0:0:0:0:
192,192,97856,1,0,0:0:0:0:
320,192,97856,1,0,0:0:0:0:
448,192,97856,1,0,0:0:0:0:
320,192,97945,1,0,0:0:0:0:
448,192,97945,1,0,0:0:0:0:
192,192,98033,1,0,0:0:0:0:
64,192,98033,1,0,0:0:0:0:
320,192,98033,1,0,0:0:0:0:
192,192,98122,1,0,0:0:0:0:
64,192,98122,1,0,0:0:0:0:
64,192,98210,1,0,0:0:0:0:
320,192,98210,1,0,0:0:0:0:
448,192,98210,1,0,0:0:0:0:
64,192,98388,1,0,0:0:0:0:
320,192,98388,1,0,0:0:0:0:
448,192,98388,1,0,0:0:0:0:
192,192,98565,1,0,0:0:0:0:
64,192,98565,1,0,0:0:0:0:
448,192,98565,1,0,0:0:0:0:
448,192,98742,1,0,0:0:0:0:
320,192,98742,1,0,0:0:0:0:
192,192,98742,1,0,0:0:0:0:
64,192,98919,1,0,0:0:0:0:
448,192,98919,1,0,0:0:0:0:
320,192,98919,1,0,0:0:0:0:
64,192,99096,1,0,0:0:0:0:
320,192,99096,1,0,0:0:0:0:
448,192,99096,1,0,0:0:0:0:
192,192,99274,1,0,0:0:0:0:
64,192,99274,1,0,0:0:0:0:
320,192,99274,1,0,0:0:0:0:
192,192,99450,1,0,0:0:0:0:
448,192,99450,1,0,0:0:0:0:
320,192,99540,1,0,0:0:0:0:
64,192,99628,1,0,0:0:0:0:
192,192,99628,1,0,0:0:0:0:
448,192,99628,1,0,0:0:0:0:
64,192,99805,1,0,0:0:0:0:
192,192,99805,1,0,0:0:0:0:
448,192,99805,1,0,0:0:0:0:
320,192,99982,1,0,0:0:0:0:
448,192,99982,1,0,0:0:0:0:
192,192,99982,1,0,0:0:0:0:
64,192,100160,1,0,0:0:0:0:
320,192,100160,1,0,0:0:0:0:
192,192,100160,1,0,0:0:0:0:
64,192,100336,1,0,0:0:0:0:
192,192,100336,1,0,0:0:0:0:
448,192,100336,1,0,0:0:0:0:
192,192,100514,1,0,0:0:0:0:
64,192,100514,1,0,0:0:0:0:
448,192,100514,1,0,0:0:0:0:
320,192,100691,1,0,0:0:0:0:
448,192,100691,1,0,0:0:0:0:
64,192,100691,1,0,0:0:0:0:
192,192,100868,1,0,0:0:0:0:
64,192,100868,1,0,0:0:0:0:
448,192,100868,1,0,0:0:0:0:
64,192,101045,1,0,0:0:0:0:
320,192,101045,1,0,0:0:0:0:
192,192,101045,1,0,0:0:0:0:
320,192,101222,1,0,0:0:0:0:
192,192,101222,1,0,0:0:0:0:
64,192,101222,1,0,0:0:0:0:
192,192,101400,1,0,0:0:0:0:
320,192,101400,1,0,0:0:0:0:
448,192,101400,1,0,0:0:0:0:
320,192,101577,1,0,0:0:0:0:
64,192,101577,1,0,0:0:0:0:
448,192,101665,1,0,0:0:0:0:
192,192,101754,1,0,0:0:0:0:
320,192,101754,1,0,0:0:0:0:
64,192,101754,1,0,0:0:0:0:
64,192,101931,1,0,0:0:0:0:
320,192,101931,1,0,0:0:0:0:
192,192,101931,1,0,0:0:0:0:
64,192,102108,1,0,0:0:0:0:
320,192,102108,1,0,0:0:0:0:
448,192,102108,1,0,0:0:0:0:
192,192,102285,1,0,0:0:0:0:
64,192,102285,1,0,0:0:0:0:
448,192,102285,1,0,0:0:0:0:
64,192,102463,1,0,0:0:0:0:
192,192,102463,1,0,0:0:0:0:
320,192,102463,1,0,0:0:0:0:
448,192,102463,1,0,0:0:0:0:
