osu file format v14

[General]
AudioFilename: audio.mp3
AudioLeadIn: 0
PreviewTime: 84760
Countdown: 0
SampleSet: Normal
StackLeniency: 0.4
Mode: 0
LetterboxInBreaks: 0
WidescreenStoryboard: 0

[Editor]
DistanceSpacing: 0.1
BeatDivisor: 4
GridSize: 16
TimelineZoom: 1.8

[Metadata]
Title:Ai to Jouzai no Mori
TitleUnicode:愛と浄罪の森
Artist:Various Artists
ArtistUnicode:Various Artists
Creator:KnightC0re
Version:The Forest of Love and Purification
Source:太鼓の達人
Tags:翡翠 Hisui 森川あさひ Asahi Morikawa 塚田明日加 Asuka Tsukada taka-c 小手川拓也 Takuya Kotegawa 叶弥生 Yayoi Kano 諸岡大貴 Daiki Morooka Taiko no Tatsujin ブルーVer. Blue Version Namco Original ナムコオリジナル かたぬき Katanuki japanese rhythm video game folk knightcore -jordan- jory
BeatmapID:2169726
BeatmapSetID:1037879

[Difficulty]
HPDrainRate:6
CircleSize:3
OverallDifficulty:8.5
ApproachRate:9.4
SliderMultiplier:2
SliderTickRate:1

[Events]
//Background and Video events
0,0,"39220608_p0 (2).jpg",0,0
//Break Periods
2,111816,112775
//Storyboard Layer 0 (Background)
//Storyboard Layer 1 (Fail)
//Storyboard Layer 2 (Pass)
//Storyboard Layer 3 (Foreground)
//Storyboard Layer 4 (Overlay)
//Storyboard Sound Samples

[TimingPoints]
-1093,283.018867924528,6,1,1,20,1,0
322,-200,6,1,1,20,0,0
605,-66.6666666666667,6,1,2,40,0,0
1171,-133.333333333333,6,1,3,40,0,0
1595,-133.333333333333,6,1,4,40,0,0
1878,-133.333333333333,6,1,3,40,0,0
2161,-133.333333333333,6,1,4,40,0,0
2303,-66.6666666666667,6,1,2,40,0,0
2869,-100,6,1,3,40,0,0
3152,-133.333333333333,6,1,4,40,0,0
4001,-66.6666666666667,6,1,2,40,0,0
4567,-133.333333333333,6,1,3,40,0,0
4991,-133.333333333333,6,1,4,40,0,0
5274,-133.333333333333,6,1,3,40,0,0
5557,-133.333333333333,6,1,4,40,0,0
5699,-133.333333333333,6,1,2,40,0,0
5840,-133.333333333333,6,1,3,40,0,0
5982,-133.333333333333,6,1,4,40,0,0
6123,-100,6,1,2,40,0,0
6264,-100,6,1,3,40,0,0
6406,-100,6,1,4,40,0,0
6548,-100,6,1,2,40,0,0
6831,-133.333333333333,6,1,3,45,0,0
7114,-133.333333333333,6,1,4,50,0,0
7397,-66.6666666666667,6,1,5,50,0,0
7538,-66.6666666666667,6,1,5,20,0,0
10227,-66.6666666666667,6,1,3,35,0,0
10510,-66.6666666666667,6,1,4,35,0,0
10793,-66.6666666666667,6,1,5,35,0,0
10934,-66.6666666666667,6,1,5,20,0,0
12350,-66.6666666666667,6,1,2,35,0,0
12632,-66.6666666666667,6,1,2,20,0,0
13340,-66.6666666666667,6,1,3,35,0,0
13623,-66.6666666666667,6,1,1,35,0,0
13906,-66.6666666666667,6,1,2,35,0,0
14190,-66.6666666666667,6,1,1,40,0,0
14331,-66.6666666666667,6,1,2,40,0,0
14614,-133.333333333333,6,1,2,40,0,0
15039,-66.6666666666667,6,1,2,40,0,0
15463,-133.333333333333,6,1,3,40,0,0
15605,-133.333333333333,6,1,1,40,0,0
15746,-133.333333333333,6,1,3,40,0,0
15888,-66.6666666666667,6,1,2,40,0,0
16312,-133.333333333333,6,1,2,40,0,0
17161,-133.333333333333,6,1,3,40,0,0
17303,-200,6,1,4,40,0,0
17515,-200,6,1,4,5,0,0
17586,-66.6666666666667,6,1,1,40,0,0
18010,-133.333333333333,6,1,1,40,0,0
18435,-66.6666666666667,6,1,1,40,0,0
18576,-66.6666666666667,6,1,2,40,0,0
18859,-133.333333333333,6,1,3,40,0,0
19001,-133.333333333333,6,1,1,40,0,0
19142,-133.333333333333,6,1,3,40,0,0
19284,-66.6666666666667,6,1,4,40,0,0
19425,-66.6666666666667,6,1,2,40,0,0
19708,-133.333333333333,6,1,4,40,0,0
19850,-133.333333333333,6,1,1,40,0,0
19991,-133.333333333333,6,1,4,40,0,0
20133,-100,6,1,2,40,0,0
20274,-100,6,1,3,40,0,0
20557,-100,6,1,2,40,0,0
20982,275.229357798165,6,1,1,40,1,0
21394,-200,6,1,2,35,0,0
24284,-133.333333333333,6,1,5,35,0,0
24697,-133.333333333333,6,1,2,35,0,0
24835,-200,6,1,2,35,0,0
26944,-200,6,1,1,35,0,0
27037,-133.333333333333,6,1,1,35,0,0
27312,-100,6,1,2,35,0,0
27587,-100,6,1,5,35,0,0
28000,-200,6,1,2,35,0,0
30890,-200,6,1,5,35,0,0
31165,-200,6,1,2,35,0,0
32541,-200,6,1,1,35,0,0
32816,-133.333333333333,6,1,1,40,0,0
33092,-100,6,1,1,45,0,0
33367,-200,6,1,1,50,0,0
34193,-100,6,1,1,50,0,0
35086,-100,6,1,1,5,0,0
35156,-100,6,1,1,50,0,0
35431,-133.333333333333,6,1,1,50,0,0
35637,-133.333333333333,6,1,1,5,0,0
35706,-133.333333333333,6,1,1,50,0,0
35844,-100,6,1,1,50,0,0
35912,-100,6,1,1,5,0,0
35981,-100,6,1,1,50,0,0
36257,-133.333333333333,6,1,1,50,0,0
36463,-133.333333333333,6,1,1,5,0,0
36532,-133.333333333333,6,1,1,50,0,0
36670,-100,6,1,1,50,0,0
36876,-100,6,1,1,5,0,0
36945,-100,6,1,1,50,0,0
37220,-100,6,1,2,50,0,0
37495,-100,6,1,5,50,0,0
37908,-133.333333333333,6,1,1,50,0,0
38114,-133.333333333333,6,1,1,5,0,0
38183,-133.333333333333,6,1,1,50,0,0
38321,-100,6,1,1,50,0,0
38389,-100,6,1,1,5,0,0
38459,-100,6,1,1,50,0,0
38734,-133.333333333333,6,1,1,50,0,0
38940,-133.333333333333,6,1,1,5,0,0
39009,-133.333333333333,6,1,1,50,0,0
39147,-100,6,1,1,50,0,0
39215,-100,6,1,1,5,0,0
39284,-100,6,1,1,50,0,0
39559,-133.333333333333,6,1,1,50,0,0
39765,-133.333333333333,6,1,1,5,0,0
39835,-133.333333333333,6,1,1,50,0,0
40798,-100,6,1,5,50,0,0
41073,-100,6,1,1,50,0,0
41692,-100,6,1,1,5,0,0
41761,-100,6,1,1,50,0,0
42037,-133.333333333333,6,1,2,50,0,0
42243,-133.333333333333,6,1,2,5,0,0
42312,-133.333333333333,6,1,1,50,0,0
42449,-100,6,1,1,50,0,0
42517,-100,6,1,1,5,0,0
42587,-100,6,1,1,50,0,0
42862,-133.333333333333,6,1,1,50,0,0
43068,-133.333333333333,6,1,1,5,0,0
43137,-133.333333333333,6,1,1,50,0,0
43275,-100,6,1,1,50,0,0
43481,-100,6,1,1,5,0,0
43550,-100,6,1,2,50,0,0
44101,-100,6,1,5,50,0,0
44514,-133.333333333333,6,1,1,50,0,0
44720,-133.333333333333,6,1,1,5,0,0
44789,-133.333333333333,6,1,1,50,0,0
44926,-100,6,1,1,50,0,0
44994,-100,6,1,1,5,0,0
45064,-100,6,1,1,50,0,0
45339,-133.333333333333,6,1,1,50,0,0
45546,-133.333333333333,6,1,1,5,0,0
45615,-133.333333333333,6,1,1,50,0,0
46165,-100,6,1,1,50,0,0
46578,-200,6,1,1,50,0,0
47404,285.714285714286,5,1,10,50,1,0
47404,-50,5,1,10,50,0,0
47475,-50,5,1,10,5,0,0
47689,-50,5,1,1,25,0,0
47832,-50,5,1,10,50,0,0
47903,-50,5,1,10,5,0,0
48118,-50,5,1,1,25,0,0
48261,-50,5,1,2,25,0,0
48404,-50,5,1,1,25,0,0
48689,-50,5,1,2,25,0,0
48832,-50,5,1,10,35,0,0
49118,-50,5,1,1,25,0,0
49261,-50,5,1,10,50,0,0
49332,-50,5,1,10,5,0,0
49546,-50,5,1,1,25,0,0
49689,-50,5,1,10,50,0,0
49760,-50,5,1,10,5,0,0
49832,-50,5,1,1,25,0,0
50261,-50,5,1,10,50,0,0
50332,-50,5,1,10,5,0,0
50546,-50,5,1,1,25,0,0
50689,-50,5,1,10,50,0,0
50760,-50,5,1,10,5,0,0
50975,-50,5,1,1,25,0,0
51118,-50,5,1,2,25,0,0
51261,-50,5,1,1,25,0,0
51547,-50,5,1,2,25,0,0
51689,-50,5,1,10,35,0,0
51975,-50,5,1,1,25,0,0
52118,-66.6666666666667,5,1,10,50,0,0
52261,-50,5,1,1,25,0,0
52546,-50,5,1,10,50,0,0
52617,-50,5,1,1,25,0,0
52832,-50,5,1,10,25,0,0
53118,-50,5,1,10,50,0,0
53189,-50,5,1,10,5,0,0
53404,-50,5,1,1,25,0,0
53546,-50,5,1,10,50,0,0
53617,-50,5,1,10,5,0,0
53832,-50,5,1,1,25,0,0
53975,-50,5,1,2,25,0,0
54118,-50,5,1,1,25,0,0
54404,-50,5,1,2,25,0,0
54546,-50,5,1,10,35,0,0
54832,-50,5,1,1,25,0,0
54975,-66.6666666666667,5,1,10,50,0,0
55118,-50,5,1,1,25,0,0
55404,-50,5,1,10,50,0,0
55475,-50,5,1,1,25,0,0
55689,-50,5,1,10,25,0,0
55975,-50,5,1,10,50,0,0
56046,-50,5,1,10,5,0,0
56261,-50,5,1,1,25,0,0
56404,-50,5,1,10,50,0,0
56475,-50,5,1,10,5,0,0
56689,-50,5,1,1,25,0,0
56832,-50,5,1,2,25,0,0
56975,-50,5,1,1,25,0,0
57261,-50,5,1,2,25,0,0
57404,-50,5,1,10,35,0,0
57689,-50,5,1,1,25,0,0
57832,-50,5,1,10,50,0,0
57903,-50,5,1,10,5,0,0
58118,-50,5,1,1,25,0,0
58261,-50,5,1,10,50,0,0
58332,-50,5,1,10,25,0,0
58404,-50,5,1,1,25,0,0
58832,294.117647058824,6,1,1,50,1,0
59126,-100,6,1,2,25,0,0
60596,294.117647058824,7,1,10,35,1,0
60890,-100,7,1,2,25,0,0
61478,-100,7,1,10,35,0,0
61772,-100,7,1,2,25,0,0
62066,-100,7,1,10,35,0,0
62213,-100,7,1,2,25,0,0
62360,-200,7,1,2,25,0,0
62654,294.117647058824,6,1,10,35,1,0
62948,-100,6,1,2,25,0,0
64418,294.117647058824,7,1,10,35,1,0
64712,-100,7,1,2,25,0,0
65300,-100,7,1,10,35,0,0
65594,-100,7,1,2,25,0,0
65888,-100,7,1,10,35,0,0
66035,-100,7,1,2,25,0,0
66182,-133.333333333333,7,1,2,25,0,0
66476,285.714285714286,3,1,10,60,1,1
66476,-66.6666666666667,3,1,10,60,0,1
66690,-66.6666666666667,3,1,10,5,0,1
66761,-66.6666666666667,3,1,1,60,0,1
67333,-66.6666666666667,3,1,2,60,0,1
67619,-66.6666666666667,3,1,1,60,0,1
68190,-66.6666666666667,3,1,2,60,0,1
68404,-66.6666666666667,3,1,2,5,0,1
68476,-66.6666666666667,3,1,1,60,0,1
69047,285.714285714286,4,1,2,60,1,1
69332,-100,4,1,1,60,0,1
69904,-200,4,1,1,60,0,1
70118,-200,4,1,1,5,0,1
70190,285.714285714286,3,1,10,60,1,1
70190,-66.6666666666667,3,1,10,60,0,1
70404,-66.6666666666667,3,1,10,5,0,1
70475,-66.6666666666667,3,1,1,60,0,1
71047,-66.6666666666667,3,1,2,60,0,1
71332,-66.6666666666667,3,1,1,60,0,1
71904,-66.6666666666667,3,1,2,60,0,1
72118,-66.6666666666667,3,1,2,5,0,1
72190,-133.333333333333,3,1,1,60,0,1
72332,-66.6666666666667,3,1,1,60,0,1
72761,285.714285714286,4,1,2,60,1,1
73046,-100,4,1,1,60,0,1
73904,285.714285714286,3,1,10,60,1,1
73904,-66.6666666666667,3,1,10,60,0,1
74118,-66.6666666666667,3,1,10,5,0,1
74189,-66.6666666666667,3,1,1,60,0,1
74761,-66.6666666666667,3,1,2,60,0,1
75046,-66.6666666666667,3,1,1,60,0,1
75618,-66.6666666666667,3,1,2,60,0,1
75904,-66.6666666666667,3,1,1,60,0,1
76475,285.714285714286,4,1,2,60,1,1
76760,-100,4,1,1,60,0,1
77618,285.714285714286,3,1,10,60,1,1
77618,-66.6666666666667,3,1,10,60,0,1
77903,-66.6666666666667,3,1,1,60,0,1
78475,-66.6666666666667,3,1,2,60,0,1
78760,-66.6666666666667,3,1,1,60,0,1
79332,-66.6666666666667,3,1,2,60,0,1
79618,-133.333333333333,3,1,1,60,0,1
79760,-66.6666666666667,3,1,1,60,0,1
80189,285.714285714286,4,1,10,60,1,1
80189,-80,4,1,10,60,0,1
80760,-66.6666666666667,4,1,10,60,0,1
81332,285.714285714286,6,1,10,60,1,0
81760,-100,6,1,4,30,0,0
82189,-100,6,1,3,30,0,0
82474,-100,6,1,4,30,0,0
83046,-100,6,1,3,30,0,0
83474,-100,6,1,4,30,0,0
83903,-133.333333333333,6,1,1,10,0,0
84189,-100,6,1,1,25,0,0
84474,-66.6666666666667,6,1,1,40,0,0
84760,-133.333333333333,6,1,10,60,0,1
85117,-133.333333333333,6,1,10,5,0,1
85189,-66.6666666666667,6,1,10,60,0,1
85617,-100,6,1,10,60,0,1
86046,-133.333333333333,6,1,10,60,0,1
86403,-133.333333333333,6,1,10,5,0,1
86474,-133.333333333333,6,1,10,60,0,1
86831,-133.333333333333,6,1,10,5,0,1
86903,-66.6666666666667,6,1,10,60,0,1
87760,-133.333333333333,6,1,10,60,0,1
88046,-133.333333333333,6,1,6,60,0,1
88189,-100,6,1,10,60,0,1
88546,-100,6,1,10,5,0,1
88617,-66.6666666666667,6,1,10,60,0,1
89046,-100,6,1,10,60,0,1
89403,-100,6,1,10,5,0,1
89474,-133.333333333333,6,1,10,60,0,1
89903,-100,6,1,10,60,0,1
90045,-100,6,1,2,60,0,1
90474,-100,6,1,10,60,0,1
90903,-100,6,1,6,60,0,1
91617,-200,6,1,1,40,0,0
92046,-200,6,1,4,40,0,0
92474,-133.333333333333,6,1,3,40,0,0
93332,-200,6,1,1,40,0,0
93546,-200,6,1,1,5,0,0
93617,-133.333333333333,6,1,1,40,0,0
93759,-133.333333333333,6,1,3,40,0,0
94189,-133.333333333333,6,1,2,40,0,0
94474,-133.333333333333,6,1,2,50,0,0
95046,-200,6,1,2,40,0,0
95474,-200,6,1,4,40,0,0
95617,-133.333333333333,6,1,4,40,0,0
95903,-133.333333333333,6,1,3,40,0,0
96045,-133.333333333333,6,1,1,40,0,0
96189,-200,6,1,1,40,0,0
96331,-200,6,1,2,40,0,0
96474,-100,6,1,2,40,0,0
96760,-100,6,1,10,40,0,0
97046,-100,6,1,10,50,0,0
97688,-100,6,1,6,50,0,0
97902,-100,6,1,10,50,0,0
98046,-100,6,1,6,50,0,0
98189,-100,6,1,10,50,0,0
98474,-133.333333333333,6,1,10,60,0,1
98831,-133.333333333333,6,1,10,5,0,1
98903,-66.6666666666667,6,1,10,60,0,1
99332,-133.333333333333,6,1,10,60,0,1
99689,-133.333333333333,6,1,10,5,0,1
99760,-100,6,1,10,60,0,1
100117,-100,6,1,10,5,0,1
100189,-100,6,1,10,60,0,1
100546,-100,6,1,10,5,0,1
100617,-66.6666666666667,6,1,10,60,0,1
101046,-100,6,1,10,60,0,1
101474,-133.333333333333,6,1,10,60,0,1
101760,-133.333333333333,6,1,6,60,0,1
101903,-100,6,1,10,60,0,1
102260,-100,6,1,10,5,0,1
102332,-66.6666666666667,6,1,10,60,0,1
102760,-100,6,1,10,60,0,1
103189,-133.333333333333,6,1,10,60,0,1
103617,-100,6,1,10,60,0,1
104046,-100,6,1,1,60,0,1
104332,-100,6,1,6,60,0,1
104474,-100,6,1,10,60,0,1
104760,-100,6,1,6,60,0,1
105046,-100,6,1,1,60,0,0
105189,-100,6,1,6,60,0,0
105332,-100,6,1,10,60,0,1
105367,-100,6,1,10,60,0,0
106046,-100,6,1,4,40,0,0
106189,-200,6,1,4,40,0,0
106760,-200,6,1,2,40,0,0
107046,-200,6,1,10,60,0,1
107082,-200,6,1,10,60,0,0
107617,-200,6,1,1,40,0,0
107903,-200,6,1,2,40,0,0
108189,-200,6,1,3,40,0,0
108474,285.714285714286,6,1,10,60,1,1
108474,-200,6,1,10,60,0,1
108509,-200,6,1,1,60,0,0
108759,-200,6,1,1,40,0,0
109188,-200,6,1,4,40,0,0
109331,-200,6,1,1,40,0,0
109616,-200,6,1,3,40,0,0
110188,-133.333333333333,6,1,10,40,0,1
110224,-133.333333333333,6,1,1,40,0,0
110616,-133.333333333333,6,1,10,45,0,0
111045,-66.6666666666667,6,1,10,50,0,1
111081,-66.6666666666667,6,1,1,50,0,0
111259,-66.6666666666667,6,1,1,5,0,0
111331,-50,6,1,10,60,0,1
111366,-50,6,1,1,60,0,0
111545,-50,6,1,1,5,0,0
111616,424.929178470255,4,1,1,70,1,1
111669,-100,4,1,1,70,0,0
113315,375.351892399124,3,1,5,40,1,0
113315,-200,3,1,5,40,0,0
114441,412.62636682484,3,1,5,40,1,0
114441,-200,3,1,5,40,0,0
114956,-200,3,1,1,40,0,0
115472,418.702023726448,3,1,5,40,1,0
115472,-200,3,1,5,40,0,0
116518,-200,3,1,1,40,0,0
117565,572.464459498139,4,1,5,40,1,0
117565,-200,4,1,5,40,0,0
118709,635.997456010176,4,1,5,40,1,0
118709,-400,4,1,5,40,0,0
119980,303.030303030303,4,1,1,30,1,0
119980,-200,4,1,1,30,0,0
120055,-200,4,1,1,20,0,0
120586,-200,4,1,1,30,0,0
120661,-200,4,1,1,20,0,0
121192,291.26213592233,4,1,1,40,1,0
121192,-133.333333333333,4,1,1,40,0,0
121264,-133.333333333333,4,1,1,20,0,0
122357,284.36018957346,4,1,10,50,1,0
122428,-100,4,1,1,20,0,0
122641,-100,4,1,1,25,0,0
122925,-80,4,1,10,60,0,0
122996,-80,4,1,1,30,0,0
123210,-80,4,1,1,35,0,0
123494,-80,4,1,10,70,0,0

[Colours]
Combo1 : 128,128,64
Combo2 : 0,128,64
Combo3 : 0,128,0
Combo4 : 215,215,0

[HitObjects]
2,359,322,6,0,L|0:384,3,25,0|0|0|0,3:0|3:0|3:0|3:0,1:0:0:0:
0,348,605,6,0,P|94:311|128:243,2,150.000005722046,14|8|8,1:3|1:3|1:3,1:0:0:0:
345,326,1171,2,0,P|310:311|273:306,1,75.0000028610231,8|8,1:3|1:3,1:0:0:0:
190,318,1454,1,8,1:3:0:0:
241,383,1595,5,8,1:3:0:0:
344,334,1878,5,8,1:3:0:0:
451,372,2161,5,8,1:3:0:0:
338,340,2303,2,0,P|290:284|300:212,1,150.000005722046,10|8,1:3|1:3,1:0:0:0:
314,207,2515,1,8,1:3:0:0:
328,205,2586,1,8,1:3:0:0:
0,149,2869,6,0,P|49:141|93:118,1,100,8|8,1:3|1:3,1:0:0:0:
171,205,3152,2,0,P|207:210|241:227,1,75.0000028610231,8|8,1:3|1:3,1:0:0:0:
378,258,3576,5,8,1:3:0:0:
378,258,3859,5,8,1:3:0:0:
502,216,4001,2,0,P|487:142|488:67,1,150.000005722046,10|8,1:3|1:3,1:0:0:0:
499,57,4213,1,8,1:3:0:0:
512,49,4284,1,8,1:3:0:0:
331,118,4567,6,0,P|368:121|403:133,2,75.0000028610231,8|8|8,1:3|1:3|1:3,1:0:0:0:
221,175,4991,5,8,1:3:0:0:
227,52,5274,5,8,1:3:0:0:
226,183,5557,5,8,1:3:0:0:
135,236,5699,2,0,P|155:267|166:302,2,75.0000028610231,10|8|8,1:3|1:3|1:3,1:0:0:0:
319,212,6123,2,0,P|322:262|311:311,2,100,10|8|8,1:3|1:3|1:3,1:0:0:0:
490,283,6548,6,0,L|494:332,3,50,10|8|8|8,1:3|1:3|1:3|1:3,1:0:0:0:
409,339,6831,2,0,L|405:376,1,37.5000014305115,8|8,1:3|1:3,1:0:0:0:
347,273,6973,1,10,1:3:0:0:
320,264,7044,1,8,1:3:0:0:
292,266,7114,1,8,1:3:0:0:
268,281,7185,1,8,1:3:0:0:
252,304,7256,1,8,1:3:0:0:
247,331,7327,1,8,1:3:0:0:
255,359,7397,6,0,L|255:188,1,150.000005722046,2|0,1:2|1:0,1:0:0:0:
0,34,10227,5,8,1:3:0:0:
256,131,10510,1,8,1:3:0:0:
79,294,10793,2,0,L|105:146,1,150.000005722046,2|0,3:2|1:0,1:0:0:0:
453,284,12350,5,10,1:3:0:0:
443,289,12421,1,8,1:3:0:0:
433,294,12491,2,0,L|406:146,1,150.000005722046,10|0,1:3|1:0,1:0:0:0:
419,112,13340,5,8,1:3:0:0:
436,198,13482,1,8,1:3:0:0:
318,185,13623,5,0,3:0:0:0:
313,250,13765,1,0,3:0:0:0:
194,197,13906,5,10,1:3:0:0:
179,238,14048,1,10,1:3:0:0:
38,300,14190,6,0,P|110:311|151:371,1,150.000005722046,4|2,1:2|1:2,1:0:0:0:
156,378,14614,2,0,P|198:317|184:245,1,150.000005722046,2|0,2:3|2:0,1:0:0:0:
81,162,15039,6,0,P|153:155|199:98,1,150.000005722046,0|2,2:0|1:2,1:0:0:0:
197,90,15463,2,0,P|178:192|179:247,1,150.000005722046,10|8,1:3|1:3,1:0:0:0:
295,341,15888,6,0,P|268:273|298:206,1,150.000005722046,8|2,1:3|1:2,1:0:0:0:
306,203,16312,2,0,P|389:210|464:203,1,150.000005722046,10|8,1:3|1:3,1:0:0:0:
512,144,16737,1,2,1:2:0:0:
311,4,16878,5,2,2:3:0:0:
212,119,17020,1,10,1:3:0:0:
299,194,17161,1,10,1:3:0:0:
248,263,17303,2,0,L|261:336,1,75,8|0,1:3|1:0,1:0:0:0:
398,378,17586,6,0,P|338:334|265:343,1,150.000005722046,4|0,1:2|1:0,1:0:0:0:
263,350,18010,2,0,L|113:336,1,150.000005722046,2|0,2:3|2:0,1:0:0:0:
0,258,18435,6,0,P|45:200|121:196,1,150.000005722046,0|2,2:0|1:2,1:0:0:0:
123,201,18859,2,0,L|289:186,1,150.000005722046,10|8,1:3|1:3,1:0:0:0:
417,131,19284,6,0,P|377:70|305:64,1,150.000005722046,8|2,1:3|1:2,1:0:0:0:
301,70,19708,2,0,P|227:67|141:50,1,150.000005722046,10|10,1:3|1:3,1:0:0:0:
0,24,20133,6,0,P|49:19|95:0,2,100,2|8|8,1:2|1:3|1:3,1:0:0:0:
176,156,20557,2,0,P|155:110|149:61,1,100,10|0,1:3|2:0,1:0:0:0:
117,223,20840,1,10,1:3:0:0:
256,0,20982,5,4,1:3:0:0:
364,88,21394,6,0,L|355:137,2,50,2|0|2,1:0|1:0|1:0,1:0:0:0:
397,208,21807,1,2,1:3:0:0:
115,208,22174,6,0,L|120:240,2,33.3333333333333,8|8|2,1:2|1:2|1:3,1:0:0:0:
156,137,22495,1,0,1:0:0:0:
104,31,22633,1,2,1:3:0:0:
408,31,22908,5,2,1:3:0:0:
414,38,23046,1,2,1:0:0:0:
345,87,23183,1,2,1:3:0:0:
308,164,23321,1,2,1:0:0:0:
310,249,23459,1,2,1:3:0:0:
72,384,23734,6,0,L|66:351,2,33.3333333333333,2|2|2,1:3|1:3|1:3,1:0:0:0:
121,288,24009,2,0,L|132:256,2,33.3333333333333,2|2|2,1:0|1:3|1:3,1:0:0:0:
211,229,24284,2,0,L|217:303,1,75.0000028610231,8|0,1:3|1:0,1:0:0:0:
372,181,24697,5,2,1:0:0:0:
366,173,24835,2,0,L|374:123,1,50,0|2,1:0|1:0,1:0:0:0:
301,229,25110,1,2,1:3:0:0:
146,173,25385,5,2,1:3:0:0:
65,144,25523,1,0,1:0:0:0:
0,200,25660,1,8,1:2:0:0:
81,229,25798,1,2,1:3:0:0:
146,173,25936,1,2,1:3:0:0:
278,107,26348,5,2,1:0:0:0:
272,115,26486,2,0,L|280:164,1,50,0|2,1:0|2:1,1:0:0:0:
268,167,26693,1,2,2:3:0:0:
255,171,26761,6,0,P|242:180|232:194,2,33.3333333333333,2|0|2,1:2|1:0|1:3,1:0:0:0:
163,107,27037,2,0,P|146:126|137:149,2,50.0000019073487,2|2|2,1:3|1:3|1:3,1:0:0:0:
57,69,27312,2,0,P|43:99|39:132,2,66.6666666666667,2|2|2,1:0|1:3|1:3,1:0:0:0:
0,0,27587,1,8,1:3:0:0:
348,49,28000,6,0,L|356:0,2,50,2|0|2,1:0|1:0|1:0,1:0:0:0:
256,135,28413,5,0,1:0:0:0:
247,140,28504,2,0,P|230:137|215:130,1,33.3333333333333,2|2,1:3|1:3,1:0:0:0:
112,76,28688,1,0,1:2:0:0:
136,119,28780,1,2,1:3:0:0:
141,160,28871,1,2,1:3:0:0:
125,189,28963,1,8,1:2:0:0:
113,211,29055,1,2,1:3:0:0:
110,227,29147,1,2,1:3:0:0:
113,236,29238,1,2,1:3:0:0:
399,236,29514,5,2,1:3:0:0:
414,326,29651,1,2,1:0:0:0:
299,384,29789,1,2,1:3:0:0:
306,339,29926,1,2,1:0:0:0:
341,367,30064,1,2,1:3:0:0:
171,367,30339,5,2,1:3:0:0:
156,343,30431,1,2,1:3:0:0:
160,309,30523,1,2,1:3:0:0:
181,272,30615,1,2,1:0:0:0:
215,236,30706,1,2,1:3:0:0:
233,181,30798,1,2,1:3:0:0:
214,117,30890,6,0,P|169:95|120:101,1,100,8|2,1:3|1:3,1:0:0:0:
32,145,31303,2,0,P|79:133|114:97,1,100,2|2,1:3|1:0,1:0:0:0:
298,151,31715,6,0,P|343:129|392:135,1,100,2|0,1:3|1:0,1:0:0:0:
479,84,32128,2,0,P|444:120|396:131,1,100,2|2,1:3|1:0,1:0:0:0:
166,48,32541,6,0,P|191:53|214:63,1,50,2|0,1:2|1:0,1:0:0:0:
59,178,32816,2,0,P|85:151|121:145,1,75.0000028610231,10|8,1:3|1:3,1:0:0:0:
151,341,33092,2,0,P|117:303|138:261,1,100,10|8,1:3|1:3,1:0:0:0:
318,360,33367,6,0,L|315:384,3,25,10|10|10|10,1:3|1:3|1:3|1:3,1:0:0:0:
295,268,33642,1,10,1:3:0:0:
380,292,33780,1,10,1:3:0:0:
512,104,33917,1,8,1:3:0:0:
427,128,34055,1,10,1:3:0:0:
256,27,34193,6,0,P|322:48|323:165,2,200,4|2|2,1:2|1:3|1:3,1:0:0:0:
33,272,35018,6,0,P|22:250|22:223,1,50,10|0,1:3|1:0,1:0:0:0:
51,140,35156,1,0,1:0:0:0:
28,284,35431,6,0,P|75:272|135:306,1,112.500004291535,2|0,1:3|1:0,1:0:0:0:
18,278,35706,1,2,1:3:0:0:
215,351,35844,6,0,P|236:339|252:320,1,50,8|0,1:3|1:0,1:0:0:0:
265,234,35981,1,0,1:0:0:0:
205,354,36257,6,0,P|260:354|310:379,1,112.500004291535,10|0,1:3|1:0,1:0:0:0:
196,352,36532,1,10,1:3:0:0:
436,333,36670,6,0,P|475:293|455:183,1,150,8|0,1:3|1:0,1:0:0:0:
369,124,36945,1,10,1:3:0:0:
357,128,37037,1,2,1:3:0:0:
331,128,37128,1,2,1:3:0:0:
294,114,37220,1,2,1:3:0:0:
251,83,37312,1,8,1:0:0:0:
185,74,37404,1,8,1:0:0:0:
116,114,37495,6,0,P|91:159|92:214,1,100,8|0,1:3|1:0,1:0:0:0:
108,106,37908,6,0,P|163:104|210:74,1,112.500004291535,10|0,1:3|1:0,1:0:0:0:
96,107,38183,1,10,1:3:0:0:
303,10,38321,6,0,P|328:14|349:25,1,50,8|0,1:3|1:0,1:0:0:0:
417,94,38459,1,0,1:0:0:0:
296,18,38734,6,0,P|324:66|334:122,1,112.500004291535,2|0,1:3|1:0,1:0:0:0:
284,19,39009,1,2,1:3:0:0:
385,225,39147,6,0,P|409:222|432:212,1,50,8|0,1:3|1:0,1:0:0:0:
490,136,39284,1,2,1:3:0:0:
375,232,39559,6,0,P|324:207|269:197,1,112.500004291535,10|0,1:3|1:0,1:0:0:0:
390,234,39835,1,10,1:3:0:0:
153,157,39972,5,10,1:3:0:0:
153,140,40064,1,0,1:0:0:0:
151,123,40156,1,2,1:3:0:0:
147,107,40248,1,2,1:0:0:0:
191,130,40339,1,0,1:0:0:0:
217,172,40431,1,2,1:3:0:0:
261,195,40523,1,2,1:3:0:0:
263,268,40614,1,2,1:3:0:0:
228,333,40706,1,2,1:3:0:0:
156,357,40798,6,0,P|240:299|343:291,2,200,12|2|10,1:3|1:3|1:3,1:0:0:0:
37,360,41624,6,0,P|58:348|89:341,1,50,10|0,1:3|1:0,1:0:0:0:
164,359,41761,1,0,1:0:0:0:
29,363,42037,6,0,P|43:308|39:251,1,112.500004291535,2|0,1:0|1:0,1:0:0:0:
23,372,42312,1,2,1:3:0:0:
27,136,42449,6,0,P|47:150|64:170,1,50,8|0,1:3|1:0,1:0:0:0:
90,263,42587,1,0,1:0:0:0:
14,128,42862,6,0,P|63:103|119:99,1,112.500004291535,10|0,1:3|1:0,1:0:0:0:
0,136,43137,1,10,1:3:0:0:
212,161,43275,6,0,P|278:132|298:62,1,150.000005722046,10|0,1:3|1:0,1:0:0:0:
181,0,43550,1,8,1:0:0:0:
191,8,43642,1,2,1:3:0:0:
216,16,43734,1,2,1:3:0:0:
255,20,43826,1,2,1:3:0:0:
304,2,43917,1,8,1:0:0:0:
369,15,44009,1,8,1:0:0:0:
416,79,44101,6,0,P|414:129|384:177,1,100,8|0,1:3|1:0,1:0:0:0:
405,70,44514,6,0,P|351:83|295:83,1,112.500004291535,10|0,1:3|1:0,1:0:0:0:
419,67,44789,1,10,1:3:0:0:
206,115,44926,6,0,P|210:139|222:161,1,50,8|0,1:3|1:0,1:0:0:0:
290,206,45064,1,0,1:0:0:0:
214,108,45339,6,0,P|158:108|104:93,1,112.500004291535,0|0,1:0|1:0,1:0:0:0:
227,105,45615,1,10,1:3:0:0:
0,42,45752,6,0,P|19:73|24:110,2,75.0000028610231,2|2|10,1:2|1:3|1:3,1:0:0:0:
121,209,46165,2,0,P|109:257|79:297,2,100,10|10|10,1:3|1:3|1:3,1:0:0:0:
263,360,46578,6,0,L|260:384,4,25,10|8|10|8|10,1:3|1:3|1:3|1:3|1:3,1:0:0:0:
213,271,46991,5,10,1:3:0:0:
196,135,47128,1,10,1:3:0:0:
312,3,47266,1,10,1:3:0:0:
511,0,47404,6,0,P|489:44|479:93,1,100,4|0,3:2|1:0,1:0:0:0:
424,384,47689,1,0,2:0:0:0:
424,384,47832,2,0,P|401:339|391:290,1,100,8|0,3:0|1:0,1:0:0:0:
299,22,48118,5,0,2:0:0:0:
220,113,48261,1,2,1:2:0:0:
214,196,48404,1,8,1:3:0:0:
291,267,48546,1,8,1:3:0:0:
294,280,48618,1,8,1:3:0:0:
298,294,48689,1,2,1:2:0:0:
256,384,48832,5,8,3:1:0:0:
256,384,49118,1,0,2:0:0:0:
166,317,49261,6,0,P|117:326|76:354,1,100,10|0,3:0|1:0,1:0:0:0:
55,68,49546,1,0,2:0:0:0:
55,68,49689,2,0,P|96:95|144:105,1,100,10|0,3:0|1:0,1:0:0:0:
256,64,49832,5,8,1:3:0:0:
305,145,49975,1,8,1:3:0:0:
302,158,50047,1,8,1:3:0:0:
298,172,50118,1,8,1:3:0:0:
370,330,50261,6,0,P|394:287|389:238,1,100,4|0,3:2|1:0,1:0:0:0:
456,116,50546,1,0,2:0:0:0:
456,116,50689,2,0,P|433:72|389:49,1,100,8|0,3:0|1:0,1:0:0:0:
256,0,50975,5,0,2:0:0:0:
215,127,51118,1,2,1:2:0:0:
289,190,51261,1,8,1:3:0:0:
208,268,51404,1,8,1:3:0:0:
211,281,51476,1,8,1:3:0:0:
215,295,51547,1,2,1:2:0:0:
256,384,51689,5,8,3:1:0:0:
256,384,51975,1,0,2:0:0:0:
110,340,52118,6,0,P|62:285|74:213,2,150.000005722046,10|0|0,3:0|2:0|2:0,1:0:0:0:
161,129,52546,5,10,3:0:0:0:
165,115,52617,1,8,1:3:0:0:
252,82,52761,1,8,1:3:0:0:
256,96,52832,1,8,1:0:0:0:
331,148,52975,1,8,1:0:0:0:
448,99,53118,6,0,L|430:0,1,100,4|0,3:2|1:0,1:0:0:0:
512,184,53404,1,0,2:0:0:0:
512,184,53546,2,0,L|495:283,1,100,8|0,3:0|1:0,1:0:0:0:
301,358,53832,5,0,2:0:0:0:
215,276,53975,1,2,1:2:0:0:
223,194,54118,1,8,1:3:0:0:
304,116,54261,1,8,1:3:0:0:
301,103,54333,1,8,1:3:0:0:
297,89,54404,1,2,1:2:0:0:
256,0,54546,5,8,3:1:0:0:
256,0,54832,1,0,2:0:0:0:
134,33,54975,6,0,L|106:190,2,150.000005722046,10|0|0,3:0|2:0|2:0,1:0:0:0:
123,272,55404,5,10,3:0:0:0:
137,268,55475,1,8,1:3:0:0:
202,196,55618,1,8,1:3:0:0:
216,200,55689,1,8,1:0:0:0:
304,240,55832,1,8,1:0:0:0:
396,121,55975,6,0,L|378:22,1,100,4|0,3:2|1:0,1:0:0:0:
488,263,56261,1,0,2:0:0:0:
488,263,56404,2,0,L|470:361,1,100,8|0,3:0|1:0,1:0:0:0:
256,384,56689,5,0,2:0:0:0:
297,257,56832,1,2,1:2:0:0:
223,194,56975,1,8,1:3:0:0:
304,116,57118,1,8,1:3:0:0:
301,103,57190,1,8,1:3:0:0:
297,89,57261,1,2,1:2:0:0:
256,0,57404,5,8,3:1:0:0:
256,0,57689,1,0,2:0:0:0:
135,42,57832,6,0,L|36:24,1,100,10|0,3:0|1:0,1:0:0:0:
77,209,58118,1,0,2:0:0:0:
77,209,58261,2,0,L|175:191,1,100,10|0,3:0|1:0,1:0:0:0:
269,141,58404,1,8,1:3:0:0:
274,117,58475,1,8,1:3:0:0:
274,91,58546,1,8,1:3:0:0:
261,71,58618,1,8,1:3:0:0:
250,48,58689,1,8,1:3:0:0:
250,24,58761,1,8,1:3:0:0:
256,0,58832,1,4,3:2:0:0:
504,84,59126,5,2,1:0:0:0:
498,96,59199,1,2,1:0:0:0:
413,65,59420,1,2,1:0:0:0:
351,130,59567,1,2,1:0:0:0:
504,84,60008,5,8,1:0:0:0:
498,96,60081,1,8,1:0:0:0:
407,53,60229,1,8,1:0:0:0:
413,65,60302,1,8,1:0:0:0:
351,130,60449,1,8,1:0:0:0:
256,0,60596,5,2,1:3:0:0:
6,71,60890,5,2,1:0:0:0:
0,83,60963,1,2,1:0:0:0:
91,102,61111,1,2,1:0:0:0:
97,114,61184,1,2,1:0:0:0:
153,37,61331,1,2,1:0:0:0:
208,128,61478,5,2,1:3:0:0:
401,201,61772,5,8,1:0:0:0:
395,213,61845,1,8,1:0:0:0:
310,244,61993,1,8,1:0:0:0:
304,256,62066,1,2,1:3:0:0:
91,359,62213,5,2,1:0:0:0:
182,316,62360,2,0,L|179:291,3,25,2|8|8|8,1:0|1:0|1:0|1:0,1:0:0:0:
256,384,62654,5,2,1:3:0:0:
8,295,62948,5,2,1:0:0:0:
14,307,63021,1,2,1:0:0:0:
99,276,63169,1,2,1:0:0:0:
105,264,63242,1,2,1:0:0:0:
161,341,63389,1,2,1:0:0:0:
8,295,63830,5,8,1:0:0:0:
14,307,63903,1,8,1:0:0:0:
105,264,64051,1,8,1:0:0:0:
99,276,64124,1,8,1:0:0:0:
161,341,64271,1,8,1:0:0:0:
256,384,64418,5,2,1:3:0:0:
506,210,64712,5,2,1:0:0:0:
512,222,64785,1,2,1:0:0:0:
421,241,64933,1,2,1:0:0:0:
415,253,65006,1,2,1:0:0:0:
359,176,65153,1,2,1:0:0:0:
304,256,65300,5,2,1:3:0:0:
117,85,65594,5,2,1:0:0:0:
111,97,65667,1,2,1:0:0:0:
202,116,65815,1,2,1:0:0:0:
208,128,65888,1,2,1:3:0:0:
365,74,66035,5,8,1:0:0:0:
356,73,66109,1,0,1:0:0:0:
347,71,66182,2,0,P|341:52|339:34,2,37.5000014305115,8|8|8,1:0|1:0|1:0,1:0:0:0:
255,0,66476,6,0,P|311:43|211:107,1,225.000008583069,4|0,3:0|1:0,1:0:0:0:
207,96,66761,1,10,1:3:0:0:
190,89,66832,1,10,1:3:0:0:
171,87,66904,1,8,1:3:0:0:
178,267,67047,2,0,P|179:198|111:193,1,150.000005722046,10|0,1:3|1:0,1:0:0:0:
220,384,67333,6,0,P|276:316|339:320,1,150.000005722046,2|0,3:2|1:0,1:0:0:0:
442,348,67619,1,10,1:3:0:0:
437,366,67690,1,10,1:3:0:0:
435,384,67762,1,8,1:3:0:0:
512,283,67904,5,10,1:3:0:0:
471,205,68047,1,0,1:0:0:0:
252,241,68190,6,0,P|358:225|404:127,1,225.000008583069,2|0,3:2|1:0,1:0:0:0:
383,113,68476,1,10,1:3:0:0:
364,110,68547,1,10,1:3:0:0:
347,115,68618,1,8,1:3:0:0:
228,374,68761,2,0,P|274:318|260:247,1,150.000005722046,10|0,1:3|1:0,1:0:0:0:
214,75,69047,6,0,P|164:72|115:62,1,100,2|0,3:2|1:0,1:0:0:0:
21,171,69332,1,10,1:3:0:0:
45,169,69403,1,10,1:3:0:0:
70,164,69474,1,8,1:3:0:0:
243,236,69618,2,0,P|193:238|144:248,1,100,2|0,3:0|3:0,1:0:0:0:
9,345,69904,6,0,P|46:346|83:354,1,75,0|0,3:0|1:0,1:0:0:0:
0,341,70190,6,0,P|87:281|61:179,1,225.000008583069,4|0,3:0|1:0,1:0:0:0:
51,184,70475,1,10,1:3:0:0:
47,202,70546,1,10,1:3:0:0:
47,221,70617,1,8,1:3:0:0:
210,287,70761,2,0,P|280:281|299:213,1,150.000005722046,10|0,1:3|1:0,1:0:0:0:
164,154,71047,6,0,P|220:202|294:208,1,150.000005722046,2|0,3:2|1:0,1:0:0:0:
377,109,71332,1,10,1:3:0:0:
372,127,71403,1,10,1:3:0:0:
369,145,71474,1,8,1:3:0:0:
454,296,71618,5,10,1:3:0:0:
444,213,71761,1,0,1:0:0:0:
512,384,71904,6,0,P|430:310|327:349,1,225.000008583069,2|0,3:2|1:0,1:0:0:0:
332,352,72190,2,0,P|352:362|370:363,1,37.5000014305115,10|10,1:3|1:3,1:0:0:0:
289,221,72332,6,0,P|213:223|165:294,1,150.000005722046,8|10,1:3|1:3,1:0:0:0:
0,228,72618,1,0,1:0:0:0:
71,291,72761,6,0,P|94:334|101:384,1,100,2|0,3:2|1:0,1:0:0:0:
106,186,73046,1,10,1:3:0:0:
129,193,73117,1,10,1:3:0:0:
149,208,73188,1,8,1:3:0:0:
56,87,73332,5,2,3:0:0:0:
142,100,73475,1,2,3:0:0:0:
357,0,73618,5,0,3:0:0:0:
271,13,73761,1,0,3:0:0:0:
457,140,73904,6,0,P|469:37|370:10,1,225.000008583069,4|0,3:0|1:0,1:0:0:0:
363,23,74189,1,10,1:3:0:0:
361,41,74260,1,10,1:3:0:0:
364,60,74331,1,8,1:3:0:0:
463,149,74475,2,0,P|377:162|334:234,1,150.000005722046,10|0,1:3|1:0,1:0:0:0:
401,314,74761,6,0,P|409:244|345:215,1,150.000005722046,2|0,3:2|1:0,1:0:0:0:
229,265,75046,2,0,P|241:300|243:337,1,75.0000028610231,10|10,1:3|1:3,1:0:0:0:
238,352,75189,1,8,1:3:0:0:
35,318,75332,5,10,1:3:0:0:
44,231,75475,1,0,1:0:0:0:
237,269,75618,6,0,P|229:359|155:302,1,225.000008583069,2|0,3:2|1:0,1:0:0:0:
159,296,75904,2,0,P|158:256|145:224,1,75.0000028610231,10|10,1:3|1:3,1:0:0:0:
15,148,76046,1,8,1:3:0:0:
204,161,76189,2,0,P|262:117|257:45,1,150.000005722046,10|0,1:3|1:0,1:0:0:0:
151,31,76475,6,0,P|200:40|249:44,1,100,2|0,3:2|1:0,1:0:0:0:
401,87,76760,1,10,1:3:0:0:
425,82,76831,1,10,1:3:0:0:
450,80,76902,1,8,1:3:0:0:
283,175,77046,5,2,3:0:0:0:
198,167,77189,1,0,3:0:0:0:
408,318,77332,5,2,3:0:0:0:
493,310,77475,1,2,1:3:0:0:
192,383,77618,6,0,P|225:282|331:263,1,225.000008583069,4|0,3:0|1:0,1:0:0:0:
336,273,77903,1,10,1:3:0:0:
320,282,77974,1,10,1:3:0:0:
301,286,78045,1,8,1:3:0:0:
87,202,78189,2,0,P|158:190|211:239,1,150.000005722046,10|0,1:3|1:0,1:0:0:0:
42,327,78475,6,0,P|31:255|70:193,1,150.000005722046,2|0,3:2|1:0,1:0:0:0:
298,209,78760,2,0,P|271:234|235:246,1,75.0000028610231,10|10,1:3|1:3,1:0:0:0:
224,244,78903,1,8,1:3:0:0:
432,168,79046,5,10,1:3:0:0:
499,213,79189,1,0,1:0:0:0:
363,356,79332,6,0,P|370:255|454:299,1,225.000008583069,2|0,3:2|1:0,1:0:0:0:
458,299,79618,2,0,P|451:318|435:331,1,37.5000014305115,10|10,1:3|1:3,1:0:0:0:
197,273,79760,2,0,P|240:207|220:283,1,225.000008583069,8|0,1:3|1:0,1:0:0:0:
191,279,80046,1,0,1:0:0:0:
122,341,80189,6,0,P|60:347|0:364,1,125,2|0,3:0|1:0,1:0:0:0:
389,258,80474,2,0,P|451:264|512:281,1,125,2|0,3:0|1:0,1:0:0:0:
146,130,80760,6,0,P|72:123|0:103,1,150.000005722046,4|0,3:2|1:0,1:0:0:0:
365,47,81046,2,0,P|439:40|512:20,1,150.000005722046,4|0,3:2|1:0,1:0:0:0:
256,0,81332,5,4,3:0:0:0:
256,384,81760,5,8,1:3:0:0:
256,0,82189,5,8,1:3:0:0:
212,313,82474,5,8,1:3:0:0:
256,384,82617,1,8,1:3:0:0:
300,71,82903,5,8,1:3:0:0:
256,0,83046,1,8,1:3:0:0:
256,384,83474,5,8,1:3:0:0:
256,384,83617,1,8,1:3:0:0:
256,384,83903,6,0,P|255:365|246:349,3,37.5000014305115,2|2|2|2,1:2|1:2|1:2|1:2,1:0:0:0:
246,259,84189,2,0,P|227:242|204:235,3,50,2|2|2|2,1:2|1:2|1:2|1:2,1:0:0:0:
142,170,84474,2,0,P|104:171|72:189,3,75.0000028610231,2|2|2|2,1:2|1:2|1:2|1:2,1:0:0:0:
12,257,84760,6,0,P|67:179|44:89,1,187.500007152558,6|0,3:0|1:0,2:0:0:0:
0,271,85189,2,0,P|50:251|146:257,1,150.000005722046,8|0,1:0|1:0,1:0:0:0:
224,324,85474,1,8,1:0:0:0:
340,274,85617,6,0,P|262:232|233:315,1,200,2|0,3:0|1:0,1:0:0:0:
350,280,86046,2,0,P|336:172|369:86,1,187.500007152558,2|0,3:0|1:0,2:0:0:0:
421,29,86474,6,0,P|411:110|491:99,1,187.500007152558,2|0,3:0|1:0,2:0:0:0:
428,19,86903,2,0,P|355:37|280:37,1,150.000005722046,8|0,1:0|1:0,1:0:0:0:
116,91,87189,1,8,1:0:0:0:
59,151,87332,6,0,P|90:218|88:295,2,150.000005722046,2|8|8,3:0|1:0|1:0,1:0:0:0:
99,298,87760,2,0,P|134:283|171:281,1,75.0000028610231,2|0,3:0|1:0,1:0:0:0:
242,324,88046,1,8,1:3:0:0:
429,294,88189,6,0,P|332:248|324:354,1,250,6|0,3:0|1:0,2:0:0:0:
436,299,88617,2,0,P|436:193|421:135,1,150.000005722046,8|0,1:0|1:0,1:0:0:0:
347,93,88903,1,8,1:0:0:0:
475,11,89046,6,0,P|524:109|420:144,1,250,0|0,3:0|1:0,2:0:0:0:
303,27,89474,2,0,P|369:30|355:95,1,150.000005722046,0|0,3:0|1:0,1:0:0:0:
222,140,89903,6,0,P|175:122|125:124,1,100,2|2,3:0|3:1,1:0:0:0:
113,133,90117,1,2,1:0:0:0:
103,144,90189,1,2,3:1:0:0:
46,328,90332,1,2,3:1:0:0:
43,244,90474,5,10,1:3:0:0:
57,331,90617,1,10,1:3:0:0:
177,369,90760,5,0,3:0:0:0:
264,383,90903,1,8,1:3:0:0:
478,287,91046,5,8,1:3:0:0:
369,269,91189,1,0,1:0:0:0:
146,179,91332,5,10,1:3:0:0:
276,158,91475,1,10,1:3:0:0:
480,55,91617,6,0,P|451:15|403:14,1,100,2|0,1:2|1:0,1:0:0:0:
329,69,92046,1,8,1:3:0:0:
409,128,92189,1,8,1:3:0:0:
411,144,92332,1,8,1:3:0:0:
321,227,92474,6,0,P|415:249|409:152,1,225.000008583069,10|0,1:3|1:0,2:0:0:0:
282,148,93046,2,0,L|207:141,1,75.0000028610231,0|10,1:0|1:3,1:0:0:0:
72,172,93332,6,0,P|83:136|73:101,1,75,2|0,1:0|1:0,1:0:0:0:
67,94,93617,2,0,P|103:100|141:100,1,75.0000028610231,2|8,1:3|1:3,1:0:0:0:
218,173,93903,2,0,P|253:160|285:141,1,75.0000028610231,2|2,1:3|1:3,1:0:0:0:
394,91,94189,2,0,P|387:127|387:165,1,75.0000028610231,8|8,1:3|1:3,1:0:0:0:
473,270,94474,5,2,1:3:0:0:
385,251,94617,1,10,1:3:0:0:
319,288,94760,1,10,1:3:0:0:
302,345,94903,1,10,1:3:0:0:
322,384,95046,6,0,P|375:370|428:367,1,100,4|0,1:3|1:0,1:0:0:0:
213,371,95474,1,8,1:3:0:0:
213,371,95617,2,0,P|217:324|212:289,1,75.0000028610231,0|0,1:0|1:0,1:0:0:0:
57,277,95903,6,0,P|94:275|126:257,1,75.0000028610231,10|2,1:3|1:0,1:0:0:0:
202,169,96189,2,0,L|199:144,2,25,2|0|8,1:3|1:0|1:3,1:0:0:0:
211,177,96403,1,0,1:0:0:0:
219,182,96474,2,0,P|269:184|312:208,1,100,2|8,1:3|1:3,1:0:0:0:
485,157,96760,1,4,3:0:0:0:
488,174,97046,5,2,1:3:0:0:
297,87,97189,1,10,1:3:0:0:
294,104,97475,5,2,1:3:0:0:
512,25,97617,1,4,3:0:0:0:
492,26,97688,1,8,1:3:0:0:
472,28,97759,1,8,1:3:0:0:
452,30,97831,1,8,1:3:0:0:
432,31,97902,5,2,1:3:0:0:
482,140,98046,1,8,1:3:0:0:
251,277,98189,5,10,1:3:0:0:
288,195,98333,1,10,1:3:0:0:
372,383,98474,6,0,P|313:314|222:304,1,187.500007152558,4|0,3:0|1:0,2:0:0:0:
378,376,98903,2,0,P|364:302|369:227,1,150.000005722046,8|0,1:0|1:0,1:0:0:0:
417,137,99189,1,8,1:0:0:0:
245,76,99332,6,0,P|320:131|412:145,1,187.500007152558,2|0,3:0|1:0,2:0:0:0:
512,117,99760,2,0,P|452:33|409:127,1,250,2|0,3:0|1:0,2:0:0:0:
359,309,100189,6,0,P|409:252|324:292,1,250,2|0,3:0|1:0,2:0:0:0:
364,316,100617,2,0,P|290:305|220:331,1,150.000005722046,8|0,1:0|1:0,1:0:0:0:
160,384,100903,1,8,1:0:0:0:
203,224,101046,6,0,P|221:271|223:321,2,100,2|8|8,3:0|1:0|1:0,1:0:0:0:
45,220,101474,2,0,P|82:216|112:194,1,75.0000028610231,2|8,3:0|1:0,1:0:0:0:
139,116,101760,1,8,1:3:0:0:
320,211,101903,6,0,P|202:213|144:108,1,250,4|0,3:0|1:0,2:0:0:0:
147,101,102332,2,0,P|200:110|303:68,1,150.000005722046,8|0,1:0|1:0,1:0:0:0:
333,0,102617,1,8,1:0:0:0:
375,117,102760,6,0,P|327:106|291:73,2,100,0|0|0,3:0|1:0|1:0,1:0:0:0:
512,159,103189,2,0,P|475:167|448:192,2,75.0000028610231,0|0|0,3:0|1:0|1:0,1:0:0:0:
395,311,103617,6,0,P|384:263|349:227,1,100,2|8,3:0|1:0,1:0:0:0:
265,210,103903,1,8,1:0:0:0:
121,359,104046,5,0,3:0:0:0:
176,295,104189,1,2,1:3:0:0:
154,192,104332,1,8,1:3:0:0:
8,127,104474,5,2,3:0:0:0:
161,184,104617,1,0,1:0:0:0:
255,121,104760,1,8,1:3:0:0:
253,104,104831,1,8,1:3:0:0:
252,87,104902,1,8,1:3:0:0:
432,0,105046,5,2,3:0:0:0:
391,152,105189,1,8,1:3:0:0:
504,327,105332,5,6,3:0:0:0:
504,327,106046,1,8,1:3:0:0:
508,323,106117,1,8,1:3:0:0:
512,319,106189,2,0,P|460:299|414:298,1,100,8|0,1:3|1:0,1:0:0:0:
304,360,106760,5,8,1:3:0:0:
314,275,106903,1,2,1:3:0:0:
156,107,107046,5,4,3:0:0:0:
156,107,107617,2,0,L|160:156,1,50,0|2,3:0|1:3,1:0:0:0:
40,239,107903,5,8,1:3:0:0:
125,249,108046,1,8,1:3:0:0:
240,338,108189,5,8,1:3:0:0:
325,348,108332,1,8,1:3:0:0:
472,147,108474,6,0,L|446:0,1,150,4|2,3:0|1:3,2:0:0:0:
300,205,109188,1,8,1:3:0:0:
297,200,109259,1,8,1:3:0:0:
294,195,109331,5,10,1:3:0:0:
402,227,109616,1,8,1:3:0:0:
428,336,109902,1,8,1:3:0:0:
420,348,110045,1,8,1:3:0:0:
345,384,110188,6,0,P|289:354|201:342,1,150.000005722046,4|0,3:2|1:0,1:0:0:0:
103,342,110616,2,0,P|177:333|243:299,1,150.000005722046,4|0,3:2|1:0,1:0:0:0:
329,185,111045,6,0,P|312:88|221:126,1,225.000008583069,6|0,3:0|1:0,1:0:0:0:
333,279,111331,6,0,P|433:303|416:139,1,300,6|0,3:0|1:0,1:0:0:0:
157,70,111616,5,4,1:3:0:0:
512,224,113315,6,0,P|459:188|368:199,1,150,2|0,2:2|2:0,2:0:0:0:
273,165,114253,1,0,2:0:0:0:
280,156,114441,2,0,P|289:85|258:32,1,125,0|2,2:0|2:3,2:0:0:0:
163,105,115472,6,0,P|224:114|266:159,1,125,2|0,2:2|2:0,2:0:0:0:
222,248,116309,1,0,2:0:0:0:
218,241,116518,2,0,P|157:250|115:294,1,125,2|0,2:3|2:0,2:0:0:0:
6,320,117565,6,0,P|55:319|101:338,1,100,2|0,2:2|2:0,2:0:0:0:
211,356,118495,1,0,2:0:0:0:
219,352,118709,2,0,P|240:364|256:384,1,50,2|2,2:2|2:2,2:0:0:0:
323,31,119980,6,0,L|318:55,7,25,4|2|2|2|2|2|2|2,2:2|2:3|2:3|2:3|2:3|2:3|2:3|2:3,2:0:0:0:
189,112,120586,2,0,L|193:136,7,25,2|2|2|2|2|2|2|2,2:3|2:3|2:3|2:3|2:3|2:3|2:3|2:3,2:0:0:0:
323,193,121192,6,0,L|319:230,3,37.5000014305115,4|2|2|2,2:2|2:3|2:3|2:3,2:0:0:0:
308,201,121483,2,0,L|304:238,3,37.5000014305115,2|2|2|2,2:3|2:3|2:3|2:3,2:0:0:0:
189,274,121774,6,0,L|192:311,3,37.5000014305115,2|2|2|2,2:3|2:3|2:3|2:3,2:0:0:0:
204,282,122065,2,0,L|207:319,3,37.5000014305115,2|2|2|2,2:3|2:3|2:3|2:3,2:0:0:0:
320,384,122357,6,0,L|324:334,1,50,6|2,3:2|2:2,1:0:0:0:
306,373,122499,2,0,L|310:323,1,50,2|2,2:2|2:2,2:0:0:0:
192,311,122641,6,0,L|187:261,1,50,2|2,2:2|2:2,2:0:0:0:
206,300,122783,2,0,L|201:250,1,50,2|2,2:2|2:2,2:0:0:0:
319,230,122925,6,0,L|329:167,1,62.5,6|2,3:2|2:2,1:0:0:0:
301,216,123067,2,0,L|311:153,1,62.5,2|2,2:2|2:2,2:0:0:0:
192,149,123210,6,0,L|180:86,1,62.5,2|2,2:2|2:2,2:0:0:0:
210,135,123352,2,0,L|198:72,1,62.5,2|2,2:2|2:2,2:0:0:0:
256,0,123494,5,4,3:2:0:0:
