osu file format v14

[General]
AudioFilename: audio2.mp3
AudioLeadIn: 0
PreviewTime: 90658
Countdown: 0
SampleSet: Soft
StackLeniency: 0.7
Mode: 0
LetterboxInBreaks: 0
WidescreenStoryboard: 1

[Editor]
Bookmarks: 165501
DistanceSpacing: 0.1
BeatDivisor: 4
GridSize: 16
TimelineZoom: 1.1

[Metadata]
Title:AKABEi SOFT2 Nonstop Remix
TitleUnicode:あかべぇそふとつぅ Nonstop Remix
Artist:Various Artists
ArtistUnicode:Various Artists
Creator:NewRulerNA
Version:Marathon
Source:
Tags:opening ending visual novel akabee soft2 soft3 softtry try akatsuki hibiki works black applique effordom soft Syangrila smart SHOT MUSIC Katakiri Rekka Ayane NANA Kahina Satou Hiromi Sakakibara Yui Inoue Naomi
BeatmapID:957219
BeatmapSetID:445605

[Difficulty]
HPDrainRate:1
CircleSize:3.3
OverallDifficulty:7
ApproachRate:9
SliderMultiplier:1
SliderTickRate:2

[Events]
//Background and Video events
0,0,"AB2.png",0,0
//Break Periods
2,222909,256700
2,260529,284583
2,357509,378681
2,479174,518616
2,570656,582533
2,586125,676629
2,752579,777090
//Storyboard Layer 0 (Background)
//Storyboard Layer 1 (Fail)
//Storyboard Layer 2 (Pass)
//Storyboard Layer 3 (Foreground)
Sprite,Foreground,Centre,"AB2.png",320,240 F,0,-3000,0,0,1 C,0,-3000,0,255,255,255,0,0,0 S,0,0,,0.968 F,0,0,895555,1
Sprite,Foreground,Centre,"SB\BG\S01.jpg",330,240 L,0,1 F,0,-100,300,0,1 S,0,0,,0.95 F,0,119536,,1
Sprite,Foreground,Centre,"SB\BG\S02.jpg",400,240 L,118847,1 F,0,-100,300,0,1 S,0,118847,,0.63 F,0,152796,,1
Sprite,Foreground,Centre,"SB\BG\S03.jpg",400,240 L,152091,1 F,0,-100,300,0,1 F,0,177845,,1 S,0,177845,,0.8
Sprite,Foreground,Centre,"SB\BG\S04.jpg",395,240 L,177148,1 F,0,-100,300,0,1 F,0,209509,,1 S,0,209509,,0.8
Sprite,Foreground,Centre,"SB\BG\S05.jpg",395,240 L,209167,1 F,0,-100,300,0,1 F,0,237143,,1 S,0,237143,,0.8
Sprite,Foreground,Centre,"SB\BG\S06.jpg",395,240 L,236675,1 F,0,-100,300,0,1 F,0,259924,,1 S,0,259924,,0.8
Sprite,Foreground,Centre,"SB\BG\S07.jpg",390,240 L,259519,1 F,0,-100,300,0,1 F,0,285783,,1 S,0,285783,,0.8
Sprite,Foreground,Centre,"SB\BG\S08.jpg",375,240 L,285063,1 F,0,-100,300,0,1 F,0,306134,,1 S,0,306134,,0.85
Sprite,Foreground,Centre,"SB\BG\S09.jpg",375,240 L,305340,1 F,0,-100,300,0,1 F,0,381326,,1 S,0,381326,,0.85
Sprite,Foreground,Centre,"SB\BG\S10.jpg",360,240 L,379963,1 F,0,-100,300,0,1 F,0,415631,,1 S,0,415631,,0.9
Sprite,Foreground,Centre,"SB\BG\S11.jpg",370,240 L,414735,1 F,0,-100,300,0,1 F,0,438261,,1 S,0,438261,,0.9
Sprite,Foreground,Centre,"SB\BG\S12.jpg",390,240 L,437224,1 F,0,-100,300,0,1 F,0,466565,,1 S,0,466565,,0.8
Sprite,Foreground,Centre,"SB\BG\S13TB.jpg",390,240 L,465945,1 F,0,-100,300,0,1 F,0,521599,,1 S,0,521599,,0.8
Sprite,Foreground,Centre,"SB\BG\S14.jpg",390,240 L,520978,1 F,0,-100,300,0,1 F,0,551058,,1 S,0,551058,,0.8
Sprite,Foreground,Centre,"SB\BG\S15.jpg",345,240 L,550155,1 F,0,-100,300,0,1 F,0,583815,,1 S,0,583815,,0.64
Sprite,Foreground,Centre,"SB\BG\S16.jpg",360,240 L,583133,1 F,0,-100,300,0,1 F,0,641681,,1 S,0,641681,,0.7
Sprite,Foreground,Centre,"SB\BG\S17.jpg",340,240 L,641240,1 F,0,-100,300,0,1 F,0,677240,,1 S,0,677240,,0.7
Sprite,Foreground,Centre,"SB\BG\S18.jpg",400,240 L,676535,1 F,0,-100,300,0,1 S,0,676535,,0.8 F,0,713629,,1
Sprite,Foreground,Centre,"SB\BG\S19.jpg",410,240 L,713160,1 F,0,-100,300,0,1 S,0,676535,,0.64 F,0,748529,,1
Sprite,Foreground,Centre,"SB\BG\S20.jpg",385,240 L,748124,1 F,0,-100,300,0,1 F,0,777298,,1 S,0,777298,,0.64
Sprite,Foreground,Centre,"SB\BG\S21.jpg",390,240 L,776707,1 F,0,-100,300,0,1 F,0,804683,,1 S,0,804683,,0.64
Sprite,Foreground,Centre,"SB\BG\S22.jpg",580,260 L,804199,1 F,0,-100,300,0,1 S,0,804199,,0.8 F,0,865832,,1
Sprite,Foreground,Centre,"SB\BG\S23.jpg",350,240 L,865332,1 F,0,-100,300,0,1 S,0,865332,,0.68 F,0,895556,,1
Sprite,Foreground,CentreLeft,"SB\e\white.jpg",-85,240 L,-100,1 F,0,-100,300,0,1 V,0,0,,0.2,1 C,0,0,340386,0,0,255 F,0,0,895555,1
Sprite,Foreground,CentreLeft,"SB\e\ar.png",75,240 L,-100,1 F,0,-100,300,0,1 V,0,0,,0.1,1 C,0,0,340386,0,0,255 F,0,0,895555,1
Sprite,Foreground,CentreLeft,"SB\logo\AB2.png",-30,400 L,0,1 F,0,-100,300,0,1 S,0,0,,0.8 L,259526,1 F,0,-100,300,1,0
Sprite,Foreground,CentreLeft,"SB\logo\SG.png",-30,400 L,259526,1 F,0,-100,300,0,1 S,0,0,,0.8 L,285063,1 F,0,-100,300,1,0
Sprite,Foreground,CentreLeft,"SB\logo\AB2.png",-30,400 L,285063,1 F,0,-100,300,0,1 S,0,0,,0.8 L,379963,1 F,0,-100,300,1,0
Sprite,Foreground,CentreLeft,"SB\logo\AP.png",-30,400 L,379963,1 F,0,-100,300,0,1 S,0,0,,0.8 L,414935,1 F,0,-100,300,1,0
Sprite,Foreground,CentreLeft,"SB\logo\AB2.png",-30,400 L,414935,1 F,0,-100,300,0,1 S,0,0,,0.8 L,465945,1 F,0,-100,300,1,0
Sprite,Foreground,CentreLeft,"SB\logo\AW.png",-30,400 L,465945,1 F,0,-100,300,0,1 S,0,0,,0.8 L,520878,1 F,0,-100,300,1,0
Sprite,Foreground,CentreLeft,"SB\logo\SG.png",-30,400 L,520878,1 F,0,-100,300,0,1 S,0,0,,0.8 L,550455,1 F,0,-100,300,1,0
Sprite,Foreground,CentreLeft,"SB\logo\AP.png",-30,400 L,550455,1 F,0,-100,300,0,1 S,0,0,,0.8 L,583433,1 F,0,-100,300,1,0
Sprite,Foreground,CentreLeft,"SB\logo\AB3.png",-30,400 L,583433,1 F,0,-100,300,0,1 S,0,0,,0.8 L,641540,1 F,0,-100,300,1,0
Sprite,Foreground,CentreLeft,"SB\logo\SGS.png",-30,400 L,641540,1 F,0,-100,300,0,1 S,0,0,,0.6 L,676835,1 F,0,-100,300,1,0
Sprite,Foreground,CentreLeft,"SB\logo\ABT.png",-30,400 L,676835,1 F,0,-100,300,0,1 S,0,0,,0.8 L,713460,1 F,0,-100,300,1,0
Sprite,Foreground,CentreLeft,"SB\logo\EDS.png",-30,400 L,713460,1 F,0,-100,300,0,1 S,0,0,,0.6 L,748424,1 F,0,-100,300,1,0
Sprite,Foreground,CentreLeft,"SB\logo\AWB.png",-30,400 L,748424,1 F,0,-100,300,0,1 S,0,0,,0.8 L,777007,1 F,0,-100,300,1,0
Sprite,Foreground,CentreLeft,"SB\logo\hbk.png",-30,400 L,777007,1 F,0,-100,300,0,1 S,0,0,,0.6 L,804499,1 F,0,-100,300,1,0
Sprite,Foreground,CentreLeft,"SB\logo\AB3.png",-30,400 L,804499,1 F,0,-100,300,0,1 S,0,0,,0.8 L,865632,1 F,0,-100,300,1,0
Sprite,Foreground,CentreLeft,"SB\logo\AP.png",-30,400 L,865632,1 F,0,-100,300,0,1 S,0,0,,0.8 L,895556,1 F,0,-100,300,1,0
//Storyboard Sound Samples

[TimingPoints]
310,348.837209302326,4,2,1,70,1,0
310,-142.857142857143,4,2,1,100,0,0
14263,-71.4285714285714,4,2,1,100,0,0
67286,-59.5238095238095,4,1,1,100,0,0
91007,-47.6190476190476,4,1,1,100,0,0
118847,-100,4,1,1,80,0,0
119537,344.827586206897,4,2,0,80,1,0
120916,-71.4285714285714,4,2,0,80,0,0
152177,-100,4,2,0,80,0,0
152266,-100,4,2,0,80,0,0
152443,352.941176470588,4,2,0,80,1,0
152796,352.941176470588,4,2,0,80,1,0
152796,-58.8235294117647,4,2,0,80,0,0
177148,348.837209302326,4,2,1,100,1,0
177148,-66.6666666666667,4,2,0,80,0,0
178543,-66.6666666666667,4,2,1,100,0,0
201043,-100,4,2,1,100,0,0
209167,342.857142857143,4,2,0,80,1,0
209167,-66.6666666666667,4,2,0,80,0,0
236675,468.75,4,2,0,80,1,0
259316,405.405405405405,4,2,0,80,1,0
260331,405.405405405405,4,2,0,80,1,0
285063,240,4,2,0,80,1,0
285783,240,4,2,0,80,1,0
285783,-83.3333333333333,4,2,0,80,0,0
305428,352.941176470588,4,2,0,80,1,0
305780,352.941176470588,4,2,0,80,1,0
311428,352.941176470588,4,2,0,80,1,0
311428,-71.4285714285714,4,2,0,80,0,0
379281,340.909090909091,4,2,0,80,1,0
379963,340.909090909091,4,2,0,80,1,0
381156,-50,4,2,0,80,0,0
414367,315.789473684211,4,2,0,80,1,0
415316,315.789473684211,4,2,0,80,1,0
415316,-62.5,4,2,0,80,0,0
436185,345.622119815668,4,2,0,80,1,0
437570,345.622119815668,4,2,0,80,1,0
437570,-55.5555555555556,4,2,0,80,0,0
465941,413.793103448276,4,2,0,80,1,0
466148,413.793103448276,4,2,0,80,1,0
466148,-52.0833333333333,4,2,0,80,0,0
520772,413.793103448276,4,2,0,80,1,0
521186,413.793103448276,4,2,0,80,1,0
521186,-55.5555555555556,4,2,0,80,0,0
550155,451.127819548872,4,2,0,80,1,0
550155,-66.6666666666667,4,2,0,80,0,0
550607,451.127819548872,4,2,0,80,1,0
550607,-66.6666666666667,4,2,0,80,0,0
582899,468.75,4,2,0,80,1,0
583347,468.75,4,2,0,80,1,0
640799,441.176470588235,4,2,0,80,1,0
641683,441.176470588235,4,2,0,80,1,0
676535,352.941176470588,4,2,0,80,1,0
677229,352.941176470588,4,2,0,80,1,0
677229,-62.5,4,2,0,80,0,0
691346,-62.5,4,2,0,65,0,0
712690,312.5,4,2,0,50,1,0
712690,-55.5555555555556,4,2,0,50,0,0
713629,312.5,4,2,0,60,1,0
713629,-55.5555555555556,4,2,0,60,0,0
714800,-55.5555555555556,4,2,0,80,0,0
748326,405.405405405405,4,2,0,80,1,0
748529,405.405405405405,4,2,0,80,1,0
776119,392.156862745098,4,2,0,80,1,0
777298,392.156862745098,4,2,0,80,1,0
777298,-52.0833333333333,4,2,0,80,0,0
804361,645.161290322581,4,2,0,80,1,0
806296,645.161290322581,4,2,0,80,1,0
861499,333.333333333333,4,2,0,80,1,0
863425,-250,4,2,0,70,0,0

[HitObjects]
196,88,310,6,0,L|196:168,1,70,0|2,3:2|0:0,0:0:0:0:
316,296,1008,2,0,L|316:216,1,70,0|2,0:0|0:0,0:0:0:0:
256,56,1705,1,0,0:0:0:0:
344,152,2054,1,2,0:0:0:0:
472,184,2403,2,0,P|492:148|496:120,1,70,0|2,0:0|0:0,0:0:0:0:
344,152,3101,5,2,0:0:0:0:
256,248,3450,1,2,0:0:0:0:
128,280,3799,2,0,P|108:244|104:216,1,70,0|2,0:0|0:0,0:0:0:0:
384,104,4496,2,0,P|404:140|408:168,1,70,2|2,0:0|0:0,0:0:0:0:
128,280,5194,1,2,0:0:0:0:
256,88,5542,1,2,0:0:0:0:
356,276,5891,6,0,L|288:308,1,70,2|0,0:0|0:0,0:0:0:0:
156,108,6589,2,0,L|224:76,1,70,2|0,0:0|0:0,0:0:0:0:
400,192,7287,1,2,0:0:0:0:
256,272,7635,1,0,0:0:0:0:
112,192,7984,1,2,0:0:0:0:
256,112,8332,1,0,0:0:0:0:
300,314,8682,6,0,L|225:308,1,70,2|0,0:0|0:0,0:0:0:0:
211,69,9379,2,0,L|286:75,1,70,2|0,0:0|0:0,0:0:0:0:
301,315,10077,1,2,0:0:0:0:
211,69,10426,1,0,0:0:0:0:
379,147,10775,1,2,0:0:0:0:
133,237,11124,1,0,0:0:0:0:
360,260,11473,6,0,L|432:268,1,70,2|0,0:0|0:0,0:0:0:0:
152,124,12170,2,0,L|80:116,1,70,2|0,0:0|0:0,0:0:0:0:
152,124,12868,1,2,0:0:0:0:
360,124,13217,1,0,0:0:0:0:
360,260,13566,1,2,0:0:0:0:
152,260,13915,1,0,0:0:0:0:
256,28,14263,5,0,3:0:0:0:
200,140,14612,2,0,L|164:176,3,35
256,196,14961,2,0,L|256:244,3,35,0|0|0|0,3:1|0:0|0:0|0:0,0:0:0:0:
312,140,15310,2,0,L|348:176,3,35
340,228,15659,2,0,L|344:256,7,17.5,4|0|0|0|0|0|0|0,3:2|0:0|0:0|0:0|0:0|0:0|0:0|0:0,0:0:0:0:
256,264,16008,2,0,L|256:288,7,17.5,4|0|0|0|0|0|0|0,0:2|0:0|0:0|0:0|0:0|0:0|0:0|0:0,0:0:0:0:
172,228,16356,2,0,L|168:256,7,17.5,4|0|0|0|0|0|0|0,0:2|0:0|0:0|0:0|0:0|0:0|0:0|0:0,0:0:0:0:
172,228,16705,1,0,3:0:0:0:
168,32,17054,5,4,3:1:0:0:
152,68,17141,1,0,0:0:0:0:
136,104,17228,1,0,0:0:0:0:
256,140,17403,1,0,3:1:0:0:
240,104,17490,1,0,0:0:0:0:
120,140,17665,1,0,0:0:0:0:
104,180,17751,2,0,L|112:268,1,70,2|0,3:1|0:0,0:0:0:0:
208,320,18100,2,0,L|296:312,1,70,2|0,3:1|0:0,0:0:0:0:
392,260,18449,1,0,3:1:0:0:
408,144,18624,1,2,0:1:0:0:
300,68,18798,2,0,P|276:116|268:232,1,140,2|2,3:1|3:1,0:0:0:0:
316,296,19321,1,2,0:1:0:0:
316,296,19409,1,0,0:0:0:0:
316,296,19496,1,0,3:1:0:0:
432,220,19670,1,2,0:1:0:0:
316,296,19845,6,0,P|252:280|224:264,1,70,2|0,3:1|0:0,0:0:0:0:
196,88,20194,2,0,P|260:104|288:120,1,70,0|0,3:1|0:0,0:0:0:0:
352,216,20542,1,0,3:1:0:0:
200,184,20717,1,2,0:1:0:0:
304,69,20891,1,2,3:1:0:0:
352,216,21066,1,2,0:1:0:0:
220,276,21240,1,0,3:1:0:0:
185,270,21327,1,0,0:0:0:0:
150,265,21414,1,0,0:0:0:0:
200,184,21589,1,0,3:1:0:0:
236,188,21676,1,0,0:0:0:0:
115,259,21851,1,0,0:0:0:0:
80,254,21938,2,0,P|44:192|36:168,1,70,0|0,3:1|0:0,0:0:0:0:
248,92,22287,2,0,L|252:56,3,35,0|0|0|0,3:1|0:0|0:0|0:0,0:0:0:0:
288,120,22635,5,0,3:1:0:0:
322,117,22722,1,0,0:0:0:0:
357,114,22809,1,0,0:0:0:0:
458,185,22984,1,0,3:1:0:0:
424,188,23072,1,0,0:0:0:0:
376,284,23246,1,0,0:0:0:0:
342,281,23333,2,0,P|324:340|316:376,1,70,2|0,3:1|0:0,0:0:0:0:
170,281,23682,2,0,P|188:340|196:376,1,70,2|0,3:1|0:0,0:0:0:0:
312,192,24031,1,0,3:1:0:0:
256,272,24205,1,2,0:1:0:0:
200,192,24380,2,0,L|188:108,1,70,2|0,3:1|0:0,0:0:0:0:
312,192,24728,2,0,L|324:108,1,70,2|2,3:1|0:1,0:0:0:0:
336,8,25077,1,0,3:1:0:0:
256,72,25252,1,2,0:1:0:0:
176,8,25426,6,0,P|108:28|84:40,1,70,2|0,3:1|0:0,0:0:0:0:
36,128,25775,1,0,3:1:0:0:
36,256,25949,1,0,0:0:0:0:
147,192,26124,1,0,3:1:0:0:
14,292,26298,1,2,0:1:0:0:
14,91,26472,1,2,3:1:0:0:
189,192,26647,1,2,0:1:0:0:
120,288,26821,1,4,3:1:0:0:
136,312,26909,1,0,0:0:0:0:
152,336,26996,1,0,0:0:0:0:
236,268,27170,1,0,0:0:0:0:
252,292,27257,1,0,0:0:0:0:
352,248,27432,1,0,0:0:0:0:
452,204,27606,1,0,0:0:0:0:
220,244,27781,1,0,0:0:0:0:
204,220,27868,2,0,L|200:168,3,35
232,120,28217,5,4,3:1:0:0:
216,96,28304,1,0,0:0:0:0:
200,72,28391,1,0,0:0:0:0:
312,128,28566,1,0,3:1:0:0:
328,152,28653,1,0,0:0:0:0:
364,60,28827,1,0,0:0:0:0:
348,36,28914,1,2,3:1:0:0:
432,172,29089,1,0,0:0:0:0:
340,240,29263,2,0,L|264:232,1,70,2|0,3:1|0:0,0:0:0:0:
160,216,29612,2,0,L|168:292,1,70,0|2,3:1|0:1,0:0:0:0:
244,104,29961,2,0,L|252:28,1,70,2|0,3:1|0:0,0:0:0:0:
160,216,30310,1,2,3:1:0:0:
260,296,30484,2,0,L|252:365,2,70,2|0|2,0:1|3:1|0:1,0:0:0:0:
312,212,31008,6,0,L|388:220,1,70,2|0,3:1|0:0,0:0:0:0:
432,136,31356,2,0,L|508:128,2,70,0|0|0,3:1|0:0|3:1,0:0:0:0:
312,212,31880,1,2,0:1:0:0:
248,120,32054,1,2,3:1:0:0:
359,110,32228,1,2,0:1:0:0:
312,212,32403,1,0,3:1:0:0:
305,249,32490,1,0,0:0:0:0:
298,287,32577,1,0,0:0:0:0:
208,208,32752,1,0,3:1:0:0:
201,245,32839,1,0,0:0:0:0:
104,204,33014,1,0,0:0:0:0:
97,241,33101,1,0,3:1:0:0:
90,278,33188,1,0,0:0:0:0:
180,128,33362,1,0,0:0:0:0:
187,91,33449,2,0,L|212:48,3,35,0|0|0|0,3:1|0:0|0:0|0:0,0:0:0:0:
260,40,33798,5,0,3:1:0:0:
289,69,33885,1,0,0:0:0:0:
319,99,33972,1,0,0:0:0:0:
436,128,34147,1,0,3:1:0:0:
406,98,34234,1,0,0:0:0:0:
296,184,34409,1,0,0:0:0:0:
320,232,34496,2,0,P|392:240|416:236,1,70,2|0,3:1|0:0,0:0:0:0:
216,256,34844,2,0,P|208:328|212:352,1,70,2|0,3:1|0:0,0:0:0:0:
320,232,35194,1,0,3:1:0:0:
116,180,35368,1,2,0:1:0:0:
216,256,35542,2,0,P|245:322|260:341,1,70,2|0,3:1|0:0,0:0:0:0:
304,108,35891,1,2,3:1:0:0:
222,186,36066,1,2,0:1:0:0:
222,186,36153,1,0,0:0:0:0:
222,186,36240,2,0,L|216:256,1,70,0|2,3:1|0:1,0:0:0:0:
296,332,36589,6,0,P|251:359|216:368,1,70,2|0,3:1|0:0,0:0:0:0:
128,304,36938,2,0,P|88:296|40:288,2,70,0|0|0,3:1|0:0|3:1,0:0:0:0:
296,332,37461,1,2,0:1:0:0:
188,240,37635,2,0,L|208:148,1,70,2|2,3:1|0:1,0:0:0:0:
224,52,37984,1,0,3:1:0:0:
240,76,38072,1,0,0:0:0:0:
256,100,38159,1,0,0:0:0:0:
400,112,38333,1,0,3:1:0:0:
384,136,38420,1,0,0:0:0:0:
288,228,38595,1,0,0:0:0:0:
392,248,38769,1,0,0:0:0:0:
408,224,38856,2,0,L|444:208,1,35
356,320,39031,2,0,L|320:304,1,35
288,228,39205,2,0,L|252:244,1,35
196,280,39380,5,4,3:1:0:0:
158,270,39467,1,0,0:0:0:0:
121,261,39554,1,0,0:0:0:0:
268,328,39729,1,0,3:1:0:0:
230,318,39816,1,0,0:0:0:0:
216,200,39990,1,0,0:0:0:0:
226,162,40077,2,0,L|216:64,1,70,2|0,3:1|0:0,0:0:0:0:
312,184,40426,2,0,L|305:254,1,70,2|0,3:1|0:0,0:0:0:0:
121,261,40775,1,0,3:1:0:0:
72,144,40949,1,2,0:1:0:0:
121,261,41124,2,0,L|136:356,1,70,2|0,3:1|0:0,0:0:0:0:
196,156,41473,2,0,L|211:61,1,70,2|2,3:1|0:1,0:0:0:0:
264,284,41821,2,0,L|279:379,1,70,0|2,3:1|0:1,0:0:0:0:
336,196,42170,5,2,3:1:0:0:
341,161,42257,1,0,0:0:0:0:
346,126,42344,1,0,0:0:0:0:
423,227,42519,1,0,3:1:0:0:
428,192,42606,1,0,0:0:0:0:
277,57,42781,1,0,0:0:0:0:
272,92,42868,1,0,3:1:0:0:
336,196,43042,1,2,0:1:0:0:
424,72,43217,2,0,L|516:92,1,70,2|2,3:1|0:1,0:0:0:0:
336,196,43566,1,0,3:1:0:0:
301,191,43653,1,0,0:0:0:0:
266,186,43740,1,0,0:0:0:0:
157,235,43915,1,0,3:1:0:0:
192,240,44002,1,0,0:0:0:0:
364,236,44176,1,0,0:0:0:0:
388,268,44263,2,0,L|384:332,1,35,0|0,3:1|0:0,0:0:0:0:
292,360,44438,2,0,L|323:344,1,35
294,250,44612,1,0,3:1:0:0:
285,216,44699,1,0,0:0:0:0:
283,181,44786,1,0,0:0:0:0:
289,147,44873,1,0,0:0:0:0:
302,115,44960,5,4,3:1:0:0:
268,104,45048,1,0,0:0:0:0:
236,90,45135,1,0,0:0:0:0:
124,28,45310,2,0,P|120:84|120:120,1,70,0|0,3:1|0:0,0:0:0:0:
140,136,45571,1,0,0:0:0:0:
160,174,45659,2,0,P|159:209|156:244,1,70,2|0,3:1|0:0,0:0:0:0:
52,320,46008,1,2,3:1:0:0:
160,174,46182,1,0,0:0:0:0:
48,140,46356,2,0,P|49:174|52:209,1,70,4|2,3:1|0:1,0:0:0:0:
168,332,46705,2,0,P|202:330|237:327,1,70,2|0,3:1|0:0,0:0:0:0:
392,204,47054,1,2,3:1:0:0:
296,256,47228,1,2,0:1:0:0:
296,256,47316,1,0,0:0:0:0:
296,256,47403,1,0,3:1:0:0:
208,208,47577,1,2,0:1:0:0:
256,28,47752,5,4,3:1:0:0:
255,62,47839,1,0,0:0:0:0:
262,97,47926,1,0,0:0:0:0:
277,128,48013,1,0,0:0:0:0:
298,156,48100,1,0,3:1:0:0:
325,178,48188,1,0,0:0:0:0:
356,194,48275,1,0,0:0:0:0:
392,204,48362,1,0,0:0:0:0:
424,212,48449,1,4,3:1:0:0:
451,236,48536,1,0,0:0:0:0:
465,268,48623,1,0,0:0:0:0:
463,303,48710,1,0,0:0:0:0:
447,333,48798,1,0,3:1:0:0:
420,354,48885,1,0,0:0:0:0:
386,361,48972,1,0,0:0:0:0:
352,353,49059,1,0,0:0:0:0:
325,331,49147,2,0,L|320:304,31,17.5
268,280,50542,6,0,L|180:264,1,70,6|0,0:0|0:0,0:0:0:0:
199,116,50891,2,0,L|268:104,1,70,2|0,0:0|0:0,0:0:0:0:
380,52,51240,1,2,0:0:0:0:
256,192,51502,1,2,0:0:0:0:
380,332,51763,1,2,0:0:0:0:
324,268,51938,6,0,L|254:268,1,70,0|2,0:0|0:0,0:0:0:0:
324,116,52286,2,0,L|254:116,1,70,2|0,0:0|0:0,0:0:0:0:
132,332,52635,1,2,0:0:0:0:
256,192,52896,1,2,0:0:0:0:
132,52,53158,1,2,0:0:0:0:
164,176,53333,6,0,L|196:256,1,70,2|0,0:0|0:0,0:0:0:0:
348,176,53682,2,0,L|316:256,1,70,2|0,0:0|0:0,0:0:0:0:
124,308,54031,1,2,0:0:0:0:
256,364,54292,1,2,0:0:0:0:
388,308,54554,1,2,0:0:0:0:
256,192,54728,6,0,L|256:276,1,70,0|2,0:0|0:0,0:0:0:0:
256,108,55077,2,0,L|256:24,1,70,2|0,0:0|0:0,0:0:0:0:
88,108,55426,1,2,0:0:0:0:
256,192,55688,1,2,0:0:0:0:
424,108,55949,1,2,0:0:0:0:
344,248,56124,6,0,L|320:340,1,70,2|0,0:0|0:0,0:0:0:0:
344,136,56473,2,0,L|320:44,1,70,2|0,0:0|0:0,0:0:0:0:
136,192,56821,1,2,0:0:0:0:
256,192,57083,1,2,0:0:0:0:
376,192,57345,1,2,0:0:0:0:
168,248,57519,6,0,L|192:340,1,70,0|2,0:0|0:0,0:0:0:0:
168,136,57868,2,0,L|192:44,1,70,2|0,0:0|0:0,0:0:0:0:
348,300,58216,1,2,0:0:0:0:
256,192,58478,1,2,0:0:0:0:
348,84,58740,1,2,0:0:0:0:
348,300,58915,6,0,L|272:264,1,70,2|0,0:0|0:0,0:0:0:0:
348,84,59263,2,0,L|272:120,1,70,2|0,0:0|0:0,0:0:0:0:
424,4,59612,1,2,0:0:0:0:
444,188,59874,1,2,0:0:0:0:
424,380,60135,1,2,0:0:0:0:
44,192,60484,6,0,L|128:192,1,70,2|2,0:0|0:0,0:0:0:0:
256,44,61008,1,2,0:0:0:0:
188,192,61269,1,2,0:0:0:0:
256,340,61531,1,2,0:0:0:0:
468,192,61705,6,0,L|384:192,1,70,6|0,0:0|0:0,0:0:0:0:
188,192,62054,2,0,L|112:192,1,70,2|0,0:0|0:0,0:0:0:0:
256,44,62403,1,2,0:0:0:0:
324,192,62665,1,2,0:0:0:0:
256,340,62927,1,2,0:0:0:0:
132,308,63101,6,0,P|144:272|152:236,1,70,0|2,0:0|0:0,0:0:0:0:
380,308,63450,2,0,P|368:272|360:236,1,70,2|0,0:0|0:0,0:0:0:0:
328,16,63798,1,2,0:0:0:0:
256,232,64060,1,2,0:0:0:0:
184,16,64321,1,2,0:0:0:0:
332,120,64496,6,0,L|328:208,1,70,2|0,0:0|0:0,0:0:0:0:
180,120,64845,2,0,L|184:208,1,70,2|0,0:0|0:0,0:0:0:0:
256,368,65194,1,2,0:0:0:0:
256,192,65455,1,2,0:0:0:0:
256,16,65717,1,2,0:0:0:0:
188,240,65891,5,4,3:1:0:0:
184,274,65978,1,0,0:0:0:0:
196,306,66065,1,0,0:0:0:0:
222,329,66152,1,0,0:0:0:0:
256,337,66239,1,0,0:0:0:0:
289,329,66327,1,0,0:0:0:0:
315,306,66414,1,0,0:0:0:0:
327,274,66501,1,0,0:0:0:0:
323,239,66589,2,0,L|304:192,1,35
188,239,66763,2,0,L|208:192,1,35
256,140,66938,1,0,3:1:0:0:
400,168,67287,6,0,P|424:236|416:304,1,125.999996154785,4|0,3:1|0:0,0:0:0:0:
420,288,67635,2,0,P|344:288|300:304,1,83.9999974365235,0|0,3:1|0:0,0:0:0:0:
296,191,67984,2,0,P|272:225|256:264,1,83.9999974365235,0|0,3:1|0:0,0:0:0:0:
256,360,68333,1,0,3:1:0:0:
296,192,68508,1,0,0:0:0:0:
112,168,68682,2,0,P|88:236|96:304,1,125.999996154785,0|0,3:1|0:0,0:0:0:0:
91,288,69030,2,0,P|168:288|212:304,1,83.9999974365235,0|0,3:1|0:0,0:0:0:0:
215,191,69379,2,0,P|239:225|256:264,1,83.9999974365235,0|0,3:1|0:0,0:0:0:0:
256,360,69728,1,0,3:1:0:0:
216,192,69903,1,0,0:0:0:0:
392,72,70077,6,0,P|340:172|308:208,1,125.999996154785,0|0,3:1|0:0,0:0:0:0:
292,120,70426,2,0,P|240:116|192:104,1,83.9999974365235,0|0,3:1|0:0,0:0:0:0:
80,112,70775,2,0,L|108:192,1,83.9999974365235,0|0,3:1|0:0,0:0:0:0:
120,312,71124,1,0,3:1:0:0:
256,288,71298,1,0,0:0:0:0:
392,312,71473,2,0,P|340:212|308:176,1,125.999996154785,0|0,3:1|0:0,0:0:0:0:
292,264,71822,2,0,P|240:268|192:280,1,83.9999974365235,0|0,3:1|0:0,0:0:0:0:
80,271,72171,2,0,L|108:192,1,83.9999974365235,0|0,3:1|0:0,0:0:0:0:
120,72,72519,1,0,3:1:0:0:
256,96,72694,1,0,0:0:0:0:
392,72,72868,6,0,P|392:176|404:232,1,125.999996154785,0|0,3:1|0:0,0:0:0:0:
360,312,73217,2,0,P|360:236|351:196,1,83.9999974365235,0|0,3:1|0:0,0:0:0:0:
192,108,73566,1,0,3:1:0:0:
256,280,73740,1,0,0:0:0:0:
320,108,73915,1,0,3:1:0:0:
256,192,74089,1,0,0:0:0:0:
120,72,74263,2,0,P|120:176|108:232,1,125.999996154785,0|0,3:1|0:0,0:0:0:0:
152,312,74612,2,0,P|152:236|160:196,1,83.9999974365235,0|0,3:1|0:0,0:0:0:0:
320,108,74961,1,0,3:1:0:0:
256,280,75135,1,0,0:0:0:0:
192,108,75310,1,0,3:1:0:0:
256,192,75484,1,0,0:0:0:0:
371,334,75659,6,0,P|318:365|256:368,1,125.999996154785,0|0,3:1|0:0,0:0:0:0:
176,320,76008,2,0,P|152:284|144:232,1,83.9999974365235,0|0,3:1|0:0,0:0:0:0:
192,108,76356,1,0,3:1:0:0:
256,192,76531,1,0,0:0:0:0:
176,320,76705,1,0,3:1:0:0:
192,108,76880,1,0,0:0:0:0:
140,334,77054,2,0,P|193:365|256:368,1,125.999996154785,0|0,3:1|0:0,0:0:0:0:
336,320,77403,2,0,P|360:284|368:232,1,83.9999974365235,0|0,3:1|0:0,0:0:0:0:
320,108,77751,1,0,3:1:0:0:
256,192,77926,1,0,0:0:0:0:
336,320,78100,1,0,3:1:0:0:
320,108,78275,1,0,0:0:0:0:
256,344,78449,5,4,3:1:0:0:
192,108,78798,1,0,3:1:0:0:
256,40,78973,1,0,0:0:0:0:
320,108,79147,1,0,3:1:0:0:
320,276,79496,1,0,3:1:0:0:
256,344,79671,1,0,0:0:0:0:
192,276,79845,1,0,3:1:0:0:
160,96,80194,1,0,3:1:0:0:
256,40,80369,1,0,0:0:0:0:
352,96,80542,1,0,3:1:0:0:
352,288,80891,5,0,3:1:0:0:
256,344,81066,1,0,0:0:0:0:
160,288,81239,1,0,3:1:0:0:
128,84,81589,1,0,3:1:0:0:
256,40,81763,1,0,0:0:0:0:
384,84,81938,1,0,3:1:0:0:
384,300,82287,1,0,3:1:0:0:
256,344,82461,1,0,0:0:0:0:
128,300,82635,2,0,L|180:232,1,83.9999974365235,0|0,3:1|0:0,0:0:0:0:
384,300,82984,2,0,L|332:232,1,83.9999974365235,0|0,3:1|0:0,0:0:0:0:
108,180,83333,2,0,P|160:156|200:144,1,83.9999974365235,0|0,3:1|0:0,0:0:0:0:
404,180,83682,2,0,P|352:156|312:144,1,83.9999974365235,0|0,3:1|0:0,0:0:0:0:
200,324,84031,5,0,3:1:0:0:
256,240,84205,1,0,0:0:0:0:
256,240,84292,1,0,0:0:0:0:
256,240,84380,1,0,3:1:0:0:
312,324,84554,1,0,0:0:0:0:
168,236,84728,1,0,3:1:0:0:
344,236,84903,1,0,0:0:0:0:
256,240,85078,1,0,3:1:0:0:
216,96,85252,2,0,P|180:144|136:160,1,83.9999974365235,0|0,0:0|3:1,0:0:0:0:
296,96,85601,2,0,P|332:144|376:160,1,83.9999974365235,0|0,0:0|3:1,0:0:0:0:
256,324,85949,2,0,L|256:240,1,83.9999974365235,0|0,0:0|3:1,0:0:0:0:
256,60,86298,1,0,0:0:0:0:
256,60,86473,2,0,L|256:144,1,83.9999974365235,0|0,3:1|0:0,0:0:0:0:
322,331,86821,5,4,3:1:0:0:
281,339,86908,1,0,0:0:0:0:
239,338,86995,1,0,0:0:0:0:
198,330,87082,1,0,0:0:0:0:
159,315,87169,1,0,3:1:0:0:
145,276,87258,1,0,0:0:0:0:
123,240,87345,1,0,0:0:0:0:
92,212,87432,1,0,0:0:0:0:
56,192,87520,1,4,3:1:0:0:
92,171,87607,1,0,0:0:0:0:
123,143,87694,1,0,0:0:0:0:
145,107,87781,1,0,0:0:0:0:
159,68,87868,1,0,3:1:0:0:
198,53,87955,1,0,0:0:0:0:
239,45,88042,1,0,0:0:0:0:
281,44,88129,1,0,0:0:0:0:
322,52,88217,6,0,L|340:104,3,41.9999987182618,4|0|0|0,3:1|0:0|0:0|0:0,0:0:0:0:
322,331,88565,2,0,L|340:280,3,41.9999987182618,4|0|0|0,3:1|0:0|0:0|0:0,0:0:0:0:
264,108,88915,2,0,L|281:159,3,41.9999987182618,4|0|0|0,3:1|0:0|0:0|0:0,0:0:0:0:
264,276,89263,2,0,L|277:236,3,41.9999987182618,4|0|0|0,3:1|0:0|0:0|0:0,0:0:0:0:
200,192,89612,6,0,L|172:192,23,20.9999993591309
200,192,90659,1,0,3:0:0:0:
232,104,90833,5,0,0:0:0:0:
232,104,90920,1,0,0:0:0:0:
232,104,91008,2,0,P|352:96|372:84,1,105.000004005432,6|0,3:1|0:0,0:0:0:0:
335,280,91357,2,0,P|283:271|232:280,1,105.000004005432,2|0,3:1|0:0,0:0:0:0:
72,80,91705,1,0,3:1:0:0:
160,256,91880,1,2,0:0:0:0:
72,304,92054,1,0,3:1:0:0:
160,128,92229,1,0,0:0:0:0:
256,296,92403,2,0,P|336:276|364:256,1,105.000004005432,2|0,3:1|0:0,0:0:0:0:
256,88,92752,2,0,P|336:108|364:128,1,105.000004005432,2|0,3:1|0:0,0:0:0:0:
256,296,93101,1,0,3:1:0:0:
180,192,93275,1,2,0:0:0:0:
256,88,93449,1,0,3:1:0:0:
352,280,93624,5,2,0:0:0:0:
352,280,93711,1,0,0:0:0:0:
352,280,93798,1,2,3:1:0:0:
256,336,93973,1,0,0:0:0:0:
160,280,94147,1,2,3:1:0:0:
256,48,94321,1,0,0:0:0:0:
352,280,94496,1,0,3:1:0:0:
160,280,94670,1,2,0:0:0:0:
256,152,94845,2,0,L|256:288,1,105.000004005432,0|0,3:1|0:0,0:0:0:0:
400,368,95194,2,0,P|332:360|284:332,1,105.000004005432,2|0,3:1|0:0,0:0:0:0:
112,368,95543,2,0,P|180:360|228:332,1,105.000004005432,2|0,3:1|0:0,0:0:0:0:
256,152,95891,1,0,3:1:0:0:
168,224,96066,2,0,P|256:272|344:224,1,210.000008010865,2|2,0:1|0:1,3:0:0:0:
320,48,96589,6,0,B|332:104|332:104|376:140,1,105.000004005432,2|0,3:1|0:0,0:0:0:0:
320,336,96938,2,0,B|332:280|332:280|376:244,1,105.000004005432,2|0,3:1|0:0,0:0:0:0:
448,100,97287,1,0,3:1:0:0:
328,192,97461,1,2,0:0:0:0:
448,284,97635,2,0,P|460:232|452:176,1,105.000004005432,0|0,3:1|0:0,0:0:0:0:
332,12,97984,2,0,L|308:132,1,105.000004005432,2|0,3:1|0:0,0:0:0:0:
180,12,98333,2,0,L|204:132,1,105.000004005432,2|0,3:1|0:0,0:0:0:0:
63,283,98682,2,0,P|52:233|58:181,1,105.000004005432,0|2,3:1|0:0,0:0:0:0:
104,88,99031,1,0,3:1:0:0:
184,192,99205,1,2,0:0:0:0:
63,283,99380,5,2,3:1:0:0:
168,120,99554,1,0,0:0:0:0:
168,120,99641,1,0,0:0:0:0:
168,120,99728,1,2,3:1:0:0:
152,312,99903,1,0,0:0:0:0:
256,176,100077,2,0,L|284:60,1,105.000004005432,0|2,3:1|0:0,0:0:0:0:
449,283,100426,1,0,3:1:0:0:
344,120,100600,1,0,0:0:0:0:
344,120,100687,1,0,0:0:0:0:
344,120,100774,1,2,3:1:0:0:
360,312,100949,1,0,0:0:0:0:
256,176,101124,2,0,L|228:60,1,105.000004005432,2|0,3:1|0:0,0:0:0:0:
92,192,101473,1,0,3:1:0:0:
256,308,101647,1,2,0:0:0:0:
420,192,101821,1,0,3:1:0:0:
256,76,101996,5,2,0:0:0:0:
256,76,102083,1,0,0:0:0:0:
256,76,102170,2,0,P|207:108|164:160,1,105.000004005432,6|0,3:1|0:0,0:0:0:0:
256,308,102519,2,0,P|207:276|164:224,1,105.000004005432,2|0,3:1|0:0,0:0:0:0:
340,108,102868,1,0,3:1:0:0:
340,276,103042,1,2,0:0:0:0:
194,192,103217,2,0,L|308:192,1,105.000004005432,0|0,3:1|0:0,0:0:0:0:
432,128,103566,2,0,P|428:76|400:20,1,105.000004005432,2|0,3:1|0:0,0:0:0:0:
432,256,103915,2,0,P|428:308|400:364,1,105.000004005432,2|0,3:1|0:0,0:0:0:0:
194,192,104263,1,0,3:1:0:0:
256,304,104438,1,2,0:0:0:0:
256,304,104525,1,0,0:0:0:0:
256,304,104612,1,0,3:1:0:0:
256,80,104787,5,2,0:0:0:0:
256,80,104874,1,0,0:0:0:0:
256,80,104961,1,2,3:1:0:0:
194,192,105135,1,0,0:0:0:0:
256,304,105310,1,2,3:1:0:0:
318,192,105484,1,0,0:0:0:0:
194,192,105659,2,0,L|86:192,1,105.000004005432,0|2,3:1|0:0,0:0:0:0:
318,192,106008,2,0,L|426:192,1,105.000004005432,0|0,3:1|0:0,0:0:0:0:
144,16,106356,2,0,P|144:72|124:124,1,105.000004005432,2|0,3:1|0:0,0:0:0:0:
144,368,106705,2,0,P|144:312|124:260,1,105.000004005432,2|0,3:1|0:0,0:0:0:0:
8,100,107054,1,0,3:1:0:0:
8,284,107228,1,2,0:0:0:0:
8,100,107403,1,0,3:1:0:0:
108,192,107577,5,2,0:0:0:0:
108,192,107665,1,0,0:0:0:0:
108,192,107752,2,0,L|192:272,1,105.000004005432,2|0,3:1|0:0,0:0:0:0:
327,264,108101,2,0,L|404:192,1,105.000004005432,2|0,3:1|0:1,3:1:0:0:
404,192,108362,1,0,0:0:0:0:
404,192,108449,1,0,3:1:0:0:
300,72,108624,1,2,0:0:0:0:
256,56,108711,1,0,0:0:0:0:
212,72,108798,1,0,3:1:0:0:
256,192,108973,1,0,0:0:0:0:
256,192,109060,1,0,0:0:0:0:
256,192,109147,2,0,L|256:324,1,105.000004005432,2|0,3:1|0:0,0:0:0:0:
256,112,109496,1,2,3:1:0:0:
404,192,109670,1,0,0:0:0:0:
404,192,109757,1,0,0:0:0:0:
404,192,109844,1,0,3:1:0:0:
108,192,110019,1,2,0:0:0:0:
108,192,110106,1,0,0:0:0:0:
108,192,110194,1,0,3:1:0:0:
256,248,110368,1,2,0:0:0:0:
356,40,110542,5,2,3:1:0:0:
256,136,110717,1,0,0:0:0:0:
256,136,110804,1,0,0:0:0:0:
256,136,110891,1,2,3:1:0:0:
156,40,111066,1,0,0:0:0:0:
404,100,111240,1,0,3:1:0:0:
256,192,111415,1,2,0:0:0:0:
256,192,111502,1,0,0:0:0:0:
256,192,111589,1,0,3:1:0:0:
108,100,111764,1,0,0:0:0:0:
360,192,111938,2,0,L|476:192,1,105.000004005432,2|0,3:1|0:0,0:0:0:0:
152,192,112287,2,0,L|36:192,1,105.000004005432,2|0,3:1|0:0,0:0:0:0:
152,192,112635,1,0,3:0:0:0:
256,136,112810,2,0,L|256:28,2,105.000004005432,2|0|0,0:1|3:0|0:0,0:0:0:0:
328,324,113333,6,0,P|364:280|448:264,1,105.000004005432,6|0,3:1|0:0,0:0:0:0:
184,324,113682,2,0,P|148:280|64:264,1,105.000004005432,2|0,3:1|0:0,0:0:0:0:
304,108,114031,2,0,B|304:164|304:164|320:220,1,105.000004005432,4|2,3:1|0:0,0:0:0:0:
208,108,114380,2,0,B|208:164|208:164|192:220,1,105.000004005432,0|0,3:1|0:0,0:0:0:0:
136,304,114728,5,6,3:1:0:0:
256,36,114990,1,6,3:1:0:0:
376,304,115252,1,6,3:1:0:0:
0,92,115426,5,6,3:1:0:0:
256,248,115688,1,6,3:1:0:0:
512,92,115950,1,6,3:1:0:0:
200,308,116124,6,0,L|80:256,1,105.000004005432,6|0,3:1|0:0,0:0:0:0:
312,308,116473,2,0,L|432:256,1,105.000004005432,2|0,0:0|0:0,0:0:0:0:
304,108,116821,2,0,L|304:216,1,105.000004005432,4|2,3:1|0:0,0:0:0:0:
208,108,117170,2,0,L|208:216,1,105.000004005432
256,368,117519,1,4,3:1:0:0:
256,192,117606,12,0,118565,0:0:0:0:
192,128,119537,6,0,P|128:112|48:112,1,100
320,256,120226,2,0,P|384:272|464:272,1,100
256,32,120916,6,0,P|224:96|208:176,1,139.999995727539
272,272,121433,2,0,P|304:288|352:288,1,69.9999978637696
368,160,121778,2,0,P|336:144|302:141,1,69.9999978637696
176,256,122123,2,0,P|112:240|64:160,1,139.999995727539
160,64,122640,2,0,P|176:112|176:160,1,69.9999978637696
85,250,122985,2,0,P|73:217|68:183,1,69.9999978637696
80,16,123330,1,0,0:0:0:0:
68,183,123674,6,0,P|90:262|145:328,1,139.999995727539
224,176,124192,2,0,P|213:215|221:258,1,69.9999978637696
362,247,124537,2,0,P|333:276|318:316,1,69.9999978637696
448,288,124881,2,0,P|486:230|503:162,1,139.999995727539
336,80,125399,2,0,P|344:113|363:142,1,69.9999978637696
384,240,125744,2,0,P|350:230|315:232,1,69.9999978637696
160,320,126088,1,0,0:0:0:0:
128,96,126433,6,0,P|192:160|224:224,1,139.999995727539
64,256,126951,2,0,P|96:224|128:208,1,69.9999978637696
320,192,127295,1,0,0:0:0:0:
240,288,127468,2,0,P|272:320|304:336,1,69.9999978637696
480,320,127812,2,0,P|480:256|432:160,1,139.999995727539
452,186,128330,1,0,0:0:0:0:
368,256,128502,2,0,P|288:240|274:229,1,69.9999978637696
272,128,128847,2,0,P|192:144|178:155,1,69.9999978637696
96,304,129192,6,0,P|160:288|160:208,1,139.999995727539
80,48,129709,1,0,0:0:0:0:
64,144,129881,1,0,0:0:0:0:
160,80,130054,1,0,0:0:0:0:
272,128,130226,2,0,L|352:112,1,69.9999978637696
208,272,130571,2,0,L|368:240,1,139.999995727539
345,244,131088,1,0,0:0:0:0:
128,288,131261,1,0,0:0:0:0:
288,304,131433,1,0,0:0:0:0:
432,224,131605,2,0,P|416:176|416:128,1,69.9999978637696
368,16,131950,6,0,P|337:78|304:160,1,139.999995727539
224,224,132468,2,0,P|224:272|233:306,1,69.9999978637696
310,143,132813,2,0,P|358:143|392:134,1,69.9999978637696
160,96,133157,2,0,P|96:144|64:208,1,139.999995727539
64,16,133674,2,0,P|48:48|41:105,1,69.9999978637696
176,192,134019,2,0,P|208:208|265:215,1,69.9999978637696
352,32,134364,1,0,0:0:0:0:
400,144,134709,6,0,P|416:224|400:304,1,139.999995727539
272,352,135226,2,0,P|240:304|224:272,1,69.9999978637696
256,128,135571,2,0,P|288:176|304:208,1,69.9999978637696
128,336,135916,2,0,P|112:256|128:176,1,139.999995727539
96,32,136433,2,0,P|112:64|144:96,1,69.9999978637696
313,89,136778,2,0,P|281:104|256:128,1,69.9999978637696
176,320,137123,1,0,0:0:0:0:
320,192,137468,6,0,P|390:165|464:208,1,139.999995727539
224,224,137985,2,0,P|165:176|165:91,1,139.999995727539
272,32,138502,2,0,P|256:80|240:112,1,69.9999978637696
157,115,138847,1,0,0:0:0:0:
64,128,139019,1,0,0:0:0:0:
146,45,139192,2,0,L|157:115,1,69.9999978637696
80,224,139537,2,0,L|149:213,1,69.9999978637696
304,288,139882,2,0,L|234:277,1,69.9999978637696
288,112,140226,6,0,L|426:90,1,139.999995727539
218,202,140743,2,0,L|80:224,1,139.999995727539
224,16,141260,2,0,L|234:85,1,69.9999978637696
272,176,141605,1,0,0:0:0:0:
368,192,141778,1,0,0:0:0:0:
224,16,141950,2,0,L|234:85,1,69.9999978637696
176,176,142295,2,0,P|176:224|160:272,1,69.9999978637696
64,160,142640,1,0,0:0:0:0:
128,64,142812,1,0,0:0:0:0:
318,153,142985,6,0,P|332:198|416:272,1,139.999995727539
256,224,143502,2,0,P|256:272|240:320,1,69.9999978637696
464,192,143847,1,0,0:0:0:0:
372,165,144019,2,0,P|366:130|368:96,1,69.9999978637696
176,96,144364,1,0,0:0:0:0:
256,16,144537,1,0,0:0:0:0:
267,122,144709,2,0,P|273:156|271:191,2,69.9999978637696
128,192,145226,2,0,P|144:304|176:352,1,139.999995727539
272,336,145743,5,0,0:0:0:0:
352,240,145915,1,0,0:0:0:0:
384,368,146087,1,0,0:0:0:0:
272,336,146261,1,0,0:0:0:0:
224,256,146433,2,0,P|224:208|240:160,1,69.9999978637696
320,48,146778,2,0,P|326:82|324:117,1,69.9999978637696
128,176,147123,2,0,P|128:224|144:336,1,139.999995727539
384,176,147640,1,0,0:0:0:0:
384,176,147812,2,0,P|384:224|368:336,1,139.999995727539
256,192,148502,1,0,0:0:0:0:
256,192,148588,12,0,152795,0:0:0:0:
196,112,153148,6,0,B|256:91|256:91|316:112,2,127.50000243187
196,112,153854,1,0,0:0:0:0:
144,192,154031,5,0,0:0:0:0:
144,192,154119,1,0,0:0:0:0:
144,192,154207,1,0,0:0:0:0:
200,288,154384,1,0,0:0:0:0:
200,288,154472,1,0,0:0:0:0:
312,288,154648,1,0,0:0:0:0:
312,288,154736,1,0,0:0:0:0:
368,192,154913,1,0,0:0:0:0:
256,112,155090,2,0,L|256:208,1,85.0000016212464
256,16,155443,5,0,0:0:0:0:
256,16,155531,1,0,0:0:0:0:
256,16,155619,1,0,0:0:0:0:
160,64,155796,1,0,0:0:0:0:
160,64,155884,1,0,0:0:0:0:
256,112,156060,1,0,0:0:0:0:
256,112,156149,1,0,0:0:0:0:
352,64,156325,1,0,0:0:0:0:
416,192,156501,2,0,L|368:288,1,85.0000016212464
256,304,156854,1,0,0:0:0:0:
160,240,157031,5,0,0:0:0:0:
256,176,157207,1,0,0:0:0:0:
256,176,157296,1,0,0:0:0:0:
352,240,157472,1,0,0:0:0:0:
352,240,157560,1,0,0:0:0:0:
160,240,157737,1,0,0:0:0:0:
256,96,157913,1,0,0:0:0:0:
256,96,158001,1,0,0:0:0:0:
256,272,158178,1,0,0:0:0:0:
256,272,158266,1,0,0:0:0:0:
176,144,158443,5,0,0:0:0:0:
256,96,158619,1,0,0:0:0:0:
256,96,158707,1,0,0:0:0:0:
336,144,158884,1,0,0:0:0:0:
336,144,158972,1,0,0:0:0:0:
256,272,159148,1,0,0:0:0:0:
176,144,159325,1,0,0:0:0:0:
336,144,159501,1,0,0:0:0:0:
256,272,159678,1,0,0:0:0:0:
128,240,159854,5,0,0:0:0:0:
176,144,160031,1,0,0:0:0:0:
176,144,160119,1,0,0:0:0:0:
256,192,160296,1,0,0:0:0:0:
256,192,160384,1,0,0:0:0:0:
336,144,160560,1,0,0:0:0:0:
256,272,160737,1,0,0:0:0:0:
176,144,160913,1,0,0:0:0:0:
336,144,161090,1,0,0:0:0:0:
384,256,161266,5,0,0:0:0:0:
256,272,161443,1,0,0:0:0:0:
256,272,161531,1,0,0:0:0:0:
128,256,161707,1,0,0:0:0:0:
128,256,161796,1,0,0:0:0:0:
176,144,161972,1,0,0:0:0:0:
336,144,162148,1,0,0:0:0:0:
256,272,162325,2,0,L|256:160,1,85.0000016212464
256,48,162678,5,0,0:0:0:0:
160,112,162854,1,0,0:0:0:0:
160,112,162943,1,0,0:0:0:0:
176,224,163119,1,0,0:0:0:0:
176,224,163207,1,0,0:0:0:0:
336,224,163384,1,0,0:0:0:0:
352,112,163560,1,0,0:0:0:0:
256,48,163737,1,0,0:0:0:0:
256,188,163913,1,0,0:0:0:0:
368,320,164090,5,0,0:0:0:0:
336,224,164266,1,0,0:0:0:0:
336,224,164354,1,0,0:0:0:0:
176,224,164531,1,0,0:0:0:0:
176,224,164619,1,0,0:0:0:0:
144,320,164796,1,0,0:0:0:0:
256,272,164972,1,0,0:0:0:0:
256,160,165148,2,0,L|256:64,1,85.0000016212464
256,75,165413,1,0,0:0:0:0:
256,75,165501,1,0,0:0:0:0:
128,192,165678,5,0,0:0:0:0:
128,192,165766,1,0,0:0:0:0:
256,272,165943,1,0,0:0:0:0:
256,272,166031,1,0,0:0:0:0:
256,75,166207,1,0,0:0:0:0:
384,192,166384,1,0,0:0:0:0:
384,192,166472,1,0,0:0:0:0:
384,192,166560,1,0,0:0:0:0:
256,272,166737,1,0,0:0:0:0:
160,96,166913,5,0,0:0:0:0:
320,96,167090,1,0,0:0:0:0:
320,96,167178,1,0,0:0:0:0:
256,272,167354,1,0,0:0:0:0:
256,272,167443,1,0,0:0:0:0:
192,96,167619,1,0,0:0:0:0:
352,96,167796,1,0,0:0:0:0:
352,96,167884,1,0,0:0:0:0:
352,96,167972,1,0,0:0:0:0:
256,272,168148,1,0,0:0:0:0:
128,96,168325,5,0,0:0:0:0:
256,192,168501,1,0,0:0:0:0:
256,192,168590,1,0,0:0:0:0:
384,96,168766,1,0,0:0:0:0:
384,96,168854,1,0,0:0:0:0:
256,272,169031,1,0,0:0:0:0:
128,96,169207,1,0,0:0:0:0:
128,96,169296,1,0,0:0:0:0:
128,96,169384,1,0,0:0:0:0:
256,80,169560,1,0,0:0:0:0:
352,272,169737,5,0,0:0:0:0:
160,272,169913,1,0,0:0:0:0:
160,272,170002,1,0,0:0:0:0:
256,80,170178,1,0,0:0:0:0:
256,80,170266,1,0,0:0:0:0:
352,272,170443,1,0,0:0:0:0:
160,272,170619,1,0,0:0:0:0:
160,272,170707,1,0,0:0:0:0:
160,272,170796,1,0,0:0:0:0:
256,208,170972,1,0,0:0:0:0:
256,304,171148,5,0,0:0:0:0:
160,128,171325,1,0,0:0:0:0:
160,128,171413,1,0,0:0:0:0:
256,16,171590,1,0,0:0:0:0:
256,16,171678,1,0,0:0:0:0:
256,240,171854,1,0,0:0:0:0:
352,128,172031,1,0,0:0:0:0:
352,128,172119,1,0,0:0:0:0:
352,128,172207,1,0,0:0:0:0:
256,16,172384,1,0,0:0:0:0:
160,176,172560,5,0,0:0:0:0:
352,176,172737,1,0,0:0:0:0:
352,176,172825,1,0,0:0:0:0:
256,128,173001,1,0,0:0:0:0:
256,128,173090,1,0,0:0:0:0:
160,176,173266,1,0,0:0:0:0:
256,304,173443,1,0,0:0:0:0:
256,304,173531,1,0,0:0:0:0:
256,304,173619,1,0,0:0:0:0:
256,128,173796,1,0,0:0:0:0:
256,304,173972,1,0,0:0:0:0:
256,192,174060,12,0,176443,0:0:0:0:
400,336,177235,6,0,L|352:272,1,75.0000028610231,0|0,3:0|3:0,0:0:0:0:
256,288,177584,2,0,L|208:224,1,75.0000028610231,0|0,3:0|3:0,0:0:0:0:
256,144,177933,1,0,3:0:0:0:
272,128,178020,1,0,3:0:0:0:
288,112,178107,1,0,3:0:0:0:
304,96,178194,1,0,3:0:0:0:
320,80,178281,1,0,3:0:0:0:
336,64,178368,1,0,3:0:0:0:
352,48,178456,1,0,3:0:0:0:
368,32,178543,5,2,3:1:0:0:
448,128,178717,1,0,0:0:0:0:
352,192,178892,1,0,3:0:0:0:
208,96,179066,2,2,P|176:96|64:176,1,150.000005722046,2|0,0:1|0:0,3:1:0:0:
176,288,179589,2,0,P|192:240|192:208,1,75.0000028610231,2|0,3:1|0:0,0:0:0:0:
288,32,179938,2,2,P|288:112|320:208,1,150.000005722046,2|0,3:1|3:0,0:1:0:0:
480,256,180461,2,2,B|448:240|448:240|400:240,1,75.0000028610231,2|0,0:1|3:0,0:1:0:0:
256,240,180810,1,0,0:0:0:0:
304,320,180985,1,2,3:1:0:0:
304,160,181159,1,0,0:0:0:0:
176,160,181334,5,2,3:1:0:0:
176,48,181508,1,0,0:0:0:0:
176,48,181595,1,0,0:0:0:0:
176,48,181682,1,0,3:0:0:0:
384,208,181857,1,2,0:1:0:0:
288,128,182031,1,2,3:1:0:0:
176,160,182206,1,0,0:0:0:0:
384,208,182380,1,2,3:1:0:0:
322,4,182554,2,2,P|274:54|249:135,1,150.000005722046,2|0,0:1|0:0,3:1:0:0:
288,224,183078,2,0,P|320:256|336:304,1,75.0000028610231,2|0,3:1|0:0,0:0:0:0:
200,312,183427,2,0,P|203:275|192:240,1,75.0000028610231,2|0,3:1|0:0,0:0:0:0:
104,183,183776,2,0,P|93:218|96:256,1,75.0000028610231,2|0,3:1|0:0,0:0:0:0:
240,336,184124,6,2,P|336:336|384:288,1,150.000005722046,2|0,3:1|3:0,0:1:0:0:
384,208,184648,1,2,0:1:0:0:
320,128,184822,1,0,3:0:0:0:
288,224,184996,1,0,0:0:0:0:
416,112,185171,2,0,P|432:64|432:16,1,75.0000028610231,2|0,3:1|0:0,0:0:0:0:
320,128,185520,1,2,3:1:0:0:
208,272,185694,1,0,0:0:0:0:
208,272,185781,1,0,0:0:0:0:
208,272,185868,1,0,3:0:0:0:
64,192,186043,2,0,P|64:144|75:94,1,75.0000028610231,2|0,0:1|3:0,0:0:0:0:
128,32,186392,1,2,0:1:0:0:
224,80,186566,1,0,3:0:0:0:
176,176,186741,1,0,0:0:0:0:
256,112,186915,6,0,L|336:96,1,75.0000028610231,2|0,3:1|0:0,0:0:0:0:
416,192,187264,2,0,L|336:192,1,75.0000028610231,2|0,3:1|0:0,0:0:0:0:
182,97,187613,1,2,3:1:0:0:
144,192,187787,1,0,0:0:0:0:
182,286,187961,1,2,3:1:0:0:
341,192,188136,2,0,L|416:192,1,75.0000028610231,2|0,0:1|3:0,0:0:0:0:
329,286,188485,2,0,L|256:272,1,75.0000028610231,2|0,0:1|0:0,0:0:0:0:
160,192,188834,1,2,0:1:0:0:
336,112,189182,1,0,0:0:0:0:
368,192,189357,2,0,L|335:274,1,75.0000028610231,0|0,0:1|0:0,0:0:0:0:
144,320,189706,6,2,P|112:240|112:144,1,150.000005722046,2|0,3:1|3:0,0:1:0:0:
288,48,190229,2,0,P|304:112|304:144,1,75.0000028610231,2|0,0:1|3:0,0:0:0:0:
256,304,190578,1,0,0:0:0:0:
160,224,190752,2,0,P|148:188|143:151,1,75.0000028610231,2|0,3:1|0:0,0:0:0:0:
288,64,191101,2,2,P|336:64|416:128,1,150.000005722046,2|0,3:1|3:0,0:1:0:0:
224,272,191624,2,0,L|208:176,1,75.0000028610231,2|0,0:1|3:0,0:0:0:0:
288,64,191973,1,0,0:0:0:0:
304,224,192148,1,2,3:1:0:0:
96,224,192322,1,0,0:0:0:0:
352,128,192496,5,2,3:1:0:0:
208,256,192671,1,0,0:0:0:0:
208,256,192758,1,0,0:0:0:0:
208,256,192845,1,2,3:1:0:0:
229,157,193020,1,0,0:0:0:0:
304,224,193194,1,2,3:1:0:0:
256,384,193368,1,0,0:0:0:0:
128,288,193543,2,0,L|52:221,1,75.0000028610231,2|0,3:1|0:0,0:0:0:0:
100,109,193892,2,0,L|67:12,1,75.0000028610231,2|0,3:1|0:0,0:0:0:0:
208,192,194241,1,0,3:0:0:0:
304,144,194415,1,2,0:1:0:0:
400,96,194589,1,2,3:1:0:0:
304,224,194764,2,0,P|304:288|309:317,1,75.0000028610231,0|0,0:0|3:0,0:0:0:0:
305,298,195025,1,0,0:0:0:0:
305,298,195113,1,0,0:0:0:0:
400,96,195287,5,2,3:1:0:0:
192,160,195461,1,0,0:0:0:0:
256,368,195636,1,0,3:0:0:0:
304,192,195810,2,0,P|304:128|288:96,1,75.0000028610231,2|0,0:1|3:0,0:0:0:0:
224,256,196159,1,0,0:0:0:0:
160,176,196334,2,0,P|96:176|64:192,1,75.0000028610231,2|0,3:1|0:0,0:0:0:0:
400,288,196683,1,2,3:1:0:0:
192,224,196857,1,0,0:0:0:0:
256,16,197031,1,0,3:0:0:0:
304,192,197206,2,0,P|304:256|288:288,1,75.0000028610231,2|0,0:1|3:0,0:0:0:0:
224,128,197555,1,0,0:0:0:0:
160,208,197729,2,0,P|96:208|64:192,1,75.0000028610231,2|0,3:1|0:0,0:0:0:0:
176,48,198078,5,2,3:1:0:0:
224,128,198252,1,0,0:0:0:0:
272,208,198427,1,2,3:1:0:0:
368,192,198601,1,0,0:0:0:0:
464,176,198775,1,2,3:1:0:0:
304,336,198950,1,0,0:0:0:0:
224,128,199124,1,2,3:1:0:0:
352,80,199299,1,0,0:0:0:0:
320,224,199473,5,0,3:0:0:0:
291,214,199560,1,0,0:0:0:0:
262,209,199647,1,0,0:0:0:0:
232,208,199734,1,0,0:0:0:0:
202,211,199821,1,0,3:0:0:0:
173,218,199909,1,0,0:0:0:0:
145,230,199996,1,0,0:0:0:0:
119,245,200083,1,0,0:0:0:0:
96,264,200170,1,0,3:0:0:0:
105,235,200258,1,0,0:0:0:0:
110,206,200345,1,0,0:0:0:0:
112,176,200432,1,0,0:0:0:0:
109,146,200519,1,0,3:0:0:0:
101,118,200607,1,0,0:0:0:0:
89,90,200694,1,0,0:0:0:0:
74,64,200781,1,0,0:0:0:0:
56,41,200868,1,0,3:0:0:0:
176,80,201043,6,0,L|240:64,1,50
256,144,201392,2,0,L|319:162,1,50
293,239,201741,2,0,L|338:286,2,50
256,144,202264,1,0,3:0:0:0:
336,80,202438,2,0,L|272:64,1,50
256,144,202787,2,0,L|192:162,1,50
219,239,203136,2,0,L|173:286,2,50
400,64,203659,5,0,3:0:0:0:
432,160,203834,2,0,L|448:208,1,50
355,154,204182,2,0,L|332:199,1,50
305,96,204531,2,0,L|257:112,2,50
480,240,205054,1,0,0:0:0:0:
480,240,205142,1,0,0:0:0:0:
480,240,205229,1,0,0:0:0:0:
480,240,205316,1,0,0:0:0:0:
480,240,205403,1,0,0:0:0:0:
480,240,205491,1,0,0:0:0:0:
480,240,205578,1,0,0:0:0:0:
480,240,205665,1,0,0:0:0:0:
480,240,205752,1,0,0:0:0:0:
480,240,205840,1,0,0:0:0:0:
480,240,205927,1,0,0:0:0:0:
480,240,206014,1,0,0:0:0:0:
480,240,206101,1,0,0:0:0:0:
480,240,206189,1,0,0:0:0:0:
480,240,206276,1,0,0:0:0:0:
480,240,206363,1,0,0:0:0:0:
480,240,206450,1,4,0:1:0:0:
256,192,206537,12,0,208892,0:0:0:0:
288,320,209167,6,0,P|304:272|336:224,1,75.0000028610231
224,64,209509,1,0,0:0:0:0:
224,64,209681,2,0,P|208:112|176:160,1,75.0000028610231
128,224,210024,1,0,0:0:0:0:
240,304,210195,1,0,0:0:0:0:
275,292,210280,1,0,0:0:0:0:
306,271,210366,1,0,0:0:0:0:
328,241,210452,1,0,0:0:0:0:
341,206,210538,2,0,P|342:151|336:112,1,75.0000028610231
171,178,210882,2,0,P|170:233|176:272,1,75.0000028610231
304,352,211224,2,0,P|359:353|398:347,1,75.0000028610231
288,80,211567,2,0,P|233:79|194:85,1,75.0000028610231
80,208,211909,6,0,P|192:224|256:224,1,150.000005722046
384,176,212424,1,0,0:0:0:0:
352,64,212595,1,0,0:0:0:0:
256,144,212767,2,0,P|208:128|160:96,1,75.0000028610231
288,256,213109,1,0,0:0:0:0:
288,256,213195,1,0,0:0:0:0:
288,256,213281,2,0,P|242:278|186:289,1,75.0000028610231
320,224,213538,1,0,0:0:0:0:
320,224,213624,2,0,P|365:201|421:190,1,75.0000028610231
288,192,213881,1,0,0:0:0:0:
288,192,213967,2,0,L|272:112,1,75.0000028610231
192,272,214310,2,0,L|176:352,1,75.0000028610231
64,96,214653,6,0,L|96:256,1,150.000005722046
240,320,215167,2,0,L|320:304,1,75.0000028610231
432,208,215509,1,0,0:0:0:0:
432,208,215595,1,0,0:0:0:0:
432,208,215681,1,0,0:0:0:0:
464,304,215852,1,0,0:0:0:0:
320,208,216024,1,0,0:0:0:0:
384,32,216195,2,0,P|400:80|400:128,1,75.0000028610231
288,112,216538,1,0,0:0:0:0:
256,96,216623,1,0,0:0:0:0:
224,80,216709,2,0,P|176:80|128:96,1,75.0000028610231
336,208,217052,1,0,0:0:0:0:
192,160,217224,1,0,0:0:0:0:
112,256,217395,6,0,P|144:320|224:368,1,150.000005722046
288,256,217909,2,0,P|304:208|304:176,1,75.0000028610231
176,48,218253,2,0,P|160:96|160:128,1,75.0000028610231
128,304,218595,1,0,0:0:0:0:
160,320,218681,1,0,0:0:0:0:
192,336,218767,1,0,0:0:0:0:
320,320,218938,1,0,0:0:0:0:
352,320,219024,1,0,0:0:0:0:
384,320,219109,2,0,P|400:272|400:224,1,75.0000028610231
448,160,219367,1,0,0:0:0:0:
448,192,219453,2,0,P|400:208|352:208,1,75.0000028610231
128,80,219796,2,0,P|112:32|112:-16,1,75.0000028610231
288,64,220139,6,0,P|304:112|304:160,1,75.0000028610231
192,240,220481,1,0,0:0:0:0:
272,304,220652,2,0,P|309:299|344:286,1,75.0000028610231
192,240,220995,1,0,0:0:0:0:
368,368,221167,1,0,0:0:0:0:
401,351,221252,1,0,0:0:0:0:
428,325,221338,1,0,0:0:0:0:
445,292,221424,1,0,0:0:0:0:
451,255,221509,2,0,L|430:156,1,75.0000028610231
240,48,221852,2,0,L|261:147,1,75.0000028610231
352,272,222195,2,0,L|330:172,1,75.0000028610231
140,64,222538,2,0,L|161:163,1,75.0000028610231
176,224,257300,5,0,0:0:0:0:
176,224,257534,1,0,0:0:0:0:
176,224,257651,1,0,0:0:0:0:
176,224,257885,1,0,0:0:0:0:
176,224,258120,1,0,0:0:0:0:
176,224,258471,1,0,0:0:0:0:
176,224,258706,1,0,0:0:0:0:
256,256,259518,1,0,0:0:0:0:
256,256,259721,1,0,0:0:0:0:
256,256,259924,1,0,0:0:0:0:
256,256,260126,1,0,0:0:0:0:
256,256,260329,1,0,0:0:0:0:
384,96,285183,5,0,0:0:0:0:
320,192,285543,1,0,0:0:0:0:
208,112,285783,5,0,0:0:0:0:
128,256,286023,2,0,P|160:256|240:192,1,119.999996337891
134,81,286383,2,0,P|128:112|128:144,1,59.9999981689454
208,288,286623,2,0,P|288:304|336:288,1,119.999996337891
432,144,286983,2,0,P|432:96|352:80,1,119.999996337891
192,192,287463,1,0,0:0:0:0:
174,40,287583,2,0,P|189:66|192:96,1,59.9999981689454
112,160,287823,1,0,0:0:0:0:
144,256,287943,2,0,P|160:264|208:279,1,59.9999981689454
288,208,288183,2,0,P|320:192|416:160,1,119.999996337891
496,192,288543,2,0,P|480:160|512:64,1,119.999996337891
368,80,288903,1,0,0:0:0:0:
288,48,289023,1,0,0:0:0:0:
208,64,289143,2,0,P|176:80|144:112,1,59.9999981689454
64,64,289383,2,0,P|44:93|32:137,1,59.9999981689454
64,192,289623,5,0,0:0:0:0:
288,48,289863,1,0,0:0:0:0:
160,288,290103,1,0,0:0:0:0:
256,256,290223,2,0,L|320:272,1,59.9999981689454
432,176,290463,2,0,P|416:240|432:304,1,119.999996337891
336,96,290823,2,0,P|320:128|309:173,1,59.9999981689454
176,96,291063,2,0,P|178:131|191:176,1,59.9999981689454
37,175,291303,2,0,P|56:204|90:236,1,59.9999981689454
512,320,291543,1,0,0:0:0:0:
0,256,291903,1,0,0:0:0:0:
512,128,292263,1,0,0:0:0:0:
0,64,292623,1,0,0:0:0:0:
256,304,292983,2,0,L|256:224,1,59.9999981689454
256,80,293223,2,0,L|256:160,1,59.9999981689454
336,192,293463,6,0,P|336:224|352:272,1,59.9999981689454
464,336,293703,2,0,L|400:320,1,59.9999981689454
304,336,293943,1,0,0:0:0:0:
160,224,294063,2,0,P|144:176|144:144,1,59.9999981689454
272,16,294303,2,0,P|288:80|272:160,1,119.999996337891
143,166,294663,2,0,P|176:128|204:112,1,59.9999981689454
256,208,294903,2,0,L|384:208,1,119.999996337891
256,208,295383,2,0,L|128:208,1,119.999996337891
240,64,295743,2,0,P|256:96|270:136,1,59.9999981689454
272,320,295983,1,0,0:0:0:0:
272,320,296103,2,0,P|256:288|242:248,1,59.9999981689454
352,144,296343,1,0,0:0:0:0:
384,224,296463,1,0,0:0:0:0:
435,291,296583,1,0,0:0:0:0:
509,337,296703,1,0,0:0:0:0:
464,112,296823,1,0,0:0:0:0:
272,208,297063,1,0,0:0:0:0:
80,96,297303,6,0,P|80:176|96:224,1,119.999996337891
176,288,297663,1,0,0:0:0:0:
240,208,297783,2,0,P|288:192|320:192,1,59.9999981689454
416,256,298023,1,0,0:0:0:0:
352,336,298143,2,0,P|304:352|256:304,1,119.999996337891
224,144,298503,2,0,P|246:98|269:76,1,59.9999981689454
416,256,298743,1,0,0:0:0:0:
96,256,298983,1,0,0:0:0:0:
416,64,299223,2,0,P|400:144|368:192,1,119.999996337891
224,224,299583,1,0,0:0:0:0:
288,144,299703,1,0,0:0:0:0:
320,240,299823,2,0,P|320:288|304:320,1,59.9999981689454
112,208,300063,2,0,P|128:128|160:80,1,119.999996337891
368,32,300423,1,0,0:0:0:0:
256,160,300663,1,0,0:0:0:0:
144,288,300903,1,0,0:0:0:0:
272,64,301143,6,0,P|320:96|336:112,1,59.9999981689454
432,192,301383,1,0,0:0:0:0:
336,208,301503,1,0,0:0:0:0:
272,288,301623,2,0,P|208:272|144:240,1,119.999996337891
336,208,301983,2,0,P|400:224|464:256,1,119.999996337891
352,288,302343,2,0,P|352:336|343:371,1,59.9999981689454
256,208,302583,2,0,P|256:160|265:125,1,59.9999981689454
320,16,302823,1,0,0:0:0:0:
336,112,302943,1,0,0:0:0:0:
224,64,303063,2,0,P|192:48|96:48,1,119.999996337891
288,320,303543,2,0,P|343:342|402:339,1,119.999996337891
480,256,303903,1,0,0:0:0:0:
384,176,304023,2,0,L|368:240,1,59.9999981689454
288,144,304263,2,0,L|272:208,1,59.9999981689454
192,112,304503,2,0,L|176:176,1,59.9999981689454
192,320,304743,2,0,L|208:256,1,59.9999981689454
224,32,304983,1,0,0:0:0:0:
80,256,305428,5,0,0:0:0:0:
80,256,305781,1,0,0:0:0:0:
176,320,306132,5,0,0:0:0:0:
368,256,306485,1,0,0:0:0:0:
288,16,306838,1,0,0:0:0:0:
160,144,307191,1,0,0:0:0:0:
352,128,307545,1,0,0:0:0:0:
80,240,307898,1,0,0:0:0:0:
448,208,308251,1,0,0:0:0:0:
256,288,308604,5,0,0:0:0:0:
256,288,308781,1,0,0:0:0:0:
256,288,308957,1,0,0:0:0:0:
256,288,309132,1,0,0:0:0:0:
256,288,309310,1,0,0:0:0:0:
256,288,309485,1,0,0:0:0:0:
256,288,309662,1,0,0:0:0:0:
256,288,309838,1,0,0:0:0:0:
352,368,310016,1,0,0:0:0:0:
352,368,310104,1,0,0:0:0:0:
352,368,310192,1,0,0:0:0:0:
352,368,310281,1,0,0:0:0:0:
352,368,310369,1,0,0:0:0:0:
352,368,310457,1,0,0:0:0:0:
352,368,310545,1,0,0:0:0:0:
352,368,310633,1,0,0:0:0:0:
352,368,310722,1,0,0:0:0:0:
352,368,310810,1,0,0:0:0:0:
352,368,310898,1,0,0:0:0:0:
352,368,310986,1,0,0:0:0:0:
352,368,311074,1,0,0:0:0:0:
352,368,311163,1,0,0:0:0:0:
352,368,311251,1,0,0:0:0:0:
352,368,311339,1,0,0:0:0:0:
352,368,311428,6,0,P|400:304|416:224,1,139.999995727539
415,246,311957,2,0,P|368:256|272:240,1,139.999995727539
352,128,312486,1,0,0:0:0:0:
288,352,312663,2,0,P|242:336|167:274,1,139.999995727539
272,64,313192,2,0,P|288:96|288:144,1,69.9999978637696
256,240,313545,1,0,0:0:0:0:
144,208,313722,1,0,0:0:0:0:
256,240,313898,1,0,0:0:0:0:
160,128,314075,1,0,0:0:0:0:
74,301,314251,6,0,P|160:352|208:352,1,139.999995727539
197,353,314781,2,0,P|283:302|331:302,1,139.999995727539
416,368,315310,1,0,0:0:0:0:
496,192,315486,2,0,P|410:141|362:141,1,139.999995727539
272,192,316016,1,0,0:0:0:0:
176,144,316192,2,0,P|176:80|192:48,1,69.9999978637696
272,192,316545,1,0,0:0:0:0:
176,240,316722,1,0,0:0:0:0:
80,192,316898,1,0,0:0:0:0:
288,48,317075,6,0,P|320:96|352:192,1,139.999995727539
304,288,317604,1,0,0:0:0:0:
435,195,317780,1,0,0:0:0:0:
409,173,317868,1,0,0:0:0:0:
377,159,317957,1,0,0:0:0:0:
342,156,318045,1,0,0:0:0:0:
308,163,318133,1,0,0:0:0:0:
278,181,318221,1,0,0:0:0:0:
256,208,318310,2,0,P|160:176|128:128,1,139.999995727539
272,112,318839,1,0,0:0:0:0:
240,304,319016,1,0,0:0:0:0:
80,256,319192,1,0,0:0:0:0:
64,224,319280,1,0,0:0:0:0:
54,191,319368,1,0,0:0:0:0:
52,156,319456,1,0,0:0:0:0:
56,121,319545,2,0,P|74:87|80:48,1,69.9999978637696
192,208,319898,6,0,L|352:176,1,139.999995727539
329,180,320428,2,0,L|169:148,1,139.999995727539
448,208,320957,1,0,0:0:0:0:
238,53,321133,1,0,0:0:0:0:
222,69,321222,1,0,0:0:0:0:
205,83,321310,2,0,L|191:152,1,69.9999978637696
256,240,321575,1,0,0:0:0:0:
256,240,321663,2,0,L|269:171,1,69.9999978637696
332,258,321928,1,0,0:0:0:0:
332,258,322016,2,0,L|325:292,1,34.9999989318848
240,320,322192,2,0,L|210:339,1,34.9999989318848
160,336,322369,1,0,0:0:0:0:
138,308,322457,1,0,0:0:0:0:
124,276,322545,1,0,0:0:0:0:
119,242,322633,1,0,0:0:0:0:
123,207,322721,1,0,0:0:0:0:
208,112,322898,5,0,0:0:0:0:
208,112,322986,1,0,0:0:0:0:
208,112,323075,1,0,0:0:0:0:
320,144,323251,1,0,0:0:0:0:
384,240,323428,1,0,0:0:0:0:
400,64,323604,1,0,0:0:0:0:
240,224,323780,1,0,0:0:0:0:
112,160,323957,1,0,0:0:0:0:
144,48,324133,2,0,P|208:32|304:48,1,139.999995727539
384,112,324663,2,0,B|352:176|352:176|384:256,1,139.999995727539
400,336,325192,1,0,0:0:0:0:
304,304,325369,1,0,0:0:0:0:
144,352,325545,6,0,P|112:304|96:192,1,139.999995727539
112,96,326075,1,0,0:0:0:0:
208,176,326251,2,0,P|224:224|224:256,2,69.9999978637696
112,96,326780,1,0,0:0:0:0:
144,256,326957,2,0,P|147:290|160:323,1,69.9999978637696
288,192,327310,2,0,P|352:176|400:96,1,139.999995727539
224,96,327839,1,0,0:0:0:0:
224,96,327928,1,0,0:0:0:0:
224,96,328016,1,0,0:0:0:0:
192,192,328192,1,0,0:0:0:0:
256,272,328369,6,0,P|320:272|416:288,1,139.999995727539
256,112,328898,2,0,P|186:111|116:101,1,139.999995727539
352,96,329428,2,0,P|368:160|368:192,1,69.9999978637696
160,288,329781,2,0,P|148:254|143:220,1,69.9999978637696
160,112,330133,1,0,0:0:0:0:
208,192,330310,1,0,0:0:0:0:
272,256,330486,2,0,P|336:272|432:240,1,139.999995727539
288,112,331016,1,0,0:0:0:0:
160,288,331192,6,0,P|208:320|288:352,1,139.999995727539
416,336,331722,1,0,0:0:0:0:
416,336,331810,1,0,0:0:0:0:
416,336,331898,1,0,0:0:0:0:
304,272,332075,1,0,0:0:0:0:
384,96,332251,2,0,P|400:128|400:192,1,69.9999978637696
208,256,332604,2,0,P|176:240|112:240,1,69.9999978637696
96,256,332869,1,0,0:0:0:0:
96,256,332957,1,0,0:0:0:0:
224,352,333133,1,0,0:0:0:0:
224,352,333222,1,0,0:0:0:0:
224,352,333310,1,0,0:0:0:0:
254,334,333398,1,0,0:0:0:0:
286,320,333486,1,0,0:0:0:0:
319,310,333574,1,0,0:0:0:0:
354,305,333662,1,0,0:0:0:0:
348,270,333752,1,0,0:0:0:0:
338,236,333840,1,0,0:0:0:0:
324,204,333928,1,0,0:0:0:0:
307,174,334016,6,0,P|304:112|336:16,1,139.999995727539
256,80,334545,2,0,P|192:80|112:128,1,139.999995727539
64,208,335075,1,0,0:0:0:0:
256,304,335251,2,0,P|317:304|352:288,1,69.9999978637696
400,224,335604,1,0,0:0:0:0:
256,304,335780,1,0,0:0:0:0:
208,192,335957,1,0,0:0:0:0:
272,80,336134,1,0,0:0:0:0:
304,224,336310,1,0,0:0:0:0:
272,80,336487,1,0,0:0:0:0:
400,272,336663,1,0,0:0:0:0:
304,224,336839,6,0,P|224:224|160:256,1,139.999995727539
170,248,337369,2,0,P|112:256|32:192,1,139.999995727539
96,96,337898,1,0,0:0:0:0:
96,288,338075,2,0,P|160:336|224:352,1,139.999995727539
336,288,338604,1,0,0:0:0:0:
448,304,338780,2,0,P|432:336|400:368,1,69.9999978637696
240,288,339133,1,0,0:0:0:0:
224,128,339310,1,0,0:0:0:0:
352,32,339486,1,0,0:0:0:0:
256,208,339663,6,0,P|180:223|112:192,1,139.999995727539
64,112,340192,1,0,0:0:0:0:
32,240,340369,1,0,0:0:0:0:
48,256,340457,1,0,0:0:0:0:
64,272,340545,1,0,0:0:0:0:
80,288,340633,1,0,0:0:0:0:
96,304,340722,1,0,0:0:0:0:
112,320,340810,1,0,0:0:0:0:
128,336,340898,2,0,P|208:320|288:320,1,139.999995727539
416,256,341428,1,0,0:0:0:0:
384,160,341604,1,0,0:0:0:0:
272,144,341780,1,0,0:0:0:0:
250,171,341868,1,0,0:0:0:0:
236,203,341956,1,0,0:0:0:0:
231,237,342044,1,0,0:0:0:0:
235,272,342133,2,0,P|256:320|256:368,1,69.9999978637696
32,160,342486,6,0,P|80:192|176:208,1,139.999995727539
352,176,343016,2,0,P|288:176|253:188,1,69.9999978637696
144,304,343369,1,0,0:0:0:0:
256,272,343545,1,0,0:0:0:0:
156,201,343722,2,0,P|163:132|208:80,1,139.999995727539
232,105,344163,1,0,0:0:0:0:
261,123,344251,1,0,0:0:0:0:
295,134,344339,1,0,0:0:0:0:
329,136,344427,1,0,0:0:0:0:
364,129,344516,1,0,0:0:0:0:
394,112,344604,2,0,L|422:82,1,34.9999989318848
448,192,344780,2,0,L|476:162,1,34.9999989318848
298,192,344957,2,0,L|274:217,1,34.9999989318848
352,272,345133,2,0,L|328:297,1,34.9999989318848
432,272,345310,1,0,0:0:0:0:
192,224,345663,5,0,0:0:0:0:
96,272,345839,1,0,0:0:0:0:
32,192,346016,2,0,P|16:128|0:96,2,69.9999978637696
16,304,346545,1,0,0:0:0:0:
128,256,346722,2,0,L|272:256,1,139.999995727539
368,320,347251,2,0,B|384:288|384:288|384:240,1,69.9999978637696
384,64,347604,1,0,0:0:0:0:
288,112,347780,1,0,0:0:0:0:
192,160,347957,1,0,0:0:0:0:
368,160,348133,6,0,L|400:320,1,139.999995727539
304,64,348663,1,0,0:0:0:0:
288,96,348751,1,0,0:0:0:0:
272,128,348839,2,0,L|304:288,1,139.999995727539
240,16,349369,1,0,0:0:0:0:
176,96,349545,2,0,L|208:256,1,139.999995727539
384,64,350075,2,0,L|315:77,1,69.9999978637696
144,96,350428,1,0,0:0:0:0:
240,144,350604,2,0,P|261:182|256:240,1,69.9999978637696
80,256,350957,6,0,P|144:272|224:336,1,139.999995727539
432,224,351486,2,0,P|374:263|307:281,1,139.999995727539
192,192,352016,2,0,P|176:144|160:128,1,69.9999978637696
368,64,352369,2,0,L|336:160,1,69.9999978637696
304,224,352722,1,0,0:0:0:0:
400,272,352898,1,0,0:0:0:0:
400,272,352986,1,0,0:0:0:0:
400,272,353075,1,0,0:0:0:0:
336,352,353251,1,0,0:0:0:0:
192,240,353428,2,0,P|192:288|208:336,1,69.9999978637696
288,208,353780,6,0,P|336:160|416:144,1,139.999995727539
256,112,354310,2,0,P|208:64|128:48,1,139.999995727539
32,112,354839,1,0,0:0:0:0:
32,112,355016,1,0,0:0:0:0:
112,176,355192,2,0,P|128:208|128:256,1,69.9999978637696
112,272,355457,1,0,0:0:0:0:
112,272,355545,1,0,0:0:0:0:
32,192,355722,1,0,0:0:0:0:
160,96,355898,1,0,0:0:0:0:
183,92,355986,1,0,0:0:0:0:
206,88,356074,1,0,0:0:0:0:
229,85,356163,1,0,0:0:0:0:
222,133,356251,1,0,0:0:0:0:
227,182,356339,1,0,0:0:0:0:
244,228,356427,1,0,0:0:0:0:
271,268,356515,1,0,0:0:0:0:
306,302,356604,6,0,L|384:320,1,69.9999978637696
288,80,356957,2,0,L|132:116,1,139.999995727539
256,160,379281,6,0,L|256:176,15,12.5
192,224,379962,6,0,L|192:288,1,50
320,224,380304,2,0,L|320:288,1,50
256,173,380644,1,0,0:0:0:0:
256,320,380815,2,0,L|256:370,1,50
256,80,381156,5,0,0:0:0:0:
128,160,381326,1,0,0:0:0:0:
256,240,381497,1,0,0:0:0:0:
384,160,381667,1,0,0:0:0:0:
256,80,381838,1,0,0:0:0:0:
176,224,382008,2,0,P|176:272|160:336,1,100
336,224,382349,2,0,P|336:272|352:336,1,100
352,64,382690,1,0,0:0:0:0:
256,192,382860,1,0,0:0:0:0:
256,192,382945,1,0,0:0:0:0:
256,192,383031,2,0,L|256:304,1,100
160,64,383372,1,0,0:0:0:0:
352,192,383542,1,0,0:0:0:0:
160,320,383713,1,0,0:0:0:0:
256,133,383883,1,0,0:0:0:0:
336,272,384053,5,0,0:0:0:0:
176,272,384224,1,0,0:0:0:0:
256,170,384395,1,0,0:0:0:0:
304,253,384565,1,0,0:0:0:0:
208,253,384735,1,0,0:0:0:0:
256,170,384906,1,0,0:0:0:0:
304,336,385076,2,0,B|256:350|256:350|208:336,1,100
208,224,385417,1,0,0:0:0:0:
288,80,385588,1,0,0:0:0:0:
288,80,385673,1,0,0:0:0:0:
288,80,385758,1,0,0:0:0:0:
352,256,385928,1,0,0:0:0:0:
160,256,386099,1,0,0:0:0:0:
224,80,386269,1,0,0:0:0:0:
224,80,386354,1,0,0:0:0:0:
224,80,386439,1,0,0:0:0:0:
304,224,386610,1,0,0:0:0:0:
208,224,386781,5,0,0:0:0:0:
256,32,386951,1,0,0:0:0:0:
400,192,387122,2,0,P|400:240|384:304,1,100
123,290,387463,2,0,P|112:241|112:192,1,100
304,192,387803,1,0,0:0:0:0:
256,320,387974,1,0,0:0:0:0:
208,192,388145,1,0,0:0:0:0:
256,64,388315,1,0,0:0:0:0:
294,192,388485,1,0,0:0:0:0:
217,192,388656,1,0,0:0:0:0:
256,89,388826,1,0,0:0:0:0:
352,128,388997,1,0,0:0:0:0:
256,224,389167,1,0,0:0:0:0:
160,128,389338,1,0,0:0:0:0:
352,224,389508,6,0,P|368:272|368:320,1,100
256,384,389849,1,0,0:0:0:0:
144,320,390019,2,0,P|144:271|160:224,1,100
367,63,390360,2,0,P|367:112|352:160,1,100
160,160,390701,2,0,P|144:112|144:63,1,100
256,128,391042,1,0,0:0:0:0:
256,128,391127,1,0,0:0:0:0:
256,128,391213,2,0,L|256:240,1,100
256,336,391553,1,0,0:0:0:0:
256,128,391724,2,0,L|256:28,1,100
256,228,392065,1,0,0:0:0:0:
144,288,392235,5,0,0:0:0:0:
368,288,392406,1,0,0:0:0:0:
256,336,392576,1,0,0:0:0:0:
256,228,392747,1,0,0:0:0:0:
368,288,392917,1,0,0:0:0:0:
144,288,393088,1,0,0:0:0:0:
256,128,393258,2,0,L|256:228,1,100
144,288,393599,2,0,P|96:256|64:224,1,100
368,288,393940,2,0,P|416:256|448:224,1,100
256,80,394281,1,0,0:0:0:0:
256,256,394451,1,0,0:0:0:0:
256,256,394536,1,0,0:0:0:0:
256,256,394622,2,0,L|256:356,1,100
160,192,394963,5,0,0:0:0:0:
256,256,395133,1,0,0:0:0:0:
352,192,395304,1,0,0:0:0:0:
256,128,395474,1,0,0:0:0:0:
200,224,395645,1,0,2:0:0:0:
311,224,395815,1,0,2:0:0:0:
256,128,395985,2,0,L|256:16,1,100
200,224,396326,2,0,P|208:288|176:336,1,100
318,318,396667,2,0,P|301:272|311:224,1,100
400,96,397008,1,0,0:0:0:0:
256,160,397178,1,0,0:0:0:0:
256,160,397264,1,0,0:0:0:0:
256,160,397349,1,0,0:0:0:0:
112,96,397519,1,0,0:0:0:0:
208,64,397690,5,0,0:0:0:0:
304,256,397860,1,0,0:0:0:0:
304,256,397945,1,0,0:0:0:0:
304,256,398031,2,0,P|368:256|432:240,1,100
304,64,398372,1,0,0:0:0:0:
208,256,398542,1,0,0:0:0:0:
208,256,398627,1,0,0:0:0:0:
208,256,398713,2,0,P|144:256|80:240,1,100
160,64,399053,2,0,P|161:126|192:176,1,100
352,64,399395,2,0,P|351:126|320:176,1,100
256,96,399735,1,0,0:0:0:0:
352,256,399906,1,0,0:0:0:0:
352,256,399991,1,0,0:0:0:0:
352,256,400076,1,0,0:0:0:0:
256,320,400247,1,0,0:0:0:0:
160,256,400417,5,0,0:0:0:0:
369,158,400758,1,0,0:0:0:0:
143,158,401099,1,0,0:0:0:0:
352,256,401440,1,0,0:0:0:0:
192,160,401781,1,0,0:0:0:0:
320,160,401951,1,0,0:0:0:0:
256,88,402122,2,0,L|256:-16,1,100
288,224,402463,1,0,0:0:0:0:
288,224,402548,1,0,0:0:0:0:
288,224,402633,1,0,0:0:0:0:
288,224,402718,1,0,0:0:0:0:
288,224,402803,1,0,0:0:0:0:
288,224,402889,1,0,0:0:0:0:
288,224,402974,1,0,0:0:0:0:
288,224,403059,1,0,0:0:0:0:
288,224,403144,1,0,0:0:0:0:
176,288,403485,6,0,P|112:272|80:240,1,100
78,164,403826,2,0,P|176:180|256:240,1,200
433,164,404338,2,0,P|335:180|255:239,1,200
335,287,404849,2,0,P|384:279|424:250,1,100
352,80,405190,1,0,0:0:0:0:
160,80,405531,1,0,0:0:0:0:
416,320,405872,5,0,0:0:0:0:
96,320,406213,1,0,0:0:0:0:
256,176,406553,2,0,L|256:64,2,100
176,240,407065,2,0,B|228:256|256:296|256:296|284:256|336:240,1,200
368,144,407576,2,0,P|320:96|304:48,1,100
144,144,407917,2,0,P|192:96|208:48,1,100
256,160,408258,1,0,0:0:0:0:
384,224,408428,1,0,0:0:0:0:
496,144,408599,5,0,0:0:0:0:
16,240,408940,1,0,0:0:0:0:
496,336,409281,1,0,0:0:0:0:
16,48,409622,1,0,0:0:0:0:
496,240,409963,1,0,0:0:0:0:
16,144,410303,1,0,0:0:0:0:
160,288,410644,2,0,P|256:311|352:288,1,200
256,16,411156,1,0,0:0:0:0:
256,192,411241,12,0,412690,0:0:0:0:
256,288,413031,5,0,0:0:0:0:
256,256,413372,1,0,0:0:0:0:
160,192,413627,1,0,0:0:0:0:
256,128,413883,1,0,0:0:0:0:
256,368,414052,1,0,0:0:0:0:
256,256,414224,1,0,0:0:0:0:
368,240,414367,6,0,L|384:240,23,12.5
320,272,415316,6,0,P|280:271|241:262,1,80
32,144,415631,2,0,P|112:96|208:64,1,160
304,112,416105,1,0,0:0:0:0:
192,240,416263,1,0,0:0:0:0:
144,144,416421,1,0,0:0:0:0:
304,112,416579,1,0,0:0:0:0:
192,240,416737,1,0,0:0:0:0:
208,64,416894,1,0,0:0:0:0:
304,112,417052,1,0,0:0:0:0:
304,112,417131,1,0,0:0:0:0:
304,112,417210,1,0,0:0:0:0:
192,240,417368,1,0,0:0:0:0:
128,128,417526,2,0,P|128:80|144:32,1,80
320,144,417843,6,0,P|368:144|416:160,1,80
176,207,418158,2,0,P|253:223|319:268,1,160
319,268,418631,1,0,0:0:0:0:
144,304,418789,1,0,0:0:0:0:
80,176,418947,1,0,0:0:0:0:
160,48,419105,1,0,0:0:0:0:
144,304,419263,1,0,0:0:0:0:
144,304,419342,1,0,0:0:0:0:
144,304,419421,1,0,0:0:0:0:
80,176,419579,1,0,0:0:0:0:
192,144,419737,1,0,0:0:0:0:
64,272,419894,1,0,0:0:0:0:
64,272,419973,1,0,0:0:0:0:
64,272,420052,2,0,L|32:352,1,80
50,157,420368,6,0,P|90:162|128:176,1,80
288,144,420684,2,0,P|336:192|336:304,1,160
256,336,421158,1,0,0:0:0:0:
288,144,421316,1,0,0:0:0:0:
416,64,421473,1,0,0:0:0:0:
448,160,421631,1,0,0:0:0:0:
480,256,421789,1,0,0:0:0:0:
480,256,421868,1,0,0:0:0:0:
480,256,421947,1,0,0:0:0:0:
416,64,422105,1,0,0:0:0:0:
448,160,422263,1,0,0:0:0:0:
320,240,422421,1,0,0:0:0:0:
320,240,422500,1,0,0:0:0:0:
320,240,422579,2,0,P|256:240|208:224,1,80
80,48,422894,6,0,L|96:144,1,80
256,16,423210,2,0,L|256:112,1,80
432,48,423526,2,0,L|416:144,1,80
400,256,423842,1,0,0:0:0:0:
320,368,424000,2,0,P|288:336|240:208,1,160
320,32,424473,1,0,0:0:0:0:
352,256,424631,1,0,0:0:0:0:
352,256,424710,1,0,0:0:0:0:
352,256,424789,2,0,P|320:288|272:304,1,80
192,144,425105,2,0,P|160:112|112:96,1,80
160,320,425422,6,0,P|192:352|240:368,1,80
406,163,425737,2,0,P|383:240|384:320,1,160
383,319,426210,1,0,0:0:0:0:
480,160,426368,1,0,0:0:0:0:
352,144,426526,1,0,0:0:0:0:
128,112,426684,1,0,0:0:0:0:
224,192,426842,1,0,0:0:0:0:
224,192,426921,1,0,0:0:0:0:
224,192,427000,1,0,0:0:0:0:
352,144,427158,1,0,0:0:0:0:
232,113,427316,2,0,P|222:152|224:192,1,80
304,352,427632,2,0,P|313:313|312:273,1,80
16,256,427947,6,0,P|64:272|112:272,1,80
232,113,428263,2,0,P|207:188|199:268,1,160
199,268,428737,1,0,0:0:0:0:
144,80,428894,1,0,0:0:0:0:
272,160,429052,2,0,P|320:160|368:144,1,80
448,48,429368,1,0,0:0:0:0:
288,48,429526,1,0,0:0:0:0:
368,272,429684,1,0,0:0:0:0:
432,160,429842,1,0,0:0:0:0:
392,158,429920,1,0,0:0:0:0:
352,161,429999,1,0,0:0:0:0:
313,170,430078,1,0,0:0:0:0:
275,183,430158,2,0,P|256:224|208:256,1,80
192,64,430474,6,0,P|195:108|170:160,1,80
64,336,430789,2,0,P|96:288|208:256,1,160
188,253,431263,1,0,0:0:0:0:
272,320,431421,1,0,0:0:0:0:
208,80,431579,2,0,P|189:126|176:176,1,80
272,320,431894,1,0,0:0:0:0:
352,272,432052,2,0,P|340:233|324:197,1,80
208,80,432368,1,0,0:0:0:0:
144,240,432526,1,0,0:0:0:0:
144,240,432605,1,0,0:0:0:0:
144,240,432684,2,0,P|190:259|240:272,1,80
448,192,433000,5,0,0:0:0:0:
352,160,433158,1,0,0:0:0:0:
288,80,433316,2,0,P|240:64|192:64,1,80
352,272,433631,1,0,0:0:0:0:
384,80,433789,1,0,0:0:0:0:
256,176,433947,1,0,0:0:0:0:
128,80,434105,2,0,P|80:112|32:208,1,160
352,384,434579,1,0,0:0:0:0:
224,224,434737,1,0,0:0:0:0:
224,224,434816,1,0,0:0:0:0:
224,224,434894,1,0,0:0:0:0:
48,288,435210,1,0,0:0:0:0:
400,160,435526,1,0,0:0:0:0:
256,192,436185,12,0,437221,0:0:0:0:
160,96,437570,6,0,P|144:128|128:208,1,89.9999972534181,2|0,0:1|0:0,0:0:0:0:
320,240,437916,2,0,P|336:272|352:352,1,89.9999972534181,2|0,0:1|0:0,0:0:0:0:
162,324,438261,2,2,P|172:280|191:240,1,89.9999972534181,2|0,0:1|0:0,0:1:0:0:
288,96,438606,1,0,0:0:0:0:
272,272,438779,2,2,P|192:240|144:128,1,179.999994506836,2|0,0:1|0:0,0:1:0:0:
368,80,439298,1,2,0:1:0:0:
368,192,439470,2,0,P|304:176|262:148,1,89.9999972534181,2|0,0:1|0:0,0:0:0:0:
176,32,439816,1,0,0:0:0:0:
176,32,439902,1,0,0:0:0:0:
176,32,439989,1,0,0:0:0:0:
192,128,440162,1,0,0:0:0:0:
128,208,440334,6,0,L|64:288,1,89.9999972534181,2|0,0:1|0:0,0:0:0:0:
293,143,440680,2,0,L|394:158,1,89.9999972534181,2|0,0:1|0:0,0:0:0:0:
192,128,441026,1,2,0:1:0:0:
288,240,441199,1,0,0:0:0:0:
416,224,441371,1,0,0:0:0:0:
304,68,441544,2,2,B|270:151|270:151|288:240,1,179.999994506836,2|0,0:1|0:0,0:1:0:0:
320,352,442063,1,2,0:1:0:0:
384,240,442235,2,0,B|366:151,1,89.9999972534181,2|0,0:1|0:0,0:0:0:0:
256,48,442581,1,0,0:0:0:0:
256,48,442667,1,0,0:0:0:0:
256,48,442754,1,0,0:0:0:0:
192,112,442927,1,0,0:0:0:0:
96,96,443099,6,2,P|64:176|80:272,1,179.999994506836,2|2,0:1|0:1,0:1:0:0:
192,208,443618,2,0,P|224:224|288:240,1,89.9999972534181,2|0,0:1|0:0,0:0:0:0:
384,208,443964,1,0,0:0:0:0:
320,64,444136,2,0,P|288:48|224:32,1,89.9999972534181,2|0,0:1|0:0,0:0:0:0:
128,64,444482,1,2,0:1:0:0:
32,48,444655,1,0,0:0:0:0:
96,144,444828,1,2,0:1:0:0:
192,208,445001,2,0,P|224:224|288:240,1,89.9999972534181,2|0,0:1|0:0,0:0:0:0:
384,208,445346,1,0,0:0:0:0:
320,64,445519,2,0,P|288:48|224:32,1,89.9999972534181,2|0,0:1|0:0,0:0:0:0:
64,48,445864,5,2,0:1:0:0:
128,128,446037,1,0,0:0:0:0:
64,48,446210,1,2,0:1:0:0:
192,208,446383,2,0,P|224:224|288:240,1,89.9999972534181,2|0,0:1|0:0,0:0:0:0:
384,208,446728,1,0,0:0:0:0:
320,64,446901,2,0,P|288:48|224:32,1,89.9999972534181,2|0,0:1|0:0,0:0:0:0:
112,128,447247,2,2,P|128:176|64:304,1,179.999994506836,2|2,0:1|0:1,0:1:0:0:
208,240,447765,2,0,P|256:240|304:256,1,89.9999972534181,2|0,0:1|0:0,0:0:0:0:
336,288,448025,1,0,0:0:0:0:
336,288,448111,1,2,0:1:0:0:
400,192,448284,1,2,0:1:0:0:
352,80,448457,1,2,0:1:0:0:
208,112,448629,6,0,L|240:208,1,89.9999972534181,2|0,0:1|0:0,0:0:0:0:
304,336,448975,2,0,L|332:250,1,89.9999972534181,2|0,0:1|0:0,0:0:0:0:
208,112,449321,1,2,0:1:0:0:
112,224,449493,1,0,0:0:0:0:
224,208,449666,1,2,0:1:0:0:
304,96,449839,2,0,P|288:48|256:0,1,89.9999972534181,2|0,0:1|0:0,0:0:0:0:
128,160,450185,1,2,0:1:0:0:
224,208,450358,1,2,0:1:0:0:
400,160,450530,2,0,P|422:114|433:58,1,89.9999972534181,2|0,0:1|0:0,0:0:0:0:
408,168,450876,1,2,0:1:0:0:
408,168,450962,1,0,0:0:0:0:
408,168,451049,1,0,0:0:0:0:
272,192,451222,1,2,0:1:0:0:
144,208,451394,6,0,L|160:112,1,89.9999972534181,2|0,0:1|0:0,0:0:0:0:
368,176,451740,2,0,L|352:272,1,89.9999972534181,2|0,0:1|0:0,0:0:0:0:
160,304,452086,2,0,L|64:288,1,89.9999972534181,2|0,0:1|0:0,0:0:0:0:
256,192,452431,1,2,0:1:0:0:
353,264,452604,2,0,L|337:360,1,89.9999972534181,2|0,0:1|0:0,0:0:0:0:
159,120,452950,2,0,L|175:24,1,89.9999972534181,2|0,0:1|0:0,0:0:0:0:
256,192,453296,2,0,L|240:288,1,89.9999972534181,2|0,0:1|0:0,0:0:0:0:
80,320,453641,1,2,0:1:0:0:
80,320,453727,1,0,0:0:0:0:
80,320,453814,1,0,0:0:0:0:
144,224,453987,1,2,0:1:0:0:
304,352,454159,6,2,P|352:320|416:208,1,179.999994506836,2|0,0:1|0:0,0:1:0:0:
176,64,454678,2,0,P|161:106|157:151,1,89.9999972534181,2|0,0:1|0:0,0:0:0:0:
256,256,455023,1,0,0:0:0:0:
336,64,455196,2,0,B|307:47|307:47|240:48,1,89.9999972534181,2|0,0:1|0:0,0:0:0:0:
97,216,455542,2,2,P|137:296|208:352,1,179.999994506836,2|0,0:1|0:0,0:1:0:0:
354,151,456060,2,0,P|350:106|336:64,1,89.9999972534181,2|0,0:1|0:0,0:0:0:0:
160,128,456406,1,0,0:0:0:0:
352,256,456579,2,0,B|409:256|409:256|437:239,1,89.9999972534181,2|0,0:1|0:0,0:0:0:0:
256,224,456924,6,2,P|160:224|48:256,1,179.999994506836,2|0,0:1|0:0,0:1:0:0:
288,352,457443,2,0,P|320:320|336:256,1,89.9999972534181,2|0,0:1|0:0,0:0:0:0:
224,32,457788,1,0,0:0:0:0:
224,32,457875,1,0,0:0:0:0:
224,32,457961,2,0,P|192:64|176:128,1,89.9999972534181,2|0,0:1|0:0,0:0:0:0:
208,224,458307,1,2,0:1:0:0:
304,192,458480,1,0,0:0:0:0:
400,160,458652,1,0,0:0:0:0:
320,96,458825,1,2,0:1:0:0:
304,192,458998,1,0,0:0:0:0:
288,288,459171,1,0,0:0:0:0:
400,160,459344,1,2,0:1:0:0:
208,224,459517,1,0,0:0:0:0:
112,160,459689,6,2,P|96:64|128:-32,1,179.999994506836,2|2,0:1|0:1,0:1:0:0:
224,112,460208,1,0,0:0:0:0:
304,192,460381,2,0,L|400:192,1,89.9999972534181,2|0,0:1|0:0,0:0:0:0:
208,192,460726,2,0,L|112:192,1,89.9999972534181,2|0,0:1|0:0,0:0:0:0:
288,272,461072,1,2,0:1:0:0:
288,112,461245,1,0,0:0:0:0:
288,112,461331,1,0,0:0:0:0:
288,112,461417,1,2,0:1:0:0:
208,192,461590,1,2,0:1:0:0:
192,224,461677,1,0,0:0:0:0:
176,256,461763,2,0,L|192:304,1,44.999998626709,2|0,0:1|0:0,0:0:0:0:
321,301,461936,2,0,L|288:272,1,44.999998626709,2|0,0:1|0:0,0:0:0:0:
384,160,462109,2,0,L|369:202,1,44.999998626709,2|0,0:1|0:0,0:0:0:0:
225,110,462281,2,0,L|192:80,1,44.999998626709,2|0,0:1|0:0,0:0:0:0:
256,16,462454,5,6,0:1:0:0:
400,272,462627,1,6,0:1:0:0:
112,272,462973,5,6,0:1:0:0:
256,16,463146,1,6,0:1:0:0:
400,272,463491,5,6,0:1:0:0:
112,272,463664,1,6,0:1:0:0:
256,51,464010,5,6,0:1:0:0:
371,256,464182,1,6,0:1:0:0:
140,256,464355,1,6,0:1:0:0:
256,51,464528,1,6,0:1:0:0:
256,208,464874,6,0,L|256:320,1,89.9999972534181,2|0,0:1|0:0,0:0:0:0:
144,176,465219,2,0,P|176:144|192:96,1,89.9999972534181,2|0,0:1|0:0,0:0:0:0:
368,176,465565,2,0,P|336:144|320:96,1,89.9999972534181,2|0,0:1|0:0,0:0:0:0:
256,208,465941,5,0,0:0:0:0:
160,288,466148,1,4,0:1:0:0:
256,320,466354,1,0,0:0:0:0:
352,288,466561,1,0,0:0:0:0:
352,288,466665,1,0,0:0:0:0:
256,112,466872,1,0,0:0:0:0:
160,288,467079,1,0,0:0:0:0:
160,288,467183,1,0,0:0:0:0:
256,208,467389,2,0,L|256:112,1,96.0000023437501
368,32,467803,5,0,0:0:0:0:
448,128,468010,1,0,0:0:0:0:
368,224,468216,1,0,0:0:0:0:
368,32,468423,1,0,0:0:0:0:
448,128,468630,1,0,0:0:0:0:
304,128,468837,1,0,0:0:0:0:
304,128,468941,1,0,0:0:0:0:
304,128,469044,1,0,0:0:0:0:
160,128,469251,1,0,0:0:0:0:
240,16,469458,1,0,0:0:0:0:
240,240,469665,1,0,0:0:0:0:
46,127,469872,1,0,0:0:0:0:
304,128,470079,2,0,L|352:224,1,96.0000023437501
160,32,470492,1,0,0:0:0:0:
304,128,470699,1,0,0:0:0:0:
160,224,470906,1,0,0:0:0:0:
160,128,471113,5,0,0:0:0:0:
304,32,471320,1,0,0:0:0:0:
304,32,471423,1,0,0:0:0:0:
304,32,471527,1,0,0:0:0:0:
304,224,471734,1,0,0:0:0:0:
160,32,471941,1,0,0:0:0:0:
304,32,472148,1,0,0:0:0:0:
304,32,472251,1,0,0:0:0:0:
304,32,472354,1,0,0:0:0:0:
448,32,472561,1,0,0:0:0:0:
376,128,472768,1,0,0:0:0:0:
224,128,472975,1,0,0:0:0:0:
304,32,473182,1,0,0:0:0:0:
304,192,473389,2,0,L|304:288,1,96.0000023437501
144,192,473803,1,0,0:0:0:0:
144,32,474010,1,0,0:0:0:0:
304,32,474216,1,0,0:0:0:0:
192,272,474423,5,0,0:0:0:0:
192,112,474630,1,0,0:0:0:0:
192,112,474734,1,0,0:0:0:0:
192,112,474837,1,0,0:0:0:0:
272,192,475044,1,0,0:0:0:0:
432,192,475251,1,0,0:0:0:0:
272,352,475458,1,0,0:0:0:0:
352,112,475665,1,0,0:0:0:0:
192,112,475872,2,0,L|96:112,1,96.0000023437501
192,272,476285,1,0,0:0:0:0:
192,272,476389,1,0,0:0:0:0:
192,272,476492,1,0,0:0:0:0:
240,16,476699,1,0,0:0:0:0:
352,112,476906,1,0,0:0:0:0:
352,272,477113,1,0,0:0:0:0:
256,192,477320,1,0,0:0:0:0:
352,112,477527,1,0,0:0:0:0:
448,192,477734,6,0,L|448:384,1,192.0000046875
368,192,478354,1,0,0:0:0:0:
368,192,478561,2,0,L|368:384,1,192.0000046875
256,192,519216,12,4,520772,0:1:0:0:
368,128,520978,5,0,0:0:0:0:
368,128,521082,1,0,0:0:0:0:
368,128,521186,2,0,P|352:160|336:224,1,89.9999972534181,4|0,0:1|0:0,0:0:0:0:
96,160,521599,2,0,P|128:256|176:288,1,134.999995880127
240,272,522013,1,0,0:0:0:0:
272,128,522220,1,0,0:0:0:0:
272,128,522323,1,0,0:0:0:0:
272,128,522427,1,0,0:0:0:0:
192,192,522634,1,0,0:0:0:0:
320,240,522841,2,0,P|416:272|448:304,1,134.999995880127
439,293,523254,2,0,P|432:240|432:176,1,89.9999972534181
448,0,523668,1,0,0:0:0:0:
448,44,523771,1,0,0:0:0:0:
428,84,523874,1,0,0:0:0:0:
391,109,523978,1,0,0:0:0:0:
347,114,524081,1,0,0:0:0:0:
208,16,524289,5,0,0:0:0:0:
208,16,524392,1,0,0:0:0:0:
208,16,524496,2,0,P|192:64|192:128,1,89.9999972534181
256,336,524910,2,0,P|272:288|272:176,1,134.999995880127
272,128,525323,1,0,0:0:0:0:
144,192,525530,1,0,0:0:0:0:
144,192,525634,1,0,0:0:0:0:
144,192,525737,1,0,0:0:0:0:
32,256,525944,2,0,P|32:320|48:368,1,89.9999972534181
128,288,526358,1,0,0:0:0:0:
224,272,526565,2,0,P|279:304|328:314,1,89.9999972534181
384,208,526979,2,0,P|368:160|432:112,1,134.999995880127,4|0,0:0|0:0,0:0:0:0:
384,208,527392,6,0,P|336:176|288:160,1,89.9999972534181,4|0,0:0|0:0,0:0:0:0:
272,160,527703,1,0,0:0:0:0:
240,160,527806,2,0,P|256:224|256:272,1,89.9999972534181
64,224,528220,2,0,P|64:160|96:80,1,134.999995880127
144,32,528634,1,0,0:0:0:0:
272,80,528840,1,0,0:0:0:0:
272,80,528944,1,0,0:0:0:0:
272,80,529047,1,0,0:0:0:0:
384,16,529254,1,0,0:0:0:0:
192,48,529461,2,0,P|192:112|224:208,1,134.999995880127
210,180,529875,2,0,P|192:224|192:288,1,89.9999972534181
304,336,530289,1,0,0:0:0:0:
288,293,530392,1,0,0:0:0:0:
290,249,530495,1,0,0:0:0:0:
308,208,530599,1,0,0:0:0:0:
341,177,530702,1,0,0:0:0:0:
160,64,530910,5,0,0:0:0:0:
160,64,531013,1,0,0:0:0:0:
160,64,531117,2,0,P|176:128|192:160,1,89.9999972534181
368,224,531530,1,0,0:0:0:0:
400,48,531737,1,0,0:0:0:0:
304,16,531944,2,0,P|272:96|272:176,1,134.999995880127
288,304,532358,2,0,P|304:256|304:208,1,89.9999972534181
176,48,532772,1,0,0:0:0:0:
176,48,532979,1,0,0:0:0:0:
64,128,533186,2,0,P|0:112|-16:80,1,89.9999972534181
176,224,533599,2,0,P|256:224|320:160,1,134.999995880127
336,128,534013,1,0,0:0:0:0:
96,128,534220,5,0,0:0:0:0:
96,128,534323,1,0,0:0:0:0:
96,128,534427,2,0,P|80:176|80:224,1,89.9999972534181
192,336,534841,2,0,P|272:304|336:320,1,134.999995880127
384,368,535254,1,0,0:0:0:0:
240,256,535461,1,0,0:0:0:0:
240,256,535565,1,0,0:0:0:0:
240,256,535668,1,0,0:0:0:0:
192,176,535875,1,0,0:0:0:0:
288,80,536082,2,0,P|337:61|432:80,1,134.999995880127
417,72,536496,2,0,P|416:128|448:176,1,89.9999972534181
320,144,536910,1,0,0:0:0:0:
326,188,537013,1,0,0:0:0:0:
350,225,537116,1,0,0:0:0:0:
387,249,537220,1,0,0:0:0:0:
432,255,537323,1,0,0:0:0:0:
224,96,537530,5,0,0:0:0:0:
224,96,537634,1,0,0:0:0:0:
224,96,537737,2,0,P|224:144|208:192,1,89.9999972534181
32,272,538151,2,0,P|80:240|160:256,1,134.999995880127
208,320,538565,1,0,0:0:0:0:
336,272,538772,1,0,0:0:0:0:
336,272,538875,1,0,0:0:0:0:
336,272,538979,1,0,0:0:0:0:
192,128,539186,2,0,P|112:112|0:128,1,179.999994506836
128,288,539806,2,0,P|168:296|223:288,1,89.9999972534181
288,80,540220,2,0,P|280:120|320:224,1,134.999995880127
352,320,540634,6,0,P|360:280|352:224,1,89.9999972534181
368,144,540944,1,0,0:0:0:0:
336,112,541048,2,0,P|296:104|240:112,1,89.9999972534181
32,224,541461,2,0,P|112:256|160:256,1,134.999995880127
224,208,541875,1,0,0:0:0:0:
144,96,542082,1,0,0:0:0:0:
144,96,542186,1,0,0:0:0:0:
144,96,542289,1,0,0:0:0:0:
96,240,542496,1,0,0:0:0:0:
224,288,542703,2,0,P|272:288|352:224,1,134.999995880127
342,240,543117,2,0,P|336:144|352:128,1,89.9999972534181
272,320,543530,1,0,0:0:0:0:
233,296,543633,1,0,0:0:0:0:
202,264,543736,1,0,0:0:0:0:
178,226,543840,1,0,0:0:0:0:
163,184,543943,1,0,0:0:0:0:
256,0,544151,5,0,0:0:0:0:
256,0,544254,1,0,0:0:0:0:
256,0,544358,2,0,P|240:48|213:69,1,44.999998626709
288,112,544565,2,0,P|238:122|206:109,1,44.999998626709
144,208,544772,2,0,P|160:160|187:139,1,44.999998626709
112,96,544979,2,0,P|161:85|193:98,1,44.999998626709
256,192,545186,1,0,0:0:0:0:
160,320,545392,1,0,0:0:0:0:
112,96,545599,1,0,0:0:0:0:
384,80,545806,1,0,0:0:0:0:
384,80,545910,1,0,0:0:0:0:
384,80,546013,2,0,L|400:128,1,44.999998626709
304,160,546220,2,0,L|270:197,1,44.999998626709
194,130,546427,2,0,L|144:119,1,44.999998626709
16,192,546634,6,0,P|16:144|80:32,1,179.999994506836
112,176,547254,2,0,P|112:256|96:304,1,89.9999972534181
160,64,547668,1,0,0:0:0:0:
224,160,547875,1,0,0:0:0:0:
224,160,547979,1,0,0:0:0:0:
224,160,548082,1,0,0:0:0:0:
352,112,548289,1,0,0:0:0:0:
448,208,548496,2,0,P|464:240|464:320,2,89.9999972534181
256,176,549117,1,0,0:0:0:0:
144,64,549530,1,0,0:0:0:0:
64,144,549737,2,0,L|48:256,1,89.9999972534181
192,320,550151,5,0,0:0:0:0:
224,224,550380,1,0,0:0:0:0:
208,128,550606,1,0,0:0:0:0:
304,96,550832,1,0,0:0:0:0:
400,144,551058,1,0,0:0:0:0:
416,160,551170,1,0,0:0:0:0:
432,176,551283,2,0,L|448:192,3,18.7500007152558
400,144,551509,2,0,L|352:128,1,50.0000019073487
176,80,551810,2,0,L|192:144,1,50.0000019073487
128,304,552110,2,0,L|192:288,1,50.0000019073487
384,336,552411,6,0,P|432:304|464:208,1,150.000005722046
400,64,553088,1,0,0:0:0:0:
336,160,553313,1,0,0:0:0:0:
336,160,553426,1,0,0:0:0:0:
336,160,553539,1,0,0:0:0:0:
224,160,553764,1,0,0:0:0:0:
160,64,553990,1,0,0:0:0:0:
336,160,554216,2,0,P|336:224|320:288,1,112.500004291535
288,336,554667,2,0,P|243:316|192:304,1,75.0000028610231
160,336,555005,1,0,0:0:0:0:
96,304,555118,2,0,L|96:245,1,50.0000019073487
16,192,555343,2,0,L|59:166,1,50.0000019073487
80,80,555569,1,0,0:0:0:0:
192,192,555794,5,0,0:0:0:0:
192,192,555907,1,0,0:0:0:0:
192,192,556020,2,0,P|256:192|336:208,1,112.500004291535
384,288,556471,2,0,P|384:240|400:192,1,75.0000028610231
496,48,556922,1,0,0:0:0:0:
384,112,557148,1,0,0:0:0:0:
384,112,557261,1,0,0:0:0:0:
384,112,557373,2,0,P|339:100|288:96,1,75.0000028610231
96,144,557825,1,0,0:0:0:0:
208,208,558050,1,0,0:0:0:0:
240,224,558163,1,0,0:0:0:0:
272,240,558276,2,0,L|304:288,1,37.5000014305115
336,352,558501,1,0,0:0:0:0:
368,336,558614,2,0,L|400:288,1,37.5000014305115
384,192,558840,2,0,L|336:160,1,37.5000014305115
208,192,559065,1,0,0:0:0:0:
208,192,559178,2,0,L|256:224,1,37.5000014305115
352,288,559403,1,0,0:0:0:0:
272,64,559629,6,0,P|208:80|128:144,1,150.000005722046
96,272,560306,1,0,0:0:0:0:
208,224,560531,1,0,0:0:0:0:
208,224,560644,1,0,0:0:0:0:
208,224,560757,1,0,0:0:0:0:
288,288,560982,1,0,0:0:0:0:
416,144,561208,1,0,0:0:0:0:
256,144,561434,2,0,P|208:128|176:64,1,112.500004291535
177,77,561885,2,0,P|177:125|161:157,1,75.0000028610231
128,208,562223,1,0,0:0:0:0:
128,272,562336,2,0,L|189:272,1,50.0000019073487
240,352,562561,2,0,L|268:302,1,50.0000019073487
352,288,562787,1,0,0:0:0:0:
320,16,563013,5,0,0:0:0:0:
320,16,563125,1,0,0:0:0:0:
320,16,563238,2,0,P|288:48|256:144,1,112.500004291535
352,208,563689,2,0,P|318:196|272:192,1,75.0000028610231
96,256,564140,1,0,0:0:0:0:
320,320,564366,1,0,0:0:0:0:
320,320,564479,1,0,0:0:0:0:
320,320,564591,2,0,P|296:292|258:266,1,75.0000028610231
16,336,565043,5,0,0:0:0:0:
272,192,565268,1,0,0:0:0:0:
16,48,565494,1,0,0:0:0:0:
16,48,565607,1,0,0:0:0:0:
16,48,565719,1,0,0:0:0:0:
160,288,565945,1,0,0:0:0:0:
272,256,566170,1,0,0:0:0:0:
384,304,566396,2,0,P|432:304|464:288,1,75.0000028610231
368,64,566847,5,0,0:0:0:0:
176,32,567223,1,0,0:0:0:0:
192,48,567298,1,0,0:0:0:0:
128,160,567524,1,0,0:0:0:0:
240,128,567674,1,0,0:0:0:0:
256,144,567749,1,0,0:0:0:0:
240,240,567900,1,0,0:0:0:0:
256,256,567975,1,0,0:0:0:0:
368,96,568200,1,0,0:0:0:0:
240,144,568426,1,0,0:0:0:0:
240,144,568576,1,0,0:0:0:0:
240,144,568652,1,0,0:0:0:0:
240,144,568877,1,0,0:0:0:0:
240,144,569028,1,0,0:0:0:0:
240,144,569103,1,0,0:0:0:0:
240,144,569328,1,0,0:0:0:0:
240,144,569479,1,0,0:0:0:0:
240,144,569554,1,0,0:0:0:0:
240,144,569704,1,0,0:0:0:0:
240,144,569779,1,0,0:0:0:0:
240,144,570005,1,0,0:0:0:0:
240,144,570155,1,0,0:0:0:0:
240,144,570231,1,0,0:0:0:0:
240,144,570456,1,0,0:0:0:0:
432,64,583133,5,0,0:0:0:0:
432,64,583250,1,0,0:0:0:0:
432,64,583347,1,0,0:0:0:0:
432,64,583698,1,0,0:0:0:0:
432,64,584050,1,0,0:0:0:0:
432,64,584518,1,0,0:0:0:0:
432,64,584987,1,0,0:0:0:0:
432,64,585222,1,0,0:0:0:0:
432,64,585456,1,0,0:0:0:0:
432,64,585573,1,0,0:0:0:0:
432,64,585807,1,0,0:0:0:0:
432,64,585925,1,0,0:0:0:0:
400,112,677229,6,0,P|332:100|228:112,1,160,4|0,0:0|1:0,0:0:0:0:
88,316,677758,2,0,P|156:328|260:316,1,160,4|0,0:0|0:0,0:0:0:0:
112,96,678288,1,4,1:2:0:0:
112,96,678464,2,0,P|105:135|110:175,1,80
180,232,678817,1,0,0:0:0:0:
330,189,678994,2,0,L|252:176,1,80,4|0,1:2|0:0,0:0:0:0:
192,96,679346,1,0,1:0:0:0:
178,122,679434,1,0,1:0:0:0:
168,151,679522,1,0,1:0:0:0:
163,180,679610,1,0,1:0:0:0:
162,210,679698,1,0,1:0:0:0:
268,264,679876,1,0,0:0:0:0:
416,262,680052,5,4,1:1:0:0:
336,204,680229,1,0,0:0:0:0:
200,324,680405,2,0,P|156:312|124:284,1,80,0|4,1:0|1:1,0:0:0:0:
28,264,680758,2,0,P|72:212|92:104,1,160,0|4,0:0|1:1,0:0:0:0:
184,116,681288,2,0,P|169:209|128:292,1,160,0|0,0:1|0:0,0:0:0:0:
44,164,681817,2,0,L|128:176,1,80,0|0,1:0|0:0,0:0:0:0:
260,192,682170,1,0,0:0:0:0:
356,128,682346,2,0,L|360:108,4,20,0|0|0|0|0,1:0|1:0|1:0|1:0|1:0,0:0:0:0:
356,256,682699,2,0,L|360:276,4,20,0|0|0|0|4,1:0|1:0|1:0|1:0|1:1,0:0:0:0:
256,56,683229,5,0,1:0:0:0:
196,148,683405,2,0,P|128:152|48:80,1,160,4|0,1:1|0:0,0:0:0:0:
276,168,683934,2,0,L|256:356,1,160,4|0,1:1|0:0,0:0:0:0:
352,320,684464,1,0,0:0:0:0:
392,240,684641,1,0,1:0:0:0:
348,160,684817,1,0,0:0:0:0:
388,80,684994,1,0,1:0:0:0:
432,160,685170,1,0,0:0:0:0:
308,240,685346,1,0,1:0:0:0:
300,92,685523,1,0,0:0:0:0:
392,240,685699,5,4,0:1:0:0:
308,240,685876,1,0,0:0:0:0:
224,240,686052,2,0,L|124:264,2,80,0|0|0,1:0|0:0|0:0,0:0:0:0:
359,162,686582,1,0,0:0:0:0:
359,318,686758,1,0,1:0:0:0:
224,240,686935,1,0,0:0:0:0:
359,162,687111,2,0,P|352:96|336:52,1,80,4|0,0:1|0:0,0:0:0:0:
178,117,687464,2,0,P|124:156|94:192,1,80,0|0,1:0|0:0,0:0:0:0:
88,192,687729,1,0,0:0:0:0:
68,228,687817,2,0,L|84:320,1,80,4|0,0:1|0:0,0:0:0:0:
178,118,688170,1,0,1:0:0:0:
184,78,688258,1,0,0:0:0:0:
191,39,688346,1,0,0:0:0:0:
232,208,688523,6,0,L|248:300,1,80,4|0,1:1|1:0,0:0:0:0:
344,344,688876,1,0,1:0:0:0:
358,306,688964,1,0,1:0:0:0:
366,267,689052,1,0,1:0:0:0:
367,227,689140,1,0,1:0:0:0:
362,187,689228,1,0,1:0:0:0:
329,165,689317,1,0,1:0:0:0:
311,130,689405,1,0,1:0:0:0:
311,90,689493,1,0,1:0:0:0:
329,55,689581,1,0,1:0:0:0:
362,33,689670,1,0,1:0:0:0:
401,28,689758,1,0,1:0:0:0:
438,42,689846,1,0,1:0:0:0:
464,72,689934,1,4,1:1:0:0:
256,284,690640,5,0,0:0:0:0:
184,216,690817,2,0,L|192:196,11,20,0|0|0|0|0|0|0|0|0|0|0|0,1:0|1:0|1:0|1:0|1:0|1:0|1:0|1:0|1:0|1:0|1:0|1:0,0:0:0:0:
208,132,691346,6,0,L|300:112,1,80,6|0,0:1|0:0,0:0:0:0:
256,284,691699,2,0,L|164:264,1,80,2|0,1:0|0:0,0:0:0:0:
72,240,692052,1,0,0:0:0:0:
101,105,692228,1,2,0:1:0:0:
179,267,692405,1,0,1:0:0:0:
208,132,692581,1,2,0:1:0:0:
96,208,692758,2,0,P|36:196|-8:176,1,80
208,132,693111,2,0,P|268:144|312:164,1,80,2|0,1:0|0:0,0:0:0:0:
332,308,693464,2,0,P|332:244|384:132,1,160,2|2,0:1|1:1,0:0:0:0:
464,100,693993,5,0,0:0:0:0:
401,251,694170,1,2,0:1:0:0:
401,251,694346,1,0,0:0:0:0:
328,80,694523,2,0,P|300:68|228:68,2,80,2|0|2,1:0|0:1|0:1,0:0:0:0:
388,156,695052,1,0,0:0:0:0:
401,251,695228,1,0,1:0:0:0:
364,339,695405,2,0,P|264:340|180:300,1,160,2|2,0:1|0:1,0:0:0:0:
100,168,695934,1,0,1:0:0:0:
192,44,696111,2,0,L|204:152,1,80,2|0,0:1|0:0,0:0:0:0:
212,224,696464,1,2,0:1:0:0:
99,167,696640,2,0,P|104:128|121:92,1,80,2|0,1:1|0:0,0:0:0:0:
360,132,696993,5,6,0:1:0:0:
240,112,697169,1,0,0:0:0:0:
120,92,697346,1,0,1:0:0:0:
62,210,697522,2,0,L|80:316,1,80,2|0,0:1|0:0,0:0:0:0:
336,264,697876,2,0,L|318:158,1,80,2|0,0:1|1:0,0:0:0:0:
192,16,698228,2,0,P|172:168|180:208,1,160,2|0,0:1|0:0,0:0:0:0:
256,284,698758,1,2,1:1:0:0:
332,164,698934,1,2,0:1:0:0:
220,224,699111,1,0,0:0:0:0:
336,264,699287,1,2,0:1:0:0:
256,32,699464,2,0,L|237:138,1,80,2|0,1:1|0:0,0:0:0:0:
112,16,699817,5,6,0:1:0:0:
256,192,699993,1,6,0:1:0:0:
400,16,700170,1,6,0:1:0:0:
336,96,700346,1,6,0:1:0:0:
344,124,700699,1,6,0:1:0:0:
332,152,701052,1,6,0:1:0:0:
320,180,701405,2,0,L|328:284,1,80,6|0,0:1|0:0,0:0:0:0:
256,120,701758,1,6,0:1:0:0:
192,180,701934,2,0,L|184:284,1,80,6|0,0:1|0:0,0:0:0:0:
96,320,702287,1,0,1:0:0:0:
69,305,702375,1,0,1:0:0:0:
48,284,702464,1,0,1:0:0:0:
34,257,702552,1,0,1:0:0:0:
28,228,702640,6,0,L|60:116,1,80,6|0,0:1|0:0,0:0:0:0:
256,24,702993,2,0,L|256:140,1,80,2|0,1:1|0:0,0:0:0:0:
184,280,703346,1,0,0:0:0:0:
160,144,703522,1,2,0:1:0:0:
256,192,703699,1,0,1:0:0:0:
352,144,703876,2,0,P|420:152|500:204,1,160,2|0,0:1|0:0,0:0:0:0:
256,192,704405,2,0,P|244:144|244:108,1,80,2|0,1:1|0:0,0:0:0:0:
360,252,704758,2,0,P|370:290|372:330,1,80,2|0,0:1|0:0,0:0:0:0:
152,120,705111,2,0,P|165:72|183:41,1,80,2|0,1:1|0:0,0:0:0:0:
188,240,705464,6,0,P|116:236|32:160,1,160,2|2,0:1|1:1,0:0:0:0:
52,80,705993,1,0,0:0:0:0:
152,120,706169,1,2,0:1:0:0:
256,96,706346,1,2,0:1:0:0:
333,22,706522,1,2,1:1:0:0:
427,72,706699,2,0,P|436:132|432:180,1,80,2|0,0:1|0:0,0:0:0:0:
248,320,707052,1,2,0:1:0:0:
248,320,707140,1,0,0:0:0:0:
248,320,707229,2,0,P|240:280|239:240,1,80,0|0,1:1|0:0,0:0:0:0:
328,120,707581,1,2,0:1:0:0:
344,244,707758,1,0,0:0:0:0:
240,160,707934,1,2,1:1:0:0:
96,276,708111,5,0,0:0:0:0:
96,276,708199,1,0,0:0:0:0:
96,276,708287,2,0,P|72:200|80:108,1,160,6|0,0:1|1:0,0:0:0:0:
132,24,708817,1,0,0:0:0:0:
272,160,708993,2,0,L|364:144,1,80,2|0,0:1|0:0,0:0:0:0:
496,128,709346,1,6,1:1:0:0:
236,60,709522,1,6,0:1:0:0:
216,80,709875,1,0,0:0:0:0:
120,264,710052,2,0,B|168:248|168:248|304:288,1,160,6|2,1:1|0:1,0:0:0:0:
396,248,710581,2,0,L|408:272,4,20,0|0|0|0|0,1:0|1:0|1:0|1:0|1:0,0:0:0:0:
308,64,710934,5,0,1:0:0:0:
304,92,711022,1,0,1:0:0:0:
300,120,711111,1,2,1:1:0:0:
266,142,711199,1,0,1:0:0:0:
228,154,711287,1,0,1:0:0:0:
189,155,711375,1,0,1:0:0:0:
150,145,711464,1,2,1:0:0:0:
116,124,711552,1,0,1:0:0:0:
89,95,711640,1,2,1:1:0:0:
71,60,711728,1,0,1:0:0:0:
64,20,711817,1,2,1:1:0:0:
66,60,711905,1,0,1:0:0:0:
66,100,711993,1,2,1:1:0:0:
62,140,712081,1,0,1:0:0:0:
56,179,712169,1,2,1:1:0:0:
46,218,712258,1,0,1:0:0:0:
33,256,712346,1,2,1:1:0:0:
17,293,712434,1,0,1:0:0:0:
0,328,712523,1,0,1:0:0:0:
112,304,712690,6,0,P|176:352|272:320,1,179.999994506836,2|0,0:0|0:0,0:0:0:0:
224,112,713158,2,0,P|224:160|256:208,1,89.9999972534181,2|0,0:0|0:0,0:0:0:0:
320,288,713472,2,0,P|256:256|128:240,1,179.999994506836,2|0,0:0|0:0,0:0:0:0:
48,256,713941,2,0,P|48:304|64:352,1,89.9999972534181,4|0,1:1|0:0,0:0:0:0:
149,238,714254,2,0,P|149:190|133:142,1,89.9999972534181,4|0,1:1|0:0,0:0:0:0:
176,320,714566,2,0,P|224:320|272:304,1,89.9999972534181,4|0,1:1|0:0,0:0:0:0:
384,64,714879,6,0,L|352:160,1,89.9999972534181,4|0,0:0|0:0,0:0:0:0:
448,320,715191,1,0,1:0:0:0:
448,160,715347,1,0,0:0:0:0:
368,272,715504,2,0,B|336:304|336:304|176:304,1,179.999994506836,0|0,0:0|1:0,0:0:0:0:
224,80,715972,1,0,0:0:0:0:
336,80,716129,2,0,B|352:96|352:96|352:176,1,89.9999972534181
288,304,716441,1,0,1:0:0:0:
176,304,716597,2,0,B|160:288|160:288|160:220,1,89.9999972534181
336,80,716910,1,0,0:0:0:0:
336,80,717066,2,0,B|352:96|352:96|352:176,1,89.9999972534181,0|0,1:0|0:0,0:0:0:0:
176,304,717379,2,0,B|160:288|160:288|160:208,1,89.9999972534181
160,64,717691,5,0,1:0:0:0:
256,128,717847,1,0,0:0:0:0:
352,192,718004,2,0,L|320:304,1,89.9999972534181
352,64,718316,1,0,1:0:0:0:
160,192,718472,2,0,L|192:304,1,89.9999972534181
256,128,718785,2,0,L|256:32,1,89.9999972534181,0|0,0:0|1:0,0:0:0:0:
432,176,719097,2,0,P|352:192|320:304,1,179.999994506836
416,352,719566,2,0,P|416:304|400:256,1,89.9999972534181,0|0,1:0|0:0,0:0:0:0:
336,112,719879,6,0,P|294:136|260:173,1,89.9999972534181
224,256,720191,2,0,P|184:234|153:202,1,89.9999972534181,0|0,1:0|0:0,0:0:0:0:
119,61,720504,2,0,P|167:93|151:205,1,179.999994506836,0|0,0:0|1:0,0:0:0:0:
55,109,720972,1,0,0:0:0:0:
215,141,721129,2,0,P|279:141|391:77,1,179.999994506836,0|0,0:0|1:0,0:0:0:0:
231,55,721597,2,0,B|215:87|215:87|215:141,1,89.9999972534181
304,342,721910,1,0,0:0:0:0:
304,342,722066,2,0,B|320:310|320:310|320:256,1,89.9999972534181,0|0,1:0|0:0,0:0:0:0:
96,224,722379,6,0,P|160:288|256:288,1,179.999994506836,0|0,0:0|1:0,0:0:0:0:
400,240,722847,1,0,0:0:0:0:
400,144,723004,2,0,P|352:128|304:128,1,89.9999972534181
96,112,723316,1,0,1:0:0:0:
96,224,723472,2,0,P|160:288|256:288,1,179.999994506836
336,144,723941,2,0,P|352:96|352:48,1,89.9999972534181,0|0,1:0|0:0,0:0:0:0:
176,240,724254,2,0,P|160:288|160:336,1,89.9999972534181
304,272,724566,2,0,P|352:288|400:288,1,89.9999972534181,0|0,1:0|0:0,0:0:0:0:
208,112,724879,6,0,P|160:96|112:96,1,89.9999972534181
256,192,725191,1,0,1:0:0:0:
304,272,725347,1,0,0:0:0:0:
288,64,725504,1,0,0:0:0:0:
256,192,725660,1,0,0:0:0:0:
224,320,725816,1,0,1:0:0:0:
352,192,725972,1,0,0:0:0:0:
208,80,726129,2,0,P|144:128|144:256,1,179.999994506836,0|0,0:0|1:0,0:0:0:0:
304,304,726597,2,0,P|368:256|368:128,1,179.999994506836
256,16,727066,2,0,P|240:64|240:112,1,89.9999972534181,0|0,1:0|0:0,0:0:0:0:
256,368,727379,2,0,P|272:320|272:272,1,89.9999972534181
128,128,727691,5,0,1:0:0:0:
176,224,727847,1,0,0:0:0:0:
176,224,727925,1,0,0:0:0:0:
176,224,728004,1,0,0:0:0:0:
320,144,728160,2,0,P|368:144|432:160,1,89.9999972534181,0|0,0:0|1:0,0:0:0:0:
208,128,728472,2,0,P|208:80|224:16,1,89.9999972534181
304,256,728785,2,0,P|304:304|288:368,1,89.9999972534181,0|0,0:0|1:0,0:0:0:0:
128,272,729097,2,0,P|93:193|128:112,1,179.999994506836
256,80,729566,2,0,B|288:112|288:112|336:128,1,89.9999972534181,0|0,1:0|0:0,0:0:0:0:
256,304,729879,2,0,B|288:272|288:272|336:256,1,89.9999972534181
432,112,730191,5,0,1:0:0:0:
432,272,730347,1,0,0:0:0:0:
432,272,730425,1,0,0:0:0:0:
432,272,730504,1,0,0:0:0:0:
288,160,730660,2,0,P|272:208|272:256,1,89.9999972534181,0|0,0:0|1:0,0:0:0:0:
368,112,730972,2,0,P|384:64|384:16,1,89.9999972534181
270,247,731285,2,0,P|312:261|357:264,1,89.9999972534181,0|0,0:0|1:0,0:0:0:0:
192,208,731597,1,0,0:0:0:0:
128,272,731754,1,0,0:0:0:0:
208,304,731910,1,0,0:0:0:0:
288,336,732066,1,0,1:0:0:0:
256,128,732222,1,0,0:0:0:0:
80,198,732379,2,0,P|96:240|128:272,1,89.9999972534181
160,144,732691,5,0,1:0:0:0:
240,240,732847,1,0,0:0:0:0:
240,240,732925,1,0,0:0:0:0:
240,240,733004,1,0,0:0:0:0:
368,192,733160,2,0,P|416:192|464:208,1,89.9999972534181,0|0,0:0|1:0,0:0:0:0:
256,288,733472,2,0,P|256:336|240:384,1,89.9999972534181
256,80,733784,2,0,P|256:32|272:-16,1,89.9999972534181,0|0,0:0|1:0,0:0:0:0:
144,192,734097,2,0,P|96:192|48:176,1,89.9999972534181
256,80,734410,1,0,0:0:0:0:
288,160,734566,5,0,1:0:0:0:
208,256,734722,1,0,0:0:0:0:
208,256,734800,1,0,0:0:0:0:
208,256,734879,1,0,0:0:0:0:
160,96,735035,1,0,0:0:0:0:
304,256,735191,1,0,1:0:0:0:
352,96,735347,1,0,0:0:0:0:
352,96,735425,1,0,0:0:0:0:
352,96,735503,1,0,0:0:0:0:
160,96,735660,1,0,0:0:0:0:
256,176,735816,1,0,1:0:0:0:
352,256,735972,1,0,0:0:0:0:
160,256,736129,2,0,P|80:208|16:144,1,179.999994506836,0|0,0:0|1:0,0:0:0:0:
352,128,736597,2,0,P|432:176|496:240,1,179.999994506836,0|0,0:0|1:0,0:0:0:0:
256,320,737066,2,0,L|256:224,1,89.9999972534181,0|0,1:0|0:0,0:0:0:0:
256,64,737378,2,0,L|256:160,1,89.9999972534181
256,320,737691,5,0,1:0:0:0:
144,240,737847,1,0,0:0:0:0:
144,240,737925,1,0,0:0:0:0:
144,240,738004,1,0,0:0:0:0:
256,64,738160,1,0,0:0:0:0:
320,144,738316,1,0,1:0:0:0:
384,224,738472,1,0,0:0:0:0:
256,64,738629,1,0,0:0:0:0:
192,144,738785,2,0,L|96:144,1,89.9999972534181,0|0,0:0|1:0,0:0:0:0:
240,224,739097,2,0,P|256:304|352:368,1,179.999994506836
352,208,739566,2,0,P|400:192|432:160,1,89.9999972534181,0|0,1:0|0:0,0:0:0:0:
160,176,739879,2,0,P|112:192|80:224,1,89.9999972534181
256,192,740191,5,0,1:0:0:0:
352,208,740347,1,0,0:0:0:0:
352,208,740425,1,0,0:0:0:0:
352,208,740504,1,0,0:0:0:0:
256,80,740660,1,0,0:0:0:0:
256,304,740816,1,0,1:0:0:0:
398,203,740972,2,0,P|381:162|352:128,1,89.9999972534181
113,180,741285,2,0,P|130:221|160:256,1,89.9999972534181,0|0,0:0|1:0,0:0:0:0:
288,288,741597,1,0,0:0:0:0:
384,256,741754,1,0,0:0:0:0:
416,160,741910,1,0,0:0:0:0:
288,160,742066,1,0,1:0:0:0:
272,160,742144,1,0,0:0:0:0:
256,160,742222,1,0,0:0:0:0:
240,160,742300,1,0,0:0:0:0:
224,160,742379,2,0,L|128:160,1,89.9999972534181
352,80,742691,5,0,1:0:0:0:
228,164,742847,1,0,0:0:0:0:
320,160,743004,1,0,0:0:0:0:
336,256,743160,2,0,P|352:304|352:352,1,89.9999972534181,0|0,0:0|1:0,0:0:0:0:
175,127,743472,2,0,P|161:85|158:40,1,89.9999972534181
353,40,743785,2,0,P|350:85|336:127,1,89.9999972534181,0|0,0:0|1:0,0:0:0:0:
175,256,744097,2,0,P|161:298|158:343,1,89.9999972534181
353,343,744410,5,0,0:0:0:0:
288,176,744566,1,0,1:0:0:0:
112,224,744722,1,0,0:0:0:0:
112,224,744800,1,0,0:0:0:0:
112,224,744879,1,0,0:0:0:0:
224,272,745035,1,0,0:0:0:0:
288,176,745191,1,0,1:0:0:0:
80,128,745347,1,0,0:0:0:0:
80,128,745425,1,0,0:0:0:0:
80,128,745504,1,0,0:0:0:0:
224,272,745660,1,0,0:0:0:0:
288,176,745816,1,0,1:0:0:0:
144,16,745972,1,0,0:0:0:0:
68,212,746129,6,0,B|128:272|128:272|224:272,1,179.999994506836,0|0,0:0|1:0,0:0:0:0:
443,171,746597,2,0,B|384:112|384:112|288:112,1,179.999994506836
112,144,747066,2,0,B|141:173|141:173|189:173,1,89.9999972534181,0|0,1:0|0:0,0:0:0:0:
384,32,747379,1,0,0:0:0:0:
352,144,747535,1,0,0:0:0:0:
352,144,747613,1,0,0:0:0:0:
352,144,747691,1,0,0:0:0:0:
240,128,747847,1,0,0:0:0:0:
160,208,748004,2,0,P|112:192|80:160,1,89.9999972534181
256,304,748326,6,0,P|320:304|420:163,1,250
144,224,749745,1,0,0:0:0:0:
256,304,750150,2,0,P|320:304|416:192,1,200
192,96,751164,1,0,0:0:0:0:
96,240,751366,1,0,0:0:0:0:
256,304,751569,2,0,P|320:304|416:192,1,200
160,224,777690,5,2,0:0:0:0:
336,256,778082,1,2,0:0:0:0:
432,112,778474,1,2,0:0:0:0:
240,32,778866,6,0,P|224:112|240:160,1,95.9999999999999,6|0,0:0|0:0,0:0:0:0:
241,171,779161,2,0,P|255:100|239:31,1,144,2|2,0:0|0:0,0:0:0:0:
128,112,779651,1,0,0:0:0:0:
352,160,779847,1,2,0:0:0:0:
400,240,780043,1,0,0:0:0:0:
416,80,780239,1,2,0:0:0:0:
352,160,780631,6,0,L|208:160,1,144
140,186,781023,2,0,P|121:142|112:96,1,95.9999999999999
192,32,781415,1,0,0:0:0:0:
32,48,781611,1,0,0:0:0:0:
0,144,781808,1,0,0:0:0:0:
192,32,782004,2,0,P|256:96|352:80,1,192
448,0,782592,1,0,0:0:0:0:
448,0,782690,1,0,0:0:0:0:
448,0,782788,2,0,P|432:48|416:160,1,144
512,272,783180,2,0,P|464:240|400:224,1,95.9999999999999
288,208,783572,5,0,0:0:0:0:
263,223,783670,1,0,0:0:0:0:
238,236,783768,1,0,0:0:0:0:
211,246,783866,1,0,0:0:0:0:
181,239,783964,1,0,0:0:0:0:
157,223,784062,1,0,0:0:0:0:
139,200,784160,1,0,0:0:0:0:
130,173,784258,1,0,0:0:0:0:
130,145,784356,1,0,0:0:0:0:
140,118,784454,1,0,0:0:0:0:
157,95,784552,1,0,0:0:0:0:
181,79,784650,1,0,0:0:0:0:
209,72,784748,1,0,0:0:0:0:
400,80,784944,1,0,0:0:0:0:
208,176,785141,6,0,P|160:192|96:176,1,95.9999999999999
114,75,785435,2,0,P|147:138|208:176,1,144
288,64,785925,1,0,0:0:0:0:
256,272,786121,1,0,0:0:0:0:
212,272,786219,1,0,0:0:0:0:
171,261,786317,1,0,0:0:0:0:
288,64,786513,1,0,0:0:0:0:
304,320,786906,5,0,0:0:0:0:
384,256,787102,1,0,0:0:0:0:
304,128,787298,1,0,0:0:0:0:
304,128,787396,2,0,P|240:128|128:80,1,144
336,48,787886,1,0,0:0:0:0:
384,176,788082,1,0,0:0:0:0:
336,48,788278,2,0,P|304:96|288:240,1,192
336,336,788866,1,0,0:0:0:0:
336,336,788964,1,0,0:0:0:0:
336,336,789062,2,0,P|272:320|192:288,1,144
128,336,789455,2,0,P|112:288|112:240,1,95.9999999999999
112,48,789847,5,0,0:0:0:0:
116,81,789945,1,0,0:0:0:0:
130,111,790043,1,0,0:0:0:0:
153,136,790141,1,0,0:0:0:0:
181,154,790239,1,0,0:0:0:0:
198,125,790337,1,0,0:0:0:0:
224,104,790435,1,0,0:0:0:0:
255,92,790533,1,0,0:0:0:0:
289,91,790631,1,0,0:0:0:0:
321,102,790729,1,0,0:0:0:0:
347,122,790827,1,0,0:0:0:0:
365,150,790925,1,0,0:0:0:0:
373,183,791023,1,0,0:0:0:0:
370,216,791121,1,0,0:0:0:0:
356,246,791219,1,0,0:0:0:0:
332,270,791317,1,0,0:0:0:0:
302,285,791415,6,0,L|192:272,1,95.9999999999999
112,224,791710,2,0,L|256:208,1,144
255,208,792200,1,0,0:0:0:0:
384,192,792396,1,0,0:0:0:0:
320,0,792592,1,0,0:0:0:0:
384,192,792788,1,0,0:0:0:0:
384,176,793180,6,0,L|240:176,1,144
256,256,793572,2,0,L|160:256,1,95.9999999999999
0,224,793964,1,0,0:0:0:0:
32,112,794160,1,0,0:0:0:0:
144,112,794357,1,0,0:0:0:0:
192,304,794553,2,0,L|400:304,1,192
448,144,795141,1,0,0:0:0:0:
448,144,795239,1,0,0:0:0:0:
448,144,795337,2,0,P|368:128|304:80,1,144
288,176,795729,2,0,P|240:160|176:160,1,95.9999999999999
44,152,796121,5,0,0:0:0:0:
50,180,796219,1,0,0:0:0:0:
56,208,796317,1,0,0:0:0:0:
85,209,796415,1,0,0:0:0:0:
112,219,796513,1,0,0:0:0:0:
133,238,796611,1,0,0:0:0:0:
146,263,796709,1,0,0:0:0:0:
150,292,796808,1,0,0:0:0:0:
143,320,796906,1,0,0:0:0:0:
127,344,797004,1,0,0:0:0:0:
104,360,797102,1,0,0:0:0:0:
224,304,797298,1,0,0:0:0:0:
253,310,797396,1,0,0:0:0:0:
281,316,797494,1,0,0:0:0:0:
309,322,797592,1,0,0:0:0:0:
337,328,797690,6,0,P|352:304|416:256,1,95.9999999999999
509,278,797984,2,0,P|449:310|403:261,1,144
400,160,798474,1,0,0:0:0:0:
304,192,798670,1,0,0:0:0:0:
256,32,798866,1,0,0:0:0:0:
304,192,799062,1,0,0:0:0:0:
192,96,799455,5,0,0:0:0:0:
96,80,799651,1,0,0:0:0:0:
32,16,799847,1,0,0:0:0:0:
48,144,800043,2,0,P|48:224|32:320,1,144
16,320,800435,1,0,0:0:0:0:
48,144,800631,1,0,0:0:0:0:
160,208,800827,2,0,B|256:208|256:208|304:144,1,144
288,128,801219,1,0,0:0:0:0:
192,48,801415,1,0,0:0:0:0:
192,48,801513,1,0,0:0:0:0:
192,48,801611,2,0,P|176:96|176:192,1,144
128,224,802004,2,0,P|208:240|240:256,1,95.9999999999999
400,128,802396,1,0,0:0:0:0:
288,192,802984,6,0,L|304:240,1,48
352,304,803180,1,0,0:0:0:0:
314,309,803278,1,0,0:0:0:0:
275,308,803376,1,0,0:0:0:0:
238,298,803474,1,0,0:0:0:0:
204,281,803572,1,0,0:0:0:0:
173,258,803670,1,0,0:0:0:0:
148,229,803768,1,0,0:0:0:0:
144,64,803964,1,0,0:0:0:0:
240,96,804258,5,0,0:0:0:0:
240,96,804356,1,0,0:0:0:0:
336,160,804522,2,0,L|368:160,1,25
176,160,804844,2,0,L|159:224,1,50
163,208,805490,1,0,0:0:0:0:
272,48,805651,2,0,L|288:32,1,16.6666666666667
341,75,805866,2,0,L|363:69,1,16.6666666666667
388,133,806081,2,0,L|410:139,1,16.6666666666667
400,207,806296,6,0,L|440:248,1,50
208,160,806780,2,0,L|167:119,1,50
304,224,807263,2,0,L|344:264,1,50
64,64,807908,1,0,0:0:0:0:
96,240,808231,1,0,0:0:0:0:
160,176,808392,2,0,P|208:160|224:160,1,50
368,304,808876,6,0,P|320:320|304:320,1,50
144,208,809360,1,0,0:0:0:0:
288,224,809521,2,0,P|312:218|334:208,1,50
400,144,810005,2,0,L|416:80,1,50
112,240,810650,2,0,L|96:304,1,50
208,192,811134,2,0,L|240:200,1,25
364,111,811457,6,0,L|352:160,1,50
220,336,812102,2,0,L|208:288,1,50
176,96,812586,1,0,0:0:0:0:
112,192,812747,2,0,L|160:204,1,50
304,304,813393,2,0,L|352:291,1,50
448,272,813876,1,0,0:0:0:0:
304,304,814037,5,0,0:0:0:0:
320,64,814199,1,0,0:0:0:0:
80,336,814522,1,0,0:0:0:0:
80,336,814683,1,0,0:0:0:0:
208,304,815005,1,0,0:0:0:0:
192,64,815167,1,0,0:0:0:0:
96,176,815543,1,0,0:0:0:0:
144,192,815650,1,0,0:0:0:0:
192,208,815758,1,0,0:0:0:0:
240,224,815865,1,0,0:0:0:0:
288,240,815973,2,0,L|352:240,1,50
288,0,816618,6,0,P|272:32|272:96,1,100
336,272,817425,1,0,0:0:0:0:
368,112,817586,1,0,0:0:0:0:
208,192,817747,1,0,0:0:0:0:
96,64,817908,2,0,P|68:88|52:122,1,75
352,128,818554,2,0,L|384:144,1,25
304,256,818876,2,0,L|320:288,1,25
128,80,819199,6,0,P|144:46|192:0,1,100
256,240,820166,1,0,0:0:0:0:
112,224,820328,2,0,P|80:240|64:256,1,50
128,304,820812,2,0,L|128:336,1,25
176,96,821134,1,0,0:0:0:0:
384,288,821457,1,0,0:0:0:0:
368,96,821779,6,0,P|390:75|416:64,1,50
304,208,822263,2,0,L|272:208,1,25
48,192,822586,1,0,0:0:0:0:
176,32,822747,1,0,0:0:0:0:
304,208,822908,1,0,0:0:0:0:
384,96,823070,2,0,P|416:96|448:112,1,50
208,200,823554,2,0,P|200:186|198:168,1,25
320,16,823876,1,0,0:0:0:0:
288,224,824037,1,0,0:0:0:0:
96,112,824199,1,0,0:0:0:0:
336,128,824360,6,0,P|368:128|400:144,1,50
288,368,824844,2,0,L|272:336,1,25
80,160,825167,2,0,L|112:176,1,25
256,240,825489,2,0,P|288:240|336:208,1,75
192,16,826296,1,0,0:0:0:0:
160,288,826618,1,0,0:0:0:0:
304,64,826941,6,0,L|336:176,1,100
304,64,827747,1,0,0:0:0:0:
208,224,827908,1,0,0:0:0:0:
176,48,828070,1,0,0:0:0:0:
112,128,828231,2,0,P|80:128|59:138,1,50
64,256,828715,1,0,0:0:0:0:
256,288,828876,2,0,L|288:272,1,25
256,48,829199,2,0,L|240:16,1,25
256,288,829522,6,0,L|305:387,1,100
320,144,830328,1,0,0:0:0:0:
160,192,830489,1,0,0:0:0:0:
336,240,830650,2,0,L|368:240,1,25
160,80,830973,2,0,L|102:80,1,50
64,192,831457,5,0,0:0:0:0:
176,272,831618,1,0,0:0:0:0:
224,112,831779,2,0,P|223:93|216:73,2,25
128,160,832263,1,0,0:0:0:0:
256,256,832425,1,0,0:0:0:0:
96,320,832586,2,0,L|80:352,1,25
128,160,832908,1,0,0:0:0:0:
256,112,833070,1,0,0:0:0:0:
384,64,833231,2,0,L|416:80,1,25
288,240,833554,1,0,0:0:0:0:
256,112,833715,1,0,0:0:0:0:
384,64,833876,2,0,L|416:80,1,25
288,240,834199,5,0,0:0:0:0:
144,128,834360,1,0,0:0:0:0:
288,16,834521,1,0,0:0:0:0:
208,176,834683,2,0,P|208:208|217:244,1,50
352,80,835166,2,0,L|386:73,1,25
160,304,835489,2,0,L|126:311,1,25
304,176,835812,1,0,0:0:0:0:
176,128,835973,2,0,L|144:128,2,16.6666666666667
154,176,836296,2,0,L|127:192,2,16.6666666666667
160,229,836618,1,0,0:0:0:0:
272,256,836779,2,0,L|306:315,1,50
322,41,837264,6,0,L|272:128,1,100
160,304,838070,1,0,0:0:0:0:
176,160,838231,1,0,0:0:0:0:
336,208,838392,2,0,L|374:200,1,25
432,64,838715,2,0,L|456:69,2,25
240,32,839199,2,0,L|256:64,1,25
402,258,839522,2,0,L|366:256,1,25
112,272,839844,6,0,P|176:240|208:240,1,100
416,96,840650,1,0,0:0:0:0:
304,304,840812,1,0,0:0:0:0:
176,128,840973,2,0,L|192:96,1,25
208,224,841296,2,0,L|192:256,2,25
320,160,841779,1,0,0:0:0:0:
352,272,842102,1,0,0:0:0:0:
433,189,842425,5,0,0:0:0:0:
320,160,842586,1,0,0:0:0:0:
112,224,842747,1,0,0:0:0:0:
225,253,842908,2,0,L|256:248,1,25
256,64,843231,1,0,0:0:0:0:
143,35,843392,2,0,L|111:39,1,25
368,96,843715,2,0,L|431:87,1,50
192,224,844199,2,0,L|160:228,1,25
272,288,844521,1,0,0:0:0:0:
112,160,844683,2,0,L|80:164,1,25
224,336,845005,6,0,L|228:367,1,25
424,220,845328,2,0,L|400:224,1,25
208,128,845651,2,0,L|183:124,1,25
80,96,845973,1,0,0:0:0:0:
224,288,846134,2,0,L|273:280,1,50
416,256,846618,1,0,0:0:0:0:
416,256,846779,1,0,0:0:0:0:
288,128,846941,2,0,L|256:128,2,16.6666666666667
266,176,847264,2,0,L|239:192,2,16.6666666666667
272,229,847586,6,0,L|306:288,1,50
368,128,848070,2,0,L|427:162,1,50
144,128,848554,2,0,L|100:152,1,50
215,272,849038,2,0,L|240:229,1,50
240,16,849521,2,0,L|256:48,1,25
352,336,849844,2,0,L|368:304,1,25
208,144,850166,6,0,P|176:160|160:192,1,50
320,272,850651,2,0,P|290:252|254:254,1,50
42,177,851134,2,0,P|39:212|59:242,1,50
224,352,851618,1,0,0:0:0:0:
272,336,851941,1,0,0:0:0:0:
368,256,852102,5,0,0:0:0:0:
352,224,852209,1,0,0:0:0:0:
336,192,852317,1,0,0:0:0:0:
288,96,852425,1,0,0:0:0:0:
272,128,852533,1,0,0:0:0:0:
256,160,852640,1,0,0:0:0:0:
208,240,852747,2,0,L|144:230,1,50
384,144,853231,2,0,L|447:153,1,50
240,320,853715,2,0,L|176:310,1,50
416,224,854199,2,0,L|479:233,1,50
304,352,854683,2,0,L|288:320,1,25
224,96,855005,2,0,L|208:128,1,25
64,336,855328,6,0,P|52:302|48:272,1,50
48,128,855812,2,0,L|64:160,1,25
128,240,856134,1,0,0:0:0:0:
272,128,856296,2,0,L|304:112,1,25
416,224,856941,1,0,0:0:0:0:
320,336,857263,1,0,0:0:0:0:
304,304,857425,1,0,0:0:0:0:
288,272,857586,1,0,0:0:0:0:
240,192,857747,2,0,L|256:144,1,50
288,32,858231,1,0,0:0:0:0:
256,192,858392,12,0,861134,0:0:0:0:
416,288,862832,5,0,0:0:0:0:
256,208,863499,1,0,0:0:0:0:
96,288,864165,1,0,0:0:0:0:
208,288,864499,1,0,0:0:0:0:
224,192,864832,1,0,0:0:0:0:
112,192,864999,1,0,0:0:0:0:
128,96,865165,1,0,0:0:0:0:
240,96,865332,1,0,0:0:0:0:
320,288,865499,5,4,0:3:0:0:
352,160,865666,1,0,0:0:0:0:
352,160,865749,1,0,0:0:0:0:
352,160,865833,1,4,1:3:0:0:
192,240,865999,1,0,0:0:0:0:
224,112,866166,1,4,0:3:0:0:
352,160,866333,1,0,0:0:0:0:
352,160,866416,1,0,0:0:0:0:
352,160,866499,1,4,1:3:0:0:
192,240,866666,1,0,0:0:0:0:
168,32,866832,2,0,L|183:47,1,20,4|0,0:3|0:0,0:0:0:0:
140,163,867166,1,4,1:3:0:0:
97,278,867333,1,0,0:0:0:0:
272,320,867499,2,0,L|282:355,1,30.0000004470348,4|0,0:3|0:0,0:0:0:0:
320,240,867832,2,0,L|300:234,1,20.0000002980232,4|0,1:3|0:0,0:0:0:0:
448,48,868166,5,4,0:3:0:0:
384,144,868333,1,0,0:0:0:0:
384,144,868416,1,0,0:0:0:0:
384,144,868499,1,4,1:3:0:0:
320,240,868666,1,0,0:0:0:0:
256,48,868833,1,4,0:3:0:0:
192,144,868999,1,0,0:0:0:0:
192,144,869083,1,0,0:0:0:0:
192,144,869166,1,4,1:3:0:0:
128,240,869333,1,0,0:0:0:0:
32,208,869499,1,4,0:3:0:0:
192,144,869666,1,0,0:0:0:0:
352,80,869833,1,4,1:3:0:0:
224,64,869999,1,0,0:0:0:0:
272,160,870166,1,4,0:3:0:0:
320,256,870333,1,0,0:0:0:0:
320,256,870416,1,0,0:0:0:0:
320,256,870499,2,0,L|347:256,1,20.0000002980232,4|0,1:3|0:0,0:0:0:0:
288,128,870832,6,0,L|320:144,1,30.0000004470348,4|0,0:3|0:0,0:0:0:0:
197,242,871166,2,0,L|224:256,1,30.0000004470348,4|0,1:3|0:0,0:0:0:0:
101,178,871499,2,0,L|128:192,1,30.0000004470348,4|0,0:3|0:0,0:0:0:0:
384,192,871832,2,0,L|416:208,1,30.0000004470348,4|0,1:3|0:0,0:0:0:0:
192,96,872166,2,0,L|209:121,1,30.0000004470348,4|0,0:3|0:0,0:0:0:0:
303,263,872499,2,0,L|320:288,1,30.0000004470348,4|0,1:3|0:0,0:0:0:0:
288,160,872833,1,4,0:3:0:0:
192,272,872999,1,0,0:0:0:0:
192,272,873083,1,0,0:0:0:0:
192,272,873166,1,4,1:3:0:0:
80,224,873333,1,0,0:0:0:0:
400,112,873499,5,4,0:3:0:0:
160,144,873749,1,0,0:0:0:0:
160,144,873833,1,0,0:0:0:0:
288,64,873999,1,4,0:3:0:0:
336,224,874166,2,0,L|343:250,1,20.0000002980232,4|0,0:3|0:0,0:0:0:0:
160,144,874499,2,0,L|153:118,1,20.0000002980232
384,112,874833,1,4,0:3:0:0:
128,272,875082,1,0,0:0:0:0:
128,272,875166,1,4,0:3:0:0:
256,192,875333,1,0,0:0:0:0:
352,288,875499,2,0,L|342:258,1,30.0000004470348,4|0,0:3|0:0,0:0:0:0:
352,144,875833,2,0,L|358:163,1,20.0000002980232
192,352,876166,5,4,0:3:0:0:
128,192,876333,1,0,0:0:0:0:
128,192,876416,1,0,0:0:0:0:
128,192,876499,1,4,1:3:0:0:
272,224,876666,1,0,0:0:0:0:
192,352,876833,1,4,0:3:0:0:
128,192,876999,1,0,0:0:0:0:
128,192,877083,1,0,0:0:0:0:
128,192,877166,1,4,1:3:0:0:
288,96,877333,1,0,0:0:0:0:
368,320,877499,2,0,L|375:340,1,20.0000002980232,4|0,0:3|0:0,0:0:0:0:
256,176,877833,1,4,1:3:0:0:
400,208,877999,1,0,0:0:0:0:
336,64,878166,2,0,P|336:49|333:34,1,30.0000004470348,4|0,0:3|0:0,0:0:0:0:
256,176,878499,2,0,L|233:190,1,20.0000002980232,4|0,1:3|0:0,0:0:0:0:
112,256,878833,5,4,0:3:0:0:
272,288,878999,1,0,0:0:0:0:
272,288,879083,1,0,0:0:0:0:
272,288,879166,1,4,1:3:0:0:
432,320,879333,1,0,0:0:0:0:
272,144,879499,1,4,0:3:0:0:
280,296,879666,1,0,0:0:0:0:
280,296,879749,1,0,0:0:0:0:
280,296,879832,1,4,1:3:0:0:
368,208,879999,1,0,0:0:0:0:
160,272,880166,1,4,0:3:0:0:
256,48,880333,1,0,0:0:0:0:
128,128,880499,1,4,1:3:0:0:
160,272,880666,1,0,0:0:0:0:
272,160,880833,1,4,0:3:0:0:
128,128,880999,1,0,0:0:0:0:
128,128,881083,1,0,0:0:0:0:
128,128,881166,2,0,L|147:149,1,20.0000002980232,4|0,1:3|0:0,0:0:0:0:
336,64,881499,6,0,L|352:96,1,30.0000004470348,4|0,0:3|0:0,0:0:0:0:
192,208,881832,2,0,L|160:224,1,30.0000004470348,4|0,1:3|0:0,0:0:0:0:
224,80,882166,2,0,L|240:112,1,30.0000004470348,4|0,0:3|0:0,0:0:0:0:
80,224,882499,2,0,L|48:240,1,30.0000004470348,4|0,1:3|0:0,0:0:0:0:
85,98,882832,2,0,L|112:112,1,30.0000004470348,4|0,0:3|0:0,0:0:0:0:
128,304,883166,2,0,L|114:330,1,30.0000004470348,4|0,1:3|0:0,0:0:0:0:
176,208,883499,1,4,0:3:0:0:
272,144,883666,1,0,0:0:0:0:
272,144,883749,1,0,0:0:0:0:
272,144,883833,1,4,1:3:0:0:
368,80,883999,1,0,0:0:0:0:
256,272,884166,5,4,0:3:0:0:
288,16,884416,1,0,0:0:0:0:
288,16,884499,1,4,0:3:0:0:
272,144,884666,1,0,0:0:0:0:
256,272,884833,1,4,0:3:0:0:
160,160,884999,1,0,0:0:0:0:
272,144,885166,1,4,0:3:0:0:
384,128,885333,1,0,0:0:0:0:
160,160,885499,1,4,0:3:0:0:
240,240,885749,1,4,0:3:0:0:
240,240,885832,1,4,0:3:0:0:
272,144,885999,1,0,0:0:0:0:
224,64,886166,1,4,0:3:0:0:
144,256,886333,1,4,0:3:0:0:
336,224,886499,2,0,L|356:233,1,20.0000002980232
352,48,886833,5,4,0:3:0:0:
48,144,887166,1,0,0:0:0:0:
464,144,887499,1,4,0:3:0:0:
160,48,887833,1,0,0:0:0:0:
192,288,888166,1,4,0:3:0:0:
320,192,888333,1,4,0:3:0:0:
192,192,888499,1,0,0:0:0:0:
320,288,888666,1,0,0:0:0:0:
320,96,888833,1,4,0:3:0:0:
320,81,888916,1,0,0:0:0:0:
320,66,888999,1,4,0:3:0:0:
320,51,889083,1,0,0:0:0:0:
320,36,889166,1,0,0:0:0:0:
320,192,889333,1,0,0:0:0:0:
176,304,889499,5,4,0:3:0:0:
144,192,889666,1,0,0:0:0:0:
112,80,889832,1,4,0:3:0:0:
32,224,889999,1,0,0:0:0:0:
192,304,890166,2,0,L|216:316,1,20.0000002980232,4|0,0:3|0:0,0:0:0:0:
320,176,890499,2,0,L|302:184,1,20.0000002980232,4|0,0:3|0:0,0:0:0:0:
400,80,890832,1,4,0:3:0:0:
358,65,890915,1,4,0:3:0:0:
315,66,890998,1,4,0:3:0:0:
275,82,891081,1,4,0:3:0:0:
243,112,891165,1,4,0:3:0:0:
223,151,891248,1,4,0:3:0:0:
219,194,891331,1,4,0:3:0:0:
230,236,891415,1,4,0:3:0:0:
256,272,891499,2,0,L|269:278,1,10.0000001490116,2|0,0:0|0:0,0:0:0:0:
336,192,891666,2,0,L|323:198,1,10.0000001490116,2|0,0:0|0:0,0:0:0:0:
144,272,891832,2,0,L|131:278,1,10.0000001490116,2|0,0:0|0:0,0:0:0:0:
80,160,891999,2,0,L|93:166,1,10.0000001490116,2|0,0:0|0:0,0:0:0:0:
416,112,892165,1,4,0:1:0:0:
