osu file format v14

[General]
AudioFilename: Altale.mp3
AudioLeadIn: 0
PreviewTime: 92973
Countdown: 0
SampleSet: Soft
StackLeniency: 0.7
Mode: 3
LetterboxInBreaks: 0
SpecialStyle: 0
WidescreenStoryboard: 1

[Editor]
DistanceSpacing: 0.73
BeatDivisor: 12
GridSize: 4
TimelineZoom: 2.2

[Metadata]
Title:7K
TitleUnicode:7K
Artist:Various Artists
ArtistUnicode:Various Artists
Creator:ELPIS
Version:Sakuzyo - Altale
Source:
Tags:
BeatmapID:1421458
BeatmapSetID:664143

[Difficulty]
HPDrainRate:8
CircleSize:7
OverallDifficulty:0
ApproachRate:5
SliderMultiplier:1.4
SliderTickRate:1

[Events]
//Background and Video events
0,0,"Altale.png",0,0
//Break Periods
//Storyboard Layer 0 (Background)
//Storyboard Layer 1 (Fail)
//Storyboard Layer 2 (Pass)
//Storyboard Layer 3 (Foreground)
//Storyboard Sound Samples

[TimingPoints]
1640,666.666666666667,3,2,1,25,1,0
1973,666.666666666667,3,2,1,25,1,0
123973,722.89156626506,3,2,1,25,1,0
123973,-100,3,2,1,25,0,0
123973,-92.5925925925926,3,2,1,25,0,0

[HitObjects]
182,192,1640,5,0,0:0:0:0:
256,192,1862,1,0,0:0:0:0:
329,192,1973,1,0,0:0:0:0:
36,192,1973,1,0,0:0:0:0:
256,192,2640,1,0,0:0:0:0:
182,192,2862,1,0,0:0:0:0:
109,192,2973,1,0,0:0:0:0:
402,192,2973,1,0,0:0:0:0:
256,192,3640,1,0,0:0:0:0:
402,192,3862,1,0,0:0:0:0:
475,192,3973,1,0,0:0:0:0:
329,192,3973,1,0,0:0:0:0:
402,192,4306,1,0,0:0:0:0:
329,192,4640,1,0,0:0:0:0:
256,192,4862,1,0,0:0:0:0:
182,192,4973,1,0,0:0:0:0:
36,192,4973,1,0,0:0:0:0:
329,192,5640,1,0,0:0:0:0:
256,192,5973,1,0,0:0:0:0:
109,192,5973,1,0,0:0:0:0:
475,192,6640,1,0,0:0:0:0:
182,192,6973,128,0,7640:0:0:0:0:
36,192,6973,128,0,7640:0:0:0:0:
256,192,7306,1,0,0:0:0:0:
329,192,7640,1,0,0:0:0:0:
402,192,7973,128,0,8640:0:0:0:0:
109,192,7973,128,0,8640:0:0:0:0:
256,192,8973,128,0,9640:0:0:0:0:
475,192,8973,128,0,9640:0:0:0:0:
182,192,9640,1,0,0:0:0:0:
256,192,9862,1,0,0:0:0:0:
109,192,9973,128,0,10862:0:0:0:0:
329,192,9973,128,0,10862:0:0:0:0:
36,192,9973,1,0,0:0:0:0:
256,192,10640,1,0,0:0:0:0:
182,192,10862,1,0,0:0:0:0:
402,192,10973,128,0,11973:0:0:0:0:
36,192,10973,1,0,0:0:0:0:
109,192,10973,128,0,11973:0:0:0:0:
256,192,11640,1,0,0:0:0:0:
329,192,11862,1,0,0:0:0:0:
182,192,11973,128,0,12973:0:0:0:0:
475,192,11973,128,0,12973:0:0:0:0:
36,192,11973,1,0,0:0:0:0:
109,192,12306,1,0,0:0:0:0:
256,192,12640,1,0,0:0:0:0:
329,192,12973,128,0,13973:0:0:0:0:
109,192,12973,128,0,13862:0:0:0:0:
36,192,12973,1,0,0:0:0:0:
402,192,13306,1,0,0:0:0:0:
256,192,13528,1,0,0:0:0:0:
36,192,13640,1,0,0:0:0:0:
182,192,13862,1,0,0:0:0:0:
402,192,13973,128,0,14973:0:0:0:0:
109,192,13973,128,0,14973:0:0:0:0:
36,192,13973,1,0,0:0:0:0:
475,192,14640,1,0,0:0:0:0:
256,192,14862,1,0,0:0:0:0:
182,192,14973,128,0,15973:0:0:0:0:
329,192,14973,128,0,15861:0:0:0:0:
36,192,14973,1,0,0:0:0:0:
256,192,15306,1,0,0:0:0:0:
402,192,15640,1,0,0:0:0:0:
109,192,15973,1,0,0:0:0:0:
475,192,15973,1,0,0:0:0:0:
36,192,15973,1,0,0:0:0:0:
256,192,15973,1,0,0:0:0:0:
402,192,16028,128,0,16528:0:0:0:0:
329,192,16084,1,0,0:0:0:0:
256,192,16139,128,0,16361:0:0:0:0:
182,192,16195,1,0,0:0:0:0:
109,192,16250,128,0,16306:0:0:0:0:
36,192,16306,1,0,0:0:0:0:
475,192,16306,1,0,0:0:0:0:
109,192,16361,128,0,16861:0:0:0:0:
182,192,16417,1,0,0:0:0:0:
256,192,16473,128,0,16750:0:0:0:0:
329,192,16528,1,0,0:0:0:0:
402,192,16584,128,0,16639:0:0:0:0:
475,192,16639,1,0,0:0:0:0:
36,192,16639,1,0,0:0:0:0:
182,192,16639,1,0,0:0:0:0:
402,192,16695,128,0,17195:0:0:0:0:
329,192,16750,1,0,0:0:0:0:
256,192,16806,128,0,17084:0:0:0:0:
182,192,16861,1,0,0:0:0:0:
109,192,16917,128,0,16973:0:0:0:0:
36,192,16973,1,0,0:0:0:0:
475,192,16973,1,0,0:0:0:0:
109,192,17028,128,0,17528:0:0:0:0:
182,192,17084,1,0,0:0:0:0:
256,192,17139,128,0,17417:0:0:0:0:
329,192,17195,1,0,0:0:0:0:
402,192,17250,128,0,17306:0:0:0:0:
475,192,17306,1,0,0:0:0:0:
36,192,17306,1,0,0:0:0:0:
182,192,17306,1,0,0:0:0:0:
402,192,17361,128,0,17861:0:0:0:0:
329,192,17417,1,0,0:0:0:0:
256,192,17473,128,0,17750:0:0:0:0:
182,192,17528,1,0,0:0:0:0:
109,192,17584,128,0,17639:0:0:0:0:
36,192,17639,1,0,0:0:0:0:
475,192,17639,1,0,0:0:0:0:
109,192,17695,128,0,17973:0:0:0:0:
182,192,17750,1,0,0:0:0:0:
256,192,17806,128,0,17973:0:0:0:0:
329,192,17861,1,0,0:0:0:0:
402,192,17917,128,0,17973:0:0:0:0:
475,192,17973,1,0,0:0:0:0:
182,192,17973,128,0,18084:0:0:0:0:
36,192,17973,128,0,18195:0:0:0:0:
329,192,17973,1,0,0:0:0:0:
402,192,18028,128,0,18250:0:0:0:0:
329,192,18084,1,0,0:0:0:0:
256,192,18139,128,0,18250:0:0:0:0:
182,192,18195,1,0,0:0:0:0:
109,192,18250,1,0,0:0:0:0:
36,192,18306,1,0,0:0:0:0:
329,192,18306,128,0,18417:0:0:0:0:
475,192,18306,128,0,18528:0:0:0:0:
109,192,18361,128,0,18584:0:0:0:0:
182,192,18417,1,0,0:0:0:0:
256,192,18473,128,0,18584:0:0:0:0:
329,192,18528,1,0,0:0:0:0:
402,192,18584,1,0,0:0:0:0:
475,192,18639,1,0,0:0:0:0:
182,192,18639,128,0,18750:0:0:0:0:
36,192,18639,128,0,18861:0:0:0:0:
109,192,18639,1,0,0:0:0:0:
402,192,18695,128,0,18917:0:0:0:0:
329,192,18750,1,0,0:0:0:0:
256,192,18806,128,0,18917:0:0:0:0:
182,192,18861,1,0,0:0:0:0:
109,192,18917,1,0,0:0:0:0:
36,192,18973,1,0,0:0:0:0:
329,192,18973,128,0,19084:0:0:0:0:
475,192,18973,128,0,19195:0:0:0:0:
109,192,19028,128,0,19250:0:0:0:0:
182,192,19084,1,0,0:0:0:0:
256,192,19139,128,0,19250:0:0:0:0:
329,192,19195,1,0,0:0:0:0:
402,192,19250,1,0,0:0:0:0:
475,192,19306,1,0,0:0:0:0:
182,192,19306,128,0,19417:0:0:0:0:
36,192,19306,128,0,19528:0:0:0:0:
109,192,19306,1,0,0:0:0:0:
402,192,19361,128,0,19584:0:0:0:0:
329,192,19417,1,0,0:0:0:0:
256,192,19473,128,0,19584:0:0:0:0:
182,192,19528,1,0,0:0:0:0:
109,192,19584,1,0,0:0:0:0:
36,192,19639,1,0,0:0:0:0:
329,192,19639,128,0,19750:0:0:0:0:
475,192,19639,128,0,19861:0:0:0:0:
109,192,19695,128,0,19917:0:0:0:0:
182,192,19750,1,0,0:0:0:0:
256,192,19806,128,0,19917:0:0:0:0:
329,192,19861,1,0,0:0:0:0:
402,192,19917,1,0,0:0:0:0:
475,192,19973,1,0,0:0:0:0:
182,192,19973,128,0,20139:0:0:0:0:
36,192,19973,128,0,20250:0:0:0:0:
329,192,19973,128,0,20028:0:0:0:0:
402,192,20028,128,0,20306:0:0:0:0:
329,192,20084,1,0,0:0:0:0:
256,192,20139,128,0,20306:0:0:0:0:
182,192,20195,1,0,0:0:0:0:
109,192,20250,128,0,20306:0:0:0:0:
36,192,20306,1,0,0:0:0:0:
182,192,20306,128,0,20361:0:0:0:0:
329,192,20306,128,0,20473:0:0:0:0:
475,192,20306,128,0,20584:0:0:0:0:
109,192,20361,128,0,20639:0:0:0:0:
182,192,20417,1,0,0:0:0:0:
256,192,20473,128,0,20639:0:0:0:0:
329,192,20528,1,0,0:0:0:0:
402,192,20584,128,0,20639:0:0:0:0:
475,192,20639,1,0,0:0:0:0:
329,192,20639,128,0,20695:0:0:0:0:
182,192,20639,128,0,20806:0:0:0:0:
36,192,20639,128,0,20917:0:0:0:0:
402,192,20695,128,0,20973:0:0:0:0:
329,192,20750,1,0,0:0:0:0:
256,192,20806,128,0,20973:0:0:0:0:
182,192,20861,1,0,0:0:0:0:
109,192,20917,128,0,20973:0:0:0:0:
36,192,20973,1,0,0:0:0:0:
182,192,20973,128,0,21028:0:0:0:0:
329,192,20973,128,0,21139:0:0:0:0:
475,192,20973,128,0,21250:0:0:0:0:
109,192,21028,128,0,21306:0:0:0:0:
182,192,21084,1,0,0:0:0:0:
256,192,21139,128,0,21306:0:0:0:0:
329,192,21195,1,0,0:0:0:0:
402,192,21250,128,0,21306:0:0:0:0:
475,192,21306,1,0,0:0:0:0:
329,192,21306,128,0,21361:0:0:0:0:
182,192,21306,128,0,21473:0:0:0:0:
36,192,21306,128,0,21584:0:0:0:0:
402,192,21361,128,0,21639:0:0:0:0:
329,192,21417,1,0,0:0:0:0:
256,192,21473,128,0,21639:0:0:0:0:
182,192,21528,1,0,0:0:0:0:
109,192,21584,128,0,21639:0:0:0:0:
36,192,21639,1,0,0:0:0:0:
182,192,21639,128,0,21695:0:0:0:0:
329,192,21639,128,0,21806:0:0:0:0:
475,192,21639,128,0,21917:0:0:0:0:
109,192,21695,128,0,21973:0:0:0:0:
182,192,21750,1,0,0:0:0:0:
256,192,21806,128,0,21973:0:0:0:0:
329,192,21861,1,0,0:0:0:0:
402,192,21917,128,0,21973:0:0:0:0:
329,192,21973,128,0,22028:0:0:0:0:
182,192,21973,128,0,22139:0:0:0:0:
36,192,21973,128,0,22250:0:0:0:0:
475,192,21973,128,0,22250:0:0:0:0:
402,192,22028,128,0,22250:0:0:0:0:
329,192,22084,128,0,22250:0:0:0:0:
256,192,22139,128,0,22250:0:0:0:0:
182,192,22195,128,0,22361:0:0:0:0:
109,192,22250,128,0,22306:0:0:0:0:
256,192,22306,128,0,22417:0:0:0:0:
329,192,22306,128,0,22473:0:0:0:0:
402,192,22306,128,0,22528:0:0:0:0:
475,192,22306,128,0,22584:0:0:0:0:
36,192,22306,128,0,22584:0:0:0:0:
109,192,22361,128,0,22584:0:0:0:0:
182,192,22417,128,0,22584:0:0:0:0:
256,192,22473,128,0,22584:0:0:0:0:
329,192,22528,128,0,22695:0:0:0:0:
402,192,22584,128,0,22639:0:0:0:0:
256,192,22639,128,0,22750:0:0:0:0:
182,192,22639,128,0,22806:0:0:0:0:
109,192,22639,128,0,22861:0:0:0:0:
36,192,22639,128,0,22917:0:0:0:0:
475,192,22639,128,0,22917:0:0:0:0:
402,192,22695,128,0,22917:0:0:0:0:
329,192,22750,128,0,22917:0:0:0:0:
256,192,22806,128,0,22917:0:0:0:0:
182,192,22861,128,0,23028:0:0:0:0:
109,192,22917,128,0,22973:0:0:0:0:
256,192,22973,128,0,23084:0:0:0:0:
329,192,22973,128,0,23139:0:0:0:0:
402,192,22973,128,0,23195:0:0:0:0:
475,192,22973,128,0,23250:0:0:0:0:
36,192,22973,128,0,23250:0:0:0:0:
109,192,23028,128,0,23250:0:0:0:0:
182,192,23084,128,0,23250:0:0:0:0:
256,192,23139,128,0,23250:0:0:0:0:
329,192,23195,128,0,23361:0:0:0:0:
402,192,23250,128,0,23306:0:0:0:0:
256,192,23306,128,0,23417:0:0:0:0:
182,192,23306,128,0,23473:0:0:0:0:
109,192,23306,128,0,23528:0:0:0:0:
36,192,23306,128,0,23584:0:0:0:0:
475,192,23306,128,0,23584:0:0:0:0:
402,192,23361,128,0,23584:0:0:0:0:
329,192,23417,128,0,23584:0:0:0:0:
256,192,23473,128,0,23584:0:0:0:0:
182,192,23528,128,0,23695:0:0:0:0:
109,192,23584,128,0,23639:0:0:0:0:
256,192,23639,128,0,23750:0:0:0:0:
329,192,23639,128,0,23806:0:0:0:0:
402,192,23639,128,0,23861:0:0:0:0:
475,192,23639,128,0,23917:0:0:0:0:
36,192,23639,1,0,0:0:0:0:
109,192,23695,1,0,0:0:0:0:
182,192,23750,1,0,0:0:0:0:
256,192,23806,1,0,0:0:0:0:
329,192,23861,1,0,0:0:0:0:
402,192,23917,1,0,0:0:0:0:
109,192,23973,1,0,0:0:0:0:
36,192,23973,1,0,0:0:0:0:
182,192,23973,128,0,24223:0:0:0:0:
329,192,23973,128,0,24223:0:0:0:0:
475,192,23973,1,0,0:0:0:0:
402,192,24306,1,0,0:0:0:0:
182,192,24306,128,0,24556:0:0:0:0:
329,192,24306,128,0,24556:0:0:0:0:
182,192,24639,128,0,24889:0:0:0:0:
329,192,24639,128,0,24889:0:0:0:0:
256,192,24639,1,0,0:0:0:0:
109,192,24973,128,0,25223:0:0:0:0:
256,192,24973,128,0,25223:0:0:0:0:
36,192,24973,1,0,0:0:0:0:
329,192,24973,1,0,0:0:0:0:
475,192,24973,1,0,0:0:0:0:
182,192,25056,1,0,0:0:0:0:
475,192,25139,1,0,0:0:0:0:
182,192,25223,1,0,0:0:0:0:
109,192,25306,1,0,0:0:0:0:
475,192,25306,1,0,0:0:0:0:
36,192,25306,128,0,25556:0:0:0:0:
329,192,25306,128,0,25556:0:0:0:0:
182,192,25389,1,0,0:0:0:0:
475,192,25473,1,0,0:0:0:0:
182,192,25556,1,0,0:0:0:0:
36,192,25639,128,0,25889:0:0:0:0:
329,192,25639,128,0,25889:0:0:0:0:
256,192,25639,1,0,0:0:0:0:
475,192,25639,1,0,0:0:0:0:
402,192,25973,128,0,26223:0:0:0:0:
182,192,25973,128,0,26223:0:0:0:0:
36,192,25973,1,0,0:0:0:0:
475,192,25973,1,0,0:0:0:0:
256,192,25973,1,0,0:0:0:0:
329,192,26306,128,0,26556:0:0:0:0:
109,192,26306,128,0,26556:0:0:0:0:
182,192,26306,1,0,0:0:0:0:
109,192,26639,128,0,26889:0:0:0:0:
329,192,26639,128,0,26889:0:0:0:0:
256,192,26639,1,0,0:0:0:0:
36,192,26973,1,0,0:0:0:0:
182,192,26973,1,0,0:0:0:0:
402,192,26973,1,0,0:0:0:0:
109,192,26973,128,0,27223:0:0:0:0:
475,192,26973,128,0,27223:0:0:0:0:
256,192,27056,1,0,0:0:0:0:
329,192,27139,1,0,0:0:0:0:
402,192,27223,1,0,0:0:0:0:
109,192,27306,128,0,27556:0:0:0:0:
475,192,27306,128,0,27556:0:0:0:0:
182,192,27306,1,0,0:0:0:0:
329,192,27306,1,0,0:0:0:0:
402,192,27389,1,0,0:0:0:0:
329,192,27473,1,0,0:0:0:0:
256,192,27556,1,0,0:0:0:0:
182,192,27639,1,0,0:0:0:0:
402,192,27639,1,0,0:0:0:0:
109,192,27639,128,0,27889:0:0:0:0:
475,192,27639,128,0,27889:0:0:0:0:
36,192,27973,1,0,0:0:0:0:
402,192,27973,1,0,0:0:0:0:
182,192,27973,128,0,28223:0:0:0:0:
329,192,27973,128,0,28223:0:0:0:0:
109,192,27973,1,0,0:0:0:0:
256,192,28306,128,0,28556:0:0:0:0:
109,192,28306,128,0,28556:0:0:0:0:
402,192,28306,1,0,0:0:0:0:
475,192,28473,1,0,0:0:0:0:
402,192,28639,1,0,0:0:0:0:
256,192,28639,128,0,28889:0:0:0:0:
109,192,28639,128,0,28889:0:0:0:0:
329,192,28806,1,0,0:0:0:0:
256,192,28973,128,0,29223:0:0:0:0:
109,192,28973,128,0,29223:0:0:0:0:
182,192,28973,1,0,0:0:0:0:
36,192,28973,1,0,0:0:0:0:
475,192,28973,1,0,0:0:0:0:
402,192,29056,1,0,0:0:0:0:
329,192,29139,1,0,0:0:0:0:
402,192,29223,1,0,0:0:0:0:
475,192,29306,1,0,0:0:0:0:
109,192,29306,128,0,29556:0:0:0:0:
256,192,29306,128,0,29556:0:0:0:0:
182,192,29306,1,0,0:0:0:0:
402,192,29389,1,0,0:0:0:0:
329,192,29473,1,0,0:0:0:0:
402,192,29556,1,0,0:0:0:0:
256,192,29639,128,0,29889:0:0:0:0:
109,192,29639,128,0,29889:0:0:0:0:
182,192,29639,1,0,0:0:0:0:
475,192,29639,1,0,0:0:0:0:
36,192,29973,1,0,0:0:0:0:
329,192,29973,1,0,0:0:0:0:
402,192,29973,128,0,30223:0:0:0:0:
182,192,29973,128,0,30223:0:0:0:0:
475,192,29973,1,0,0:0:0:0:
402,192,30306,1,0,0:0:0:0:
256,192,30306,128,0,30556:0:0:0:0:
475,192,30306,128,0,30556:0:0:0:0:
109,192,30639,128,0,30889:0:0:0:0:
329,192,30639,128,0,30889:0:0:0:0:
256,192,30639,1,0,0:0:0:0:
36,192,30973,1,0,0:0:0:0:
256,192,30973,1,0,0:0:0:0:
475,192,30973,1,0,0:0:0:0:
109,192,30973,128,0,31223:0:0:0:0:
402,192,30973,128,0,31223:0:0:0:0:
329,192,31056,1,0,0:0:0:0:
256,192,31139,1,0,0:0:0:0:
182,192,31223,1,0,0:0:0:0:
36,192,31306,1,0,0:0:0:0:
475,192,31306,1,0,0:0:0:0:
402,192,31306,128,0,31556:0:0:0:0:
109,192,31306,128,0,31556:0:0:0:0:
329,192,31389,1,0,0:0:0:0:
256,192,31473,1,0,0:0:0:0:
182,192,31556,1,0,0:0:0:0:
402,192,31639,128,0,31889:0:0:0:0:
109,192,31639,128,0,31889:0:0:0:0:
36,192,31639,1,0,0:0:0:0:
475,192,31639,1,0,0:0:0:0:
329,192,31973,128,0,32223:0:0:0:0:
182,192,31973,128,0,32223:0:0:0:0:
36,192,31973,1,0,0:0:0:0:
109,192,31973,1,0,0:0:0:0:
402,192,31973,1,0,0:0:0:0:
182,192,32306,128,0,32556:0:0:0:0:
402,192,32306,128,0,32556:0:0:0:0:
475,192,32306,1,0,0:0:0:0:
256,192,32389,1,0,0:0:0:0:
36,192,32473,1,0,0:0:0:0:
256,192,32556,1,0,0:0:0:0:
182,192,32639,128,0,32889:0:0:0:0:
329,192,32639,128,0,32889:0:0:0:0:
402,192,32639,1,0,0:0:0:0:
36,192,32973,1,0,0:0:0:0:
329,192,32973,1,0,0:0:0:0:
109,192,32973,128,0,33223:0:0:0:0:
402,192,32973,128,0,33223:0:0:0:0:
475,192,32973,1,0,0:0:0:0:
109,192,33306,128,0,33556:0:0:0:0:
256,192,33306,1,0,0:0:0:0:
329,192,33306,128,0,33556:0:0:0:0:
475,192,33389,1,0,0:0:0:0:
256,192,33473,1,0,0:0:0:0:
36,192,33556,1,0,0:0:0:0:
109,192,33639,128,0,33889:0:0:0:0:
256,192,33639,128,0,33889:0:0:0:0:
182,192,33639,1,0,0:0:0:0:
256,192,33973,128,0,34223:0:0:0:0:
402,192,33973,128,0,34223:0:0:0:0:
329,192,33973,1,0,0:0:0:0:
36,192,33973,1,0,0:0:0:0:
109,192,33973,1,0,0:0:0:0:
256,192,34306,128,0,34556:0:0:0:0:
475,192,34306,128,0,34556:0:0:0:0:
402,192,34306,1,0,0:0:0:0:
36,192,34389,1,0,0:0:0:0:
402,192,34473,1,0,0:0:0:0:
36,192,34556,1,0,0:0:0:0:
182,192,34639,128,0,34889:0:0:0:0:
329,192,34639,128,0,34889:0:0:0:0:
256,192,34639,1,0,0:0:0:0:
182,192,34973,128,0,35223:0:0:0:0:
36,192,34973,1,0,0:0:0:0:
402,192,34973,128,0,35223:0:0:0:0:
329,192,34973,1,0,0:0:0:0:
109,192,35306,128,0,35556:0:0:0:0:
256,192,35306,128,0,35556:0:0:0:0:
475,192,35306,1,0,0:0:0:0:
402,192,35473,1,0,0:0:0:0:
109,192,35639,128,0,35889:0:0:0:0:
329,192,35639,128,0,35889:0:0:0:0:
256,192,35639,1,0,0:0:0:0:
182,192,35806,1,0,0:0:0:0:
109,192,35973,128,0,36223:0:0:0:0:
36,192,35973,1,0,0:0:0:0:
182,192,35973,1,0,0:0:0:0:
402,192,35973,128,0,36223:0:0:0:0:
329,192,35973,1,0,0:0:0:0:
109,192,36306,128,0,36556:0:0:0:0:
402,192,36306,128,0,36556:0:0:0:0:
256,192,36306,1,0,0:0:0:0:
109,192,36639,128,0,36889:0:0:0:0:
402,192,36639,128,0,36889:0:0:0:0:
256,192,36639,1,0,0:0:0:0:
475,192,36806,1,0,0:0:0:0:
182,192,36973,128,0,37223:0:0:0:0:
329,192,36973,128,0,37223:0:0:0:0:
402,192,36973,1,0,0:0:0:0:
109,192,36973,1,0,0:0:0:0:
36,192,36973,1,0,0:0:0:0:
182,192,37306,128,0,37556:0:0:0:0:
329,192,37306,128,0,37556:0:0:0:0:
256,192,37306,1,0,0:0:0:0:
182,192,37639,128,0,37889:0:0:0:0:
329,192,37639,128,0,37889:0:0:0:0:
256,192,37639,1,0,0:0:0:0:
36,192,37973,1,0,0:0:0:0:
182,192,37973,128,0,38028:0:0:0:0:
475,192,37973,128,0,38250:0:0:0:0:
329,192,37973,128,0,38139:0:0:0:0:
109,192,38028,128,0,38306:0:0:0:0:
182,192,38084,1,0,0:0:0:0:
256,192,38139,128,0,38306:0:0:0:0:
329,192,38195,1,0,0:0:0:0:
402,192,38250,128,0,38306:0:0:0:0:
36,192,38306,1,0,0:0:0:0:
182,192,38306,128,0,38361:0:0:0:0:
329,192,38306,128,0,38473:0:0:0:0:
475,192,38306,128,0,38584:0:0:0:0:
109,192,38361,128,0,38639:0:0:0:0:
182,192,38417,1,0,0:0:0:0:
256,192,38473,128,0,38639:0:0:0:0:
329,192,38528,1,0,0:0:0:0:
402,192,38584,128,0,38639:0:0:0:0:
475,192,38639,128,0,38917:0:0:0:0:
36,192,38639,1,0,0:0:0:0:
182,192,38639,128,0,38695:0:0:0:0:
329,192,38639,128,0,38806:0:0:0:0:
109,192,38695,128,0,38973:0:0:0:0:
182,192,38750,1,0,0:0:0:0:
256,192,38806,128,0,38973:0:0:0:0:
329,192,38861,1,0,0:0:0:0:
402,192,38917,128,0,38973:0:0:0:0:
475,192,38973,128,0,39250:0:0:0:0:
36,192,38973,1,0,0:0:0:0:
182,192,38973,128,0,39028:0:0:0:0:
329,192,38973,128,0,39139:0:0:0:0:
109,192,39028,128,0,39306:0:0:0:0:
182,192,39084,1,0,0:0:0:0:
256,192,39139,128,0,39306:0:0:0:0:
329,192,39195,1,0,0:0:0:0:
402,192,39250,128,0,39306:0:0:0:0:
475,192,39306,128,0,39584:0:0:0:0:
182,192,39306,128,0,39361:0:0:0:0:
329,192,39306,128,0,39473:0:0:0:0:
36,192,39306,128,0,39584:0:0:0:0:
109,192,39361,128,0,39639:0:0:0:0:
182,192,39417,1,0,0:0:0:0:
256,192,39473,128,0,39639:0:0:0:0:
329,192,39528,1,0,0:0:0:0:
402,192,39584,128,0,39639:0:0:0:0:
475,192,39639,128,0,39917:0:0:0:0:
36,192,39639,1,0,0:0:0:0:
182,192,39639,128,0,39695:0:0:0:0:
329,192,39639,128,0,39806:0:0:0:0:
109,192,39695,128,0,39973:0:0:0:0:
182,192,39750,1,0,0:0:0:0:
256,192,39806,128,0,39973:0:0:0:0:
329,192,39861,1,0,0:0:0:0:
402,192,39917,128,0,39973:0:0:0:0:
182,192,39917,1,0,0:0:0:0:
329,192,39973,1,0,0:0:0:0:
36,192,39973,128,0,40361:0:0:0:0:
475,192,39973,128,0,40361:0:0:0:0:
329,192,40139,128,0,40473:0:0:0:0:
182,192,40139,128,0,40473:0:0:0:0:
109,192,40306,128,0,40528:0:0:0:0:
256,192,40306,128,0,40473:0:0:0:0:
402,192,40306,128,0,40528:0:0:0:0:
36,192,40473,128,0,40861:0:0:0:0:
475,192,40473,128,0,40861:0:0:0:0:
109,192,40639,128,0,41195:0:0:0:0:
182,192,40639,128,0,40861:0:0:0:0:
329,192,40639,128,0,40917:0:0:0:0:
256,192,40639,128,0,40695:0:0:0:0:
402,192,40639,128,0,40695:0:0:0:0:
256,192,40806,128,0,40917:0:0:0:0:
402,192,40806,128,0,40917:0:0:0:0:
36,192,40973,128,0,41584:0:0:0:0:
329,192,40973,128,0,41195:0:0:0:0:
402,192,40973,128,0,41528:0:0:0:0:
475,192,40973,128,0,41195:0:0:0:0:
256,192,40973,128,0,41028:0:0:0:0:
182,192,40973,128,0,41028:0:0:0:0:
182,192,41139,128,0,41250:0:0:0:0:
256,192,41139,128,0,41250:0:0:0:0:
109,192,41306,128,0,41917:0:0:0:0:
182,192,41306,128,0,41528:0:0:0:0:
256,192,41306,128,0,41361:0:0:0:0:
329,192,41306,128,0,41361:0:0:0:0:
475,192,41306,128,0,41861:0:0:0:0:
256,192,41473,128,0,41584:0:0:0:0:
329,192,41473,128,0,41584:0:0:0:0:
36,192,41639,128,0,42195:0:0:0:0:
182,192,41639,128,0,42250:0:0:0:0:
256,192,41639,128,0,41861:0:0:0:0:
329,192,41639,128,0,41695:0:0:0:0:
402,192,41639,128,0,41695:0:0:0:0:
329,192,41806,128,0,41917:0:0:0:0:
402,192,41806,128,0,41917:0:0:0:0:
109,192,41973,128,0,42028:0:0:0:0:
256,192,41973,128,0,42028:0:0:0:0:
329,192,41973,128,0,42195:0:0:0:0:
402,192,41973,128,0,42528:0:0:0:0:
475,192,41973,128,0,42250:0:0:0:0:
109,192,42139,128,0,42250:0:0:0:0:
256,192,42139,128,0,42250:0:0:0:0:
36,192,42306,128,0,42917:0:0:0:0:
109,192,42306,128,0,42528:0:0:0:0:
256,192,42306,128,0,42584:0:0:0:0:
475,192,42306,128,0,42584:0:0:0:0:
329,192,42306,128,0,42361:0:0:0:0:
182,192,42306,128,0,42361:0:0:0:0:
182,192,42473,128,0,42584:0:0:0:0:
329,192,42473,128,0,42584:0:0:0:0:
402,192,42639,128,0,42695:0:0:0:0:
109,192,42639,128,0,43195:0:0:0:0:
182,192,42639,128,0,42861:0:0:0:0:
256,192,42639,128,0,42695:0:0:0:0:
329,192,42639,128,0,42917:0:0:0:0:
475,192,42639,128,0,42861:0:0:0:0:
256,192,42806,128,0,42917:0:0:0:0:
402,192,42806,128,0,42917:0:0:0:0:
36,192,42973,128,0,43250:0:0:0:0:
182,192,42973,128,0,43028:0:0:0:0:
256,192,42973,128,0,43250:0:0:0:0:
329,192,42973,128,0,43028:0:0:0:0:
475,192,42973,128,0,43361:0:0:0:0:
402,192,42973,128,0,43195:0:0:0:0:
182,192,43139,128,0,43250:0:0:0:0:
329,192,43139,128,0,43250:0:0:0:0:
36,192,43306,128,0,43584:0:0:0:0:
109,192,43306,128,0,43861:0:0:0:0:
182,192,43306,128,0,43528:0:0:0:0:
402,192,43306,128,0,43528:0:0:0:0:
256,192,43306,128,0,43361:0:0:0:0:
329,192,43306,128,0,43361:0:0:0:0:
256,192,43473,128,0,43584:0:0:0:0:
329,192,43473,128,0,43584:0:0:0:0:
475,192,43473,128,0,43917:0:0:0:0:
329,192,43639,128,0,43861:0:0:0:0:
402,192,43639,128,0,44195:0:0:0:0:
36,192,43639,128,0,44250:0:0:0:0:
182,192,43639,128,0,43695:0:0:0:0:
256,192,43639,128,0,43695:0:0:0:0:
182,192,43806,128,0,43917:0:0:0:0:
256,192,43806,128,0,43917:0:0:0:0:
109,192,43973,128,0,44584:0:0:0:0:
182,192,43973,128,0,44195:0:0:0:0:
475,192,43973,128,0,44528:0:0:0:0:
256,192,43973,128,0,44028:0:0:0:0:
329,192,43973,128,0,44028:0:0:0:0:
256,192,44139,128,0,44250:0:0:0:0:
329,192,44139,128,0,44250:0:0:0:0:
182,192,44306,128,0,44861:0:0:0:0:
36,192,44306,128,0,44861:0:0:0:0:
256,192,44306,128,0,44528:0:0:0:0:
329,192,44306,128,0,44361:0:0:0:0:
402,192,44306,128,0,44361:0:0:0:0:
402,192,44473,128,0,44584:0:0:0:0:
329,192,44473,128,0,44584:0:0:0:0:
109,192,44639,128,0,45195:0:0:0:0:
402,192,44639,128,0,44861:0:0:0:0:
475,192,44639,128,0,45250:0:0:0:0:
256,192,44639,128,0,44695:0:0:0:0:
329,192,44639,128,0,44695:0:0:0:0:
256,192,44806,128,0,44917:0:0:0:0:
329,192,44806,128,0,44917:0:0:0:0:
36,192,44973,128,0,45584:0:0:0:0:
329,192,44973,128,0,45195:0:0:0:0:
402,192,44973,128,0,45528:0:0:0:0:
256,192,44973,128,0,45028:0:0:0:0:
182,192,44973,128,0,45028:0:0:0:0:
182,192,45139,128,0,45250:0:0:0:0:
256,192,45139,128,0,45250:0:0:0:0:
109,192,45306,128,0,45695:0:0:0:0:
182,192,45306,128,0,45528:0:0:0:0:
475,192,45306,128,0,45917:0:0:0:0:
329,192,45306,128,0,45361:0:0:0:0:
256,192,45306,128,0,45361:0:0:0:0:
329,192,45473,128,0,45584:0:0:0:0:
256,192,45473,128,0,45584:0:0:0:0:
36,192,45639,128,0,45861:0:0:0:0:
182,192,45639,128,0,45917:0:0:0:0:
256,192,45639,128,0,45695:0:0:0:0:
329,192,45639,128,0,45861:0:0:0:0:
402,192,45639,128,0,46028:0:0:0:0:
109,192,45806,128,0,45917:0:0:0:0:
256,192,45806,128,0,45917:0:0:0:0:
109,192,45973,128,0,47028:0:0:0:0:
329,192,45973,128,0,46195:0:0:0:0:
36,192,45973,128,0,46528:0:0:0:0:
182,192,45973,128,0,46528:0:0:0:0:
475,192,45973,128,0,46195:0:0:0:0:
256,192,45973,128,0,46028:0:0:0:0:
256,192,46139,128,0,46361:0:0:0:0:
402,192,46139,128,0,46361:0:0:0:0:
329,192,46306,128,0,46528:0:0:0:0:
475,192,46306,128,0,46861:0:0:0:0:
256,192,46473,128,0,46695:0:0:0:0:
402,192,46473,128,0,46695:0:0:0:0:
329,192,46639,128,0,46861:0:0:0:0:
182,192,46639,128,0,46861:0:0:0:0:
36,192,46639,128,0,46861:0:0:0:0:
256,192,46806,128,0,47028:0:0:0:0:
402,192,46806,128,0,47195:0:0:0:0:
36,192,46973,128,0,47195:0:0:0:0:
182,192,46973,128,0,47195:0:0:0:0:
329,192,46973,128,0,47361:0:0:0:0:
475,192,46973,128,0,47361:0:0:0:0:
109,192,47139,128,0,47361:0:0:0:0:
256,192,47139,128,0,47528:0:0:0:0:
182,192,47306,128,0,47695:0:0:0:0:
36,192,47306,128,0,47528:0:0:0:0:
402,192,47306,128,0,47528:0:0:0:0:
109,192,47473,128,0,47861:0:0:0:0:
329,192,47473,128,0,47695:0:0:0:0:
475,192,47473,128,0,48861:0:0:0:0:
402,192,47639,128,0,47861:0:0:0:0:
256,192,47639,128,0,47917:0:0:0:0:
36,192,47639,128,0,47917:0:0:0:0:
182,192,47806,128,0,47917:0:0:0:0:
329,192,47806,128,0,47917:0:0:0:0:
109,192,47973,128,0,48250:0:0:0:0:
182,192,47973,128,0,48195:0:0:0:0:
402,192,47973,128,0,48195:0:0:0:0:
256,192,47973,128,0,48028:0:0:0:0:
329,192,47973,128,0,48028:0:0:0:0:
36,192,47973,128,0,48584:0:0:0:0:
256,192,48139,128,0,48250:0:0:0:0:
329,192,48139,128,0,48250:0:0:0:0:
109,192,48306,128,0,48528:0:0:0:0:
329,192,48306,128,0,48528:0:0:0:0:
402,192,48306,128,0,48695:0:0:0:0:
256,192,48306,128,0,48361:0:0:0:0:
182,192,48306,128,0,48361:0:0:0:0:
182,192,48473,128,0,48584:0:0:0:0:
256,192,48473,128,0,48584:0:0:0:0:
36,192,48639,128,0,48917:0:0:0:0:
109,192,48639,128,0,49250:0:0:0:0:
182,192,48639,128,0,48861:0:0:0:0:
256,192,48639,128,0,48695:0:0:0:0:
329,192,48639,128,0,48917:0:0:0:0:
256,192,48806,128,0,48917:0:0:0:0:
402,192,48806,128,0,48917:0:0:0:0:
329,192,48973,128,0,49028:0:0:0:0:
402,192,48973,128,0,49028:0:0:0:0:
256,192,48973,128,0,49195:0:0:0:0:
475,192,48973,128,0,49195:0:0:0:0:
182,192,48973,128,0,49361:0:0:0:0:
36,192,48973,128,0,49584:0:0:0:0:
329,192,49139,128,0,49250:0:0:0:0:
402,192,49139,128,0,49250:0:0:0:0:
109,192,49306,128,0,49528:0:0:0:0:
256,192,49306,128,0,49361:0:0:0:0:
329,192,49306,128,0,49528:0:0:0:0:
402,192,49306,128,0,49861:0:0:0:0:
475,192,49306,128,0,50195:0:0:0:0:
182,192,49473,128,0,49584:0:0:0:0:
256,192,49473,128,0,49584:0:0:0:0:
36,192,49639,128,0,49917:0:0:0:0:
109,192,49639,128,0,50361:0:0:0:0:
182,192,49639,128,0,49861:0:0:0:0:
256,192,49639,128,0,49695:0:0:0:0:
329,192,49639,128,0,49695:0:0:0:0:
329,192,49806,128,0,49917:0:0:0:0:
256,192,49806,128,0,49917:0:0:0:0:
36,192,49973,128,0,50250:0:0:0:0:
256,192,49973,128,0,50028:0:0:0:0:
402,192,49973,128,0,50028:0:0:0:0:
329,192,49973,128,0,50250:0:0:0:0:
182,192,49973,128,0,50195:0:0:0:0:
256,192,50139,128,0,50250:0:0:0:0:
402,192,50139,128,0,50250:0:0:0:0:
475,192,50306,128,0,50584:0:0:0:0:
36,192,50306,128,0,50528:0:0:0:0:
182,192,50306,128,0,50584:0:0:0:0:
329,192,50306,128,0,50528:0:0:0:0:
402,192,50306,128,0,50695:0:0:0:0:
256,192,50306,128,0,50361:0:0:0:0:
109,192,50473,128,0,50584:0:0:0:0:
256,192,50473,128,0,50584:0:0:0:0:
36,192,50639,128,0,50917:0:0:0:0:
182,192,50639,128,0,50889:0:0:0:0:
109,192,50639,128,0,51028:0:0:0:0:
329,192,50639,128,0,50848:0:0:0:0:
475,192,50639,128,0,50889:0:0:0:0:
256,192,50639,128,0,50695:0:0:0:0:
256,192,50806,128,0,50917:0:0:0:0:
402,192,50806,128,0,50917:0:0:0:0:
329,192,50973,128,0,51195:0:0:0:0:
256,192,50973,128,0,51028:0:0:0:0:
402,192,50973,128,0,51528:0:0:0:0:
475,192,50973,128,0,51250:0:0:0:0:
182,192,50973,128,0,51250:0:0:0:0:
36,192,50973,128,0,51195:0:0:0:0:
109,192,51139,128,0,51250:0:0:0:0:
256,192,51139,128,0,51250:0:0:0:0:
36,192,51306,128,0,51861:0:0:0:0:
109,192,51306,128,0,51528:0:0:0:0:
475,192,51306,128,0,51584:0:0:0:0:
256,192,51306,128,0,51361:0:0:0:0:
329,192,51306,128,0,51361:0:0:0:0:
182,192,51306,128,0,51361:0:0:0:0:
182,192,51473,128,0,51584:0:0:0:0:
256,192,51473,128,0,51584:0:0:0:0:
329,192,51473,128,0,51584:0:0:0:0:
182,192,51639,128,0,51917:0:0:0:0:
329,192,51639,128,0,51861:0:0:0:0:
475,192,51639,128,0,51917:0:0:0:0:
402,192,51639,128,0,52195:0:0:0:0:
256,192,51639,128,0,51695:0:0:0:0:
109,192,51639,128,0,51695:0:0:0:0:
109,192,51806,128,0,51917:0:0:0:0:
256,192,51806,128,0,51917:0:0:0:0:
475,192,51973,128,0,52584:0:0:0:0:
109,192,51973,128,0,52528:0:0:0:0:
36,192,51973,128,0,52250:0:0:0:0:
182,192,51973,128,0,52195:0:0:0:0:
256,192,51973,128,0,52028:0:0:0:0:
329,192,51973,128,0,52028:0:0:0:0:
256,192,52139,128,0,52250:0:0:0:0:
329,192,52139,128,0,52250:0:0:0:0:
329,192,52306,128,0,52528:0:0:0:0:
402,192,52306,128,0,52695:0:0:0:0:
36,192,52306,128,0,52917:0:0:0:0:
182,192,52306,128,0,52361:0:0:0:0:
256,192,52306,128,0,52361:0:0:0:0:
182,192,52473,128,0,52584:0:0:0:0:
256,192,52473,128,0,52584:0:0:0:0:
475,192,52639,128,0,52861:0:0:0:0:
256,192,52639,128,0,52695:0:0:0:0:
329,192,52639,128,0,52917:0:0:0:0:
109,192,52639,128,0,53195:0:0:0:0:
182,192,52639,128,0,52861:0:0:0:0:
402,192,52806,128,0,52917:0:0:0:0:
256,192,52806,128,0,52917:0:0:0:0:
36,192,52973,128,0,53861:0:0:0:0:
329,192,52973,128,0,53195:0:0:0:0:
402,192,52973,128,0,53528:0:0:0:0:
475,192,52973,128,0,53250:0:0:0:0:
182,192,52973,128,0,53028:0:0:0:0:
256,192,52973,128,0,53028:0:0:0:0:
182,192,53139,128,0,53250:0:0:0:0:
256,192,53139,128,0,53250:0:0:0:0:
109,192,53306,128,0,53528:0:0:0:0:
256,192,53306,128,0,53584:0:0:0:0:
475,192,53306,128,0,53584:0:0:0:0:
182,192,53306,128,0,53361:0:0:0:0:
329,192,53306,128,0,53361:0:0:0:0:
182,192,53473,128,0,53584:0:0:0:0:
329,192,53473,128,0,53584:0:0:0:0:
109,192,53639,128,0,53695:0:0:0:0:
256,192,53639,128,0,53695:0:0:0:0:
402,192,53639,128,0,53695:0:0:0:0:
329,192,53639,128,0,53861:0:0:0:0:
182,192,53639,128,0,53917:0:0:0:0:
475,192,53639,128,0,53917:0:0:0:0:
109,192,53806,128,0,53917:0:0:0:0:
256,192,53806,128,0,53917:0:0:0:0:
402,192,53806,128,0,54028:0:0:0:0:
36,192,53973,128,0,54195:0:0:0:0:
182,192,53973,128,0,54361:0:0:0:0:
256,192,53973,128,0,54195:0:0:0:0:
329,192,53973,128,0,54361:0:0:0:0:
475,192,53973,128,0,54195:0:0:0:0:
109,192,53973,128,0,54028:0:0:0:0:
109,192,54139,128,0,54695:0:0:0:0:
402,192,54139,128,0,54695:0:0:0:0:
36,192,54306,128,0,54528:0:0:0:0:
256,192,54306,128,0,54528:0:0:0:0:
475,192,54306,128,0,54528:0:0:0:0:
182,192,54473,128,0,55028:0:0:0:0:
329,192,54473,128,0,55028:0:0:0:0:
256,192,54639,128,0,54861:0:0:0:0:
36,192,54639,128,0,54861:0:0:0:0:
475,192,54639,128,0,54861:0:0:0:0:
109,192,54806,128,0,55195:0:0:0:0:
402,192,54806,128,0,55195:0:0:0:0:
256,192,54973,128,0,55361:0:0:0:0:
36,192,54973,128,0,55195:0:0:0:0:
475,192,54973,128,0,55195:0:0:0:0:
182,192,55139,128,0,55195:0:0:0:0:
329,192,55139,128,0,55195:0:0:0:0:
109,192,55306,128,0,55361:0:0:0:0:
182,192,55306,128,0,55528:0:0:0:0:
329,192,55306,128,0,55528:0:0:0:0:
475,192,55306,128,0,55528:0:0:0:0:
402,192,55306,128,0,55361:0:0:0:0:
36,192,55306,128,0,55528:0:0:0:0:
109,192,55473,128,0,55528:0:0:0:0:
402,192,55473,128,0,55528:0:0:0:0:
256,192,55473,128,0,55861:0:0:0:0:
182,192,55639,128,0,55695:0:0:0:0:
329,192,55639,128,0,55695:0:0:0:0:
109,192,55639,128,0,55861:0:0:0:0:
402,192,55639,128,0,55861:0:0:0:0:
475,192,55639,128,0,55861:0:0:0:0:
36,192,55639,128,0,55861:0:0:0:0:
182,192,55806,128,0,55861:0:0:0:0:
329,192,55806,128,0,55861:0:0:0:0:
36,192,55973,128,0,57223:0:0:0:0:
109,192,56056,128,0,56889:0:0:0:0:
182,192,56139,128,0,56556:0:0:0:0:
256,192,56223,128,0,56389:0:0:0:0:
329,192,56306,128,0,56473:0:0:0:0:
402,192,56389,128,0,56556:0:0:0:0:
475,192,56473,128,0,56639:0:0:0:0:
256,192,56556,128,0,56639:0:0:0:0:
329,192,56639,128,0,56723:0:0:0:0:
402,192,56723,128,0,56806:0:0:0:0:
182,192,56723,1,0,0:0:0:0:
475,192,56806,128,0,57723:0:0:0:0:
256,192,56806,1,0,0:0:0:0:
329,192,56889,1,0,0:0:0:0:
182,192,56889,128,0,56973:0:0:0:0:
402,192,56973,1,0,0:0:0:0:
256,192,56973,128,0,57056:0:0:0:0:
329,192,57056,128,0,57139:0:0:0:0:
109,192,57056,1,0,0:0:0:0:
182,192,57139,1,0,0:0:0:0:
402,192,57139,128,0,57639:0:0:0:0:
256,192,57223,1,0,0:0:0:0:
109,192,57223,128,0,57306:0:0:0:0:
329,192,57306,1,0,0:0:0:0:
182,192,57306,128,0,57389:0:0:0:0:
256,192,57389,128,0,57473:0:0:0:0:
36,192,57389,1,0,0:0:0:0:
329,192,57473,128,0,57556:0:0:0:0:
109,192,57473,1,0,0:0:0:0:
182,192,57556,1,0,0:0:0:0:
36,192,57556,128,0,58056:0:0:0:0:
256,192,57639,1,0,0:0:0:0:
109,192,57639,128,0,57973:0:0:0:0:
329,192,57723,1,0,0:0:0:0:
182,192,57723,128,0,57889:0:0:0:0:
402,192,57806,1,0,0:0:0:0:
256,192,57806,128,0,58223:0:0:0:0:
475,192,57889,1,0,0:0:0:0:
329,192,57889,128,0,58139:0:0:0:0:
402,192,57973,128,0,58556:0:0:0:0:
182,192,58056,1,0,0:0:0:0:
475,192,58056,128,0,59056:0:0:0:0:
109,192,58139,1,0,0:0:0:0:
36,192,58223,1,0,0:0:0:0:
182,192,58223,128,0,58306:0:0:0:0:
109,192,58306,128,0,58389:0:0:0:0:
329,192,58306,1,0,0:0:0:0:
36,192,58389,128,0,58473:0:0:0:0:
256,192,58389,1,0,0:0:0:0:
182,192,58473,1,0,0:0:0:0:
329,192,58473,128,0,58639:0:0:0:0:
109,192,58556,1,0,0:0:0:0:
256,192,58556,128,0,58723:0:0:0:0:
182,192,58639,128,0,58806:0:0:0:0:
36,192,58639,1,0,0:0:0:0:
109,192,58723,128,0,58889:0:0:0:0:
402,192,58723,1,0,0:0:0:0:
36,192,58806,128,0,58973:0:0:0:0:
329,192,58806,1,0,0:0:0:0:
256,192,58889,1,0,0:0:0:0:
402,192,58889,128,0,59139:0:0:0:0:
182,192,58973,1,0,0:0:0:0:
329,192,58973,128,0,59223:0:0:0:0:
109,192,59056,1,0,0:0:0:0:
256,192,59056,128,0,59306:0:0:0:0:
36,192,59139,1,0,0:0:0:0:
182,192,59139,128,0,59389:0:0:0:0:
109,192,59223,128,0,59473:0:0:0:0:
475,192,59223,1,0,0:0:0:0:
402,192,59306,1,0,0:0:0:0:
36,192,59306,128,0,59556:0:0:0:0:
329,192,59389,1,0,0:0:0:0:
475,192,59389,128,0,59806:0:0:0:0:
256,192,59473,1,0,0:0:0:0:
402,192,59473,128,0,59723:0:0:0:0:
182,192,59556,1,0,0:0:0:0:
329,192,59556,128,0,59639:0:0:0:0:
109,192,59639,1,0,0:0:0:0:
256,192,59639,128,0,60056:0:0:0:0:
36,192,59723,1,0,0:0:0:0:
182,192,59723,128,0,59973:0:0:0:0:
109,192,59806,128,0,59889:0:0:0:0:
329,192,59806,1,0,0:0:0:0:
402,192,59889,1,0,0:0:0:0:
36,192,59889,128,0,60639:0:0:0:0:
475,192,59973,1,0,0:0:0:0:
329,192,59973,128,0,60139:0:0:0:0:
109,192,60056,1,0,0:0:0:0:
402,192,60056,128,0,60223:0:0:0:0:
182,192,60139,1,0,0:0:0:0:
475,192,60139,128,0,60306:0:0:0:0:
256,192,60223,1,0,0:0:0:0:
109,192,60223,128,0,60723:0:0:0:0:
329,192,60306,1,0,0:0:0:0:
182,192,60306,128,0,60389:0:0:0:0:
402,192,60389,1,0,0:0:0:0:
256,192,60389,128,0,60473:0:0:0:0:
475,192,60473,1,0,0:0:0:0:
329,192,60473,128,0,60556:0:0:0:0:
182,192,60556,1,0,0:0:0:0:
402,192,60556,128,0,61056:0:0:0:0:
256,192,60639,1,0,0:0:0:0:
475,192,60639,128,0,61139:0:0:0:0:
329,192,60723,1,0,0:0:0:0:
182,192,60723,128,0,60806:0:0:0:0:
256,192,60806,128,0,60889:0:0:0:0:
36,192,60806,1,0,0:0:0:0:
329,192,60889,128,0,60973:0:0:0:0:
109,192,60889,1,0,0:0:0:0:
182,192,60973,1,0,0:0:0:0:
36,192,60973,128,0,61223:0:0:0:0:
256,192,61056,1,0,0:0:0:0:
109,192,61056,128,0,61306:0:0:0:0:
329,192,61139,1,0,0:0:0:0:
182,192,61139,128,0,61389:0:0:0:0:
402,192,61223,1,0,0:0:0:0:
256,192,61223,128,0,61473:0:0:0:0:
475,192,61306,1,0,0:0:0:0:
329,192,61306,128,0,61556:0:0:0:0:
402,192,61389,128,0,61639:0:0:0:0:
36,192,61389,1,0,0:0:0:0:
475,192,61473,128,0,61723:0:0:0:0:
109,192,61473,1,0,0:0:0:0:
182,192,61556,1,0,0:0:0:0:
36,192,61556,128,0,62056:0:0:0:0:
256,192,61639,1,0,0:0:0:0:
109,192,61639,128,0,62139:0:0:0:0:
329,192,61723,1,0,0:0:0:0:
182,192,61723,128,0,62223:0:0:0:0:
402,192,61806,1,0,0:0:0:0:
256,192,61806,128,0,62056:0:0:0:0:
475,192,61889,1,0,0:0:0:0:
329,192,61889,128,0,62139:0:0:0:0:
402,192,61973,128,0,62223:0:0:0:0:
475,192,62056,128,0,62306:0:0:0:0:
36,192,62139,128,0,62556:0:0:0:0:
256,192,62139,128,0,62306:0:0:0:0:
109,192,62223,128,0,62473:0:0:0:0:
329,192,62223,128,0,62473:0:0:0:0:
182,192,62306,128,0,62389:0:0:0:0:
402,192,62306,128,0,62389:0:0:0:0:
475,192,62389,128,0,62806:0:0:0:0:
256,192,62389,128,0,62556:0:0:0:0:
182,192,62473,128,0,62723:0:0:0:0:
402,192,62473,128,0,62723:0:0:0:0:
109,192,62556,128,0,62639:0:0:0:0:
329,192,62556,128,0,62639:0:0:0:0:
36,192,62639,128,0,62889:0:0:0:0:
256,192,62639,128,0,62806:0:0:0:0:
329,192,62722,128,0,63028:0:0:0:0:
109,192,62723,128,0,62973:0:0:0:0:
182,192,62806,128,0,62889:0:0:0:0:
402,192,62806,128,0,63084:0:0:0:0:
256,192,62889,128,0,62973:0:0:0:0:
475,192,62889,128,0,63139:0:0:0:0:
182,192,62973,128,0,63028:0:0:0:0:
36,192,62973,128,0,63361:0:0:0:0:
256,192,63028,128,0,63084:0:0:0:0:
109,192,63028,128,0,63306:0:0:0:0:
329,192,63084,128,0,63139:0:0:0:0:
182,192,63084,128,0,63250:0:0:0:0:
402,192,63139,128,0,63195:0:0:0:0:
256,192,63139,128,0,63195:0:0:0:0:
329,192,63195,128,0,63250:0:0:0:0:
475,192,63195,128,0,63584:0:0:0:0:
256,192,63250,128,0,63306:0:0:0:0:
402,192,63250,128,0,63528:0:0:0:0:
329,192,63306,128,0,63473:0:0:0:0:
182,192,63306,128,0,63361:0:0:0:0:
256,192,63361,128,0,63417:0:0:0:0:
109,192,63361,128,0,63417:0:0:0:0:
182,192,63417,128,0,63473:0:0:0:0:
36,192,63417,128,0,63528:0:0:0:0:
256,192,63473,128,0,63528:0:0:0:0:
109,192,63473,128,0,63584:0:0:0:0:
329,192,63528,128,0,63584:0:0:0:0:
182,192,63528,128,0,63639:0:0:0:0:
402,192,63584,128,0,63639:0:0:0:0:
256,192,63584,128,0,63695:0:0:0:0:
475,192,63639,128,0,63695:0:0:0:0:
329,192,63639,128,0,63750:0:0:0:0:
36,192,63639,1,0,0:0:0:0:
402,192,63695,128,0,63806:0:0:0:0:
109,192,63695,1,0,0:0:0:0:
475,192,63750,128,0,63861:0:0:0:0:
182,192,63750,1,0,0:0:0:0:
256,192,63806,1,0,0:0:0:0:
329,192,63861,1,0,0:0:0:0:
402,192,63917,1,0,0:0:0:0:
475,192,63973,1,0,0:0:0:0:
109,192,63973,1,0,0:0:0:0:
36,192,63973,1,0,0:0:0:0:
256,192,63973,128,0,64639:0:0:0:0:
182,192,64139,1,0,0:0:0:0:
329,192,64139,1,0,0:0:0:0:
109,192,64223,1,0,0:0:0:0:
36,192,64306,1,0,0:0:0:0:
402,192,64306,1,0,0:0:0:0:
109,192,64389,1,0,0:0:0:0:
475,192,64389,1,0,0:0:0:0:
402,192,64473,1,0,0:0:0:0:
182,192,64473,1,0,0:0:0:0:
329,192,64556,1,0,0:0:0:0:
109,192,64556,1,0,0:0:0:0:
36,192,64639,1,0,0:0:0:0:
182,192,64639,1,0,0:0:0:0:
475,192,64639,1,0,0:0:0:0:
329,192,64723,1,0,0:0:0:0:
256,192,64806,1,0,0:0:0:0:
109,192,64806,1,0,0:0:0:0:
402,192,64806,1,0,0:0:0:0:
182,192,64889,1,0,0:0:0:0:
475,192,64889,1,0,0:0:0:0:
109,192,64973,1,0,0:0:0:0:
256,192,64973,1,0,0:0:0:0:
36,192,64973,1,0,0:0:0:0:
402,192,64973,128,0,65306:0:0:0:0:
182,192,65139,1,0,0:0:0:0:
256,192,65223,1,0,0:0:0:0:
329,192,65306,1,0,0:0:0:0:
475,192,65306,1,0,0:0:0:0:
182,192,65306,128,0,65639:0:0:0:0:
402,192,65389,1,0,0:0:0:0:
475,192,65473,1,0,0:0:0:0:
109,192,65473,1,0,0:0:0:0:
256,192,65473,1,0,0:0:0:0:
36,192,65556,1,0,0:0:0:0:
402,192,65556,1,0,0:0:0:0:
109,192,65639,1,0,0:0:0:0:
256,192,65639,1,0,0:0:0:0:
329,192,65639,128,0,65973:0:0:0:0:
182,192,65723,1,0,0:0:0:0:
256,192,65806,1,0,0:0:0:0:
475,192,65806,1,0,0:0:0:0:
402,192,65889,1,0,0:0:0:0:
256,192,65973,1,0,0:0:0:0:
109,192,65973,1,0,0:0:0:0:
36,192,65973,1,0,0:0:0:0:
475,192,65973,128,0,66306:0:0:0:0:
329,192,66139,1,0,0:0:0:0:
109,192,66139,1,0,0:0:0:0:
182,192,66223,1,0,0:0:0:0:
109,192,66306,1,0,0:0:0:0:
256,192,66306,1,0,0:0:0:0:
402,192,66306,128,0,66556:0:0:0:0:
182,192,66389,1,0,0:0:0:0:
256,192,66473,1,0,0:0:0:0:
36,192,66473,1,0,0:0:0:0:
475,192,66473,1,0,0:0:0:0:
109,192,66556,1,0,0:0:0:0:
329,192,66556,1,0,0:0:0:0:
182,192,66639,1,0,0:0:0:0:
475,192,66639,1,0,0:0:0:0:
256,192,66639,128,0,66889:0:0:0:0:
329,192,66723,1,0,0:0:0:0:
109,192,66806,1,0,0:0:0:0:
402,192,66806,1,0,0:0:0:0:
475,192,66889,1,0,0:0:0:0:
402,192,66973,1,0,0:0:0:0:
36,192,66973,1,0,0:0:0:0:
109,192,66973,128,0,67639:0:0:0:0:
182,192,66973,1,0,0:0:0:0:
256,192,66973,1,0,0:0:0:0:
329,192,67056,1,0,0:0:0:0:
475,192,67056,1,0,0:0:0:0:
402,192,67139,1,0,0:0:0:0:
256,192,67139,1,0,0:0:0:0:
182,192,67223,1,0,0:0:0:0:
329,192,67223,1,0,0:0:0:0:
256,192,67306,1,0,0:0:0:0:
402,192,67306,1,0,0:0:0:0:
329,192,67389,1,0,0:0:0:0:
36,192,67473,1,0,0:0:0:0:
475,192,67473,1,0,0:0:0:0:
402,192,67556,1,0,0:0:0:0:
182,192,67639,1,0,0:0:0:0:
329,192,67639,1,0,0:0:0:0:
475,192,67639,1,0,0:0:0:0:
256,192,67723,1,0,0:0:0:0:
402,192,67723,1,0,0:0:0:0:
329,192,67806,1,0,0:0:0:0:
182,192,67806,1,0,0:0:0:0:
256,192,67889,1,0,0:0:0:0:
109,192,67889,1,0,0:0:0:0:
109,192,67973,1,0,0:0:0:0:
402,192,67973,1,0,0:0:0:0:
475,192,67973,1,0,0:0:0:0:
36,192,67973,1,0,0:0:0:0:
182,192,67973,1,0,0:0:0:0:
256,192,68056,1,0,0:0:0:0:
109,192,68139,1,0,0:0:0:0:
402,192,68139,1,0,0:0:0:0:
256,192,68223,1,0,0:0:0:0:
36,192,68306,1,0,0:0:0:0:
475,192,68306,1,0,0:0:0:0:
182,192,68389,1,0,0:0:0:0:
329,192,68389,1,0,0:0:0:0:
109,192,68473,1,0,0:0:0:0:
256,192,68473,1,0,0:0:0:0:
402,192,68473,1,0,0:0:0:0:
182,192,68556,1,0,0:0:0:0:
329,192,68556,1,0,0:0:0:0:
36,192,68639,128,0,68889:0:0:0:0:
256,192,68639,1,0,0:0:0:0:
475,192,68639,128,0,68806:0:0:0:0:
109,192,68723,128,0,69056:0:0:0:0:
402,192,68723,128,0,68973:0:0:0:0:
182,192,68806,128,0,69223:0:0:0:0:
329,192,68806,128,0,69139:0:0:0:0:
256,192,68889,128,0,69723:0:0:0:0:
475,192,68889,1,0,0:0:0:0:
36,192,68973,1,0,0:0:0:0:
475,192,68973,128,0,69473:0:0:0:0:
402,192,69056,1,0,0:0:0:0:
36,192,69056,128,0,69556:0:0:0:0:
109,192,69139,1,0,0:0:0:0:
402,192,69139,128,0,69306:0:0:0:0:
329,192,69223,1,0,0:0:0:0:
109,192,69223,128,0,69389:0:0:0:0:
182,192,69306,1,0,0:0:0:0:
329,192,69306,128,0,69556:0:0:0:0:
402,192,69389,1,0,0:0:0:0:
182,192,69389,128,0,69556:0:0:0:0:
109,192,69473,1,0,0:0:0:0:
402,192,69473,128,0,69723:0:0:0:0:
109,192,69556,128,0,69723:0:0:0:0:
475,192,69556,1,0,0:0:0:0:
329,192,69639,128,0,69806:0:0:0:0:
182,192,69639,128,0,69806:0:0:0:0:
475,192,69639,128,0,69806:0:0:0:0:
36,192,69639,128,0,69806:0:0:0:0:
182,192,69973,1,0,0:0:0:0:
109,192,69973,1,0,0:0:0:0:
36,192,69973,1,0,0:0:0:0:
329,192,69973,1,0,0:0:0:0:
475,192,69973,1,0,0:0:0:0:
256,192,70056,1,0,0:0:0:0:
109,192,70139,1,0,0:0:0:0:
402,192,70139,1,0,0:0:0:0:
256,192,70223,1,0,0:0:0:0:
36,192,70306,1,0,0:0:0:0:
475,192,70306,1,0,0:0:0:0:
256,192,70389,1,0,0:0:0:0:
109,192,70473,1,0,0:0:0:0:
402,192,70473,1,0,0:0:0:0:
182,192,70556,1,0,0:0:0:0:
329,192,70556,1,0,0:0:0:0:
256,192,70639,1,0,0:0:0:0:
36,192,70639,128,0,70806:0:0:0:0:
475,192,70639,128,0,70889:0:0:0:0:
109,192,70723,128,0,70973:0:0:0:0:
402,192,70723,128,0,71056:0:0:0:0:
329,192,70806,128,0,71223:0:0:0:0:
182,192,70806,128,0,71139:0:0:0:0:
256,192,70889,128,0,71723:0:0:0:0:
36,192,70889,1,0,0:0:0:0:
36,192,70973,128,0,71473:0:0:0:0:
475,192,70973,1,0,0:0:0:0:
475,192,71056,128,0,71806:0:0:0:0:
109,192,71056,1,0,0:0:0:0:
109,192,71139,128,0,71306:0:0:0:0:
402,192,71139,1,0,0:0:0:0:
182,192,71223,1,0,0:0:0:0:
402,192,71223,128,0,71389:0:0:0:0:
329,192,71306,1,0,0:0:0:0:
182,192,71306,128,0,71806:0:0:0:0:
109,192,71389,1,0,0:0:0:0:
329,192,71389,128,0,71806:0:0:0:0:
402,192,71473,1,0,0:0:0:0:
109,192,71473,128,0,71723:0:0:0:0:
36,192,71556,1,0,0:0:0:0:
402,192,71556,128,0,71723:0:0:0:0:
36,192,71639,128,0,71806:0:0:0:0:
256,192,71806,1,0,0:0:0:0:
182,192,71973,1,0,0:0:0:0:
329,192,71973,1,0,0:0:0:0:
475,192,71973,1,0,0:0:0:0:
256,192,71973,1,0,0:0:0:0:
36,192,71973,128,0,72084:0:0:0:0:
109,192,72028,128,0,72139:0:0:0:0:
182,192,72084,128,0,72195:0:0:0:0:
256,192,72139,128,0,72250:0:0:0:0:
36,192,72139,128,0,72250:0:0:0:0:
329,192,72195,128,0,72306:0:0:0:0:
109,192,72195,128,0,72306:0:0:0:0:
402,192,72250,128,0,72361:0:0:0:0:
182,192,72250,128,0,72361:0:0:0:0:
475,192,72306,128,0,72417:0:0:0:0:
36,192,72306,128,0,72473:0:0:0:0:
256,192,72306,128,0,72417:0:0:0:0:
109,192,72361,128,0,72528:0:0:0:0:
329,192,72361,128,0,72473:0:0:0:0:
182,192,72417,128,0,72584:0:0:0:0:
402,192,72417,128,0,72528:0:0:0:0:
256,192,72473,128,0,72639:0:0:0:0:
475,192,72473,128,0,72695:0:0:0:0:
329,192,72528,128,0,72695:0:0:0:0:
36,192,72528,128,0,72695:0:0:0:0:
109,192,72584,128,0,72750:0:0:0:0:
402,192,72584,128,0,72639:0:0:0:0:
182,192,72639,128,0,72806:0:0:0:0:
256,192,72695,128,0,73028:0:0:0:0:
402,192,72695,128,0,72806:0:0:0:0:
475,192,72750,128,0,73084:0:0:0:0:
36,192,72750,128,0,72861:0:0:0:0:
329,192,72750,128,0,72861:0:0:0:0:
109,192,72806,128,0,72973:0:0:0:0:
402,192,72861,128,0,72917:0:0:0:0:
182,192,72861,128,0,73028:0:0:0:0:
36,192,72917,128,0,73084:0:0:0:0:
329,192,72917,128,0,73139:0:0:0:0:
402,192,72973,128,0,73195:0:0:0:0:
109,192,73028,128,0,73195:0:0:0:0:
256,192,73084,128,0,73306:0:0:0:0:
182,192,73084,128,0,73250:0:0:0:0:
475,192,73139,128,0,73528:0:0:0:0:
36,192,73139,128,0,73584:0:0:0:0:
329,192,73195,128,0,73473:0:0:0:0:
402,192,73250,128,0,73361:0:0:0:0:
109,192,73250,128,0,73473:0:0:0:0:
182,192,73306,128,0,73528:0:0:0:0:
256,192,73361,128,0,73584:0:0:0:0:
402,192,73417,128,0,73750:0:0:0:0:
109,192,73528,128,0,73639:0:0:0:0:
329,192,73528,128,0,73806:0:0:0:0:
182,192,73584,128,0,73695:0:0:0:0:
475,192,73584,128,0,73917:0:0:0:0:
36,192,73639,1,0,0:0:0:0:
256,192,73639,128,0,73750:0:0:0:0:
109,192,73695,1,0,0:0:0:0:
182,192,73750,1,0,0:0:0:0:
256,192,73806,1,0,0:0:0:0:
402,192,73806,128,0,73861:0:0:0:0:
329,192,73861,1,0,0:0:0:0:
182,192,73889,1,0,0:0:0:0:
402,192,73917,1,0,0:0:0:0:
475,192,73973,1,0,0:0:0:0:
109,192,73973,1,0,0:0:0:0:
36,192,73973,1,0,0:0:0:0:
256,192,73973,1,0,0:0:0:0:
36,192,75973,1,0,0:0:0:0:
109,192,75973,1,0,0:0:0:0:
256,192,75973,1,0,0:0:0:0:
182,192,76639,1,0,0:0:0:0:
36,192,76861,1,0,0:0:0:0:
329,192,76973,1,0,0:0:0:0:
109,192,77639,1,0,0:0:0:0:
256,192,77861,1,0,0:0:0:0:
475,192,77973,1,0,0:0:0:0:
402,192,78306,1,0,0:0:0:0:
329,192,78639,1,0,0:0:0:0:
256,192,78861,1,0,0:0:0:0:
182,192,78973,1,0,0:0:0:0:
109,192,79639,1,0,0:0:0:0:
36,192,79973,1,0,0:0:0:0:
329,192,80639,1,0,0:0:0:0:
109,192,80973,1,0,0:0:0:0:
182,192,81306,1,0,0:0:0:0:
256,192,81639,1,0,0:0:0:0:
36,192,81973,1,0,0:0:0:0:
182,192,82973,1,0,0:0:0:0:
109,192,82973,1,0,0:0:0:0:
256,192,83306,1,0,0:0:0:0:
36,192,83639,1,0,0:0:0:0:
329,192,83639,1,0,0:0:0:0:
109,192,83861,1,0,0:0:0:0:
36,192,83973,1,0,0:0:0:0:
182,192,83973,1,0,0:0:0:0:
402,192,83973,1,0,0:0:0:0:
402,192,84639,1,0,0:0:0:0:
256,192,84861,1,0,0:0:0:0:
109,192,84973,1,0,0:0:0:0:
402,192,84973,1,0,0:0:0:0:
256,192,85639,1,0,0:0:0:0:
329,192,85861,1,0,0:0:0:0:
475,192,85973,1,0,0:0:0:0:
182,192,85973,1,0,0:0:0:0:
402,192,86306,1,0,0:0:0:0:
36,192,86306,1,0,0:0:0:0:
109,192,86639,1,0,0:0:0:0:
329,192,86639,1,0,0:0:0:0:
36,192,86973,1,0,0:0:0:0:
256,192,86973,1,0,0:0:0:0:
109,192,87306,1,0,0:0:0:0:
182,192,87639,1,0,0:0:0:0:
475,192,87639,1,0,0:0:0:0:
256,192,87973,1,0,0:0:0:0:
402,192,87973,1,0,0:0:0:0:
475,192,88639,1,0,0:0:0:0:
109,192,88973,1,0,0:0:0:0:
256,192,88973,1,0,0:0:0:0:
36,192,89973,1,0,0:0:0:0:
329,192,89973,1,0,0:0:0:0:
182,192,90639,1,0,0:0:0:0:
109,192,90973,1,0,0:0:0:0:
36,192,90973,1,0,0:0:0:0:
36,192,91973,1,0,0:0:0:0:
402,192,92973,1,0,0:0:0:0:
36,192,92973,128,0,93195:0:0:0:0:
109,192,93028,128,0,93250:0:0:0:0:
182,192,93084,128,0,93306:0:0:0:0:
256,192,93139,128,0,93361:0:0:0:0:
329,192,93195,128,0,93417:0:0:0:0:
402,192,93250,128,0,93473:0:0:0:0:
475,192,93306,128,0,93528:0:0:0:0:
36,192,93306,128,0,93528:0:0:0:0:
109,192,93361,128,0,93584:0:0:0:0:
182,192,93417,128,0,93639:0:0:0:0:
256,192,93473,128,0,93695:0:0:0:0:
329,192,93528,128,0,93750:0:0:0:0:
402,192,93584,128,0,93806:0:0:0:0:
36,192,93639,128,0,93861:0:0:0:0:
475,192,93639,128,0,93861:0:0:0:0:
109,192,93695,128,0,93861:0:0:0:0:
182,192,93750,128,0,94139:0:0:0:0:
256,192,93806,128,0,93973:0:0:0:0:
329,192,93861,128,0,93973:0:0:0:0:
402,192,93917,128,0,94306:0:0:0:0:
36,192,93973,128,0,95806:0:0:0:0:
475,192,93973,128,0,94639:0:0:0:0:
109,192,93973,128,0,94139:0:0:0:0:
329,192,94139,128,0,94306:0:0:0:0:
256,192,94139,128,0,94306:0:0:0:0:
182,192,94306,128,0,94473:0:0:0:0:
109,192,94306,128,0,94806:0:0:0:0:
256,192,94473,1,0,0:0:0:0:
329,192,94473,128,0,94806:0:0:0:0:
402,192,94473,128,0,94639:0:0:0:0:
256,192,94639,128,0,94806:0:0:0:0:
182,192,94639,128,0,94973:0:0:0:0:
402,192,94806,128,0,95139:0:0:0:0:
475,192,94806,128,0,95139:0:0:0:0:
109,192,94973,1,0,0:0:0:0:
329,192,94973,128,0,95306:0:0:0:0:
256,192,94973,128,0,95306:0:0:0:0:
182,192,95139,128,0,95306:0:0:0:0:
109,192,95139,128,0,95639:0:0:0:0:
402,192,95306,128,0,95473:0:0:0:0:
475,192,95306,128,0,97306:0:0:0:0:
329,192,95473,1,0,0:0:0:0:
256,192,95473,128,0,95806:0:0:0:0:
182,192,95473,128,0,95639:0:0:0:0:
329,192,95639,128,0,95806:0:0:0:0:
402,192,95639,128,0,96306:0:0:0:0:
109,192,95806,128,0,95973:0:0:0:0:
182,192,95806,128,0,96139:0:0:0:0:
36,192,95973,1,0,0:0:0:0:
256,192,95973,128,0,96139:0:0:0:0:
329,192,95973,128,0,96306:0:0:0:0:
36,192,96139,128,0,96473:0:0:0:0:
109,192,96139,128,0,96306:0:0:0:0:
256,192,96306,128,0,96639:0:0:0:0:
182,192,96306,128,0,96806:0:0:0:0:
109,192,96473,1,0,0:0:0:0:
329,192,96473,128,0,96639:0:0:0:0:
402,192,96473,128,0,96973:0:0:0:0:
109,192,96639,128,0,96806:0:0:0:0:
36,192,96639,128,0,97806:0:0:0:0:
329,192,96806,128,0,96973:0:0:0:0:
256,192,96806,128,0,97139:0:0:0:0:
109,192,96973,128,0,97806:0:0:0:0:
182,192,96973,128,0,97139:0:0:0:0:
329,192,97139,128,0,97306:0:0:0:0:
402,192,97139,128,0,97306:0:0:0:0:
256,192,97306,128,0,97473:0:0:0:0:
182,192,97306,128,0,97473:0:0:0:0:
475,192,97473,128,0,97806:0:0:0:0:
329,192,97473,128,0,97639:0:0:0:0:
402,192,97473,1,0,0:0:0:0:
256,192,97639,128,0,97973:0:0:0:0:
182,192,97639,128,0,97806:0:0:0:0:
402,192,97806,128,0,97973:0:0:0:0:
329,192,97806,128,0,97973:0:0:0:0:
36,192,97973,128,0,98139:0:0:0:0:
109,192,97973,128,0,98139:0:0:0:0:
182,192,97973,128,0,98139:0:0:0:0:
475,192,97973,128,0,98306:0:0:0:0:
256,192,98139,128,0,98306:0:0:0:0:
329,192,98139,128,0,98306:0:0:0:0:
402,192,98139,128,0,98306:0:0:0:0:
36,192,98306,128,0,98806:0:0:0:0:
109,192,98306,128,0,98473:0:0:0:0:
182,192,98306,128,0,98473:0:0:0:0:
256,192,98473,1,0,0:0:0:0:
329,192,98473,128,0,98639:0:0:0:0:
402,192,98473,128,0,98639:0:0:0:0:
475,192,98473,128,0,98639:0:0:0:0:
109,192,98639,128,0,98806:0:0:0:0:
182,192,98639,128,0,98806:0:0:0:0:
256,192,98639,128,0,98806:0:0:0:0:
329,192,98806,128,0,98973:0:0:0:0:
402,192,98806,128,0,98973:0:0:0:0:
475,192,98806,1,0,0:0:0:0:
36,192,98973,128,0,99139:0:0:0:0:
109,192,98973,128,0,99139:0:0:0:0:
182,192,98973,128,0,99139:0:0:0:0:
256,192,98973,1,0,0:0:0:0:
475,192,98973,128,0,99306:0:0:0:0:
256,192,99139,128,0,99306:0:0:0:0:
402,192,99139,128,0,99306:0:0:0:0:
329,192,99139,128,0,99306:0:0:0:0:
36,192,99306,1,0,0:0:0:0:
109,192,99306,128,0,99473:0:0:0:0:
182,192,99306,128,0,99473:0:0:0:0:
256,192,99473,1,0,0:0:0:0:
329,192,99473,128,0,99639:0:0:0:0:
475,192,99473,128,0,99639:0:0:0:0:
402,192,99473,128,0,99639:0:0:0:0:
36,192,99473,128,0,99806:0:0:0:0:
109,192,99639,128,0,99806:0:0:0:0:
182,192,99639,128,0,99806:0:0:0:0:
256,192,99639,128,0,99806:0:0:0:0:
329,192,99806,128,0,99973:0:0:0:0:
402,192,99806,128,0,99973:0:0:0:0:
475,192,99806,1,0,0:0:0:0:
36,192,99973,128,0,100139:0:0:0:0:
109,192,99973,128,0,100139:0:0:0:0:
182,192,99973,128,0,100139:0:0:0:0:
256,192,99973,1,0,0:0:0:0:
475,192,99973,128,0,100306:0:0:0:0:
256,192,100139,128,0,100306:0:0:0:0:
329,192,100139,128,0,100306:0:0:0:0:
402,192,100139,128,0,100306:0:0:0:0:
182,192,100306,128,0,100473:0:0:0:0:
109,192,100306,128,0,100473:0:0:0:0:
36,192,100306,1,0,0:0:0:0:
36,192,100473,128,0,100806:0:0:0:0:
256,192,100473,1,0,0:0:0:0:
329,192,100473,128,0,100639:0:0:0:0:
402,192,100473,128,0,100639:0:0:0:0:
475,192,100473,128,0,100639:0:0:0:0:
109,192,100639,128,0,100806:0:0:0:0:
182,192,100639,128,0,100806:0:0:0:0:
256,192,100639,128,0,100973:0:0:0:0:
329,192,100806,128,0,100973:0:0:0:0:
402,192,100806,128,0,100973:0:0:0:0:
475,192,100806,1,0,0:0:0:0:
36,192,100973,128,0,101139:0:0:0:0:
109,192,100973,128,0,101139:0:0:0:0:
182,192,100973,128,0,101139:0:0:0:0:
475,192,100973,128,0,101306:0:0:0:0:
256,192,101139,128,0,101306:0:0:0:0:
329,192,101139,128,0,101306:0:0:0:0:
402,192,101139,128,0,101306:0:0:0:0:
182,192,101306,128,0,101473:0:0:0:0:
109,192,101306,128,0,101473:0:0:0:0:
36,192,101306,128,0,101806:0:0:0:0:
256,192,101473,1,0,0:0:0:0:
329,192,101473,128,0,101639:0:0:0:0:
402,192,101473,128,0,101639:0:0:0:0:
475,192,101473,128,0,101639:0:0:0:0:
109,192,101639,128,0,101806:0:0:0:0:
182,192,101639,128,0,101806:0:0:0:0:
256,192,101639,128,0,101806:0:0:0:0:
329,192,101806,128,0,101973:0:0:0:0:
402,192,101806,128,0,101973:0:0:0:0:
475,192,101806,128,0,102306:0:0:0:0:
36,192,101973,128,0,102139:0:0:0:0:
109,192,101973,128,0,102139:0:0:0:0:
182,192,101973,128,0,102139:0:0:0:0:
256,192,101973,1,0,0:0:0:0:
256,192,102139,128,0,102306:0:0:0:0:
329,192,102139,128,0,102306:0:0:0:0:
402,192,102139,128,0,102306:0:0:0:0:
109,192,102306,128,0,102473:0:0:0:0:
182,192,102306,128,0,102473:0:0:0:0:
36,192,102306,1,0,0:0:0:0:
256,192,102473,1,0,0:0:0:0:
329,192,102473,128,0,102639:0:0:0:0:
402,192,102473,128,0,102639:0:0:0:0:
475,192,102473,128,0,102639:0:0:0:0:
36,192,102473,128,0,102806:0:0:0:0:
109,192,102639,128,0,102806:0:0:0:0:
182,192,102639,128,0,102806:0:0:0:0:
256,192,102639,128,0,102806:0:0:0:0:
329,192,102806,128,0,102973:0:0:0:0:
402,192,102806,128,0,102973:0:0:0:0:
475,192,102806,128,0,103306:0:0:0:0:
182,192,102973,128,0,103139:0:0:0:0:
109,192,102973,128,0,103139:0:0:0:0:
36,192,102973,128,0,103139:0:0:0:0:
256,192,102973,1,0,0:0:0:0:
256,192,103139,128,0,103306:0:0:0:0:
329,192,103139,128,0,103306:0:0:0:0:
402,192,103139,128,0,103306:0:0:0:0:
36,192,103306,128,0,103639:0:0:0:0:
109,192,103306,128,0,103473:0:0:0:0:
182,192,103306,128,0,103473:0:0:0:0:
256,192,103473,1,0,0:0:0:0:
329,192,103473,128,0,103639:0:0:0:0:
402,192,103473,128,0,103639:0:0:0:0:
475,192,103473,128,0,103639:0:0:0:0:
109,192,103639,128,0,103806:0:0:0:0:
182,192,103639,128,0,103806:0:0:0:0:
256,192,103639,128,0,103806:0:0:0:0:
36,192,103806,1,0,0:0:0:0:
329,192,103806,128,0,103917:0:0:0:0:
402,192,103806,128,0,103917:0:0:0:0:
475,192,103806,128,0,103917:0:0:0:0:
36,192,103973,128,0,104306:0:0:0:0:
182,192,103973,128,0,104195:0:0:0:0:
329,192,103973,128,0,104139:0:0:0:0:
475,192,103973,128,0,104028:0:0:0:0:
402,192,103973,128,0,104361:0:0:0:0:
256,192,103973,128,0,104306:0:0:0:0:
109,192,103973,128,0,104084:0:0:0:0:
475,192,104139,1,0,0:0:0:0:
475,192,104306,1,0,0:0:0:0:
329,192,104473,128,0,104528:0:0:0:0:
182,192,104473,128,0,104584:0:0:0:0:
256,192,104473,128,0,104861:0:0:0:0:
475,192,104473,128,0,104639:0:0:0:0:
402,192,104473,128,0,104695:0:0:0:0:
109,192,104473,128,0,104695:0:0:0:0:
36,192,104473,128,0,104750:0:0:0:0:
329,192,104639,1,0,0:0:0:0:
329,192,104806,1,0,0:0:0:0:
182,192,104973,128,0,105028:0:0:0:0:
329,192,104973,128,0,105084:0:0:0:0:
36,192,104973,128,0,105084:0:0:0:0:
109,192,104973,128,0,105195:0:0:0:0:
256,192,104973,128,0,105361:0:0:0:0:
475,192,104973,128,0,105139:0:0:0:0:
402,192,104973,128,0,105250:0:0:0:0:
182,192,105139,1,0,0:0:0:0:
182,192,105306,1,0,0:0:0:0:
36,192,105473,128,0,105528:0:0:0:0:
109,192,105473,128,0,105861:0:0:0:0:
182,192,105473,128,0,105750:0:0:0:0:
329,192,105473,128,0,105806:0:0:0:0:
256,192,105473,128,0,105584:0:0:0:0:
402,192,105473,128,0,105639:0:0:0:0:
475,192,105473,128,0,105750:0:0:0:0:
36,192,105639,1,0,0:0:0:0:
36,192,105806,1,0,0:0:0:0:
109,192,105973,1,0,0:0:0:0:
36,192,105973,1,0,0:0:0:0:
475,192,105973,1,0,0:0:0:0:
329,192,105973,128,0,106528:0:0:0:0:
182,192,105973,128,0,106528:0:0:0:0:
402,192,106084,1,0,0:0:0:0:
256,192,106195,1,0,0:0:0:0:
109,192,106306,1,0,0:0:0:0:
402,192,106306,1,0,0:0:0:0:
256,192,106417,1,0,0:0:0:0:
109,192,106528,1,0,0:0:0:0:
182,192,106639,1,0,0:0:0:0:
329,192,106639,1,0,0:0:0:0:
36,192,106639,128,0,106861:0:0:0:0:
475,192,106639,128,0,106861:0:0:0:0:
402,192,106750,1,0,0:0:0:0:
256,192,106861,1,0,0:0:0:0:
182,192,106973,128,0,107195:0:0:0:0:
329,192,106973,128,0,107195:0:0:0:0:
109,192,106973,1,0,0:0:0:0:
402,192,106973,1,0,0:0:0:0:
256,192,107084,1,0,0:0:0:0:
109,192,107195,1,0,0:0:0:0:
109,192,107306,128,0,107528:0:0:0:0:
402,192,107306,128,0,107528:0:0:0:0:
36,192,107306,1,0,0:0:0:0:
475,192,107306,1,0,0:0:0:0:
329,192,107417,1,0,0:0:0:0:
182,192,107528,1,0,0:0:0:0:
36,192,107639,128,0,107861:0:0:0:0:
109,192,107639,1,0,0:0:0:0:
475,192,107639,128,0,107861:0:0:0:0:
402,192,107639,1,0,0:0:0:0:
329,192,107750,1,0,0:0:0:0:
182,192,107861,1,0,0:0:0:0:
329,192,107973,1,0,0:0:0:0:
475,192,107973,128,0,108514:0:0:0:0:
402,192,108056,128,0,108431:0:0:0:0:
256,192,108098,1,0,0:0:0:0:
329,192,108139,128,0,108348:0:0:0:0:
182,192,108181,1,0,0:0:0:0:
256,192,108223,128,0,108264:0:0:0:0:
182,192,108306,1,0,0:0:0:0:
36,192,108306,128,0,108848:0:0:0:0:
109,192,108389,128,0,108806:0:0:0:0:
256,192,108431,1,0,0:0:0:0:
182,192,108473,128,0,108681:0:0:0:0:
329,192,108514,1,0,0:0:0:0:
256,192,108556,128,0,108598:0:0:0:0:
329,192,108639,1,0,0:0:0:0:
475,192,108639,128,0,109181:0:0:0:0:
402,192,108723,128,0,109098:0:0:0:0:
256,192,108764,1,0,0:0:0:0:
329,192,108806,128,0,109014:0:0:0:0:
182,192,108848,1,0,0:0:0:0:
256,192,108889,128,0,108931:0:0:0:0:
182,192,108973,1,0,0:0:0:0:
36,192,108973,128,0,109514:0:0:0:0:
109,192,109056,128,0,109473:0:0:0:0:
256,192,109098,1,0,0:0:0:0:
182,192,109139,128,0,109348:0:0:0:0:
329,192,109181,1,0,0:0:0:0:
256,192,109223,128,0,109264:0:0:0:0:
329,192,109306,1,0,0:0:0:0:
475,192,109306,128,0,109848:0:0:0:0:
402,192,109389,128,0,109764:0:0:0:0:
256,192,109431,1,0,0:0:0:0:
329,192,109473,128,0,109681:0:0:0:0:
182,192,109514,1,0,0:0:0:0:
256,192,109556,128,0,109598:0:0:0:0:
182,192,109639,1,0,0:0:0:0:
36,192,109639,128,0,110181:0:0:0:0:
109,192,109723,128,0,110139:0:0:0:0:
256,192,109764,1,0,0:0:0:0:
182,192,109806,128,0,110014:0:0:0:0:
329,192,109848,1,0,0:0:0:0:
256,192,109889,128,0,109931:0:0:0:0:
329,192,109973,1,0,0:0:0:0:
475,192,109973,128,0,110514:0:0:0:0:
402,192,110056,128,0,110181:0:0:0:0:
256,192,110098,1,0,0:0:0:0:
329,192,110139,128,0,110348:0:0:0:0:
182,192,110181,1,0,0:0:0:0:
256,192,110223,128,0,110264:0:0:0:0:
182,192,110306,1,0,0:0:0:0:
36,192,110306,128,0,110848:0:0:0:0:
402,192,110306,128,0,110431:0:0:0:0:
109,192,110389,128,0,110514:0:0:0:0:
256,192,110431,1,0,0:0:0:0:
182,192,110473,128,0,110681:0:0:0:0:
329,192,110514,1,0,0:0:0:0:
256,192,110556,128,0,110598:0:0:0:0:
475,192,110639,128,0,111181:0:0:0:0:
109,192,110639,128,0,110764:0:0:0:0:
329,192,110639,1,0,0:0:0:0:
402,192,110723,128,0,110848:0:0:0:0:
256,192,110764,1,0,0:0:0:0:
329,192,110806,128,0,111014:0:0:0:0:
182,192,110848,1,0,0:0:0:0:
256,192,110889,128,0,110931:0:0:0:0:
402,192,110973,128,0,111098:0:0:0:0:
182,192,110973,1,0,0:0:0:0:
36,192,110973,128,0,111514:0:0:0:0:
109,192,111056,128,0,111181:0:0:0:0:
256,192,111098,1,0,0:0:0:0:
182,192,111139,128,0,111348:0:0:0:0:
329,192,111181,1,0,0:0:0:0:
256,192,111223,128,0,111264:0:0:0:0:
109,192,111306,128,0,111431:0:0:0:0:
329,192,111306,1,0,0:0:0:0:
475,192,111306,128,0,111848:0:0:0:0:
402,192,111389,128,0,111514:0:0:0:0:
256,192,111431,1,0,0:0:0:0:
329,192,111473,128,0,111681:0:0:0:0:
182,192,111514,1,0,0:0:0:0:
256,192,111556,128,0,111598:0:0:0:0:
402,192,111639,128,0,111764:0:0:0:0:
182,192,111639,1,0,0:0:0:0:
36,192,111639,128,0,112181:0:0:0:0:
109,192,111723,128,0,111848:0:0:0:0:
256,192,111764,1,0,0:0:0:0:
182,192,111806,128,0,112014:0:0:0:0:
329,192,111848,1,0,0:0:0:0:
256,192,111889,128,0,111931:0:0:0:0:
109,192,111973,128,0,112098:0:0:0:0:
475,192,111973,128,0,112181:0:0:0:0:
329,192,111973,1,0,0:0:0:0:
402,192,112056,128,0,112473:0:0:0:0:
256,192,112098,1,0,0:0:0:0:
329,192,112139,128,0,112348:0:0:0:0:
182,192,112181,1,0,0:0:0:0:
256,192,112223,128,0,112264:0:0:0:0:
475,192,112306,128,0,112514:0:0:0:0:
182,192,112306,1,0,0:0:0:0:
36,192,112306,128,0,112514:0:0:0:0:
109,192,112389,128,0,112806:0:0:0:0:
256,192,112431,1,0,0:0:0:0:
182,192,112473,128,0,112681:0:0:0:0:
329,192,112514,1,0,0:0:0:0:
256,192,112556,128,0,112598:0:0:0:0:
36,192,112639,128,0,112848:0:0:0:0:
329,192,112639,1,0,0:0:0:0:
475,192,112639,128,0,112848:0:0:0:0:
402,192,112723,128,0,113139:0:0:0:0:
256,192,112764,1,0,0:0:0:0:
329,192,112806,128,0,113014:0:0:0:0:
182,192,112848,1,0,0:0:0:0:
256,192,112889,128,0,112931:0:0:0:0:
475,192,112973,128,0,113181:0:0:0:0:
182,192,112973,1,0,0:0:0:0:
36,192,112973,128,0,113181:0:0:0:0:
109,192,113056,128,0,113473:0:0:0:0:
256,192,113098,1,0,0:0:0:0:
182,192,113139,128,0,113348:0:0:0:0:
329,192,113181,1,0,0:0:0:0:
256,192,113223,128,0,113264:0:0:0:0:
36,192,113306,128,0,113514:0:0:0:0:
329,192,113306,1,0,0:0:0:0:
475,192,113306,128,0,113514:0:0:0:0:
402,192,113389,128,0,113806:0:0:0:0:
256,192,113431,1,0,0:0:0:0:
329,192,113473,128,0,113681:0:0:0:0:
182,192,113514,1,0,0:0:0:0:
256,192,113556,128,0,113598:0:0:0:0:
182,192,113639,1,0,0:0:0:0:
475,192,113639,128,0,113848:0:0:0:0:
36,192,113639,128,0,113848:0:0:0:0:
109,192,113723,128,0,114139:0:0:0:0:
256,192,113764,1,0,0:0:0:0:
182,192,113806,128,0,114014:0:0:0:0:
329,192,113848,1,0,0:0:0:0:
256,192,113889,128,0,113931:0:0:0:0:
36,192,113973,128,0,114181:0:0:0:0:
329,192,113973,1,0,0:0:0:0:
475,192,113973,128,0,114098:0:0:0:0:
402,192,114056,128,0,114181:0:0:0:0:
256,192,114098,1,0,0:0:0:0:
329,192,114139,128,0,114348:0:0:0:0:
475,192,114181,128,0,114306:0:0:0:0:
182,192,114181,1,0,0:0:0:0:
256,192,114223,128,0,114264:0:0:0:0:
402,192,114306,128,0,114431:0:0:0:0:
182,192,114306,1,0,0:0:0:0:
36,192,114306,128,0,114431:0:0:0:0:
475,192,114389,128,0,114514:0:0:0:0:
109,192,114389,128,0,114514:0:0:0:0:
256,192,114431,1,0,0:0:0:0:
182,192,114473,128,0,114681:0:0:0:0:
36,192,114514,128,0,114639:0:0:0:0:
329,192,114514,1,0,0:0:0:0:
256,192,114556,128,0,114598:0:0:0:0:
109,192,114639,128,0,114764:0:0:0:0:
329,192,114639,1,0,0:0:0:0:
475,192,114639,128,0,114764:0:0:0:0:
36,192,114723,128,0,114848:0:0:0:0:
402,192,114723,128,0,114848:0:0:0:0:
256,192,114764,1,0,0:0:0:0:
329,192,114806,128,0,115014:0:0:0:0:
182,192,114848,1,0,0:0:0:0:
475,192,114848,128,0,114973:0:0:0:0:
256,192,114889,128,0,114931:0:0:0:0:
402,192,114973,128,0,115098:0:0:0:0:
182,192,114973,1,0,0:0:0:0:
36,192,114973,128,0,115098:0:0:0:0:
475,192,115056,128,0,115181:0:0:0:0:
109,192,115056,128,0,115181:0:0:0:0:
256,192,115098,1,0,0:0:0:0:
182,192,115139,128,0,115348:0:0:0:0:
36,192,115181,128,0,115306:0:0:0:0:
329,192,115181,1,0,0:0:0:0:
256,192,115223,128,0,115264:0:0:0:0:
109,192,115306,128,0,115431:0:0:0:0:
329,192,115306,1,0,0:0:0:0:
475,192,115306,128,0,115431:0:0:0:0:
36,192,115389,128,0,115514:0:0:0:0:
402,192,115389,128,0,115514:0:0:0:0:
256,192,115431,1,0,0:0:0:0:
329,192,115473,128,0,115681:0:0:0:0:
182,192,115514,1,0,0:0:0:0:
475,192,115514,128,0,115639:0:0:0:0:
256,192,115556,128,0,115598:0:0:0:0:
182,192,115639,1,0,0:0:0:0:
402,192,115639,128,0,115764:0:0:0:0:
36,192,115639,128,0,115889:0:0:0:0:
475,192,115723,128,0,115848:0:0:0:0:
109,192,115723,128,0,115889:0:0:0:0:
256,192,115764,1,0,0:0:0:0:
182,192,115806,128,0,115889:0:0:0:0:
329,192,115848,1,0,0:0:0:0:
256,192,115848,128,0,115889:0:0:0:0:
329,192,115973,128,0,116639:0:0:0:0:
475,192,115973,128,0,116639:0:0:0:0:
182,192,115973,1,0,0:0:0:0:
109,192,115973,1,0,0:0:0:0:
36,192,115973,1,0,0:0:0:0:
402,192,115973,1,0,0:0:0:0:
256,192,116056,1,0,0:0:0:0:
182,192,116139,1,0,0:0:0:0:
109,192,116223,1,0,0:0:0:0:
182,192,116306,1,0,0:0:0:0:
109,192,116389,1,0,0:0:0:0:
36,192,116473,1,0,0:0:0:0:
109,192,116556,1,0,0:0:0:0:
256,192,116639,128,0,116806:0:0:0:0:
402,192,116639,128,0,116806:0:0:0:0:
36,192,116639,1,0,0:0:0:0:
182,192,116639,1,0,0:0:0:0:
475,192,116723,1,0,0:0:0:0:
182,192,116806,128,0,116973:0:0:0:0:
36,192,116806,128,0,116973:0:0:0:0:
329,192,116806,1,0,0:0:0:0:
402,192,116861,1,0,0:0:0:0:
256,192,116889,1,0,0:0:0:0:
109,192,116973,1,0,0:0:0:0:
256,192,116973,1,0,0:0:0:0:
402,192,116973,1,0,0:0:0:0:
329,192,116973,128,0,117639:0:0:0:0:
475,192,116973,128,0,117639:0:0:0:0:
36,192,117056,1,0,0:0:0:0:
109,192,117139,1,0,0:0:0:0:
182,192,117223,1,0,0:0:0:0:
256,192,117306,1,0,0:0:0:0:
402,192,117389,1,0,0:0:0:0:
36,192,117473,1,0,0:0:0:0:
109,192,117556,1,0,0:0:0:0:
182,192,117639,1,0,0:0:0:0:
402,192,117639,1,0,0:0:0:0:
256,192,117639,128,0,117806:0:0:0:0:
109,192,117639,128,0,117806:0:0:0:0:
329,192,117723,1,0,0:0:0:0:
182,192,117806,128,0,117973:0:0:0:0:
329,192,117806,128,0,117973:0:0:0:0:
402,192,117806,1,0,0:0:0:0:
36,192,117861,1,0,0:0:0:0:
475,192,117889,1,0,0:0:0:0:
109,192,117973,1,0,0:0:0:0:
402,192,117973,1,0,0:0:0:0:
256,192,117973,128,0,118389:0:0:0:0:
475,192,117973,128,0,118389:0:0:0:0:
36,192,117973,128,0,118389:0:0:0:0:
182,192,118139,1,0,0:0:0:0:
182,192,118306,1,0,0:0:0:0:
109,192,118473,128,0,118889:0:0:0:0:
256,192,118473,128,0,118889:0:0:0:0:
402,192,118473,128,0,118889:0:0:0:0:
475,192,118473,1,0,0:0:0:0:
36,192,118473,1,0,0:0:0:0:
36,192,118639,1,0,0:0:0:0:
329,192,118639,1,0,0:0:0:0:
182,192,118806,1,0,0:0:0:0:
329,192,118806,1,0,0:0:0:0:
36,192,118973,1,0,0:0:0:0:
475,192,118973,1,0,0:0:0:0:
402,192,118973,1,0,0:0:0:0:
182,192,118973,128,0,119306:0:0:0:0:
256,192,118973,128,0,119306:0:0:0:0:
329,192,118973,128,0,119306:0:0:0:0:
109,192,119056,1,0,0:0:0:0:
402,192,119139,1,0,0:0:0:0:
475,192,119223,1,0,0:0:0:0:
402,192,119306,1,0,0:0:0:0:
36,192,119306,1,0,0:0:0:0:
109,192,119389,1,0,0:0:0:0:
256,192,119473,128,0,119889:0:0:0:0:
36,192,119473,128,0,119889:0:0:0:0:
475,192,119473,128,0,119889:0:0:0:0:
402,192,119473,1,0,0:0:0:0:
329,192,119473,1,0,0:0:0:0:
182,192,119556,1,0,0:0:0:0:
109,192,119639,1,0,0:0:0:0:
329,192,119639,1,0,0:0:0:0:
182,192,119723,1,0,0:0:0:0:
402,192,119723,1,0,0:0:0:0:
329,192,119806,1,0,0:0:0:0:
36,192,119973,1,0,0:0:0:0:
329,192,119973,1,0,0:0:0:0:
475,192,119973,128,0,120514:0:0:0:0:
402,192,120056,128,0,120431:0:0:0:0:
256,192,120098,1,0,0:0:0:0:
329,192,120139,128,0,120348:0:0:0:0:
182,192,120181,1,0,0:0:0:0:
256,192,120223,128,0,120264:0:0:0:0:
182,192,120306,1,0,0:0:0:0:
36,192,120306,128,0,120848:0:0:0:0:
109,192,120389,128,0,120806:0:0:0:0:
256,192,120431,1,0,0:0:0:0:
182,192,120473,128,0,120681:0:0:0:0:
329,192,120514,1,0,0:0:0:0:
256,192,120556,128,0,120598:0:0:0:0:
329,192,120639,1,0,0:0:0:0:
475,192,120639,128,0,121223:0:0:0:0:
402,192,120723,128,0,121139:0:0:0:0:
256,192,120764,1,0,0:0:0:0:
329,192,120806,128,0,121056:0:0:0:0:
182,192,120848,1,0,0:0:0:0:
256,192,120889,128,0,120973:0:0:0:0:
109,192,120973,1,0,0:0:0:0:
36,192,120973,128,0,121139:0:0:0:0:
182,192,121056,1,0,0:0:0:0:
109,192,121056,128,0,121223:0:0:0:0:
182,192,121139,128,0,121306:0:0:0:0:
256,192,121139,1,0,0:0:0:0:
256,192,121223,128,0,121389:0:0:0:0:
329,192,121223,1,0,0:0:0:0:
329,192,121306,128,0,121473:0:0:0:0:
402,192,121306,1,0,0:0:0:0:
36,192,121306,1,0,0:0:0:0:
402,192,121389,128,0,121556:0:0:0:0:
475,192,121389,1,0,0:0:0:0:
109,192,121389,1,0,0:0:0:0:
182,192,121473,1,0,0:0:0:0:
475,192,121473,128,0,121639:0:0:0:0:
36,192,121473,128,0,121973:0:0:0:0:
256,192,121556,1,0,0:0:0:0:
109,192,121556,128,0,121889:0:0:0:0:
329,192,121639,1,0,0:0:0:0:
182,192,121639,128,0,121806:0:0:0:0:
256,192,121723,128,0,122806:0:0:0:0:
402,192,121723,1,0,0:0:0:0:
475,192,121806,1,0,0:0:0:0:
329,192,121806,128,0,122223:0:0:0:0:
402,192,121889,128,0,122139:0:0:0:0:
475,192,121973,128,0,122056:0:0:0:0:
182,192,121973,1,0,0:0:0:0:
109,192,122056,1,0,0:0:0:0:
36,192,122139,1,0,0:0:0:0:
182,192,122139,128,0,122306:0:0:0:0:
475,192,122223,1,0,0:0:0:0:
109,192,122223,128,0,122389:0:0:0:0:
402,192,122306,1,0,0:0:0:0:
36,192,122306,128,0,122473:0:0:0:0:
329,192,122389,1,0,0:0:0:0:
475,192,122389,128,0,122639:0:0:0:0:
182,192,122473,1,0,0:0:0:0:
402,192,122473,128,0,122723:0:0:0:0:
109,192,122556,1,0,0:0:0:0:
329,192,122556,128,0,123223:0:0:0:0:
36,192,122639,1,0,0:0:0:0:
182,192,122639,128,0,123139:0:0:0:0:
475,192,122723,1,0,0:0:0:0:
109,192,122723,128,0,122889:0:0:0:0:
402,192,122806,1,0,0:0:0:0:
36,192,122806,128,0,123056:0:0:0:0:
475,192,122806,128,0,123306:0:0:0:0:
256,192,122889,1,0,0:0:0:0:
402,192,122889,128,0,123806:0:0:0:0:
109,192,122973,1,0,0:0:0:0:
256,192,122973,128,0,123639:0:0:0:0:
109,192,123056,128,0,123473:0:0:0:0:
36,192,123139,1,0,0:0:0:0:
182,192,123223,1,0,0:0:0:0:
36,192,123223,128,0,123389:0:0:0:0:
329,192,123306,1,0,0:0:0:0:
182,192,123306,128,0,123556:0:0:0:0:
329,192,123389,128,0,123723:0:0:0:0:
475,192,123389,1,0,0:0:0:0:
475,192,123473,128,0,123889:0:0:0:0:
36,192,123556,1,0,0:0:0:0:
109,192,123639,1,0,0:0:0:0:
182,192,123723,1,0,0:0:0:0:
256,192,123806,1,0,0:0:0:0:
329,192,123889,1,0,0:0:0:0:
402,192,123973,1,0,0:0:0:0:
475,192,123973,1,0,0:0:0:0:
36,192,123973,1,0,0:0:0:0:
329,192,124695,1,0,0:0:0:0:
256,192,124936,1,0,0:0:0:0:
182,192,125057,1,0,0:0:0:0:
475,192,125057,1,0,0:0:0:0:
329,192,125780,1,0,0:0:0:0:
402,192,126021,1,0,0:0:0:0:
475,192,126141,1,0,0:0:0:0:
109,192,126141,1,0,0:0:0:0:
402,192,126503,1,0,0:0:0:0:
329,192,126864,1,0,0:0:0:0:
256,192,127105,1,0,0:0:0:0:
182,192,127226,1,0,0:0:0:0:
36,192,127226,1,0,0:0:0:0:
402,192,127948,1,0,0:0:0:0:
109,192,128310,1,0,0:0:0:0:
329,192,128310,1,0,0:0:0:0:
475,192,129033,1,0,0:0:0:0:
36,192,129394,1,0,0:0:0:0:
256,192,129394,1,0,0:0:0:0:
109,192,132286,1,0,0:0:0:0:
182,192,132527,1,0,0:0:0:0:
36,192,132647,1,0,0:0:0:0:
256,192,132647,1,0,0:0:0:0:
402,192,132647,1,0,0:0:0:0:
329,192,133370,1,0,0:0:0:0:
182,192,133611,1,0,0:0:0:0:
109,192,133732,1,0,0:0:0:0:
256,192,133732,1,0,0:0:0:0:
475,192,133732,1,0,0:0:0:0:
36,192,134816,1,0,0:0:0:0:
109,192,135177,1,0,0:0:0:0:
182,192,135539,1,0,0:0:0:0:
256,192,135900,1,0,0:0:0:0:
329,192,136262,1,0,0:0:0:0:
402,192,136623,1,0,0:0:0:0:
109,192,136623,1,0,0:0:0:0:
182,192,136864,1,0,0:0:0:0:
36,192,136985,1,0,0:0:0:0:
256,192,136985,1,0,0:0:0:0:
475,192,136985,1,0,0:0:0:0:
182,192,137707,1,0,0:0:0:0:
36,192,137948,1,0,0:0:0:0:
109,192,138069,1,0,0:0:0:0:
256,192,138069,1,0,0:0:0:0:
402,192,138069,1,0,0:0:0:0:
256,192,140238,1,0,0:0:0:0:
329,192,140599,1,0,0:0:0:0:
402,192,140960,1,0,0:0:0:0:
109,192,141322,1,0,0:0:0:0:
256,192,141322,1,0,0:0:0:0:
475,192,141322,1,0,0:0:0:0:
329,192,143491,1,0,0:0:0:0:
475,192,143491,128,0,143671:0:0:0:0:
402,192,143551,128,0,143732:0:0:0:0:
256,192,143551,1,0,0:0:0:0:
182,192,143611,1,0,0:0:0:0:
329,192,143611,128,0,143792:0:0:0:0:
256,192,143671,128,0,143852:0:0:0:0:
109,192,143671,1,0,0:0:0:0:
36,192,143732,1,0,0:0:0:0:
182,192,143732,128,0,143912:0:0:0:0:
475,192,143732,128,0,143852:0:0:0:0:
109,192,143792,128,0,143973:0:0:0:0:
402,192,143792,128,0,143912:0:0:0:0:
36,192,143852,128,0,144033:0:0:0:0:
329,192,143852,128,0,143973:0:0:0:0:
256,192,143912,128,0,144033:0:0:0:0:
475,192,143912,128,0,144093:0:0:0:0:
182,192,143973,128,0,144093:0:0:0:0:
402,192,143973,128,0,144153:0:0:0:0:
109,192,144033,128,0,144153:0:0:0:0:
329,192,144033,128,0,144213:0:0:0:0:
36,192,144093,128,0,144213:0:0:0:0:
256,192,144093,128,0,144274:0:0:0:0:
182,192,144153,128,0,144334:0:0:0:0:
475,192,144153,128,0,144274:0:0:0:0:
109,192,144213,128,0,144394:0:0:0:0:
402,192,144213,128,0,144334:0:0:0:0:
329,192,144274,128,0,144394:0:0:0:0:
36,192,144274,128,0,144454:0:0:0:0:
475,192,144334,128,0,144515:0:0:0:0:
256,192,144334,128,0,144454:0:0:0:0:
182,192,144394,128,0,144515:0:0:0:0:
402,192,144394,128,0,144575:0:0:0:0:
109,192,144454,128,0,144575:0:0:0:0:
329,192,144454,128,0,144635:0:0:0:0:
36,192,144515,128,0,144635:0:0:0:0:
256,192,144515,128,0,144695:0:0:0:0:
182,192,144575,128,0,144756:0:0:0:0:
475,192,144575,128,0,144695:0:0:0:0:
402,192,144635,128,0,144756:0:0:0:0:
109,192,144635,128,0,144816:0:0:0:0:
36,192,144695,128,0,144876:0:0:0:0:
329,192,144695,128,0,144816:0:0:0:0:
256,192,144756,128,0,144876:0:0:0:0:
475,192,144756,128,0,145057:0:0:0:0:
182,192,144816,128,0,144997:0:0:0:0:
402,192,144816,128,0,144997:0:0:0:0:
109,192,144876,128,0,144936:0:0:0:0:
329,192,144876,128,0,144936:0:0:0:0:
256,192,144936,128,0,145057:0:0:0:0:
36,192,144936,128,0,145117:0:0:0:0:
109,192,144997,128,0,145177:0:0:0:0:
329,192,144997,128,0,145117:0:0:0:0:
182,192,145057,128,0,145238:0:0:0:0:
402,192,145057,128,0,145177:0:0:0:0:
475,192,145117,128,0,145238:0:0:0:0:
256,192,145117,128,0,145298:0:0:0:0:
329,192,145177,128,0,145358:0:0:0:0:
36,192,145177,128,0,145298:0:0:0:0:
402,192,145238,128,0,145418:0:0:0:0:
109,192,145238,128,0,145358:0:0:0:0:
475,192,145298,128,0,145479:0:0:0:0:
182,192,145298,128,0,145418:0:0:0:0:
256,192,145358,128,0,145479:0:0:0:0:
36,192,145358,128,0,145539:0:0:0:0:
329,192,145418,128,0,145539:0:0:0:0:
109,192,145418,128,0,145599:0:0:0:0:
402,192,145479,128,0,145599:0:0:0:0:
182,192,145479,128,0,145659:0:0:0:0:
475,192,145539,128,0,145659:0:0:0:0:
256,192,145539,128,0,145719:0:0:0:0:
329,192,145599,128,0,145780:0:0:0:0:
36,192,145599,128,0,145719:0:0:0:0:
402,192,145659,128,0,145840:0:0:0:0:
109,192,145659,128,0,145780:0:0:0:0:
475,192,145719,128,0,145900:0:0:0:0:
182,192,145719,128,0,145840:0:0:0:0:
256,192,145780,128,0,145900:0:0:0:0:
36,192,145780,128,0,146081:0:0:0:0:
109,192,145840,128,0,146021:0:0:0:0:
329,192,145840,128,0,146021:0:0:0:0:
402,192,145900,128,0,145960:0:0:0:0:
182,192,145900,128,0,145960:0:0:0:0:
256,192,145960,128,0,146081:0:0:0:0:
475,192,145960,128,0,146141:0:0:0:0:
402,192,146021,128,0,146201:0:0:0:0:
182,192,146021,128,0,146141:0:0:0:0:
329,192,146081,128,0,146262:0:0:0:0:
109,192,146081,128,0,146201:0:0:0:0:
36,192,146141,128,0,146262:0:0:0:0:
256,192,146141,128,0,146322:0:0:0:0:
182,192,146201,128,0,146382:0:0:0:0:
475,192,146201,128,0,146322:0:0:0:0:
109,192,146262,128,0,146442:0:0:0:0:
402,192,146262,128,0,146382:0:0:0:0:
36,192,146322,128,0,146503:0:0:0:0:
329,192,146322,128,0,146442:0:0:0:0:
256,192,146382,128,0,146503:0:0:0:0:
475,192,146382,128,0,146563:0:0:0:0:
182,192,146442,128,0,146563:0:0:0:0:
402,192,146442,128,0,146623:0:0:0:0:
109,192,146503,128,0,146623:0:0:0:0:
329,192,146503,128,0,146683:0:0:0:0:
36,192,146563,128,0,146683:0:0:0:0:
256,192,146563,128,0,146744:0:0:0:0:
182,192,146623,128,0,146804:0:0:0:0:
475,192,146623,128,0,146744:0:0:0:0:
109,192,146683,128,0,146864:0:0:0:0:
402,192,146683,128,0,146804:0:0:0:0:
36,192,146744,128,0,146924:0:0:0:0:
329,192,146744,128,0,146864:0:0:0:0:
256,192,146804,128,0,146924:0:0:0:0:
475,192,146804,128,0,147105:0:0:0:0:
402,192,146864,128,0,147045:0:0:0:0:
182,192,146864,128,0,147045:0:0:0:0:
109,192,146924,128,0,146985:0:0:0:0:
329,192,146924,128,0,146985:0:0:0:0:
256,192,146985,128,0,147105:0:0:0:0:
36,192,146985,128,0,147165:0:0:0:0:
109,192,147045,128,0,147226:0:0:0:0:
329,192,147045,128,0,147165:0:0:0:0:
182,192,147105,128,0,147286:0:0:0:0:
402,192,147105,128,0,147226:0:0:0:0:
475,192,147165,128,0,147286:0:0:0:0:
256,192,147165,128,0,147346:0:0:0:0:
329,192,147226,128,0,147406:0:0:0:0:
36,192,147226,128,0,147346:0:0:0:0:
402,192,147286,128,0,147466:0:0:0:0:
109,192,147286,128,0,147406:0:0:0:0:
475,192,147346,128,0,147527:0:0:0:0:
182,192,147346,128,0,147466:0:0:0:0:
256,192,147406,128,0,147527:0:0:0:0:
36,192,147406,1,0,0:0:0:0:
329,192,147466,128,0,147587:0:0:0:0:
109,192,147466,1,0,0:0:0:0:
402,192,147527,128,0,147647:0:0:0:0:
182,192,147527,1,0,0:0:0:0:
475,192,147587,128,0,147707:0:0:0:0:
256,192,147587,1,0,0:0:0:0:
329,192,147647,1,0,0:0:0:0:
402,192,147707,1,0,0:0:0:0:
475,192,147768,1,0,0:0:0:0:
109,192,147828,1,0,0:0:0:0:
