osu file format v14

[General]
AudioFilename: Paraclete.mp3
AudioLeadIn: 0
PreviewTime: 92613
Countdown: 0
SampleSet: Normal
StackLeniency: 0.7
Mode: 3
LetterboxInBreaks: 0
SpecialStyle: 0
WidescreenStoryboard: 1

[Editor]
DistanceSpacing: 0.73
BeatDivisor: 4
GridSize: 4
TimelineZoom: 2.2

[Metadata]
Title:7K
TitleUnicode:7K
Artist:Various Artists
ArtistUnicode:Various Artists
Creator:ELPIS
Version:LeaF - Paraclete
Source:
Tags:
BeatmapID:1411555
BeatmapSetID:664143

[Difficulty]
HPDrainRate:8
CircleSize:7
OverallDifficulty:8
ApproachRate:5
SliderMultiplier:1.4
SliderTickRate:1

[Events]
//Background and Video events
0,0,"Paraclete.jpg",0,0
//Break Periods
//Storyboard Layer 0 (Background)
//Storyboard Layer 1 (Fail)
//Storyboard Layer 2 (Pass)
//Storyboard Layer 3 (Foreground)
//Storyboard Sound Samples

[TimingPoints]
42,285.714285714286,4,1,0,0,1,0

[HitObjects]
256,192,1184,5,0,0:0:0:0:
109,192,1184,1,0,0:0:0:0:
329,192,1184,1,0,0:0:0:0:
475,192,1756,1,0,0:0:0:0:
402,192,1756,1,0,0:0:0:0:
182,192,1756,1,0,0:0:0:0:
182,192,2327,1,0,0:0:0:0:
36,192,2327,1,0,0:0:0:0:
329,192,2327,1,0,0:0:0:0:
182,192,3470,1,0,0:0:0:0:
256,192,3470,1,0,0:0:0:0:
402,192,3470,1,0,0:0:0:0:
36,192,4042,1,0,0:0:0:0:
256,192,4042,1,0,0:0:0:0:
402,192,4042,1,0,0:0:0:0:
109,192,4613,1,0,0:0:0:0:
182,192,4613,1,0,0:0:0:0:
329,192,4613,1,0,0:0:0:0:
402,192,5756,1,0,0:0:0:0:
475,192,5756,1,0,0:0:0:0:
182,192,5756,1,0,0:0:0:0:
109,192,6613,1,0,0:0:0:0:
256,192,6613,1,0,0:0:0:0:
329,192,6613,1,0,0:0:0:0:
256,192,6899,1,0,0:0:0:0:
36,192,6899,1,0,0:0:0:0:
402,192,6899,1,0,0:0:0:0:
182,192,7470,1,0,0:0:0:0:
329,192,7470,1,0,0:0:0:0:
402,192,7470,1,0,0:0:0:0:
109,192,8042,1,0,0:0:0:0:
256,192,8042,1,0,0:0:0:0:
475,192,8042,1,0,0:0:0:0:
182,192,8899,1,0,0:0:0:0:
36,192,8899,1,0,0:0:0:0:
329,192,8899,1,0,0:0:0:0:
109,192,9184,1,0,0:0:0:0:
256,192,9184,1,0,0:0:0:0:
402,192,9184,1,0,0:0:0:0:
182,192,10327,1,0,0:0:0:0:
329,192,10327,1,0,0:0:0:0:
475,192,10327,1,0,0:0:0:0:
109,192,10899,1,0,0:0:0:0:
182,192,10899,1,0,0:0:0:0:
329,192,10899,1,0,0:0:0:0:
109,192,11470,1,0,0:0:0:0:
256,192,11470,1,0,0:0:0:0:
402,192,11470,1,0,0:0:0:0:
36,192,12613,1,0,0:0:0:0:
109,192,12613,1,0,0:0:0:0:
329,192,12613,1,0,0:0:0:0:
182,192,13184,1,0,0:0:0:0:
256,192,13184,1,0,0:0:0:0:
475,192,13184,1,0,0:0:0:0:
329,192,13756,1,0,0:0:0:0:
402,192,13756,1,0,0:0:0:0:
109,192,13756,1,0,0:0:0:0:
182,192,14899,1,0,0:0:0:0:
256,192,14899,1,0,0:0:0:0:
402,192,14899,1,0,0:0:0:0:
329,192,15470,1,0,0:0:0:0:
475,192,15470,1,0,0:0:0:0:
109,192,15470,1,0,0:0:0:0:
36,192,16042,1,0,0:0:0:0:
182,192,16042,1,0,0:0:0:0:
329,192,16042,1,0,0:0:0:0:
109,192,16613,1,0,0:0:0:0:
256,192,16613,1,0,0:0:0:0:
402,192,16613,1,0,0:0:0:0:
182,192,17184,1,0,0:0:0:0:
36,192,17184,1,0,0:0:0:0:
329,192,17184,1,0,0:0:0:0:
475,192,17184,1,0,0:0:0:0:
402,192,17756,1,0,0:0:0:0:
329,192,17756,1,0,0:0:0:0:
182,192,17756,1,0,0:0:0:0:
109,192,18042,1,0,0:0:0:0:
256,192,18042,1,0,0:0:0:0:
475,192,18042,1,0,0:0:0:0:
182,192,18327,1,0,0:0:0:0:
36,192,18327,1,0,0:0:0:0:
329,192,18327,1,0,0:0:0:0:
256,192,18399,1,0,0:0:0:0:
329,192,18470,1,0,0:0:0:0:
256,192,18542,1,0,0:0:0:0:
475,192,18613,1,0,0:0:0:0:
182,192,18613,1,0,0:0:0:0:
402,192,18684,1,0,0:0:0:0:
329,192,18756,1,0,0:0:0:0:
256,192,18827,1,0,0:0:0:0:
182,192,18899,1,0,0:0:0:0:
36,192,18899,1,0,0:0:0:0:
109,192,18970,1,0,0:0:0:0:
182,192,19042,1,0,0:0:0:0:
329,192,19113,1,0,0:0:0:0:
402,192,19184,1,0,0:0:0:0:
256,192,19184,1,0,0:0:0:0:
182,192,19256,1,0,0:0:0:0:
109,192,19327,1,0,0:0:0:0:
36,192,19399,1,0,0:0:0:0:
182,192,19470,1,0,0:0:0:0:
402,192,19470,1,0,0:0:0:0:
475,192,19470,1,0,0:0:0:0:
329,192,19542,1,0,0:0:0:0:
256,192,19613,1,0,0:0:0:0:
36,192,19613,1,0,0:0:0:0:
109,192,19684,1,0,0:0:0:0:
182,192,19756,1,0,0:0:0:0:
256,192,19756,1,0,0:0:0:0:
402,192,19756,1,0,0:0:0:0:
329,192,19827,1,0,0:0:0:0:
475,192,19899,1,0,0:0:0:0:
109,192,19899,1,0,0:0:0:0:
182,192,19970,1,0,0:0:0:0:
402,192,19970,1,0,0:0:0:0:
36,192,20042,1,0,0:0:0:0:
256,192,20042,1,0,0:0:0:0:
329,192,20042,1,0,0:0:0:0:
109,192,20113,1,0,0:0:0:0:
182,192,20184,1,0,0:0:0:0:
475,192,20184,1,0,0:0:0:0:
402,192,20256,1,0,0:0:0:0:
256,192,20256,1,0,0:0:0:0:
329,192,20327,1,0,0:0:0:0:
475,192,20327,1,0,0:0:0:0:
36,192,20327,1,0,0:0:0:0:
109,192,20399,1,0,0:0:0:0:
402,192,20399,1,0,0:0:0:0:
475,192,20470,1,0,0:0:0:0:
36,192,20470,1,0,0:0:0:0:
402,192,20542,1,0,0:0:0:0:
109,192,20542,1,0,0:0:0:0:
182,192,20613,1,0,0:0:0:0:
256,192,20613,1,0,0:0:0:0:
329,192,20613,1,0,0:0:0:0:
109,192,20684,1,0,0:0:0:0:
402,192,20684,1,0,0:0:0:0:
475,192,20756,1,0,0:0:0:0:
36,192,20756,1,0,0:0:0:0:
256,192,20756,1,0,0:0:0:0:
329,192,20827,1,0,0:0:0:0:
182,192,20827,1,0,0:0:0:0:
109,192,20899,1,0,0:0:0:0:
402,192,20899,1,0,0:0:0:0:
475,192,20899,1,0,0:0:0:0:
36,192,20970,1,0,0:0:0:0:
329,192,20970,1,0,0:0:0:0:
402,192,21042,1,0,0:0:0:0:
109,192,21042,1,0,0:0:0:0:
475,192,21113,1,0,0:0:0:0:
182,192,21113,1,0,0:0:0:0:
256,192,21184,1,0,0:0:0:0:
402,192,21184,1,0,0:0:0:0:
329,192,21184,1,0,0:0:0:0:
109,192,21256,1,0,0:0:0:0:
475,192,21256,1,0,0:0:0:0:
182,192,21327,1,0,0:0:0:0:
402,192,21327,1,0,0:0:0:0:
329,192,21399,1,0,0:0:0:0:
256,192,21470,1,0,0:0:0:0:
36,192,21470,1,0,0:0:0:0:
402,192,21470,1,0,0:0:0:0:
182,192,21470,1,0,0:0:0:0:
475,192,21542,1,0,0:0:0:0:
109,192,21542,1,0,0:0:0:0:
402,192,21613,1,0,0:0:0:0:
182,192,21613,1,0,0:0:0:0:
256,192,21684,1,0,0:0:0:0:
475,192,21684,1,0,0:0:0:0:
182,192,21756,1,0,0:0:0:0:
36,192,21756,1,0,0:0:0:0:
402,192,21756,1,0,0:0:0:0:
329,192,21827,1,0,0:0:0:0:
109,192,21827,1,0,0:0:0:0:
256,192,21899,1,0,0:0:0:0:
36,192,21899,1,0,0:0:0:0:
182,192,21970,1,0,0:0:0:0:
475,192,21970,1,0,0:0:0:0:
402,192,22042,1,0,0:0:0:0:
109,192,22042,1,0,0:0:0:0:
256,192,22042,1,0,0:0:0:0:
36,192,22113,1,0,0:0:0:0:
329,192,22113,1,0,0:0:0:0:
256,192,22184,1,0,0:0:0:0:
475,192,22184,1,0,0:0:0:0:
182,192,22256,1,0,0:0:0:0:
402,192,22256,1,0,0:0:0:0:
109,192,22327,1,0,0:0:0:0:
329,192,22327,1,0,0:0:0:0:
475,192,22327,1,0,0:0:0:0:
36,192,22399,1,0,0:0:0:0:
256,192,22399,1,0,0:0:0:0:
182,192,22470,1,0,0:0:0:0:
475,192,22470,1,0,0:0:0:0:
402,192,22542,1,0,0:0:0:0:
109,192,22542,1,0,0:0:0:0:
329,192,22613,1,0,0:0:0:0:
36,192,22613,1,0,0:0:0:0:
182,192,22613,1,0,0:0:0:0:
256,192,22684,1,0,0:0:0:0:
475,192,22684,1,0,0:0:0:0:
402,192,22756,1,0,0:0:0:0:
182,192,22756,1,0,0:0:0:0:
109,192,22827,1,0,0:0:0:0:
329,192,22827,1,0,0:0:0:0:
256,192,22899,1,0,0:0:0:0:
36,192,22899,1,0,0:0:0:0:
475,192,22899,1,0,0:0:0:0:
109,192,22970,1,0,0:0:0:0:
329,192,22970,1,0,0:0:0:0:
402,192,23042,1,0,0:0:0:0:
182,192,23042,1,0,0:0:0:0:
475,192,23113,1,0,0:0:0:0:
256,192,23113,1,0,0:0:0:0:
36,192,23184,1,0,0:0:0:0:
329,192,23184,1,0,0:0:0:0:
182,192,23184,1,0,0:0:0:0:
402,192,23256,1,0,0:0:0:0:
109,192,23256,1,0,0:0:0:0:
475,192,23327,1,0,0:0:0:0:
182,192,23327,1,0,0:0:0:0:
256,192,23399,1,0,0:0:0:0:
36,192,23399,1,0,0:0:0:0:
402,192,23399,1,0,0:0:0:0:
475,192,23470,1,0,0:0:0:0:
329,192,23470,1,0,0:0:0:0:
109,192,23470,1,0,0:0:0:0:
182,192,23542,1,0,0:0:0:0:
402,192,23542,1,0,0:0:0:0:
36,192,23542,1,0,0:0:0:0:
475,192,23613,1,0,0:0:0:0:
256,192,23613,1,0,0:0:0:0:
329,192,23684,1,0,0:0:0:0:
36,192,23684,1,0,0:0:0:0:
109,192,23756,1,0,0:0:0:0:
475,192,23756,1,0,0:0:0:0:
256,192,23756,1,0,0:0:0:0:
182,192,23827,1,0,0:0:0:0:
402,192,23827,1,0,0:0:0:0:
475,192,23899,1,0,0:0:0:0:
256,192,23899,1,0,0:0:0:0:
329,192,23970,1,0,0:0:0:0:
36,192,23970,1,0,0:0:0:0:
109,192,24042,1,0,0:0:0:0:
475,192,24042,1,0,0:0:0:0:
402,192,24042,1,0,0:0:0:0:
329,192,24113,1,0,0:0:0:0:
256,192,24184,1,0,0:0:0:0:
109,192,24184,1,0,0:0:0:0:
182,192,24256,1,0,0:0:0:0:
475,192,24256,1,0,0:0:0:0:
402,192,24327,1,0,0:0:0:0:
329,192,24327,1,0,0:0:0:0:
256,192,24327,1,0,0:0:0:0:
109,192,24399,1,0,0:0:0:0:
475,192,24399,1,0,0:0:0:0:
182,192,24470,1,0,0:0:0:0:
402,192,24470,1,0,0:0:0:0:
329,192,24542,1,0,0:0:0:0:
256,192,24542,1,0,0:0:0:0:
36,192,24613,1,0,0:0:0:0:
182,192,24613,1,0,0:0:0:0:
475,192,24613,1,0,0:0:0:0:
402,192,24684,1,0,0:0:0:0:
109,192,24684,1,0,0:0:0:0:
329,192,24756,1,0,0:0:0:0:
182,192,24756,1,0,0:0:0:0:
402,192,24827,1,0,0:0:0:0:
475,192,24899,1,0,0:0:0:0:
109,192,24899,1,0,0:0:0:0:
182,192,24899,1,0,0:0:0:0:
256,192,24970,1,0,0:0:0:0:
329,192,25042,1,0,0:0:0:0:
475,192,25042,1,0,0:0:0:0:
36,192,25113,1,0,0:0:0:0:
182,192,25113,1,0,0:0:0:0:
256,192,25184,1,0,0:0:0:0:
109,192,25184,1,0,0:0:0:0:
402,192,25184,1,0,0:0:0:0:
329,192,25256,1,0,0:0:0:0:
475,192,25256,1,0,0:0:0:0:
36,192,25327,1,0,0:0:0:0:
182,192,25327,1,0,0:0:0:0:
256,192,25399,1,0,0:0:0:0:
109,192,25399,1,0,0:0:0:0:
329,192,25470,1,0,0:0:0:0:
475,192,25470,1,0,0:0:0:0:
182,192,25470,1,0,0:0:0:0:
109,192,25542,1,0,0:0:0:0:
402,192,25542,1,0,0:0:0:0:
329,192,25613,1,0,0:0:0:0:
36,192,25613,1,0,0:0:0:0:
475,192,25684,1,0,0:0:0:0:
182,192,25684,1,0,0:0:0:0:
402,192,25756,1,0,0:0:0:0:
109,192,25756,1,0,0:0:0:0:
256,192,25756,1,0,0:0:0:0:
36,192,25827,1,0,0:0:0:0:
329,192,25827,1,0,0:0:0:0:
109,192,25899,1,0,0:0:0:0:
256,192,25899,1,0,0:0:0:0:
182,192,25970,1,0,0:0:0:0:
402,192,25970,1,0,0:0:0:0:
256,192,26042,1,0,0:0:0:0:
329,192,26042,1,0,0:0:0:0:
475,192,26042,1,0,0:0:0:0:
36,192,26113,1,0,0:0:0:0:
182,192,26113,1,0,0:0:0:0:
109,192,26184,1,0,0:0:0:0:
402,192,26184,1,0,0:0:0:0:
329,192,26256,1,0,0:0:0:0:
182,192,26256,1,0,0:0:0:0:
256,192,26327,1,0,0:0:0:0:
402,192,26327,1,0,0:0:0:0:
475,192,26327,1,0,0:0:0:0:
182,192,26399,1,0,0:0:0:0:
36,192,26470,1,0,0:0:0:0:
256,192,26470,1,0,0:0:0:0:
329,192,26542,1,0,0:0:0:0:
109,192,26542,1,0,0:0:0:0:
182,192,26613,1,0,0:0:0:0:
256,192,26613,1,0,0:0:0:0:
475,192,26613,1,0,0:0:0:0:
402,192,26684,1,0,0:0:0:0:
329,192,26756,1,0,0:0:0:0:
182,192,26756,1,0,0:0:0:0:
109,192,26827,1,0,0:0:0:0:
256,192,26827,1,0,0:0:0:0:
36,192,26899,1,0,0:0:0:0:
182,192,26899,1,0,0:0:0:0:
402,192,26899,1,0,0:0:0:0:
329,192,26970,1,0,0:0:0:0:
256,192,26970,1,0,0:0:0:0:
475,192,27042,1,0,0:0:0:0:
182,192,27042,1,0,0:0:0:0:
109,192,27113,1,0,0:0:0:0:
402,192,27113,1,0,0:0:0:0:
36,192,27184,1,0,0:0:0:0:
182,192,27184,1,0,0:0:0:0:
256,192,27184,1,0,0:0:0:0:
329,192,27256,1,0,0:0:0:0:
109,192,27256,1,0,0:0:0:0:
475,192,27327,1,0,0:0:0:0:
182,192,27327,1,0,0:0:0:0:
402,192,27399,1,0,0:0:0:0:
36,192,27470,1,0,0:0:0:0:
329,192,27470,1,0,0:0:0:0:
109,192,27542,1,0,0:0:0:0:
402,192,27542,1,0,0:0:0:0:
182,192,27613,1,0,0:0:0:0:
256,192,27613,1,0,0:0:0:0:
329,192,27684,1,0,0:0:0:0:
182,192,27756,1,0,0:0:0:0:
109,192,27756,1,0,0:0:0:0:
402,192,27756,1,0,0:0:0:0:
36,192,27827,1,0,0:0:0:0:
256,192,27899,1,0,0:0:0:0:
475,192,27899,1,0,0:0:0:0:
402,192,27970,1,0,0:0:0:0:
182,192,27970,1,0,0:0:0:0:
109,192,27970,1,0,0:0:0:0:
329,192,28042,1,0,0:0:0:0:
36,192,28042,1,0,0:0:0:0:
402,192,28113,1,0,0:0:0:0:
475,192,28113,1,0,0:0:0:0:
256,192,28113,1,0,0:0:0:0:
36,192,28184,1,0,0:0:0:0:
182,192,28184,1,0,0:0:0:0:
329,192,28256,1,0,0:0:0:0:
256,192,28327,1,0,0:0:0:0:
402,192,28327,1,0,0:0:0:0:
475,192,28327,1,0,0:0:0:0:
109,192,28399,1,0,0:0:0:0:
329,192,28399,1,0,0:0:0:0:
256,192,28470,1,0,0:0:0:0:
36,192,28470,1,0,0:0:0:0:
475,192,28542,1,0,0:0:0:0:
182,192,28542,1,0,0:0:0:0:
402,192,28613,1,0,0:0:0:0:
329,192,28613,1,0,0:0:0:0:
256,192,28613,1,0,0:0:0:0:
36,192,28613,1,0,0:0:0:0:
109,192,28756,1,0,0:0:0:0:
182,192,28756,1,0,0:0:0:0:
329,192,28899,1,0,0:0:0:0:
402,192,28899,1,0,0:0:0:0:
475,192,28899,1,0,0:0:0:0:
36,192,28899,1,0,0:0:0:0:
402,192,29042,1,0,0:0:0:0:
109,192,29042,1,0,0:0:0:0:
329,192,29113,1,0,0:0:0:0:
182,192,29113,1,0,0:0:0:0:
256,192,29184,1,0,0:0:0:0:
36,192,29184,1,0,0:0:0:0:
109,192,29184,1,0,0:0:0:0:
475,192,29184,1,0,0:0:0:0:
182,192,29327,1,0,0:0:0:0:
329,192,29327,1,0,0:0:0:0:
36,192,29470,1,0,0:0:0:0:
402,192,29470,1,0,0:0:0:0:
475,192,29470,1,0,0:0:0:0:
329,192,29470,1,0,0:0:0:0:
256,192,29613,1,0,0:0:0:0:
109,192,29613,1,0,0:0:0:0:
402,192,29613,1,0,0:0:0:0:
182,192,29684,1,0,0:0:0:0:
402,192,29756,1,0,0:0:0:0:
475,192,29756,1,0,0:0:0:0:
36,192,29756,1,0,0:0:0:0:
109,192,29827,1,0,0:0:0:0:
329,192,29827,1,0,0:0:0:0:
182,192,29899,1,0,0:0:0:0:
402,192,29899,1,0,0:0:0:0:
475,192,29970,1,0,0:0:0:0:
256,192,29970,1,0,0:0:0:0:
36,192,30042,1,0,0:0:0:0:
109,192,30042,1,0,0:0:0:0:
402,192,30042,1,0,0:0:0:0:
182,192,30113,1,0,0:0:0:0:
329,192,30113,1,0,0:0:0:0:
402,192,30184,1,0,0:0:0:0:
256,192,30184,1,0,0:0:0:0:
475,192,30256,1,0,0:0:0:0:
182,192,30256,1,0,0:0:0:0:
36,192,30256,1,0,0:0:0:0:
109,192,30327,1,0,0:0:0:0:
402,192,30327,1,0,0:0:0:0:
329,192,30399,1,0,0:0:0:0:
182,192,30399,1,0,0:0:0:0:
256,192,30399,1,0,0:0:0:0:
475,192,30470,1,0,0:0:0:0:
109,192,30470,1,0,0:0:0:0:
36,192,30542,1,0,0:0:0:0:
402,192,30542,1,0,0:0:0:0:
109,192,30613,1,0,0:0:0:0:
329,192,30613,1,0,0:0:0:0:
475,192,30613,1,0,0:0:0:0:
182,192,30684,1,0,0:0:0:0:
256,192,30684,1,0,0:0:0:0:
475,192,30756,1,0,0:0:0:0:
36,192,30756,1,0,0:0:0:0:
402,192,30827,1,0,0:0:0:0:
109,192,30827,1,0,0:0:0:0:
182,192,30899,1,0,0:0:0:0:
256,192,30899,1,0,0:0:0:0:
329,192,30899,1,0,0:0:0:0:
475,192,30899,1,0,0:0:0:0:
109,192,31042,1,0,0:0:0:0:
402,192,31042,1,0,0:0:0:0:
36,192,31042,1,0,0:0:0:0:
182,192,31113,1,0,0:0:0:0:
256,192,31184,1,0,0:0:0:0:
329,192,31184,1,0,0:0:0:0:
475,192,31184,1,0,0:0:0:0:
36,192,31184,1,0,0:0:0:0:
109,192,31327,1,0,0:0:0:0:
182,192,31327,1,0,0:0:0:0:
402,192,31327,1,0,0:0:0:0:
329,192,31327,1,0,0:0:0:0:
36,192,31470,1,0,0:0:0:0:
402,192,31470,1,0,0:0:0:0:
182,192,31613,1,0,0:0:0:0:
256,192,31613,1,0,0:0:0:0:
475,192,31613,1,0,0:0:0:0:
329,192,31613,1,0,0:0:0:0:
36,192,31756,1,0,0:0:0:0:
402,192,31756,1,0,0:0:0:0:
109,192,31756,1,0,0:0:0:0:
182,192,31756,1,0,0:0:0:0:
475,192,31899,1,0,0:0:0:0:
256,192,31899,1,0,0:0:0:0:
182,192,31970,1,0,0:0:0:0:
402,192,31970,1,0,0:0:0:0:
329,192,32042,1,0,0:0:0:0:
109,192,32042,1,0,0:0:0:0:
36,192,32042,1,0,0:0:0:0:
182,192,32113,1,0,0:0:0:0:
402,192,32113,1,0,0:0:0:0:
475,192,32184,1,0,0:0:0:0:
109,192,32184,1,0,0:0:0:0:
36,192,32256,1,0,0:0:0:0:
402,192,32256,1,0,0:0:0:0:
109,192,32327,1,0,0:0:0:0:
182,192,32327,1,0,0:0:0:0:
329,192,32327,1,0,0:0:0:0:
256,192,32399,1,0,0:0:0:0:
475,192,32399,1,0,0:0:0:0:
182,192,32470,1,0,0:0:0:0:
402,192,32470,1,0,0:0:0:0:
329,192,32542,1,0,0:0:0:0:
256,192,32542,1,0,0:0:0:0:
36,192,32542,1,0,0:0:0:0:
109,192,32613,1,0,0:0:0:0:
402,192,32613,1,0,0:0:0:0:
182,192,32684,1,0,0:0:0:0:
329,192,32684,1,0,0:0:0:0:
475,192,32684,1,0,0:0:0:0:
36,192,32756,1,0,0:0:0:0:
256,192,32756,1,0,0:0:0:0:
329,192,32827,1,0,0:0:0:0:
109,192,32827,1,0,0:0:0:0:
182,192,32899,1,0,0:0:0:0:
402,192,32899,1,0,0:0:0:0:
475,192,32899,1,0,0:0:0:0:
36,192,32970,1,0,0:0:0:0:
329,192,32970,1,0,0:0:0:0:
402,192,33042,1,0,0:0:0:0:
109,192,33042,1,0,0:0:0:0:
475,192,33113,1,0,0:0:0:0:
182,192,33113,1,0,0:0:0:0:
256,192,33184,1,0,0:0:0:0:
402,192,33184,1,0,0:0:0:0:
109,192,33184,1,0,0:0:0:0:
182,192,33327,1,0,0:0:0:0:
329,192,33327,1,0,0:0:0:0:
109,192,33399,1,0,0:0:0:0:
36,192,33470,1,0,0:0:0:0:
256,192,33470,1,0,0:0:0:0:
329,192,33470,1,0,0:0:0:0:
402,192,33470,1,0,0:0:0:0:
182,192,33613,1,0,0:0:0:0:
475,192,33613,1,0,0:0:0:0:
402,192,33684,1,0,0:0:0:0:
329,192,33756,1,0,0:0:0:0:
109,192,33756,1,0,0:0:0:0:
36,192,33756,1,0,0:0:0:0:
182,192,33899,1,0,0:0:0:0:
256,192,33899,1,0,0:0:0:0:
402,192,33970,1,0,0:0:0:0:
475,192,34042,1,0,0:0:0:0:
329,192,34042,1,0,0:0:0:0:
109,192,34042,1,0,0:0:0:0:
36,192,34042,1,0,0:0:0:0:
182,192,34184,1,0,0:0:0:0:
402,192,34184,1,0,0:0:0:0:
109,192,34256,1,0,0:0:0:0:
329,192,34256,1,0,0:0:0:0:
256,192,34327,1,0,0:0:0:0:
36,192,34327,1,0,0:0:0:0:
402,192,34327,1,0,0:0:0:0:
475,192,34399,1,0,0:0:0:0:
182,192,34399,1,0,0:0:0:0:
109,192,34470,1,0,0:0:0:0:
402,192,34470,1,0,0:0:0:0:
36,192,34542,1,0,0:0:0:0:
329,192,34542,1,0,0:0:0:0:
109,192,34613,1,0,0:0:0:0:
182,192,34613,1,0,0:0:0:0:
402,192,34613,1,0,0:0:0:0:
256,192,34684,1,0,0:0:0:0:
475,192,34684,1,0,0:0:0:0:
402,192,34756,1,0,0:0:0:0:
109,192,34756,1,0,0:0:0:0:
329,192,34827,1,0,0:0:0:0:
36,192,34827,1,0,0:0:0:0:
182,192,34827,1,0,0:0:0:0:
475,192,34899,1,0,0:0:0:0:
256,192,34899,1,0,0:0:0:0:
182,192,34970,1,0,0:0:0:0:
402,192,34970,1,0,0:0:0:0:
109,192,34970,1,0,0:0:0:0:
36,192,35042,1,0,0:0:0:0:
329,192,35042,1,0,0:0:0:0:
109,192,35113,1,0,0:0:0:0:
256,192,35113,1,0,0:0:0:0:
475,192,35184,1,0,0:0:0:0:
36,192,35184,1,0,0:0:0:0:
329,192,35184,1,0,0:0:0:0:
109,192,35256,1,0,0:0:0:0:
402,192,35256,1,0,0:0:0:0:
475,192,35327,1,0,0:0:0:0:
182,192,35327,1,0,0:0:0:0:
256,192,35399,1,0,0:0:0:0:
36,192,35399,1,0,0:0:0:0:
329,192,35470,1,0,0:0:0:0:
475,192,35470,1,0,0:0:0:0:
109,192,35470,1,0,0:0:0:0:
256,192,35613,1,0,0:0:0:0:
402,192,35613,1,0,0:0:0:0:
182,192,35613,1,0,0:0:0:0:
109,192,35684,1,0,0:0:0:0:
36,192,35756,1,0,0:0:0:0:
182,192,35756,1,0,0:0:0:0:
329,192,35756,1,0,0:0:0:0:
402,192,35756,1,0,0:0:0:0:
256,192,35899,1,0,0:0:0:0:
109,192,35899,1,0,0:0:0:0:
329,192,35899,1,0,0:0:0:0:
182,192,36042,1,0,0:0:0:0:
402,192,36042,1,0,0:0:0:0:
36,192,36184,1,0,0:0:0:0:
256,192,36184,1,0,0:0:0:0:
109,192,36184,1,0,0:0:0:0:
182,192,36327,1,0,0:0:0:0:
329,192,36327,1,0,0:0:0:0:
402,192,36327,1,0,0:0:0:0:
475,192,36327,1,0,0:0:0:0:
36,192,36470,1,0,0:0:0:0:
256,192,36470,1,0,0:0:0:0:
402,192,36470,1,0,0:0:0:0:
475,192,36542,1,0,0:0:0:0:
109,192,36542,1,0,0:0:0:0:
182,192,36613,1,0,0:0:0:0:
329,192,36613,1,0,0:0:0:0:
402,192,36613,1,0,0:0:0:0:
256,192,36684,1,0,0:0:0:0:
475,192,36684,1,0,0:0:0:0:
36,192,36756,1,0,0:0:0:0:
329,192,36756,1,0,0:0:0:0:
402,192,36827,1,0,0:0:0:0:
109,192,36827,1,0,0:0:0:0:
475,192,36899,1,0,0:0:0:0:
36,192,36899,1,0,0:0:0:0:
256,192,36899,1,0,0:0:0:0:
109,192,36970,1,0,0:0:0:0:
329,192,36970,1,0,0:0:0:0:
402,192,37042,1,0,0:0:0:0:
182,192,37042,1,0,0:0:0:0:
475,192,37113,1,0,0:0:0:0:
256,192,37113,1,0,0:0:0:0:
36,192,37113,1,0,0:0:0:0:
329,192,37184,1,0,0:0:0:0:
109,192,37184,1,0,0:0:0:0:
182,192,37256,1,0,0:0:0:0:
402,192,37256,1,0,0:0:0:0:
36,192,37256,1,0,0:0:0:0:
475,192,37327,1,0,0:0:0:0:
256,192,37327,1,0,0:0:0:0:
329,192,37399,1,0,0:0:0:0:
109,192,37399,1,0,0:0:0:0:
402,192,37470,1,0,0:0:0:0:
182,192,37470,1,0,0:0:0:0:
36,192,37470,1,0,0:0:0:0:
475,192,37542,1,0,0:0:0:0:
256,192,37542,1,0,0:0:0:0:
329,192,37613,1,0,0:0:0:0:
36,192,37613,1,0,0:0:0:0:
402,192,37684,1,0,0:0:0:0:
109,192,37684,1,0,0:0:0:0:
475,192,37756,1,0,0:0:0:0:
182,192,37756,1,0,0:0:0:0:
36,192,37756,1,0,0:0:0:0:
109,192,37899,1,0,0:0:0:0:
402,192,37899,1,0,0:0:0:0:
475,192,37899,1,0,0:0:0:0:
256,192,37970,1,0,0:0:0:0:
182,192,37970,1,0,0:0:0:0:
109,192,38042,1,0,0:0:0:0:
36,192,38042,1,0,0:0:0:0:
475,192,38113,1,0,0:0:0:0:
402,192,38113,1,0,0:0:0:0:
329,192,38184,1,0,0:0:0:0:
256,192,38184,1,0,0:0:0:0:
182,192,38184,1,0,0:0:0:0:
182,192,38470,1,0,0:0:0:0:
109,192,38470,1,0,0:0:0:0:
402,192,38470,1,0,0:0:0:0:
475,192,38470,1,0,0:0:0:0:
329,192,38613,1,0,0:0:0:0:
256,192,38613,1,0,0:0:0:0:
36,192,38613,1,0,0:0:0:0:
182,192,38613,1,0,0:0:0:0:
109,192,38756,1,0,0:0:0:0:
402,192,38756,1,0,0:0:0:0:
475,192,38756,1,0,0:0:0:0:
329,192,38756,1,0,0:0:0:0:
36,192,38899,1,0,0:0:0:0:
329,192,38899,1,0,0:0:0:0:
109,192,38970,1,0,0:0:0:0:
256,192,38970,1,0,0:0:0:0:
329,192,39042,1,0,0:0:0:0:
402,192,39042,1,0,0:0:0:0:
36,192,39113,1,0,0:0:0:0:
109,192,39184,1,0,0:0:0:0:
182,192,39184,1,0,0:0:0:0:
475,192,39184,1,0,0:0:0:0:
402,192,39256,1,0,0:0:0:0:
329,192,39256,1,0,0:0:0:0:
256,192,39256,1,0,0:0:0:0:
36,192,39327,1,0,0:0:0:0:
475,192,39327,1,0,0:0:0:0:
109,192,39399,1,0,0:0:0:0:
402,192,39399,1,0,0:0:0:0:
182,192,39399,1,0,0:0:0:0:
329,192,39470,1,0,0:0:0:0:
36,192,39470,1,0,0:0:0:0:
109,192,39542,1,0,0:0:0:0:
256,192,39542,1,0,0:0:0:0:
475,192,39613,1,0,0:0:0:0:
182,192,39613,1,0,0:0:0:0:
402,192,39684,1,0,0:0:0:0:
182,192,39756,1,0,0:0:0:0:
475,192,39803,1,0,0:0:0:0:
109,192,39803,1,0,0:0:0:0:
402,192,39851,1,0,0:0:0:0:
36,192,39851,1,0,0:0:0:0:
329,192,39899,1,0,0:0:0:0:
256,192,39946,1,0,0:0:0:0:
182,192,39994,1,0,0:0:0:0:
475,192,39994,1,0,0:0:0:0:
109,192,40042,1,0,0:0:0:0:
402,192,40042,1,0,0:0:0:0:
36,192,40042,1,0,0:0:0:0:
329,192,40113,1,0,0:0:0:0:
475,192,40184,1,0,0:0:0:0:
182,192,40184,1,0,0:0:0:0:
256,192,40256,1,0,0:0:0:0:
329,192,40327,1,0,0:0:0:0:
402,192,40327,1,0,0:0:0:0:
36,192,40327,1,0,0:0:0:0:
109,192,40399,1,0,0:0:0:0:
475,192,40470,1,0,0:0:0:0:
182,192,40470,1,0,0:0:0:0:
402,192,40542,1,0,0:0:0:0:
329,192,40613,1,0,0:0:0:0:
256,192,40613,1,0,0:0:0:0:
36,192,40613,1,0,0:0:0:0:
109,192,40756,1,0,0:0:0:0:
182,192,40756,1,0,0:0:0:0:
402,192,40756,1,0,0:0:0:0:
475,192,40899,1,0,0:0:0:0:
402,192,40899,1,0,0:0:0:0:
329,192,40899,1,0,0:0:0:0:
182,192,40970,1,0,0:0:0:0:
109,192,40970,1,0,0:0:0:0:
256,192,40970,1,0,0:0:0:0:
329,192,41042,1,0,0:0:0:0:
402,192,41042,1,0,0:0:0:0:
475,192,41042,1,0,0:0:0:0:
36,192,41184,1,0,0:0:0:0:
256,192,41184,1,0,0:0:0:0:
109,192,41256,1,0,0:0:0:0:
402,192,41256,1,0,0:0:0:0:
182,192,41327,1,0,0:0:0:0:
329,192,41327,1,0,0:0:0:0:
475,192,41399,1,0,0:0:0:0:
402,192,41470,1,0,0:0:0:0:
329,192,41470,1,0,0:0:0:0:
256,192,41470,1,0,0:0:0:0:
182,192,41542,1,0,0:0:0:0:
109,192,41542,1,0,0:0:0:0:
36,192,41542,1,0,0:0:0:0:
475,192,41613,1,0,0:0:0:0:
329,192,41613,1,0,0:0:0:0:
256,192,41684,1,0,0:0:0:0:
36,192,41756,1,0,0:0:0:0:
182,192,41756,1,0,0:0:0:0:
109,192,41827,1,0,0:0:0:0:
329,192,41827,1,0,0:0:0:0:
402,192,41827,1,0,0:0:0:0:
475,192,41899,1,0,0:0:0:0:
182,192,41899,1,0,0:0:0:0:
475,192,42042,1,0,0:0:0:0:
402,192,42042,1,0,0:0:0:0:
256,192,42042,1,0,0:0:0:0:
182,192,42113,1,0,0:0:0:0:
36,192,42113,1,0,0:0:0:0:
109,192,42113,1,0,0:0:0:0:
402,192,42184,1,0,0:0:0:0:
329,192,42184,1,0,0:0:0:0:
256,192,42256,1,0,0:0:0:0:
182,192,42327,1,0,0:0:0:0:
109,192,42327,1,0,0:0:0:0:
475,192,42327,1,0,0:0:0:0:
402,192,42399,1,0,0:0:0:0:
329,192,42470,1,0,0:0:0:0:
256,192,42470,1,0,0:0:0:0:
36,192,42470,1,0,0:0:0:0:
475,192,42613,1,0,0:0:0:0:
402,192,42613,1,0,0:0:0:0:
329,192,42613,1,0,0:0:0:0:
182,192,42684,1,0,0:0:0:0:
109,192,42684,1,0,0:0:0:0:
36,192,42684,1,0,0:0:0:0:
256,192,42756,1,0,0:0:0:0:
329,192,42756,1,0,0:0:0:0:
402,192,42756,1,0,0:0:0:0:
182,192,42827,1,0,0:0:0:0:
36,192,42899,1,0,0:0:0:0:
256,192,42899,1,0,0:0:0:0:
109,192,42970,1,0,0:0:0:0:
329,192,42970,1,0,0:0:0:0:
402,192,43042,1,0,0:0:0:0:
182,192,43042,1,0,0:0:0:0:
475,192,43042,1,0,0:0:0:0:
329,192,43184,1,0,0:0:0:0:
256,192,43184,1,0,0:0:0:0:
182,192,43256,1,0,0:0:0:0:
109,192,43256,1,0,0:0:0:0:
475,192,43327,1,0,0:0:0:0:
402,192,43327,1,0,0:0:0:0:
329,192,43327,1,0,0:0:0:0:
36,192,43470,1,0,0:0:0:0:
329,192,43470,1,0,0:0:0:0:
402,192,43518,1,0,0:0:0:0:
109,192,43518,1,0,0:0:0:0:
475,192,43565,1,0,0:0:0:0:
182,192,43565,1,0,0:0:0:0:
256,192,43613,1,0,0:0:0:0:
329,192,43661,1,0,0:0:0:0:
36,192,43661,1,0,0:0:0:0:
402,192,43708,1,0,0:0:0:0:
109,192,43708,1,0,0:0:0:0:
475,192,43756,1,0,0:0:0:0:
182,192,43756,1,0,0:0:0:0:
329,192,43899,1,0,0:0:0:0:
402,192,43899,1,0,0:0:0:0:
36,192,43899,1,0,0:0:0:0:
109,192,43899,1,0,0:0:0:0:
256,192,44042,1,0,0:0:0:0:
182,192,44042,1,0,0:0:0:0:
475,192,44042,1,0,0:0:0:0:
402,192,44113,1,0,0:0:0:0:
109,192,44113,1,0,0:0:0:0:
329,192,44184,1,0,0:0:0:0:
36,192,44184,1,0,0:0:0:0:
182,192,44184,1,0,0:0:0:0:
256,192,44327,1,0,0:0:0:0:
475,192,44327,1,0,0:0:0:0:
402,192,44327,1,0,0:0:0:0:
182,192,44399,1,0,0:0:0:0:
109,192,44470,1,0,0:0:0:0:
36,192,44470,1,0,0:0:0:0:
329,192,44470,1,0,0:0:0:0:
182,192,44613,1,0,0:0:0:0:
256,192,44613,1,0,0:0:0:0:
402,192,44613,1,0,0:0:0:0:
475,192,44613,1,0,0:0:0:0:
36,192,44684,1,0,0:0:0:0:
329,192,44684,1,0,0:0:0:0:
109,192,44756,1,0,0:0:0:0:
402,192,44756,1,0,0:0:0:0:
182,192,44756,1,0,0:0:0:0:
475,192,44827,1,0,0:0:0:0:
256,192,44827,1,0,0:0:0:0:
329,192,44899,1,0,0:0:0:0:
36,192,44899,1,0,0:0:0:0:
109,192,44899,1,0,0:0:0:0:
475,192,44970,1,0,0:0:0:0:
182,192,44970,1,0,0:0:0:0:
402,192,45042,1,0,0:0:0:0:
36,192,45042,1,0,0:0:0:0:
329,192,45113,1,0,0:0:0:0:
109,192,45113,1,0,0:0:0:0:
182,192,45184,1,0,0:0:0:0:
402,192,45184,1,0,0:0:0:0:
256,192,45256,1,0,0:0:0:0:
475,192,45256,1,0,0:0:0:0:
182,192,45327,1,0,0:0:0:0:
402,192,45327,1,0,0:0:0:0:
36,192,45327,1,0,0:0:0:0:
329,192,45399,1,0,0:0:0:0:
109,192,45399,1,0,0:0:0:0:
36,192,45470,1,0,0:0:0:0:
256,192,45470,1,0,0:0:0:0:
402,192,45470,1,0,0:0:0:0:
475,192,45470,1,0,0:0:0:0:
109,192,45542,1,0,0:0:0:0:
182,192,45613,1,0,0:0:0:0:
475,192,45613,1,0,0:0:0:0:
256,192,45613,1,0,0:0:0:0:
36,192,45756,1,0,0:0:0:0:
109,192,45756,1,0,0:0:0:0:
329,192,45756,1,0,0:0:0:0:
182,192,45899,1,0,0:0:0:0:
402,192,45899,1,0,0:0:0:0:
256,192,45899,1,0,0:0:0:0:
475,192,45899,1,0,0:0:0:0:
36,192,45970,1,0,0:0:0:0:
109,192,46042,1,0,0:0:0:0:
329,192,46042,1,0,0:0:0:0:
402,192,46042,1,0,0:0:0:0:
182,192,46113,1,0,0:0:0:0:
475,192,46113,1,0,0:0:0:0:
402,192,46184,1,0,0:0:0:0:
109,192,46184,1,0,0:0:0:0:
36,192,46256,1,0,0:0:0:0:
182,192,46327,1,0,0:0:0:0:
402,192,46327,1,0,0:0:0:0:
256,192,46399,1,0,0:0:0:0:
329,192,46470,1,0,0:0:0:0:
36,192,46470,1,0,0:0:0:0:
109,192,46470,1,0,0:0:0:0:
475,192,46542,1,0,0:0:0:0:
402,192,46613,1,0,0:0:0:0:
256,192,46613,1,0,0:0:0:0:
36,192,46613,1,0,0:0:0:0:
109,192,46684,1,0,0:0:0:0:
182,192,46756,1,0,0:0:0:0:
329,192,46756,1,0,0:0:0:0:
402,192,46756,1,0,0:0:0:0:
475,192,46827,1,0,0:0:0:0:
36,192,46899,1,0,0:0:0:0:
109,192,46899,1,0,0:0:0:0:
256,192,46899,1,0,0:0:0:0:
182,192,47042,1,0,0:0:0:0:
475,192,47042,1,0,0:0:0:0:
402,192,47042,1,0,0:0:0:0:
329,192,47113,1,0,0:0:0:0:
256,192,47184,1,0,0:0:0:0:
182,192,47184,1,0,0:0:0:0:
36,192,47184,1,0,0:0:0:0:
402,192,47256,1,0,0:0:0:0:
329,192,47327,1,0,0:0:0:0:
109,192,47327,1,0,0:0:0:0:
182,192,47399,1,0,0:0:0:0:
475,192,47470,1,0,0:0:0:0:
329,192,47470,1,0,0:0:0:0:
36,192,47542,1,0,0:0:0:0:
182,192,47542,1,0,0:0:0:0:
329,192,47613,1,0,0:0:0:0:
475,192,47613,1,0,0:0:0:0:
182,192,47756,1,0,0:0:0:0:
109,192,47803,1,0,0:0:0:0:
402,192,47803,1,0,0:0:0:0:
36,192,47851,1,0,0:0:0:0:
329,192,47851,1,0,0:0:0:0:
256,192,47899,1,0,0:0:0:0:
182,192,47946,1,0,0:0:0:0:
475,192,47946,1,0,0:0:0:0:
402,192,47994,1,0,0:0:0:0:
109,192,47994,1,0,0:0:0:0:
36,192,48042,1,0,0:0:0:0:
329,192,48042,1,0,0:0:0:0:
256,192,48042,1,0,0:0:0:0:
475,192,48184,1,0,0:0:0:0:
402,192,48184,1,0,0:0:0:0:
329,192,48256,1,0,0:0:0:0:
256,192,48256,1,0,0:0:0:0:
182,192,48256,1,0,0:0:0:0:
109,192,48327,1,0,0:0:0:0:
36,192,48327,1,0,0:0:0:0:
475,192,48327,1,0,0:0:0:0:
402,192,48399,1,0,0:0:0:0:
329,192,48470,1,0,0:0:0:0:
109,192,48470,1,0,0:0:0:0:
182,192,48470,1,0,0:0:0:0:
256,192,48613,1,0,0:0:0:0:
402,192,48613,1,0,0:0:0:0:
475,192,48613,1,0,0:0:0:0:
36,192,48684,1,0,0:0:0:0:
109,192,48756,1,0,0:0:0:0:
182,192,48756,1,0,0:0:0:0:
475,192,48827,1,0,0:0:0:0:
402,192,48899,1,0,0:0:0:0:
329,192,48899,1,0,0:0:0:0:
256,192,48899,1,0,0:0:0:0:
182,192,48994,1,0,0:0:0:0:
109,192,48994,1,0,0:0:0:0:
36,192,48994,1,0,0:0:0:0:
329,192,49089,1,0,0:0:0:0:
402,192,49089,1,0,0:0:0:0:
475,192,49089,1,0,0:0:0:0:
36,192,49184,1,0,0:0:0:0:
182,192,49184,1,0,0:0:0:0:
402,192,49256,1,0,0:0:0:0:
329,192,49327,1,0,0:0:0:0:
109,192,49327,1,0,0:0:0:0:
182,192,49399,1,0,0:0:0:0:
256,192,49470,1,0,0:0:0:0:
402,192,49470,1,0,0:0:0:0:
475,192,49470,1,0,0:0:0:0:
36,192,49613,1,0,0:0:0:0:
182,192,49613,1,0,0:0:0:0:
329,192,49684,1,0,0:0:0:0:
256,192,49756,1,0,0:0:0:0:
109,192,49756,1,0,0:0:0:0:
36,192,49827,1,0,0:0:0:0:
475,192,49827,1,0,0:0:0:0:
402,192,49827,1,0,0:0:0:0:
329,192,49899,1,0,0:0:0:0:
109,192,49899,1,0,0:0:0:0:
36,192,49970,1,0,0:0:0:0:
256,192,49970,1,0,0:0:0:0:
402,192,50042,1,0,0:0:0:0:
475,192,50042,1,0,0:0:0:0:
182,192,50042,1,0,0:0:0:0:
109,192,50184,1,0,0:0:0:0:
36,192,50184,1,0,0:0:0:0:
329,192,50184,1,0,0:0:0:0:
329,192,50327,1,0,0:0:0:0:
402,192,50327,1,0,0:0:0:0:
475,192,50327,1,0,0:0:0:0:
256,192,50327,1,0,0:0:0:0:
182,192,50422,1,0,0:0:0:0:
36,192,50422,1,0,0:0:0:0:
109,192,50422,1,0,0:0:0:0:
329,192,50518,1,0,0:0:0:0:
402,192,50518,1,0,0:0:0:0:
475,192,50518,1,0,0:0:0:0:
182,192,50613,1,0,0:0:0:0:
109,192,50613,1,0,0:0:0:0:
36,192,50613,1,0,0:0:0:0:
256,192,50613,1,0,0:0:0:0:
329,192,50708,1,0,0:0:0:0:
402,192,50708,1,0,0:0:0:0:
475,192,50708,1,0,0:0:0:0:
182,192,50803,1,0,0:0:0:0:
36,192,50803,1,0,0:0:0:0:
109,192,50803,1,0,0:0:0:0:
256,192,50803,1,0,0:0:0:0:
475,192,50899,1,0,0:0:0:0:
329,192,50899,1,0,0:0:0:0:
256,192,50970,1,0,0:0:0:0:
36,192,51042,1,0,0:0:0:0:
402,192,51042,1,0,0:0:0:0:
109,192,51113,1,0,0:0:0:0:
182,192,51184,1,0,0:0:0:0:
256,192,51184,1,0,0:0:0:0:
475,192,51184,1,0,0:0:0:0:
329,192,51327,1,0,0:0:0:0:
402,192,51327,1,0,0:0:0:0:
109,192,51327,1,0,0:0:0:0:
182,192,51470,1,0,0:0:0:0:
36,192,51470,1,0,0:0:0:0:
475,192,51470,1,0,0:0:0:0:
402,192,51542,1,0,0:0:0:0:
109,192,51542,1,0,0:0:0:0:
329,192,51613,1,0,0:0:0:0:
256,192,51613,1,0,0:0:0:0:
182,192,51684,1,0,0:0:0:0:
475,192,51684,1,0,0:0:0:0:
402,192,51756,1,0,0:0:0:0:
109,192,51756,1,0,0:0:0:0:
36,192,51756,1,0,0:0:0:0:
256,192,51827,1,0,0:0:0:0:
329,192,51899,1,0,0:0:0:0:
475,192,51899,1,0,0:0:0:0:
36,192,51970,1,0,0:0:0:0:
182,192,51970,1,0,0:0:0:0:
475,192,52042,1,0,0:0:0:0:
256,192,52042,1,0,0:0:0:0:
402,192,52113,1,0,0:0:0:0:
182,192,52113,1,0,0:0:0:0:
109,192,52113,1,0,0:0:0:0:
36,192,52184,1,0,0:0:0:0:
329,192,52184,1,0,0:0:0:0:
329,192,52327,1,0,0:0:0:0:
36,192,52327,1,0,0:0:0:0:
402,192,52375,1,0,0:0:0:0:
109,192,52375,1,0,0:0:0:0:
475,192,52422,1,0,0:0:0:0:
182,192,52422,1,0,0:0:0:0:
256,192,52470,1,0,0:0:0:0:
329,192,52518,1,0,0:0:0:0:
36,192,52518,1,0,0:0:0:0:
402,192,52565,1,0,0:0:0:0:
109,192,52565,1,0,0:0:0:0:
475,192,52613,1,0,0:0:0:0:
182,192,52613,1,0,0:0:0:0:
256,192,52613,1,0,0:0:0:0:
329,192,52684,1,0,0:0:0:0:
402,192,52756,1,0,0:0:0:0:
36,192,52756,1,0,0:0:0:0:
109,192,52827,1,0,0:0:0:0:
329,192,52827,1,0,0:0:0:0:
182,192,52899,1,0,0:0:0:0:
475,192,52899,1,0,0:0:0:0:
402,192,52970,1,0,0:0:0:0:
329,192,53042,1,0,0:0:0:0:
256,192,53042,1,0,0:0:0:0:
36,192,53042,1,0,0:0:0:0:
109,192,53113,1,0,0:0:0:0:
182,192,53184,1,0,0:0:0:0:
475,192,53184,1,0,0:0:0:0:
402,192,53184,1,0,0:0:0:0:
256,192,53256,1,0,0:0:0:0:
402,192,53327,1,0,0:0:0:0:
109,192,53327,1,0,0:0:0:0:
329,192,53399,1,0,0:0:0:0:
182,192,53470,1,0,0:0:0:0:
36,192,53470,1,0,0:0:0:0:
109,192,53470,1,0,0:0:0:0:
329,192,53565,1,0,0:0:0:0:
475,192,53565,1,0,0:0:0:0:
402,192,53565,1,0,0:0:0:0:
182,192,53661,1,0,0:0:0:0:
109,192,53661,1,0,0:0:0:0:
36,192,53661,1,0,0:0:0:0:
256,192,53756,1,0,0:0:0:0:
475,192,53756,1,0,0:0:0:0:
402,192,53827,1,0,0:0:0:0:
109,192,53827,1,0,0:0:0:0:
182,192,53899,1,0,0:0:0:0:
475,192,53899,1,0,0:0:0:0:
36,192,53970,1,0,0:0:0:0:
329,192,53970,1,0,0:0:0:0:
402,192,54042,1,0,0:0:0:0:
109,192,54042,1,0,0:0:0:0:
475,192,54042,1,0,0:0:0:0:
329,192,54113,1,0,0:0:0:0:
256,192,54184,1,0,0:0:0:0:
36,192,54184,1,0,0:0:0:0:
109,192,54256,1,0,0:0:0:0:
475,192,54256,1,0,0:0:0:0:
402,192,54327,1,0,0:0:0:0:
182,192,54327,1,0,0:0:0:0:
256,192,54399,1,0,0:0:0:0:
329,192,54399,1,0,0:0:0:0:
109,192,54470,1,0,0:0:0:0:
36,192,54470,1,0,0:0:0:0:
182,192,54470,1,0,0:0:0:0:
475,192,54542,1,0,0:0:0:0:
402,192,54542,1,0,0:0:0:0:
329,192,54613,1,0,0:0:0:0:
256,192,54613,1,0,0:0:0:0:
182,192,54613,1,0,0:0:0:0:
109,192,54684,1,0,0:0:0:0:
36,192,54756,1,0,0:0:0:0:
402,192,54756,1,0,0:0:0:0:
475,192,54756,1,0,0:0:0:0:
329,192,54827,1,0,0:0:0:0:
109,192,54899,1,0,0:0:0:0:
182,192,54899,1,0,0:0:0:0:
36,192,54899,1,0,0:0:0:0:
402,192,54994,1,0,0:0:0:0:
475,192,54994,1,0,0:0:0:0:
256,192,54994,1,0,0:0:0:0:
182,192,55089,1,0,0:0:0:0:
109,192,55089,1,0,0:0:0:0:
36,192,55089,1,0,0:0:0:0:
402,192,55184,1,0,0:0:0:0:
475,192,55184,1,0,0:0:0:0:
329,192,55184,1,0,0:0:0:0:
256,192,55184,1,0,0:0:0:0:
182,192,55280,1,0,0:0:0:0:
109,192,55280,1,0,0:0:0:0:
36,192,55280,1,0,0:0:0:0:
329,192,55375,1,0,0:0:0:0:
402,192,55375,1,0,0:0:0:0:
475,192,55375,1,0,0:0:0:0:
256,192,55470,1,0,0:0:0:0:
182,192,55470,1,0,0:0:0:0:
109,192,55470,1,0,0:0:0:0:
36,192,55470,1,0,0:0:0:0:
329,192,55565,1,0,0:0:0:0:
402,192,55565,1,0,0:0:0:0:
475,192,55565,1,0,0:0:0:0:
182,192,55661,1,0,0:0:0:0:
109,192,55661,1,0,0:0:0:0:
36,192,55661,1,0,0:0:0:0:
329,192,55756,1,0,0:0:0:0:
402,192,55803,1,0,0:0:0:0:
36,192,55803,1,0,0:0:0:0:
475,192,55851,1,0,0:0:0:0:
109,192,55851,1,0,0:0:0:0:
182,192,55899,1,0,0:0:0:0:
256,192,55946,1,0,0:0:0:0:
329,192,55994,1,0,0:0:0:0:
36,192,55994,1,0,0:0:0:0:
402,192,56042,1,0,0:0:0:0:
109,192,56042,1,0,0:0:0:0:
329,192,56184,1,0,0:0:0:0:
256,192,56327,1,0,0:0:0:0:
182,192,56470,1,0,0:0:0:0:
475,192,56613,1,0,0:0:0:0:
329,192,56756,1,0,0:0:0:0:
182,192,56899,1,0,0:0:0:0:
36,192,57042,1,0,0:0:0:0:
109,192,57184,1,0,0:0:0:0:
256,192,57327,1,0,0:0:0:0:
402,192,57470,1,0,0:0:0:0:
475,192,57613,1,0,0:0:0:0:
256,192,57756,1,0,0:0:0:0:
402,192,57899,1,0,0:0:0:0:
109,192,58042,1,0,0:0:0:0:
256,192,58184,1,0,0:0:0:0:
36,192,58327,1,0,0:0:0:0:
329,192,58470,1,0,0:0:0:0:
182,192,58613,1,0,0:0:0:0:
402,192,58756,1,0,0:0:0:0:
256,192,58899,1,0,0:0:0:0:
402,192,59042,1,0,0:0:0:0:
475,192,59184,1,0,0:0:0:0:
36,192,59327,1,0,0:0:0:0:
182,192,59470,1,0,0:0:0:0:
402,192,59613,1,0,0:0:0:0:
256,192,59756,1,0,0:0:0:0:
109,192,59899,1,0,0:0:0:0:
475,192,60042,1,0,0:0:0:0:
329,192,60184,1,0,0:0:0:0:
182,192,60327,1,0,0:0:0:0:
36,192,60470,1,0,0:0:0:0:
109,192,60613,1,0,0:0:0:0:
329,192,60613,1,0,0:0:0:0:
182,192,60899,1,0,0:0:0:0:
256,192,61042,1,0,0:0:0:0:
475,192,61184,1,0,0:0:0:0:
402,192,61327,1,0,0:0:0:0:
329,192,61470,1,0,0:0:0:0:
182,192,61613,1,0,0:0:0:0:
36,192,61756,1,0,0:0:0:0:
402,192,61756,1,0,0:0:0:0:
182,192,61899,1,0,0:0:0:0:
329,192,62042,1,0,0:0:0:0:
182,192,62184,1,0,0:0:0:0:
256,192,62327,1,0,0:0:0:0:
475,192,62327,1,0,0:0:0:0:
402,192,62470,1,0,0:0:0:0:
182,192,62613,1,0,0:0:0:0:
109,192,62756,1,0,0:0:0:0:
36,192,62899,1,0,0:0:0:0:
402,192,62899,1,0,0:0:0:0:
182,192,63184,1,0,0:0:0:0:
329,192,63327,1,0,0:0:0:0:
256,192,63756,1,0,0:0:0:0:
109,192,63899,1,0,0:0:0:0:
475,192,64042,1,0,0:0:0:0:
402,192,64184,1,0,0:0:0:0:
182,192,64327,1,0,0:0:0:0:
402,192,64613,1,0,0:0:0:0:
36,192,64899,1,0,0:0:0:0:
109,192,65184,1,0,0:0:0:0:
329,192,65184,1,0,0:0:0:0:
402,192,65184,1,0,0:0:0:0:
182,192,65756,1,0,0:0:0:0:
329,192,65899,1,0,0:0:0:0:
475,192,66042,1,0,0:0:0:0:
256,192,66184,1,0,0:0:0:0:
182,192,66327,1,0,0:0:0:0:
402,192,66327,1,0,0:0:0:0:
36,192,66613,1,0,0:0:0:0:
475,192,66899,1,0,0:0:0:0:
329,192,67184,1,0,0:0:0:0:
36,192,67470,1,0,0:0:0:0:
256,192,67470,1,0,0:0:0:0:
402,192,67899,1,0,0:0:0:0:
256,192,68042,1,0,0:0:0:0:
109,192,68184,1,0,0:0:0:0:
475,192,68327,1,0,0:0:0:0:
329,192,68470,1,0,0:0:0:0:
182,192,68613,1,0,0:0:0:0:
36,192,68613,1,0,0:0:0:0:
329,192,68899,1,0,0:0:0:0:
182,192,69184,1,0,0:0:0:0:
329,192,69470,1,0,0:0:0:0:
402,192,69756,1,0,0:0:0:0:
256,192,69756,1,0,0:0:0:0:
182,192,70327,1,0,0:0:0:0:
475,192,70327,1,0,0:0:0:0:
36,192,70899,1,0,0:0:0:0:
256,192,70899,1,0,0:0:0:0:
109,192,71470,1,0,0:0:0:0:
329,192,71470,1,0,0:0:0:0:
256,192,72042,1,0,0:0:0:0:
475,192,72042,1,0,0:0:0:0:
475,192,72613,1,0,0:0:0:0:
182,192,72613,1,0,0:0:0:0:
256,192,72899,1,0,0:0:0:0:
402,192,72899,1,0,0:0:0:0:
109,192,73184,1,0,0:0:0:0:
329,192,73184,128,0,74327:0:0:0:0:
256,192,74327,1,0,0:0:0:0:
475,192,74327,1,0,0:0:0:0:
182,192,74399,1,0,0:0:0:0:
109,192,74470,1,0,0:0:0:0:
329,192,74470,1,0,0:0:0:0:
256,192,74542,1,0,0:0:0:0:
402,192,74613,1,0,0:0:0:0:
36,192,74613,1,0,0:0:0:0:
329,192,74684,1,0,0:0:0:0:
182,192,74684,1,0,0:0:0:0:
475,192,74756,1,0,0:0:0:0:
256,192,74827,1,0,0:0:0:0:
36,192,74827,1,0,0:0:0:0:
109,192,74899,1,0,0:0:0:0:
402,192,74899,1,0,0:0:0:0:
329,192,74970,1,0,0:0:0:0:
36,192,75042,1,0,0:0:0:0:
256,192,75042,1,0,0:0:0:0:
109,192,75113,1,0,0:0:0:0:
402,192,75184,1,0,0:0:0:0:
475,192,75184,1,0,0:0:0:0:
182,192,75256,1,0,0:0:0:0:
329,192,75256,1,0,0:0:0:0:
109,192,75327,1,0,0:0:0:0:
36,192,75399,1,0,0:0:0:0:
475,192,75470,1,0,0:0:0:0:
182,192,75470,1,0,0:0:0:0:
402,192,75542,1,0,0:0:0:0:
256,192,75542,1,0,0:0:0:0:
182,192,75613,1,0,0:0:0:0:
36,192,75684,1,0,0:0:0:0:
329,192,75684,1,0,0:0:0:0:
109,192,75756,1,0,0:0:0:0:
256,192,75756,1,0,0:0:0:0:
402,192,75827,1,0,0:0:0:0:
329,192,75899,1,0,0:0:0:0:
475,192,75899,1,0,0:0:0:0:
256,192,75970,1,0,0:0:0:0:
109,192,75970,1,0,0:0:0:0:
329,192,76042,1,0,0:0:0:0:
36,192,76042,1,0,0:0:0:0:
182,192,76113,1,0,0:0:0:0:
475,192,76184,1,0,0:0:0:0:
256,192,76184,1,0,0:0:0:0:
329,192,76256,1,0,0:0:0:0:
182,192,76327,1,0,0:0:0:0:
36,192,76327,1,0,0:0:0:0:
256,192,76399,1,0,0:0:0:0:
329,192,76470,1,0,0:0:0:0:
402,192,76542,1,0,0:0:0:0:
475,192,76613,1,0,0:0:0:0:
256,192,76613,1,0,0:0:0:0:
109,192,76684,1,0,0:0:0:0:
329,192,76684,1,0,0:0:0:0:
36,192,76756,1,0,0:0:0:0:
182,192,76827,1,0,0:0:0:0:
402,192,76827,1,0,0:0:0:0:
256,192,76899,1,0,0:0:0:0:
475,192,76899,1,0,0:0:0:0:
109,192,76970,1,0,0:0:0:0:
36,192,77042,1,0,0:0:0:0:
329,192,77042,1,0,0:0:0:0:
402,192,77113,1,0,0:0:0:0:
182,192,77113,1,0,0:0:0:0:
109,192,77184,1,0,0:0:0:0:
256,192,77256,1,0,0:0:0:0:
475,192,77256,1,0,0:0:0:0:
329,192,77327,1,0,0:0:0:0:
402,192,77327,1,0,0:0:0:0:
475,192,77399,1,0,0:0:0:0:
36,192,77470,1,0,0:0:0:0:
182,192,77470,1,0,0:0:0:0:
256,192,77542,1,0,0:0:0:0:
402,192,77542,1,0,0:0:0:0:
329,192,77613,1,0,0:0:0:0:
109,192,77613,1,0,0:0:0:0:
182,192,77684,1,0,0:0:0:0:
256,192,77756,1,0,0:0:0:0:
475,192,77756,1,0,0:0:0:0:
36,192,77827,1,0,0:0:0:0:
182,192,77827,1,0,0:0:0:0:
402,192,77899,1,0,0:0:0:0:
256,192,77970,1,0,0:0:0:0:
329,192,77970,1,0,0:0:0:0:
182,192,78042,1,0,0:0:0:0:
475,192,78042,1,0,0:0:0:0:
402,192,78113,1,0,0:0:0:0:
36,192,78184,1,0,0:0:0:0:
329,192,78184,1,0,0:0:0:0:
475,192,78256,1,0,0:0:0:0:
182,192,78256,1,0,0:0:0:0:
36,192,78327,1,0,0:0:0:0:
329,192,78399,1,0,0:0:0:0:
109,192,78399,1,0,0:0:0:0:
182,192,78470,1,0,0:0:0:0:
402,192,78470,1,0,0:0:0:0:
256,192,78542,1,0,0:0:0:0:
475,192,78613,1,0,0:0:0:0:
36,192,78613,1,0,0:0:0:0:
109,192,78684,1,0,0:0:0:0:
256,192,78684,1,0,0:0:0:0:
329,192,78756,1,0,0:0:0:0:
475,192,78827,1,0,0:0:0:0:
402,192,78899,1,0,0:0:0:0:
182,192,78899,1,0,0:0:0:0:
109,192,78970,1,0,0:0:0:0:
256,192,79042,1,0,0:0:0:0:
36,192,79042,1,0,0:0:0:0:
329,192,79113,1,0,0:0:0:0:
109,192,79113,1,0,0:0:0:0:
402,192,79184,1,0,0:0:0:0:
475,192,79256,1,0,0:0:0:0:
256,192,79256,1,0,0:0:0:0:
329,192,79327,1,0,0:0:0:0:
182,192,79399,1,0,0:0:0:0:
402,192,79399,1,0,0:0:0:0:
109,192,79470,1,0,0:0:0:0:
329,192,79470,1,0,0:0:0:0:
402,192,79542,1,0,0:0:0:0:
36,192,79542,1,0,0:0:0:0:
182,192,79613,1,0,0:0:0:0:
475,192,79613,1,0,0:0:0:0:
109,192,79684,1,0,0:0:0:0:
329,192,79756,1,0,0:0:0:0:
475,192,79756,1,0,0:0:0:0:
256,192,79827,1,0,0:0:0:0:
109,192,79899,1,0,0:0:0:0:
402,192,79899,1,0,0:0:0:0:
182,192,79970,1,0,0:0:0:0:
256,192,80042,1,0,0:0:0:0:
475,192,80042,1,0,0:0:0:0:
182,192,80113,1,0,0:0:0:0:
329,192,80113,1,0,0:0:0:0:
36,192,80184,1,0,0:0:0:0:
109,192,80256,1,0,0:0:0:0:
329,192,80256,1,0,0:0:0:0:
182,192,80327,1,0,0:0:0:0:
402,192,80327,1,0,0:0:0:0:
475,192,80399,1,0,0:0:0:0:
402,192,80470,1,0,0:0:0:0:
256,192,80470,1,0,0:0:0:0:
182,192,80542,1,0,0:0:0:0:
36,192,80613,1,0,0:0:0:0:
329,192,80613,1,0,0:0:0:0:
109,192,80684,1,0,0:0:0:0:
182,192,80756,1,0,0:0:0:0:
402,192,80756,1,0,0:0:0:0:
329,192,80827,1,0,0:0:0:0:
36,192,80899,1,0,0:0:0:0:
256,192,80899,1,0,0:0:0:0:
109,192,80970,1,0,0:0:0:0:
182,192,81042,1,0,0:0:0:0:
402,192,81042,1,0,0:0:0:0:
475,192,81113,1,0,0:0:0:0:
402,192,81184,1,0,0:0:0:0:
256,192,81184,1,0,0:0:0:0:
329,192,81256,1,0,0:0:0:0:
36,192,81327,1,0,0:0:0:0:
182,192,81327,1,0,0:0:0:0:
256,192,81399,1,0,0:0:0:0:
329,192,81470,1,0,0:0:0:0:
109,192,81470,1,0,0:0:0:0:
182,192,81542,1,0,0:0:0:0:
329,192,81613,1,0,0:0:0:0:
475,192,81613,1,0,0:0:0:0:
256,192,81684,1,0,0:0:0:0:
109,192,81756,1,0,0:0:0:0:
402,192,81756,1,0,0:0:0:0:
329,192,81827,1,0,0:0:0:0:
256,192,81899,1,0,0:0:0:0:
36,192,81899,1,0,0:0:0:0:
109,192,81970,1,0,0:0:0:0:
256,192,82042,1,0,0:0:0:0:
402,192,82042,1,0,0:0:0:0:
329,192,82113,1,0,0:0:0:0:
182,192,82184,1,0,0:0:0:0:
475,192,82184,1,0,0:0:0:0:
109,192,82256,1,0,0:0:0:0:
256,192,82327,1,0,0:0:0:0:
329,192,82399,1,0,0:0:0:0:
402,192,82470,1,0,0:0:0:0:
182,192,82470,1,0,0:0:0:0:
256,192,82542,1,0,0:0:0:0:
329,192,82613,1,0,0:0:0:0:
109,192,82684,1,0,0:0:0:0:
182,192,82756,1,0,0:0:0:0:
256,192,82827,1,0,0:0:0:0:
402,192,82899,1,0,0:0:0:0:
329,192,82970,1,0,0:0:0:0:
182,192,83042,1,0,0:0:0:0:
109,192,83113,1,0,0:0:0:0:
256,192,83184,1,0,0:0:0:0:
402,192,83256,1,0,0:0:0:0:
329,192,83327,1,0,0:0:0:0:
109,192,83327,1,0,0:0:0:0:
182,192,83399,1,0,0:0:0:0:
256,192,83470,1,0,0:0:0:0:
402,192,83470,1,0,0:0:0:0:
475,192,83470,1,0,0:0:0:0:
182,192,83542,1,0,0:0:0:0:
109,192,83613,1,0,0:0:0:0:
402,192,83613,1,0,0:0:0:0:
329,192,83684,1,0,0:0:0:0:
256,192,83756,1,0,0:0:0:0:
36,192,83756,1,0,0:0:0:0:
109,192,83756,1,0,0:0:0:0:
402,192,83827,1,0,0:0:0:0:
329,192,83899,1,0,0:0:0:0:
182,192,83899,1,0,0:0:0:0:
109,192,83970,1,0,0:0:0:0:
475,192,83970,1,0,0:0:0:0:
402,192,84042,1,0,0:0:0:0:
36,192,84042,1,0,0:0:0:0:
182,192,84113,1,0,0:0:0:0:
256,192,84184,1,0,0:0:0:0:
36,192,84184,1,0,0:0:0:0:
329,192,84256,1,0,0:0:0:0:
182,192,84256,1,0,0:0:0:0:
402,192,84327,1,0,0:0:0:0:
475,192,84327,1,0,0:0:0:0:
109,192,84327,1,0,0:0:0:0:
256,192,84399,1,0,0:0:0:0:
329,192,84470,1,0,0:0:0:0:
36,192,84470,1,0,0:0:0:0:
109,192,84542,1,0,0:0:0:0:
182,192,84613,1,0,0:0:0:0:
475,192,84613,1,0,0:0:0:0:
402,192,84684,1,0,0:0:0:0:
329,192,84684,1,0,0:0:0:0:
182,192,84756,1,0,0:0:0:0:
256,192,84827,1,0,0:0:0:0:
109,192,84827,1,0,0:0:0:0:
36,192,84899,1,0,0:0:0:0:
402,192,84899,1,0,0:0:0:0:
475,192,84899,1,0,0:0:0:0:
329,192,84970,1,0,0:0:0:0:
182,192,85042,1,0,0:0:0:0:
36,192,85042,1,0,0:0:0:0:
256,192,85113,1,0,0:0:0:0:
329,192,85113,1,0,0:0:0:0:
402,192,85184,1,0,0:0:0:0:
182,192,85184,1,0,0:0:0:0:
109,192,85256,1,0,0:0:0:0:
329,192,85256,1,0,0:0:0:0:
36,192,85327,1,0,0:0:0:0:
475,192,85327,1,0,0:0:0:0:
402,192,85399,1,0,0:0:0:0:
182,192,85470,1,0,0:0:0:0:
109,192,85470,1,0,0:0:0:0:
329,192,85470,1,0,0:0:0:0:
36,192,85542,1,0,0:0:0:0:
256,192,85542,1,0,0:0:0:0:
109,192,85613,1,0,0:0:0:0:
329,192,85613,1,0,0:0:0:0:
182,192,85684,1,0,0:0:0:0:
402,192,85684,1,0,0:0:0:0:
256,192,85756,1,0,0:0:0:0:
475,192,85756,1,0,0:0:0:0:
36,192,85756,1,0,0:0:0:0:
109,192,85827,1,0,0:0:0:0:
329,192,85827,1,0,0:0:0:0:
256,192,85899,1,0,0:0:0:0:
182,192,85970,1,0,0:0:0:0:
475,192,85970,1,0,0:0:0:0:
402,192,86042,1,0,0:0:0:0:
329,192,86042,1,0,0:0:0:0:
109,192,86042,1,0,0:0:0:0:
36,192,86113,1,0,0:0:0:0:
182,192,86184,1,0,0:0:0:0:
402,192,86184,1,0,0:0:0:0:
256,192,86256,1,0,0:0:0:0:
475,192,86256,1,0,0:0:0:0:
36,192,86327,1,0,0:0:0:0:
182,192,86327,1,0,0:0:0:0:
329,192,86399,1,0,0:0:0:0:
109,192,86470,1,0,0:0:0:0:
402,192,86470,1,0,0:0:0:0:
182,192,86542,1,0,0:0:0:0:
329,192,86542,1,0,0:0:0:0:
109,192,86613,1,0,0:0:0:0:
36,192,86613,1,0,0:0:0:0:
256,192,86613,1,0,0:0:0:0:
402,192,86684,1,0,0:0:0:0:
329,192,86756,1,0,0:0:0:0:
182,192,86756,1,0,0:0:0:0:
109,192,86827,1,0,0:0:0:0:
256,192,86827,1,0,0:0:0:0:
36,192,86899,1,0,0:0:0:0:
475,192,86899,1,0,0:0:0:0:
329,192,86970,1,0,0:0:0:0:
109,192,87042,1,0,0:0:0:0:
402,192,87042,1,0,0:0:0:0:
182,192,87113,1,0,0:0:0:0:
329,192,87113,1,0,0:0:0:0:
256,192,87184,1,0,0:0:0:0:
402,192,87184,1,0,0:0:0:0:
475,192,87184,1,0,0:0:0:0:
36,192,87256,1,0,0:0:0:0:
182,192,87256,1,0,0:0:0:0:
402,192,87327,1,0,0:0:0:0:
329,192,87399,1,0,0:0:0:0:
109,192,87399,1,0,0:0:0:0:
182,192,87399,1,0,0:0:0:0:
256,192,87470,1,0,0:0:0:0:
475,192,87542,1,0,0:0:0:0:
402,192,87542,1,0,0:0:0:0:
36,192,87542,1,0,0:0:0:0:
109,192,87613,1,0,0:0:0:0:
329,192,87613,1,0,0:0:0:0:
182,192,87684,1,0,0:0:0:0:
402,192,87684,1,0,0:0:0:0:
256,192,87756,1,0,0:0:0:0:
36,192,87756,1,0,0:0:0:0:
329,192,87756,1,0,0:0:0:0:
475,192,87827,1,0,0:0:0:0:
402,192,87899,1,0,0:0:0:0:
109,192,87899,1,0,0:0:0:0:
36,192,87970,1,0,0:0:0:0:
256,192,87970,1,0,0:0:0:0:
329,192,88042,1,0,0:0:0:0:
475,192,88042,1,0,0:0:0:0:
182,192,88113,1,0,0:0:0:0:
109,192,88184,1,0,0:0:0:0:
475,192,88184,1,0,0:0:0:0:
36,192,88256,1,0,0:0:0:0:
402,192,88256,1,0,0:0:0:0:
109,192,88327,1,0,0:0:0:0:
182,192,88327,1,0,0:0:0:0:
329,192,88327,1,0,0:0:0:0:
402,192,88399,1,0,0:0:0:0:
475,192,88470,1,0,0:0:0:0:
182,192,88470,1,0,0:0:0:0:
256,192,88542,1,0,0:0:0:0:
402,192,88542,1,0,0:0:0:0:
36,192,88613,1,0,0:0:0:0:
329,192,88613,1,0,0:0:0:0:
182,192,88684,1,0,0:0:0:0:
109,192,88756,1,0,0:0:0:0:
402,192,88756,1,0,0:0:0:0:
329,192,88827,1,0,0:0:0:0:
475,192,88899,1,0,0:0:0:0:
109,192,88899,1,0,0:0:0:0:
256,192,88899,1,0,0:0:0:0:
402,192,88970,1,0,0:0:0:0:
182,192,89042,1,0,0:0:0:0:
329,192,89042,1,0,0:0:0:0:
109,192,89113,1,0,0:0:0:0:
256,192,89113,1,0,0:0:0:0:
36,192,89184,1,0,0:0:0:0:
402,192,89184,1,0,0:0:0:0:
182,192,89256,1,0,0:0:0:0:
256,192,89327,1,0,0:0:0:0:
475,192,89327,1,0,0:0:0:0:
329,192,89399,1,0,0:0:0:0:
402,192,89399,1,0,0:0:0:0:
36,192,89470,1,0,0:0:0:0:
109,192,89470,1,0,0:0:0:0:
475,192,89470,1,0,0:0:0:0:
256,192,89542,1,0,0:0:0:0:
182,192,89613,1,0,0:0:0:0:
402,192,89613,1,0,0:0:0:0:
109,192,89684,1,0,0:0:0:0:
475,192,89684,1,0,0:0:0:0:
402,192,89756,1,0,0:0:0:0:
256,192,89756,1,0,0:0:0:0:
182,192,89827,1,0,0:0:0:0:
36,192,89899,1,0,0:0:0:0:
329,192,89899,1,0,0:0:0:0:
109,192,89970,1,0,0:0:0:0:
256,192,89970,1,0,0:0:0:0:
329,192,90042,1,0,0:0:0:0:
402,192,90042,1,0,0:0:0:0:
475,192,90042,1,0,0:0:0:0:
109,192,90113,1,0,0:0:0:0:
182,192,90184,1,0,0:0:0:0:
402,192,90184,1,0,0:0:0:0:
256,192,90256,1,0,0:0:0:0:
36,192,90256,1,0,0:0:0:0:
329,192,90327,1,0,0:0:0:0:
475,192,90327,1,0,0:0:0:0:
182,192,90327,1,0,0:0:0:0:
109,192,90399,1,0,0:0:0:0:
36,192,90470,1,0,0:0:0:0:
182,192,90470,1,0,0:0:0:0:
256,192,90470,1,0,0:0:0:0:
329,192,90542,1,0,0:0:0:0:
402,192,90613,1,0,0:0:0:0:
475,192,90613,1,0,0:0:0:0:
109,192,90613,1,0,0:0:0:0:
182,192,90613,1,0,0:0:0:0:
36,192,90684,1,0,0:0:0:0:
329,192,90684,1,0,0:0:0:0:
475,192,90756,1,0,0:0:0:0:
256,192,90756,1,0,0:0:0:0:
109,192,90756,1,0,0:0:0:0:
182,192,90827,1,0,0:0:0:0:
256,192,90899,1,0,0:0:0:0:
402,192,90899,1,0,0:0:0:0:
36,192,90899,1,0,0:0:0:0:
475,192,90970,1,0,0:0:0:0:
109,192,91042,1,0,0:0:0:0:
182,192,91042,1,0,0:0:0:0:
329,192,91042,1,0,0:0:0:0:
402,192,91113,1,0,0:0:0:0:
256,192,91184,1,0,0:0:0:0:
475,192,91184,1,0,0:0:0:0:
329,192,91184,1,0,0:0:0:0:
36,192,91184,1,0,0:0:0:0:
109,192,91256,1,0,0:0:0:0:
182,192,91327,1,0,0:0:0:0:
329,192,91327,1,0,0:0:0:0:
475,192,91327,1,0,0:0:0:0:
36,192,91399,1,0,0:0:0:0:
109,192,91470,1,0,0:0:0:0:
329,192,91470,1,0,0:0:0:0:
256,192,91542,1,0,0:0:0:0:
182,192,91613,1,0,0:0:0:0:
402,192,91613,1,0,0:0:0:0:
36,192,91684,1,0,0:0:0:0:
109,192,91756,1,0,0:0:0:0:
256,192,91756,1,0,0:0:0:0:
475,192,91756,1,0,0:0:0:0:
182,192,91827,1,0,0:0:0:0:
402,192,91827,1,0,0:0:0:0:
329,192,91899,1,0,0:0:0:0:
475,192,91899,1,0,0:0:0:0:
256,192,91970,1,0,0:0:0:0:
182,192,91970,1,0,0:0:0:0:
36,192,91970,1,0,0:0:0:0:
329,192,92042,1,0,0:0:0:0:
402,192,92042,1,0,0:0:0:0:
475,192,92042,1,0,0:0:0:0:
109,192,92113,1,0,0:0:0:0:
182,192,92184,1,0,0:0:0:0:
475,192,92184,1,0,0:0:0:0:
36,192,92256,1,0,0:0:0:0:
402,192,92256,1,0,0:0:0:0:
109,192,92327,1,0,0:0:0:0:
182,192,92327,1,0,0:0:0:0:
475,192,92327,1,0,0:0:0:0:
256,192,92399,1,0,0:0:0:0:
402,192,92470,1,0,0:0:0:0:
329,192,92542,1,0,0:0:0:0:
36,192,92613,1,0,0:0:0:0:
182,192,92613,1,0,0:0:0:0:
256,192,92613,1,0,0:0:0:0:
475,192,92613,1,0,0:0:0:0:
402,192,92684,1,0,0:0:0:0:
109,192,92684,1,0,0:0:0:0:
36,192,92756,1,0,0:0:0:0:
329,192,92756,1,0,0:0:0:0:
109,192,92827,1,0,0:0:0:0:
475,192,92827,1,0,0:0:0:0:
402,192,92899,1,0,0:0:0:0:
182,192,92899,1,0,0:0:0:0:
256,192,92899,1,0,0:0:0:0:
36,192,92970,1,0,0:0:0:0:
329,192,92970,1,0,0:0:0:0:
109,192,93042,1,0,0:0:0:0:
402,192,93042,1,0,0:0:0:0:
256,192,93113,1,0,0:0:0:0:
182,192,93184,1,0,0:0:0:0:
329,192,93184,1,0,0:0:0:0:
109,192,93256,1,0,0:0:0:0:
402,192,93256,1,0,0:0:0:0:
475,192,93327,1,0,0:0:0:0:
182,192,93327,1,0,0:0:0:0:
36,192,93399,1,0,0:0:0:0:
329,192,93399,1,0,0:0:0:0:
109,192,93470,1,0,0:0:0:0:
402,192,93470,1,0,0:0:0:0:
475,192,93470,1,0,0:0:0:0:
182,192,93542,1,0,0:0:0:0:
329,192,93542,1,0,0:0:0:0:
36,192,93613,1,0,0:0:0:0:
256,192,93613,1,0,0:0:0:0:
402,192,93684,1,0,0:0:0:0:
109,192,93684,1,0,0:0:0:0:
182,192,93756,1,0,0:0:0:0:
475,192,93756,1,0,0:0:0:0:
256,192,93827,1,0,0:0:0:0:
402,192,93827,1,0,0:0:0:0:
36,192,93899,1,0,0:0:0:0:
329,192,93899,1,0,0:0:0:0:
109,192,93970,1,0,0:0:0:0:
256,192,93970,1,0,0:0:0:0:
182,192,94042,1,0,0:0:0:0:
402,192,94042,1,0,0:0:0:0:
475,192,94042,1,0,0:0:0:0:
329,192,94113,1,0,0:0:0:0:
109,192,94113,1,0,0:0:0:0:
182,192,94184,1,0,0:0:0:0:
256,192,94184,1,0,0:0:0:0:
36,192,94256,1,0,0:0:0:0:
402,192,94256,1,0,0:0:0:0:
109,192,94327,1,0,0:0:0:0:
329,192,94327,1,0,0:0:0:0:
475,192,94399,1,0,0:0:0:0:
182,192,94399,1,0,0:0:0:0:
402,192,94470,1,0,0:0:0:0:
109,192,94470,1,0,0:0:0:0:
36,192,94542,1,0,0:0:0:0:
256,192,94542,1,0,0:0:0:0:
182,192,94613,1,0,0:0:0:0:
402,192,94613,1,0,0:0:0:0:
475,192,94613,1,0,0:0:0:0:
329,192,94684,1,0,0:0:0:0:
109,192,94684,1,0,0:0:0:0:
256,192,94756,1,0,0:0:0:0:
182,192,94756,1,0,0:0:0:0:
36,192,94827,1,0,0:0:0:0:
329,192,94827,1,0,0:0:0:0:
109,192,94899,1,0,0:0:0:0:
182,192,94899,1,0,0:0:0:0:
402,192,94899,1,0,0:0:0:0:
475,192,94899,1,0,0:0:0:0:
329,192,94970,1,0,0:0:0:0:
36,192,94970,1,0,0:0:0:0:
256,192,95042,1,0,0:0:0:0:
109,192,95042,1,0,0:0:0:0:
402,192,95113,1,0,0:0:0:0:
182,192,95113,1,0,0:0:0:0:
329,192,95184,1,0,0:0:0:0:
475,192,95184,1,0,0:0:0:0:
36,192,95184,1,0,0:0:0:0:
109,192,95256,1,0,0:0:0:0:
256,192,95256,1,0,0:0:0:0:
182,192,95327,1,0,0:0:0:0:
402,192,95327,1,0,0:0:0:0:
329,192,95399,1,0,0:0:0:0:
256,192,95399,1,0,0:0:0:0:
475,192,95470,1,0,0:0:0:0:
109,192,95470,1,0,0:0:0:0:
182,192,95542,1,0,0:0:0:0:
402,192,95542,1,0,0:0:0:0:
36,192,95613,1,0,0:0:0:0:
329,192,95613,1,0,0:0:0:0:
109,192,95684,1,0,0:0:0:0:
256,192,95684,1,0,0:0:0:0:
182,192,95756,1,0,0:0:0:0:
402,192,95756,1,0,0:0:0:0:
475,192,95756,1,0,0:0:0:0:
36,192,95827,1,0,0:0:0:0:
329,192,95827,1,0,0:0:0:0:
109,192,95899,1,0,0:0:0:0:
256,192,95899,1,0,0:0:0:0:
329,192,95970,1,0,0:0:0:0:
475,192,95970,1,0,0:0:0:0:
402,192,96042,1,0,0:0:0:0:
182,192,96042,1,0,0:0:0:0:
36,192,96042,1,0,0:0:0:0:
109,192,96113,1,0,0:0:0:0:
329,192,96113,1,0,0:0:0:0:
182,192,96184,1,0,0:0:0:0:
475,192,96184,1,0,0:0:0:0:
402,192,96256,1,0,0:0:0:0:
36,192,96256,1,0,0:0:0:0:
109,192,96327,1,0,0:0:0:0:
256,192,96327,1,0,0:0:0:0:
329,192,96327,1,0,0:0:0:0:
182,192,96399,1,0,0:0:0:0:
475,192,96399,1,0,0:0:0:0:
402,192,96470,1,0,0:0:0:0:
36,192,96470,1,0,0:0:0:0:
329,192,96542,1,0,0:0:0:0:
109,192,96542,1,0,0:0:0:0:
475,192,96542,1,0,0:0:0:0:
182,192,96613,1,0,0:0:0:0:
256,192,96613,1,0,0:0:0:0:
36,192,96684,1,0,0:0:0:0:
329,192,96684,1,0,0:0:0:0:
402,192,96684,1,0,0:0:0:0:
109,192,96756,1,0,0:0:0:0:
256,192,96756,1,0,0:0:0:0:
475,192,96827,1,0,0:0:0:0:
182,192,96827,1,0,0:0:0:0:
402,192,96899,1,0,0:0:0:0:
109,192,96899,1,0,0:0:0:0:
36,192,96899,1,0,0:0:0:0:
329,192,96970,1,0,0:0:0:0:
182,192,96970,1,0,0:0:0:0:
256,192,97042,1,0,0:0:0:0:
475,192,97042,1,0,0:0:0:0:
402,192,97113,1,0,0:0:0:0:
109,192,97113,1,0,0:0:0:0:
36,192,97184,1,0,0:0:0:0:
329,192,97184,1,0,0:0:0:0:
182,192,97184,1,0,0:0:0:0:
402,192,97256,1,0,0:0:0:0:
256,192,97256,1,0,0:0:0:0:
475,192,97327,1,0,0:0:0:0:
182,192,97327,1,0,0:0:0:0:
109,192,97399,1,0,0:0:0:0:
402,192,97399,1,0,0:0:0:0:
329,192,97470,1,0,0:0:0:0:
36,192,97470,1,0,0:0:0:0:
256,192,97470,1,0,0:0:0:0:
475,192,97542,1,0,0:0:0:0:
182,192,97542,1,0,0:0:0:0:
109,192,97613,1,0,0:0:0:0:
402,192,97613,1,0,0:0:0:0:
182,192,97684,1,0,0:0:0:0:
329,192,97684,1,0,0:0:0:0:
36,192,97756,1,0,0:0:0:0:
256,192,97756,1,0,0:0:0:0:
402,192,97827,1,0,0:0:0:0:
109,192,97827,1,0,0:0:0:0:
182,192,97899,1,0,0:0:0:0:
475,192,97899,1,0,0:0:0:0:
402,192,97970,1,0,0:0:0:0:
109,192,98042,1,0,0:0:0:0:
329,192,98042,1,0,0:0:0:0:
256,192,98042,1,0,0:0:0:0:
182,192,98113,1,0,0:0:0:0:
402,192,98113,1,0,0:0:0:0:
329,192,98184,1,0,0:0:0:0:
109,192,98184,1,0,0:0:0:0:
36,192,98256,1,0,0:0:0:0:
475,192,98256,1,0,0:0:0:0:
402,192,98327,1,0,0:0:0:0:
109,192,98327,1,0,0:0:0:0:
329,192,98327,1,0,0:0:0:0:
256,192,98399,1,0,0:0:0:0:
182,192,98399,1,0,0:0:0:0:
329,192,98470,1,0,0:0:0:0:
475,192,98470,1,0,0:0:0:0:
256,192,98542,1,0,0:0:0:0:
402,192,98542,1,0,0:0:0:0:
36,192,98613,1,0,0:0:0:0:
109,192,98613,1,0,0:0:0:0:
475,192,98613,1,0,0:0:0:0:
182,192,98684,1,0,0:0:0:0:
402,192,98684,1,0,0:0:0:0:
329,192,98756,1,0,0:0:0:0:
109,192,98756,1,0,0:0:0:0:
475,192,98827,1,0,0:0:0:0:
182,192,98827,1,0,0:0:0:0:
402,192,98899,1,0,0:0:0:0:
36,192,98899,1,0,0:0:0:0:
109,192,98970,1,0,0:0:0:0:
329,192,98970,1,0,0:0:0:0:
256,192,99042,1,0,0:0:0:0:
475,192,99042,1,0,0:0:0:0:
402,192,99113,1,0,0:0:0:0:
36,192,99113,1,0,0:0:0:0:
109,192,99184,1,0,0:0:0:0:
329,192,99184,1,0,0:0:0:0:
182,192,99184,1,0,0:0:0:0:
256,192,99256,1,0,0:0:0:0:
402,192,99256,1,0,0:0:0:0:
475,192,99327,1,0,0:0:0:0:
182,192,99327,1,0,0:0:0:0:
109,192,99399,1,0,0:0:0:0:
402,192,99399,1,0,0:0:0:0:
36,192,99470,1,0,0:0:0:0:
329,192,99470,1,0,0:0:0:0:
256,192,99470,1,0,0:0:0:0:
402,192,99542,1,0,0:0:0:0:
109,192,99542,1,0,0:0:0:0:
475,192,99613,1,0,0:0:0:0:
182,192,99613,1,0,0:0:0:0:
256,192,99684,1,0,0:0:0:0:
36,192,99684,1,0,0:0:0:0:
329,192,99756,1,0,0:0:0:0:
109,192,99756,1,0,0:0:0:0:
475,192,99756,1,0,0:0:0:0:
402,192,99827,1,0,0:0:0:0:
182,192,99827,1,0,0:0:0:0:
475,192,99899,1,0,0:0:0:0:
256,192,99899,1,0,0:0:0:0:
329,192,99970,1,0,0:0:0:0:
36,192,99970,1,0,0:0:0:0:
402,192,100042,1,0,0:0:0:0:
109,192,100042,1,0,0:0:0:0:
182,192,100113,1,0,0:0:0:0:
475,192,100113,1,0,0:0:0:0:
256,192,100184,1,0,0:0:0:0:
36,192,100184,1,0,0:0:0:0:
329,192,100256,1,0,0:0:0:0:
109,192,100256,1,0,0:0:0:0:
402,192,100327,1,0,0:0:0:0:
182,192,100327,1,0,0:0:0:0:
36,192,100327,1,0,0:0:0:0:
475,192,100399,1,0,0:0:0:0:
256,192,100399,1,0,0:0:0:0:
329,192,100470,1,0,0:0:0:0:
109,192,100470,1,0,0:0:0:0:
182,192,100542,1,0,0:0:0:0:
402,192,100542,1,0,0:0:0:0:
475,192,100613,1,0,0:0:0:0:
256,192,100613,1,0,0:0:0:0:
36,192,100613,1,0,0:0:0:0:
402,192,100684,1,0,0:0:0:0:
182,192,100684,1,0,0:0:0:0:
329,192,100756,1,0,0:0:0:0:
109,192,100756,1,0,0:0:0:0:
36,192,100827,1,0,0:0:0:0:
256,192,100827,1,0,0:0:0:0:
475,192,100899,1,0,0:0:0:0:
329,192,100899,1,0,0:0:0:0:
182,192,100899,1,0,0:0:0:0:
109,192,100970,1,0,0:0:0:0:
402,192,100970,1,0,0:0:0:0:
329,192,101042,1,0,0:0:0:0:
36,192,101042,1,0,0:0:0:0:
256,192,101113,1,0,0:0:0:0:
475,192,101113,1,0,0:0:0:0:
109,192,101113,1,0,0:0:0:0:
182,192,101184,1,0,0:0:0:0:
402,192,101184,1,0,0:0:0:0:
109,192,101256,1,0,0:0:0:0:
329,192,101256,1,0,0:0:0:0:
475,192,101256,1,0,0:0:0:0:
36,192,101327,1,0,0:0:0:0:
256,192,101327,1,0,0:0:0:0:
182,192,101399,1,0,0:0:0:0:
475,192,101399,1,0,0:0:0:0:
402,192,101470,1,0,0:0:0:0:
109,192,101470,1,0,0:0:0:0:
256,192,101470,1,0,0:0:0:0:
329,192,101542,1,0,0:0:0:0:
36,192,101542,1,0,0:0:0:0:
256,192,101613,1,0,0:0:0:0:
475,192,101613,1,0,0:0:0:0:
402,192,101684,1,0,0:0:0:0:
182,192,101684,1,0,0:0:0:0:
109,192,101756,1,0,0:0:0:0:
329,192,101756,1,0,0:0:0:0:
36,192,101756,1,0,0:0:0:0:
475,192,101756,1,0,0:0:0:0:
182,192,101827,1,0,0:0:0:0:
256,192,101899,1,0,0:0:0:0:
402,192,101899,1,0,0:0:0:0:
402,192,102042,1,0,0:0:0:0:
475,192,102042,1,0,0:0:0:0:
36,192,102042,1,0,0:0:0:0:
182,192,102042,1,0,0:0:0:0:
475,192,102184,1,0,0:0:0:0:
182,192,102184,1,0,0:0:0:0:
256,192,102256,1,0,0:0:0:0:
402,192,102256,1,0,0:0:0:0:
329,192,102327,1,0,0:0:0:0:
109,192,102327,1,0,0:0:0:0:
36,192,102327,1,0,0:0:0:0:
182,192,102470,1,0,0:0:0:0:
475,192,102470,1,0,0:0:0:0:
256,192,102470,1,0,0:0:0:0:
329,192,102542,1,0,0:0:0:0:
402,192,102613,1,0,0:0:0:0:
475,192,102613,1,0,0:0:0:0:
36,192,102613,1,0,0:0:0:0:
182,192,102613,1,0,0:0:0:0:
109,192,102756,1,0,0:0:0:0:
256,192,102756,1,0,0:0:0:0:
329,192,102756,1,0,0:0:0:0:
36,192,102899,1,0,0:0:0:0:
475,192,102899,1,0,0:0:0:0:
329,192,102899,1,0,0:0:0:0:
109,192,102970,1,0,0:0:0:0:
256,192,102970,1,0,0:0:0:0:
182,192,103042,1,0,0:0:0:0:
402,192,103042,1,0,0:0:0:0:
475,192,103113,1,0,0:0:0:0:
36,192,103113,1,0,0:0:0:0:
109,192,103184,1,0,0:0:0:0:
182,192,103184,1,0,0:0:0:0:
402,192,103184,1,0,0:0:0:0:
329,192,103256,1,0,0:0:0:0:
36,192,103256,1,0,0:0:0:0:
109,192,103327,1,0,0:0:0:0:
475,192,103327,1,0,0:0:0:0:
402,192,103399,1,0,0:0:0:0:
182,192,103399,1,0,0:0:0:0:
36,192,103399,1,0,0:0:0:0:
256,192,103470,1,0,0:0:0:0:
475,192,103470,1,0,0:0:0:0:
109,192,103542,1,0,0:0:0:0:
329,192,103542,1,0,0:0:0:0:
402,192,103542,1,0,0:0:0:0:
36,192,103613,1,0,0:0:0:0:
182,192,103613,1,0,0:0:0:0:
475,192,103684,1,0,0:0:0:0:
256,192,103684,1,0,0:0:0:0:
402,192,103756,1,0,0:0:0:0:
109,192,103756,1,0,0:0:0:0:
182,192,103756,1,0,0:0:0:0:
329,192,103827,1,0,0:0:0:0:
36,192,103827,1,0,0:0:0:0:
109,192,103899,1,0,0:0:0:0:
475,192,103899,1,0,0:0:0:0:
182,192,103970,1,0,0:0:0:0:
402,192,103970,1,0,0:0:0:0:
256,192,104042,1,0,0:0:0:0:
329,192,104042,1,0,0:0:0:0:
36,192,104042,1,0,0:0:0:0:
109,192,104184,1,0,0:0:0:0:
182,192,104184,1,0,0:0:0:0:
402,192,104184,1,0,0:0:0:0:
256,192,104256,1,0,0:0:0:0:
329,192,104327,1,0,0:0:0:0:
475,192,104327,1,0,0:0:0:0:
402,192,104327,1,0,0:0:0:0:
36,192,104327,1,0,0:0:0:0:
109,192,104470,1,0,0:0:0:0:
182,192,104470,1,0,0:0:0:0:
329,192,104470,1,0,0:0:0:0:
475,192,104542,1,0,0:0:0:0:
402,192,104613,1,0,0:0:0:0:
256,192,104613,1,0,0:0:0:0:
36,192,104613,1,0,0:0:0:0:
109,192,104756,1,0,0:0:0:0:
182,192,104756,1,0,0:0:0:0:
475,192,104756,1,0,0:0:0:0:
256,192,104827,1,0,0:0:0:0:
402,192,104899,1,0,0:0:0:0:
36,192,104899,1,0,0:0:0:0:
329,192,104899,1,0,0:0:0:0:
475,192,104899,1,0,0:0:0:0:
109,192,105042,1,0,0:0:0:0:
182,192,105042,1,0,0:0:0:0:
402,192,105042,1,0,0:0:0:0:
475,192,105184,1,0,0:0:0:0:
36,192,105184,1,0,0:0:0:0:
109,192,105184,1,0,0:0:0:0:
402,192,105256,1,0,0:0:0:0:
182,192,105256,1,0,0:0:0:0:
329,192,105327,1,0,0:0:0:0:
475,192,105327,1,0,0:0:0:0:
256,192,105399,1,0,0:0:0:0:
182,192,105399,1,0,0:0:0:0:
36,192,105470,1,0,0:0:0:0:
109,192,105470,1,0,0:0:0:0:
402,192,105470,1,0,0:0:0:0:
182,192,105542,1,0,0:0:0:0:
475,192,105542,1,0,0:0:0:0:
402,192,105613,1,0,0:0:0:0:
256,192,105613,1,0,0:0:0:0:
329,192,105684,1,0,0:0:0:0:
109,192,105684,1,0,0:0:0:0:
36,192,105684,1,0,0:0:0:0:
182,192,105756,1,0,0:0:0:0:
475,192,105756,1,0,0:0:0:0:
402,192,105827,1,0,0:0:0:0:
329,192,105827,1,0,0:0:0:0:
36,192,105827,1,0,0:0:0:0:
109,192,105899,1,0,0:0:0:0:
256,192,105899,1,0,0:0:0:0:
475,192,105970,1,0,0:0:0:0:
329,192,105970,1,0,0:0:0:0:
402,192,106042,1,0,0:0:0:0:
256,192,106042,1,0,0:0:0:0:
182,192,106042,1,0,0:0:0:0:
109,192,106113,1,0,0:0:0:0:
329,192,106113,1,0,0:0:0:0:
36,192,106184,1,0,0:0:0:0:
256,192,106184,1,0,0:0:0:0:
475,192,106256,1,0,0:0:0:0:
182,192,106256,1,0,0:0:0:0:
402,192,106327,1,0,0:0:0:0:
329,192,106327,1,0,0:0:0:0:
109,192,106327,1,0,0:0:0:0:
36,192,106327,1,0,0:0:0:0:
182,192,106470,1,0,0:0:0:0:
256,192,106470,1,0,0:0:0:0:
475,192,106470,1,0,0:0:0:0:
402,192,106542,1,0,0:0:0:0:
329,192,106613,1,0,0:0:0:0:
182,192,106613,1,0,0:0:0:0:
109,192,106613,1,0,0:0:0:0:
36,192,106613,1,0,0:0:0:0:
256,192,106756,1,0,0:0:0:0:
402,192,106756,1,0,0:0:0:0:
475,192,106756,1,0,0:0:0:0:
109,192,106899,1,0,0:0:0:0:
402,192,106899,1,0,0:0:0:0:
329,192,106899,1,0,0:0:0:0:
475,192,106899,1,0,0:0:0:0:
182,192,107042,1,0,0:0:0:0:
256,192,107042,1,0,0:0:0:0:
36,192,107042,1,0,0:0:0:0:
402,192,107113,1,0,0:0:0:0:
329,192,107184,1,0,0:0:0:0:
109,192,107184,1,0,0:0:0:0:
182,192,107184,1,0,0:0:0:0:
475,192,107184,1,0,0:0:0:0:
256,192,107327,1,0,0:0:0:0:
36,192,107327,1,0,0:0:0:0:
402,192,107327,1,0,0:0:0:0:
182,192,107470,1,0,0:0:0:0:
109,192,107470,1,0,0:0:0:0:
329,192,107470,1,0,0:0:0:0:
402,192,107542,1,0,0:0:0:0:
256,192,107542,1,0,0:0:0:0:
475,192,107613,1,0,0:0:0:0:
182,192,107613,1,0,0:0:0:0:
109,192,107684,1,0,0:0:0:0:
402,192,107684,1,0,0:0:0:0:
36,192,107756,1,0,0:0:0:0:
329,192,107756,1,0,0:0:0:0:
256,192,107756,1,0,0:0:0:0:
475,192,107827,1,0,0:0:0:0:
182,192,107827,1,0,0:0:0:0:
402,192,107899,1,0,0:0:0:0:
109,192,107899,1,0,0:0:0:0:
182,192,107970,1,0,0:0:0:0:
329,192,107970,1,0,0:0:0:0:
36,192,107970,1,0,0:0:0:0:
475,192,108042,1,0,0:0:0:0:
256,192,108042,1,0,0:0:0:0:
182,192,108113,1,0,0:0:0:0:
402,192,108113,1,0,0:0:0:0:
109,192,108113,1,0,0:0:0:0:
329,192,108184,1,0,0:0:0:0:
36,192,108184,1,0,0:0:0:0:
256,192,108256,1,0,0:0:0:0:
475,192,108256,1,0,0:0:0:0:
109,192,108327,1,0,0:0:0:0:
402,192,108327,1,0,0:0:0:0:
182,192,108327,1,0,0:0:0:0:
36,192,108399,1,0,0:0:0:0:
475,192,108399,1,0,0:0:0:0:
109,192,108470,1,0,0:0:0:0:
402,192,108470,1,0,0:0:0:0:
329,192,108542,1,0,0:0:0:0:
182,192,108542,1,0,0:0:0:0:
256,192,108613,1,0,0:0:0:0:
109,192,108613,1,0,0:0:0:0:
475,192,108613,1,0,0:0:0:0:
182,192,108756,1,0,0:0:0:0:
402,192,108756,1,0,0:0:0:0:
329,192,108756,1,0,0:0:0:0:
36,192,108827,1,0,0:0:0:0:
256,192,108899,1,0,0:0:0:0:
402,192,108899,1,0,0:0:0:0:
109,192,108899,1,0,0:0:0:0:
182,192,108899,1,0,0:0:0:0:
329,192,109042,1,0,0:0:0:0:
475,192,109042,1,0,0:0:0:0:
109,192,109042,1,0,0:0:0:0:
182,192,109113,1,0,0:0:0:0:
256,192,109184,1,0,0:0:0:0:
402,192,109184,1,0,0:0:0:0:
36,192,109327,1,0,0:0:0:0:
182,192,109327,1,0,0:0:0:0:
329,192,109327,1,0,0:0:0:0:
109,192,109399,1,0,0:0:0:0:
256,192,109470,1,0,0:0:0:0:
329,192,109470,1,0,0:0:0:0:
475,192,109470,1,0,0:0:0:0:
182,192,109470,1,0,0:0:0:0:
109,192,109613,1,0,0:0:0:0:
36,192,109613,1,0,0:0:0:0:
402,192,109613,1,0,0:0:0:0:
329,192,109756,1,0,0:0:0:0:
475,192,109756,1,0,0:0:0:0:
182,192,109756,1,0,0:0:0:0:
256,192,109756,1,0,0:0:0:0:
109,192,109827,1,0,0:0:0:0:
402,192,109827,1,0,0:0:0:0:
36,192,109899,1,0,0:0:0:0:
329,192,109899,1,0,0:0:0:0:
256,192,109970,1,0,0:0:0:0:
475,192,109970,1,0,0:0:0:0:
402,192,110042,1,0,0:0:0:0:
182,192,110042,1,0,0:0:0:0:
36,192,110042,1,0,0:0:0:0:
109,192,110113,1,0,0:0:0:0:
329,192,110113,1,0,0:0:0:0:
256,192,110184,1,0,0:0:0:0:
36,192,110184,1,0,0:0:0:0:
182,192,110256,1,0,0:0:0:0:
475,192,110256,1,0,0:0:0:0:
329,192,110256,1,0,0:0:0:0:
109,192,110327,1,0,0:0:0:0:
402,192,110327,1,0,0:0:0:0:
329,192,110399,1,0,0:0:0:0:
36,192,110399,1,0,0:0:0:0:
182,192,110399,1,0,0:0:0:0:
256,192,110470,1,0,0:0:0:0:
475,192,110470,1,0,0:0:0:0:
182,192,110542,1,0,0:0:0:0:
402,192,110542,1,0,0:0:0:0:
329,192,110613,1,0,0:0:0:0:
109,192,110613,1,0,0:0:0:0:
475,192,110613,1,0,0:0:0:0:
36,192,110684,1,0,0:0:0:0:
256,192,110684,1,0,0:0:0:0:
182,192,110756,1,0,0:0:0:0:
475,192,110756,1,0,0:0:0:0:
109,192,110827,1,0,0:0:0:0:
329,192,110899,1,0,0:0:0:0:
36,192,110899,1,0,0:0:0:0:
182,192,110899,1,0,0:0:0:0:
475,192,110899,1,0,0:0:0:0:
402,192,110970,1,0,0:0:0:0:
109,192,110970,1,0,0:0:0:0:
182,192,111042,1,0,0:0:0:0:
475,192,111042,1,0,0:0:0:0:
36,192,111113,1,0,0:0:0:0:
256,192,111113,1,0,0:0:0:0:
329,192,111184,1,0,0:0:0:0:
109,192,111184,1,0,0:0:0:0:
475,192,111184,1,0,0:0:0:0:
402,192,111256,1,0,0:0:0:0:
182,192,111256,1,0,0:0:0:0:
256,192,111327,1,0,0:0:0:0:
475,192,111327,1,0,0:0:0:0:
329,192,111399,1,0,0:0:0:0:
36,192,111399,1,0,0:0:0:0:
182,192,111399,1,0,0:0:0:0:
109,192,111470,1,0,0:0:0:0:
402,192,111470,1,0,0:0:0:0:
475,192,111542,1,0,0:0:0:0:
182,192,111542,1,0,0:0:0:0:
329,192,111542,1,0,0:0:0:0:
256,192,111613,1,0,0:0:0:0:
36,192,111613,1,0,0:0:0:0:
329,192,111684,1,0,0:0:0:0:
109,192,111684,1,0,0:0:0:0:
402,192,111756,1,0,0:0:0:0:
182,192,111756,1,0,0:0:0:0:
36,192,111756,1,0,0:0:0:0:
475,192,111827,1,0,0:0:0:0:
256,192,111827,1,0,0:0:0:0:
329,192,111899,1,0,0:0:0:0:
36,192,111899,1,0,0:0:0:0:
109,192,111970,1,0,0:0:0:0:
402,192,111970,1,0,0:0:0:0:
475,192,112042,1,0,0:0:0:0:
36,192,112042,1,0,0:0:0:0:
256,192,112042,1,0,0:0:0:0:
402,192,112113,1,0,0:0:0:0:
182,192,112113,1,0,0:0:0:0:
329,192,112184,1,0,0:0:0:0:
109,192,112184,1,0,0:0:0:0:
36,192,112256,1,0,0:0:0:0:
256,192,112256,1,0,0:0:0:0:
329,192,112327,1,0,0:0:0:0:
475,192,112327,1,0,0:0:0:0:
182,192,112327,1,0,0:0:0:0:
402,192,112399,1,0,0:0:0:0:
109,192,112399,1,0,0:0:0:0:
329,192,112470,1,0,0:0:0:0:
36,192,112470,1,0,0:0:0:0:
256,192,112542,1,0,0:0:0:0:
475,192,112542,1,0,0:0:0:0:
182,192,112613,1,0,0:0:0:0:
329,192,112613,1,0,0:0:0:0:
36,192,112613,1,0,0:0:0:0:
402,192,112613,1,0,0:0:0:0:
109,192,112684,1,0,0:0:0:0:
475,192,112684,1,0,0:0:0:0:
182,192,112756,1,0,0:0:0:0:
402,192,112756,1,0,0:0:0:0:
475,192,112827,1,0,0:0:0:0:
256,192,112827,1,0,0:0:0:0:
329,192,112899,1,0,0:0:0:0:
36,192,112899,1,0,0:0:0:0:
182,192,112899,1,0,0:0:0:0:
109,192,112970,1,0,0:0:0:0:
402,192,112970,1,0,0:0:0:0:
475,192,113042,1,0,0:0:0:0:
182,192,113042,1,0,0:0:0:0:
256,192,113113,1,0,0:0:0:0:
36,192,113113,1,0,0:0:0:0:
402,192,113113,1,0,0:0:0:0:
109,192,113184,1,0,0:0:0:0:
329,192,113184,1,0,0:0:0:0:
475,192,113184,1,0,0:0:0:0:
182,192,113184,1,0,0:0:0:0:
36,192,113256,1,0,0:0:0:0:
256,192,113256,1,0,0:0:0:0:
182,192,113327,1,0,0:0:0:0:
475,192,113327,1,0,0:0:0:0:
402,192,113399,1,0,0:0:0:0:
109,192,113399,1,0,0:0:0:0:
36,192,113470,1,0,0:0:0:0:
329,192,113470,1,0,0:0:0:0:
256,192,113470,1,0,0:0:0:0:
475,192,113470,1,0,0:0:0:0:
182,192,113542,1,0,0:0:0:0:
402,192,113542,1,0,0:0:0:0:
109,192,113613,1,0,0:0:0:0:
329,192,113613,1,0,0:0:0:0:
36,192,113684,1,0,0:0:0:0:
256,192,113684,1,0,0:0:0:0:
475,192,113756,1,0,0:0:0:0:
402,192,113756,1,0,0:0:0:0:
109,192,113756,1,0,0:0:0:0:
182,192,113756,1,0,0:0:0:0:
36,192,113827,1,0,0:0:0:0:
329,192,113827,1,0,0:0:0:0:
256,192,113827,1,0,0:0:0:0:
402,192,113899,1,0,0:0:0:0:
475,192,113899,1,0,0:0:0:0:
109,192,113899,1,0,0:0:0:0:
182,192,113899,1,0,0:0:0:0:
256,192,113970,1,0,0:0:0:0:
329,192,113970,1,0,0:0:0:0:
36,192,113970,1,0,0:0:0:0:
36,192,114327,1,0,0:0:0:0:
109,192,114327,1,0,0:0:0:0:
402,192,114327,1,0,0:0:0:0:
475,192,114399,1,0,0:0:0:0:
182,192,114399,1,0,0:0:0:0:
256,192,114470,1,0,0:0:0:0:
36,192,114470,1,0,0:0:0:0:
402,192,114542,1,0,0:0:0:0:
329,192,114613,1,0,0:0:0:0:
109,192,114613,1,0,0:0:0:0:
475,192,114613,1,0,0:0:0:0:
182,192,114684,1,0,0:0:0:0:
256,192,114756,1,0,0:0:0:0:
402,192,114756,1,0,0:0:0:0:
109,192,114827,1,0,0:0:0:0:
182,192,114899,1,0,0:0:0:0:
475,192,114899,1,0,0:0:0:0:
402,192,114970,1,0,0:0:0:0:
36,192,114970,1,0,0:0:0:0:
109,192,115042,1,0,0:0:0:0:
329,192,115042,1,0,0:0:0:0:
182,192,115113,1,0,0:0:0:0:
256,192,115184,1,0,0:0:0:0:
402,192,115184,1,0,0:0:0:0:
475,192,115184,1,0,0:0:0:0:
36,192,115256,1,0,0:0:0:0:
329,192,115256,1,0,0:0:0:0:
109,192,115327,1,0,0:0:0:0:
402,192,115327,1,0,0:0:0:0:
256,192,115399,1,0,0:0:0:0:
182,192,115470,1,0,0:0:0:0:
36,192,115470,1,0,0:0:0:0:
329,192,115470,1,0,0:0:0:0:
109,192,115542,1,0,0:0:0:0:
475,192,115542,1,0,0:0:0:0:
402,192,115613,1,0,0:0:0:0:
182,192,115613,1,0,0:0:0:0:
329,192,115684,1,0,0:0:0:0:
475,192,115684,1,0,0:0:0:0:
256,192,115756,1,0,0:0:0:0:
36,192,115756,1,0,0:0:0:0:
109,192,115756,1,0,0:0:0:0:
402,192,115827,1,0,0:0:0:0:
182,192,115827,1,0,0:0:0:0:
329,192,115899,1,0,0:0:0:0:
109,192,115899,1,0,0:0:0:0:
475,192,115970,1,0,0:0:0:0:
402,192,116042,1,0,0:0:0:0:
36,192,116042,1,0,0:0:0:0:
109,192,116042,1,0,0:0:0:0:
329,192,116113,1,0,0:0:0:0:
182,192,116113,1,0,0:0:0:0:
256,192,116184,1,0,0:0:0:0:
475,192,116184,1,0,0:0:0:0:
402,192,116256,1,0,0:0:0:0:
36,192,116256,1,0,0:0:0:0:
109,192,116327,1,0,0:0:0:0:
475,192,116327,1,0,0:0:0:0:
256,192,116327,1,0,0:0:0:0:
182,192,116399,1,0,0:0:0:0:
402,192,116399,1,0,0:0:0:0:
329,192,116470,1,0,0:0:0:0:
36,192,116470,1,0,0:0:0:0:
109,192,116542,1,0,0:0:0:0:
256,192,116542,1,0,0:0:0:0:
182,192,116613,1,0,0:0:0:0:
329,192,116613,1,0,0:0:0:0:
402,192,116613,1,0,0:0:0:0:
475,192,116613,1,0,0:0:0:0:
36,192,116684,1,0,0:0:0:0:
109,192,116756,1,0,0:0:0:0:
402,192,116756,1,0,0:0:0:0:
329,192,116827,1,0,0:0:0:0:
36,192,116899,1,0,0:0:0:0:
109,192,116899,1,0,0:0:0:0:
256,192,116899,1,0,0:0:0:0:
475,192,116899,1,0,0:0:0:0:
182,192,117042,1,0,0:0:0:0:
329,192,117042,1,0,0:0:0:0:
402,192,117042,1,0,0:0:0:0:
475,192,117113,1,0,0:0:0:0:
36,192,117184,1,0,0:0:0:0:
109,192,117184,1,0,0:0:0:0:
329,192,117184,1,0,0:0:0:0:
182,192,117256,1,0,0:0:0:0:
402,192,117256,1,0,0:0:0:0:
475,192,117327,1,0,0:0:0:0:
256,192,117327,1,0,0:0:0:0:
36,192,117399,1,0,0:0:0:0:
109,192,117470,1,0,0:0:0:0:
182,192,117470,1,0,0:0:0:0:
402,192,117470,1,0,0:0:0:0:
475,192,117470,1,0,0:0:0:0:
256,192,117542,1,0,0:0:0:0:
475,192,117613,1,0,0:0:0:0:
182,192,117613,1,0,0:0:0:0:
109,192,117684,1,0,0:0:0:0:
402,192,117684,1,0,0:0:0:0:
329,192,117756,1,0,0:0:0:0:
36,192,117756,1,0,0:0:0:0:
182,192,117756,1,0,0:0:0:0:
256,192,117756,1,0,0:0:0:0:
475,192,117827,1,0,0:0:0:0:
402,192,117899,1,0,0:0:0:0:
329,192,117970,1,0,0:0:0:0:
36,192,117970,1,0,0:0:0:0:
109,192,117970,1,0,0:0:0:0:
182,192,118042,1,0,0:0:0:0:
256,192,118042,1,0,0:0:0:0:
475,192,118042,1,0,0:0:0:0:
402,192,118113,1,0,0:0:0:0:
329,192,118184,1,0,0:0:0:0:
36,192,118184,1,0,0:0:0:0:
109,192,118184,1,0,0:0:0:0:
182,192,118256,1,0,0:0:0:0:
475,192,118256,1,0,0:0:0:0:
256,192,118256,1,0,0:0:0:0:
402,192,118327,1,0,0:0:0:0:
36,192,118327,1,0,0:0:0:0:
109,192,118399,1,0,0:0:0:0:
182,192,118399,1,0,0:0:0:0:
329,192,118399,1,0,0:0:0:0:
475,192,118470,1,0,0:0:0:0:
256,192,118470,1,0,0:0:0:0:
402,192,118542,1,0,0:0:0:0:
36,192,118613,1,0,0:0:0:0:
182,192,118613,1,0,0:0:0:0:
256,192,118613,1,0,0:0:0:0:
109,192,118684,1,0,0:0:0:0:
329,192,118684,1,0,0:0:0:0:
402,192,118756,1,0,0:0:0:0:
182,192,118756,1,0,0:0:0:0:
475,192,118827,1,0,0:0:0:0:
402,192,118899,1,0,0:0:0:0:
329,192,118899,1,0,0:0:0:0:
36,192,118899,1,0,0:0:0:0:
109,192,118970,1,0,0:0:0:0:
182,192,119042,1,0,0:0:0:0:
402,192,119042,1,0,0:0:0:0:
475,192,119042,1,0,0:0:0:0:
329,192,119113,1,0,0:0:0:0:
109,192,119113,1,0,0:0:0:0:
36,192,119184,1,0,0:0:0:0:
475,192,119184,1,0,0:0:0:0:
256,192,119184,1,0,0:0:0:0:
402,192,119256,1,0,0:0:0:0:
182,192,119256,1,0,0:0:0:0:
329,192,119327,1,0,0:0:0:0:
36,192,119327,1,0,0:0:0:0:
109,192,119399,1,0,0:0:0:0:
402,192,119399,1,0,0:0:0:0:
182,192,119470,1,0,0:0:0:0:
256,192,119470,1,0,0:0:0:0:
475,192,119470,1,0,0:0:0:0:
36,192,119542,1,0,0:0:0:0:
109,192,119613,1,0,0:0:0:0:
329,192,119613,1,0,0:0:0:0:
402,192,119613,1,0,0:0:0:0:
256,192,119684,1,0,0:0:0:0:
475,192,119684,1,0,0:0:0:0:
182,192,119756,1,0,0:0:0:0:
36,192,119756,1,0,0:0:0:0:
402,192,119756,1,0,0:0:0:0:
329,192,119827,1,0,0:0:0:0:
256,192,119899,1,0,0:0:0:0:
475,192,119899,1,0,0:0:0:0:
182,192,119899,1,0,0:0:0:0:
109,192,119970,1,0,0:0:0:0:
402,192,119970,1,0,0:0:0:0:
36,192,120042,1,0,0:0:0:0:
256,192,120042,1,0,0:0:0:0:
329,192,120042,1,0,0:0:0:0:
475,192,120042,1,0,0:0:0:0:
182,192,120113,1,0,0:0:0:0:
109,192,120184,1,0,0:0:0:0:
329,192,120184,1,0,0:0:0:0:
402,192,120256,1,0,0:0:0:0:
36,192,120256,1,0,0:0:0:0:
109,192,120327,1,0,0:0:0:0:
182,192,120327,1,0,0:0:0:0:
475,192,120327,1,0,0:0:0:0:
256,192,120399,1,0,0:0:0:0:
402,192,120470,1,0,0:0:0:0:
36,192,120470,1,0,0:0:0:0:
109,192,120542,1,0,0:0:0:0:
329,192,120542,1,0,0:0:0:0:
182,192,120613,1,0,0:0:0:0:
475,192,120613,1,0,0:0:0:0:
402,192,120613,1,0,0:0:0:0:
256,192,120684,1,0,0:0:0:0:
36,192,120756,1,0,0:0:0:0:
109,192,120756,1,0,0:0:0:0:
402,192,120756,1,0,0:0:0:0:
329,192,120827,1,0,0:0:0:0:
182,192,120899,1,0,0:0:0:0:
256,192,120899,1,0,0:0:0:0:
475,192,120899,1,0,0:0:0:0:
36,192,120970,1,0,0:0:0:0:
109,192,121042,1,0,0:0:0:0:
475,192,121042,1,0,0:0:0:0:
402,192,121042,1,0,0:0:0:0:
256,192,121113,1,0,0:0:0:0:
329,192,121184,1,0,0:0:0:0:
475,192,121184,1,0,0:0:0:0:
182,192,121184,1,0,0:0:0:0:
109,192,121184,1,0,0:0:0:0:
402,192,121256,1,0,0:0:0:0:
329,192,121327,1,0,0:0:0:0:
36,192,121327,1,0,0:0:0:0:
182,192,121327,1,0,0:0:0:0:
109,192,121399,1,0,0:0:0:0:
256,192,121470,1,0,0:0:0:0:
402,192,121470,1,0,0:0:0:0:
475,192,121470,1,0,0:0:0:0:
329,192,121470,1,0,0:0:0:0:
182,192,121542,1,0,0:0:0:0:
36,192,121613,1,0,0:0:0:0:
329,192,121613,1,0,0:0:0:0:
402,192,121613,1,0,0:0:0:0:
256,192,121684,1,0,0:0:0:0:
182,192,121756,1,0,0:0:0:0:
475,192,121756,1,0,0:0:0:0:
402,192,121756,1,0,0:0:0:0:
36,192,121827,1,0,0:0:0:0:
329,192,121827,1,0,0:0:0:0:
256,192,121899,1,0,0:0:0:0:
109,192,121899,1,0,0:0:0:0:
475,192,121899,1,0,0:0:0:0:
402,192,121970,1,0,0:0:0:0:
182,192,121970,1,0,0:0:0:0:
36,192,122042,1,0,0:0:0:0:
109,192,122042,1,0,0:0:0:0:
329,192,122042,1,0,0:0:0:0:
475,192,122042,1,0,0:0:0:0:
256,192,122113,1,0,0:0:0:0:
182,192,122184,1,0,0:0:0:0:
402,192,122184,1,0,0:0:0:0:
475,192,122184,1,0,0:0:0:0:
329,192,122256,1,0,0:0:0:0:
109,192,122256,1,0,0:0:0:0:
36,192,122327,1,0,0:0:0:0:
475,192,122327,1,0,0:0:0:0:
256,192,122327,1,0,0:0:0:0:
402,192,122399,1,0,0:0:0:0:
182,192,122399,1,0,0:0:0:0:
36,192,122470,1,0,0:0:0:0:
329,192,122470,1,0,0:0:0:0:
109,192,122542,1,0,0:0:0:0:
402,192,122542,1,0,0:0:0:0:
182,192,122613,1,0,0:0:0:0:
256,192,122613,1,0,0:0:0:0:
475,192,122613,1,0,0:0:0:0:
329,192,122684,1,0,0:0:0:0:
36,192,122756,1,0,0:0:0:0:
475,192,122756,1,0,0:0:0:0:
109,192,122827,1,0,0:0:0:0:
402,192,122827,1,0,0:0:0:0:
182,192,122827,1,0,0:0:0:0:
256,192,122899,1,0,0:0:0:0:
475,192,122899,1,0,0:0:0:0:
36,192,122970,1,0,0:0:0:0:
109,192,122970,1,0,0:0:0:0:
402,192,122970,1,0,0:0:0:0:
329,192,123042,1,0,0:0:0:0:
182,192,123042,1,0,0:0:0:0:
475,192,123113,1,0,0:0:0:0:
36,192,123113,1,0,0:0:0:0:
402,192,123184,1,0,0:0:0:0:
109,192,123184,1,0,0:0:0:0:
329,192,123256,1,0,0:0:0:0:
182,192,123327,1,0,0:0:0:0:
256,192,123399,1,0,0:0:0:0:
36,192,123470,1,0,0:0:0:0:
109,192,123470,1,0,0:0:0:0:
329,192,123470,1,0,0:0:0:0:
475,192,123470,1,0,0:0:0:0:
402,192,123542,1,0,0:0:0:0:
329,192,123613,1,0,0:0:0:0:
109,192,123613,1,0,0:0:0:0:
182,192,123684,1,0,0:0:0:0:
475,192,123684,1,0,0:0:0:0:
402,192,123756,1,0,0:0:0:0:
36,192,123756,1,0,0:0:0:0:
256,192,123756,1,0,0:0:0:0:
109,192,123827,1,0,0:0:0:0:
475,192,123827,1,0,0:0:0:0:
182,192,123899,1,0,0:0:0:0:
402,192,123899,1,0,0:0:0:0:
329,192,123970,1,0,0:0:0:0:
109,192,123970,1,0,0:0:0:0:
36,192,124042,1,0,0:0:0:0:
475,192,124042,1,0,0:0:0:0:
256,192,124113,1,0,0:0:0:0:
109,192,124184,1,0,0:0:0:0:
402,192,124184,1,0,0:0:0:0:
475,192,124256,1,0,0:0:0:0:
182,192,124256,1,0,0:0:0:0:
329,192,124327,1,0,0:0:0:0:
256,192,124327,1,0,0:0:0:0:
36,192,124327,1,0,0:0:0:0:
475,192,124399,1,0,0:0:0:0:
402,192,124470,1,0,0:0:0:0:
109,192,124470,1,0,0:0:0:0:
182,192,124542,1,0,0:0:0:0:
256,192,124613,1,0,0:0:0:0:
329,192,124613,1,0,0:0:0:0:
475,192,124613,1,0,0:0:0:0:
36,192,124613,1,0,0:0:0:0:
109,192,124684,1,0,0:0:0:0:
402,192,124684,1,0,0:0:0:0:
182,192,124756,1,0,0:0:0:0:
475,192,124756,1,0,0:0:0:0:
329,192,124827,1,0,0:0:0:0:
256,192,124899,1,0,0:0:0:0:
36,192,124899,1,0,0:0:0:0:
109,192,124899,1,0,0:0:0:0:
475,192,124970,1,0,0:0:0:0:
402,192,125042,1,0,0:0:0:0:
182,192,125042,1,0,0:0:0:0:
256,192,125042,1,0,0:0:0:0:
109,192,125113,1,0,0:0:0:0:
329,192,125113,1,0,0:0:0:0:
256,192,125184,1,0,0:0:0:0:
36,192,125184,1,0,0:0:0:0:
475,192,125184,1,0,0:0:0:0:
402,192,125256,1,0,0:0:0:0:
182,192,125256,1,0,0:0:0:0:
329,192,125327,1,0,0:0:0:0:
109,192,125327,1,0,0:0:0:0:
475,192,125399,1,0,0:0:0:0:
36,192,125399,1,0,0:0:0:0:
402,192,125470,1,0,0:0:0:0:
109,192,125470,1,0,0:0:0:0:
182,192,125470,1,0,0:0:0:0:
256,192,125542,1,0,0:0:0:0:
329,192,125613,1,0,0:0:0:0:
475,192,125613,1,0,0:0:0:0:
402,192,125684,1,0,0:0:0:0:
36,192,125684,1,0,0:0:0:0:
109,192,125756,1,0,0:0:0:0:
256,192,125756,1,0,0:0:0:0:
475,192,125756,1,0,0:0:0:0:
182,192,125756,1,0,0:0:0:0:
402,192,125827,1,0,0:0:0:0:
329,192,125899,1,0,0:0:0:0:
36,192,125899,1,0,0:0:0:0:
109,192,125970,1,0,0:0:0:0:
182,192,125970,1,0,0:0:0:0:
475,192,125970,1,0,0:0:0:0:
256,192,126042,1,0,0:0:0:0:
36,192,126042,1,0,0:0:0:0:
329,192,126042,1,0,0:0:0:0:
402,192,126042,1,0,0:0:0:0:
182,192,126113,1,0,0:0:0:0:
109,192,126184,1,0,0:0:0:0:
475,192,126184,1,0,0:0:0:0:
329,192,126184,1,0,0:0:0:0:
256,192,126256,1,0,0:0:0:0:
36,192,126256,1,0,0:0:0:0:
402,192,126327,1,0,0:0:0:0:
475,192,126327,1,0,0:0:0:0:
182,192,126327,1,0,0:0:0:0:
36,192,126399,1,0,0:0:0:0:
329,192,126399,1,0,0:0:0:0:
109,192,126470,1,0,0:0:0:0:
402,192,126470,1,0,0:0:0:0:
256,192,126542,1,0,0:0:0:0:
329,192,126613,1,0,0:0:0:0:
36,192,126613,1,0,0:0:0:0:
109,192,126613,1,0,0:0:0:0:
475,192,126613,1,0,0:0:0:0:
182,192,126684,1,0,0:0:0:0:
402,192,126684,1,0,0:0:0:0:
256,192,126756,1,0,0:0:0:0:
36,192,126756,1,0,0:0:0:0:
475,192,126756,1,0,0:0:0:0:
109,192,126827,1,0,0:0:0:0:
182,192,126899,1,0,0:0:0:0:
36,192,126899,1,0,0:0:0:0:
402,192,126899,1,0,0:0:0:0:
329,192,126899,1,0,0:0:0:0:
475,192,126970,1,0,0:0:0:0:
402,192,127042,1,0,0:0:0:0:
182,192,127042,1,0,0:0:0:0:
109,192,127113,1,0,0:0:0:0:
329,192,127113,1,0,0:0:0:0:
36,192,127184,1,0,0:0:0:0:
256,192,127184,1,0,0:0:0:0:
182,192,127184,1,0,0:0:0:0:
475,192,127256,1,0,0:0:0:0:
402,192,127327,1,0,0:0:0:0:
109,192,127327,1,0,0:0:0:0:
182,192,127399,1,0,0:0:0:0:
329,192,127399,1,0,0:0:0:0:
36,192,127399,1,0,0:0:0:0:
256,192,127470,1,0,0:0:0:0:
475,192,127470,1,0,0:0:0:0:
402,192,127542,1,0,0:0:0:0:
109,192,127542,1,0,0:0:0:0:
182,192,127542,1,0,0:0:0:0:
329,192,127613,1,0,0:0:0:0:
36,192,127613,1,0,0:0:0:0:
109,192,127684,1,0,0:0:0:0:
182,192,127756,1,0,0:0:0:0:
475,192,127756,1,0,0:0:0:0:
256,192,127756,1,0,0:0:0:0:
36,192,127827,1,0,0:0:0:0:
329,192,127827,1,0,0:0:0:0:
109,192,127899,1,0,0:0:0:0:
475,192,127899,1,0,0:0:0:0:
182,192,127970,1,0,0:0:0:0:
402,192,127970,1,0,0:0:0:0:
36,192,128042,1,0,0:0:0:0:
256,192,128042,1,0,0:0:0:0:
329,192,128042,1,0,0:0:0:0:
182,192,128113,1,0,0:0:0:0:
109,192,128184,1,0,0:0:0:0:
402,192,128184,1,0,0:0:0:0:
329,192,128256,1,0,0:0:0:0:
182,192,128256,1,0,0:0:0:0:
36,192,128327,1,0,0:0:0:0:
402,192,128327,1,0,0:0:0:0:
475,192,128327,1,0,0:0:0:0:
256,192,128399,1,0,0:0:0:0:
329,192,128470,1,0,0:0:0:0:
109,192,128470,1,0,0:0:0:0:
182,192,128542,1,0,0:0:0:0:
475,192,128542,1,0,0:0:0:0:
402,192,128613,1,0,0:0:0:0:
256,192,128613,1,0,0:0:0:0:
36,192,128613,1,0,0:0:0:0:
109,192,128684,1,0,0:0:0:0:
182,192,128756,1,0,0:0:0:0:
329,192,128756,1,0,0:0:0:0:
402,192,128756,1,0,0:0:0:0:
475,192,128827,1,0,0:0:0:0:
36,192,128827,1,0,0:0:0:0:
109,192,128899,1,0,0:0:0:0:
402,192,128899,1,0,0:0:0:0:
182,192,128899,1,0,0:0:0:0:
329,192,128970,1,0,0:0:0:0:
475,192,128970,1,0,0:0:0:0:
256,192,129042,1,0,0:0:0:0:
36,192,129042,1,0,0:0:0:0:
182,192,129113,1,0,0:0:0:0:
402,192,129113,1,0,0:0:0:0:
329,192,129184,1,0,0:0:0:0:
109,192,129184,1,0,0:0:0:0:
36,192,129184,1,0,0:0:0:0:
475,192,129256,1,0,0:0:0:0:
182,192,129256,1,0,0:0:0:0:
402,192,129327,1,0,0:0:0:0:
256,192,129327,1,0,0:0:0:0:
36,192,129399,1,0,0:0:0:0:
329,192,129399,1,0,0:0:0:0:
109,192,129470,1,0,0:0:0:0:
475,192,129470,1,0,0:0:0:0:
182,192,129470,1,0,0:0:0:0:
402,192,129542,1,0,0:0:0:0:
256,192,129542,1,0,0:0:0:0:
329,192,129613,1,0,0:0:0:0:
109,192,129613,1,0,0:0:0:0:
182,192,129684,1,0,0:0:0:0:
475,192,129684,1,0,0:0:0:0:
402,192,129756,1,0,0:0:0:0:
36,192,129756,1,0,0:0:0:0:
256,192,129756,1,0,0:0:0:0:
109,192,129827,1,0,0:0:0:0:
182,192,129899,1,0,0:0:0:0:
329,192,129899,1,0,0:0:0:0:
402,192,129899,1,0,0:0:0:0:
475,192,129970,1,0,0:0:0:0:
256,192,129970,1,0,0:0:0:0:
36,192,130042,1,0,0:0:0:0:
109,192,130042,1,0,0:0:0:0:
402,192,130042,1,0,0:0:0:0:
182,192,130113,1,0,0:0:0:0:
329,192,130113,1,0,0:0:0:0:
256,192,130184,1,0,0:0:0:0:
475,192,130184,1,0,0:0:0:0:
36,192,130184,1,0,0:0:0:0:
109,192,130256,1,0,0:0:0:0:
329,192,130256,1,0,0:0:0:0:
182,192,130327,1,0,0:0:0:0:
475,192,130327,1,0,0:0:0:0:
402,192,130327,1,0,0:0:0:0:
36,192,130327,1,0,0:0:0:0:
329,192,130399,1,0,0:0:0:0:
256,192,130470,1,0,0:0:0:0:
475,192,130470,1,0,0:0:0:0:
182,192,130470,1,0,0:0:0:0:
402,192,130542,1,0,0:0:0:0:
36,192,130542,1,0,0:0:0:0:
109,192,130613,1,0,0:0:0:0:
256,192,130613,1,0,0:0:0:0:
329,192,130613,1,0,0:0:0:0:
475,192,130613,1,0,0:0:0:0:
182,192,130684,1,0,0:0:0:0:
475,192,130756,1,0,0:0:0:0:
36,192,130756,1,0,0:0:0:0:
109,192,130756,1,0,0:0:0:0:
182,192,130827,1,0,0:0:0:0:
329,192,130827,1,0,0:0:0:0:
402,192,130899,1,0,0:0:0:0:
475,192,130899,1,0,0:0:0:0:
36,192,130899,1,0,0:0:0:0:
109,192,130970,1,0,0:0:0:0:
329,192,131042,1,0,0:0:0:0:
402,192,131042,1,0,0:0:0:0:
182,192,131042,1,0,0:0:0:0:
475,192,131113,1,0,0:0:0:0:
36,192,131113,1,0,0:0:0:0:
109,192,131184,1,0,0:0:0:0:
182,192,131184,1,0,0:0:0:0:
256,192,131184,1,0,0:0:0:0:
402,192,131184,1,0,0:0:0:0:
329,192,131256,1,0,0:0:0:0:
36,192,131256,1,0,0:0:0:0:
475,192,131327,1,0,0:0:0:0:
109,192,131327,1,0,0:0:0:0:
402,192,131327,1,0,0:0:0:0:
182,192,131399,1,0,0:0:0:0:
329,192,131399,1,0,0:0:0:0:
256,192,131470,1,0,0:0:0:0:
36,192,131470,1,0,0:0:0:0:
109,192,131470,1,0,0:0:0:0:
475,192,131470,1,0,0:0:0:0:
402,192,131542,1,0,0:0:0:0:
329,192,131613,1,0,0:0:0:0:
109,192,131613,1,0,0:0:0:0:
182,192,131684,1,0,0:0:0:0:
256,192,131756,1,0,0:0:0:0:
402,192,131756,1,0,0:0:0:0:
475,192,131756,1,0,0:0:0:0:
36,192,131827,1,0,0:0:0:0:
256,192,131899,1,0,0:0:0:0:
475,192,131899,1,0,0:0:0:0:
182,192,131970,1,0,0:0:0:0:
402,192,131970,1,0,0:0:0:0:
109,192,131970,1,0,0:0:0:0:
329,192,132042,1,0,0:0:0:0:
36,192,132113,1,0,0:0:0:0:
109,192,132113,1,0,0:0:0:0:
475,192,132113,1,0,0:0:0:0:
402,192,132184,1,0,0:0:0:0:
182,192,132184,1,0,0:0:0:0:
256,192,132184,1,0,0:0:0:0:
109,192,132327,1,0,0:0:0:0:
36,192,132327,1,0,0:0:0:0:
329,192,132327,1,0,0:0:0:0:
402,192,132399,1,0,0:0:0:0:
475,192,132470,1,0,0:0:0:0:
182,192,132470,1,0,0:0:0:0:
256,192,132542,1,0,0:0:0:0:
402,192,132613,1,0,0:0:0:0:
329,192,132613,1,0,0:0:0:0:
36,192,132613,1,0,0:0:0:0:
109,192,132613,1,0,0:0:0:0:
475,192,134327,128,0,134613:0:0:0:0:
36,192,134899,1,0,0:0:0:0:
109,192,134899,1,0,0:0:0:0:
402,192,134970,1,0,0:0:0:0:
329,192,134970,1,0,0:0:0:0:
109,192,135042,1,0,0:0:0:0:
182,192,135042,1,0,0:0:0:0:
256,192,135042,1,0,0:0:0:0:
475,192,135113,1,0,0:0:0:0:
402,192,135113,1,0,0:0:0:0:
36,192,135184,1,0,0:0:0:0:
109,192,135184,1,0,0:0:0:0:
182,192,135256,1,0,0:0:0:0:
256,192,135256,1,0,0:0:0:0:
329,192,135256,1,0,0:0:0:0:
402,192,135327,1,0,0:0:0:0:
475,192,135327,1,0,0:0:0:0:
36,192,135399,1,0,0:0:0:0:
109,192,135399,1,0,0:0:0:0:
182,192,135470,1,0,0:0:0:0:
329,192,135470,1,0,0:0:0:0:
256,192,135470,1,0,0:0:0:0:
402,192,135542,1,0,0:0:0:0:
475,192,135542,1,0,0:0:0:0:
36,192,135613,1,0,0:0:0:0:
109,192,135613,1,0,0:0:0:0:
182,192,135684,1,0,0:0:0:0:
256,192,135684,1,0,0:0:0:0:
329,192,135684,1,0,0:0:0:0:
402,192,135756,1,0,0:0:0:0:
475,192,135756,1,0,0:0:0:0:
36,192,135827,1,0,0:0:0:0:
109,192,135827,1,0,0:0:0:0:
182,192,135899,1,0,0:0:0:0:
256,192,135899,1,0,0:0:0:0:
329,192,135899,1,0,0:0:0:0:
402,192,135970,1,0,0:0:0:0:
475,192,135970,1,0,0:0:0:0:
36,192,136042,1,0,0:0:0:0:
109,192,136042,1,0,0:0:0:0:
182,192,136042,1,0,0:0:0:0:
256,192,136113,1,0,0:0:0:0:
329,192,136113,1,0,0:0:0:0:
402,192,136184,1,0,0:0:0:0:
475,192,136184,1,0,0:0:0:0:
36,192,136256,1,0,0:0:0:0:
109,192,136256,1,0,0:0:0:0:
182,192,136256,1,0,0:0:0:0:
256,192,136327,1,0,0:0:0:0:
329,192,136327,1,0,0:0:0:0:
475,192,136399,1,0,0:0:0:0:
402,192,136399,1,0,0:0:0:0:
36,192,136470,1,0,0:0:0:0:
109,192,136470,1,0,0:0:0:0:
182,192,136470,1,0,0:0:0:0:
256,192,136542,1,0,0:0:0:0:
329,192,136542,1,0,0:0:0:0:
402,192,136613,1,0,0:0:0:0:
475,192,136613,1,0,0:0:0:0:
36,192,136684,1,0,0:0:0:0:
109,192,136684,1,0,0:0:0:0:
182,192,136756,1,0,0:0:0:0:
329,192,136756,1,0,0:0:0:0:
256,192,136756,1,0,0:0:0:0:
402,192,136827,1,0,0:0:0:0:
475,192,136827,1,0,0:0:0:0:
36,192,136899,1,0,0:0:0:0:
109,192,136899,1,0,0:0:0:0:
182,192,136899,1,0,0:0:0:0:
402,192,136970,1,0,0:0:0:0:
475,192,136970,1,0,0:0:0:0:
329,192,137042,1,0,0:0:0:0:
256,192,137042,1,0,0:0:0:0:
182,192,137042,1,0,0:0:0:0:
109,192,137113,1,0,0:0:0:0:
36,192,137113,1,0,0:0:0:0:
475,192,137184,1,0,0:0:0:0:
402,192,137184,1,0,0:0:0:0:
329,192,137256,1,0,0:0:0:0:
256,192,137256,1,0,0:0:0:0:
182,192,137327,1,0,0:0:0:0:
109,192,137327,1,0,0:0:0:0:
36,192,137327,1,0,0:0:0:0:
475,192,137399,1,0,0:0:0:0:
402,192,137399,1,0,0:0:0:0:
329,192,137470,1,0,0:0:0:0:
256,192,137470,1,0,0:0:0:0:
182,192,137542,1,0,0:0:0:0:
109,192,137542,1,0,0:0:0:0:
36,192,137542,1,0,0:0:0:0:
475,192,137613,1,0,0:0:0:0:
402,192,137613,1,0,0:0:0:0:
329,192,137684,1,0,0:0:0:0:
256,192,137684,1,0,0:0:0:0:
182,192,137756,1,0,0:0:0:0:
109,192,137756,1,0,0:0:0:0:
36,192,137756,1,0,0:0:0:0:
475,192,137827,1,0,0:0:0:0:
402,192,137827,1,0,0:0:0:0:
329,192,137899,1,0,0:0:0:0:
256,192,137899,1,0,0:0:0:0:
182,192,137970,1,0,0:0:0:0:
109,192,137970,1,0,0:0:0:0:
36,192,137970,1,0,0:0:0:0:
475,192,138042,1,0,0:0:0:0:
402,192,138042,1,0,0:0:0:0:
329,192,138113,1,0,0:0:0:0:
256,192,138113,1,0,0:0:0:0:
182,192,138184,1,0,0:0:0:0:
109,192,138184,1,0,0:0:0:0:
36,192,138184,1,0,0:0:0:0:
475,192,138256,1,0,0:0:0:0:
402,192,138256,1,0,0:0:0:0:
329,192,138327,1,0,0:0:0:0:
256,192,138327,1,0,0:0:0:0:
182,192,138327,1,0,0:0:0:0:
109,192,138399,1,0,0:0:0:0:
36,192,138399,1,0,0:0:0:0:
402,192,138470,1,0,0:0:0:0:
475,192,138470,1,0,0:0:0:0:
329,192,138542,1,0,0:0:0:0:
256,192,138542,1,0,0:0:0:0:
182,192,138542,1,0,0:0:0:0:
109,192,138613,1,0,0:0:0:0:
36,192,138613,1,0,0:0:0:0:
475,192,138684,1,0,0:0:0:0:
402,192,138684,1,0,0:0:0:0:
329,192,138756,1,0,0:0:0:0:
256,192,138756,1,0,0:0:0:0:
182,192,138756,1,0,0:0:0:0:
109,192,138827,1,0,0:0:0:0:
36,192,138827,1,0,0:0:0:0:
475,192,138899,1,0,0:0:0:0:
402,192,138899,1,0,0:0:0:0:
329,192,138899,1,0,0:0:0:0:
256,192,138899,1,0,0:0:0:0:
182,192,138899,1,0,0:0:0:0:
