osu file format v14

[General]
AudioFilename: Ran.mp3
AudioLeadIn: 0
PreviewTime: 174199
Countdown: 0
SampleSet: Soft
StackLeniency: 0.7
Mode: 3
LetterboxInBreaks: 0
SpecialStyle: 0
WidescreenStoryboard: 1

[Editor]
DistanceSpacing: 0.73
BeatDivisor: 4
GridSize: 4
TimelineZoom: 2.4

[Metadata]
Title:7K
TitleUnicode:7K
Artist:Various Artists
ArtistUnicode:Various Artists
Creator:ELPIS
Version:Feryquitous - Ran
Source:
Tags:
BeatmapID:1421245
BeatmapSetID:664143

[Difficulty]
HPDrainRate:8
CircleSize:7
OverallDifficulty:8
ApproachRate:5
SliderMultiplier:1.4
SliderTickRate:1

[Events]
//Background and Video events
0,0,"Ran.jpg",0,0
//Break Periods
2,66732,75443
2,76899,86110
//Storyboard Layer 0 (Background)
//Storyboard Layer 1 (Fail)
//Storyboard Layer 2 (Pass)
//Storyboard Layer 3 (Foreground)
//Storyboard Sound Samples

[TimingPoints]
866,333.333333333333,4,2,0,5,1,0

[HitObjects]
329,192,23532,5,0,0:0:0:0:
36,192,23532,1,0,0:0:0:0:
109,192,23532,1,0,0:0:0:0:
182,192,23532,128,0,23588:0:0:0:0:
256,192,23699,1,0,0:0:0:0:
329,192,23865,1,0,0:0:0:0:
182,192,24032,1,0,0:0:0:0:
402,192,24032,128,0,24088:0:0:0:0:
256,192,24365,1,0,0:0:0:0:
402,192,24365,1,0,0:0:0:0:
475,192,24532,1,0,0:0:0:0:
329,192,24532,128,0,24588:0:0:0:0:
402,192,24699,1,0,0:0:0:0:
256,192,25032,128,0,25088:0:0:0:0:
182,192,25199,1,0,0:0:0:0:
402,192,25365,1,0,0:0:0:0:
36,192,25532,1,0,0:0:0:0:
182,192,25532,128,0,25588:0:0:0:0:
109,192,25699,1,0,0:0:0:0:
182,192,25865,1,0,0:0:0:0:
475,192,25865,128,0,25921:0:0:0:0:
402,192,26199,1,0,0:0:0:0:
256,192,26199,128,0,26254:0:0:0:0:
329,192,26365,1,0,0:0:0:0:
402,192,26532,1,0,0:0:0:0:
182,192,26699,1,0,0:0:0:0:
475,192,26699,128,0,26754:0:0:0:0:
329,192,27032,1,0,0:0:0:0:
36,192,27032,128,0,27088:0:0:0:0:
475,192,27199,1,0,0:0:0:0:
109,192,27199,128,0,27254:0:0:0:0:
36,192,27365,1,0,0:0:0:0:
329,192,27699,1,0,0:0:0:0:
402,192,27699,128,0,27754:0:0:0:0:
402,192,28032,1,0,0:0:0:0:
475,192,28032,128,0,28088:0:0:0:0:
329,192,28199,1,0,0:0:0:0:
182,192,28365,1,0,0:0:0:0:
475,192,28365,128,0,28421:0:0:0:0:
109,192,28532,1,0,0:0:0:0:
402,192,28532,128,0,28588:0:0:0:0:
36,192,28699,1,0,0:0:0:0:
256,192,28699,1,0,0:0:0:0:
475,192,28865,1,0,0:0:0:0:
329,192,28865,1,0,0:0:0:0:
36,192,28865,128,0,28921:0:0:0:0:
109,192,29032,1,0,0:0:0:0:
36,192,29199,1,0,0:0:0:0:
329,192,29365,1,0,0:0:0:0:
182,192,29365,128,0,29421:0:0:0:0:
109,192,29532,1,0,0:0:0:0:
329,192,29699,1,0,0:0:0:0:
182,192,29699,128,0,29754:0:0:0:0:
256,192,29865,1,0,0:0:0:0:
182,192,30032,1,0,0:0:0:0:
36,192,30032,128,0,30088:0:0:0:0:
109,192,30365,1,0,0:0:0:0:
329,192,30365,128,0,30421:0:0:0:0:
36,192,30532,1,0,0:0:0:0:
182,192,30699,1,0,0:0:0:0:
402,192,30699,128,0,30754:0:0:0:0:
329,192,31032,1,0,0:0:0:0:
109,192,31032,128,0,31088:0:0:0:0:
182,192,31199,1,0,0:0:0:0:
256,192,31365,1,0,0:0:0:0:
36,192,31365,128,0,31421:0:0:0:0:
109,192,31532,1,0,0:0:0:0:
329,192,31532,128,0,31588:0:0:0:0:
182,192,31699,1,0,0:0:0:0:
109,192,31865,1,0,0:0:0:0:
182,192,32032,1,0,0:0:0:0:
402,192,32032,128,0,32088:0:0:0:0:
109,192,32365,1,0,0:0:0:0:
329,192,32365,1,0,0:0:0:0:
182,192,32532,1,0,0:0:0:0:
256,192,32699,1,0,0:0:0:0:
402,192,32699,128,0,32754:0:0:0:0:
182,192,33032,1,0,0:0:0:0:
109,192,33199,1,0,0:0:0:0:
36,192,33365,1,0,0:0:0:0:
109,192,33532,1,0,0:0:0:0:
329,192,33532,128,0,33588:0:0:0:0:
182,192,33699,1,0,0:0:0:0:
402,192,33699,1,0,0:0:0:0:
256,192,33865,128,0,33921:0:0:0:0:
109,192,34199,1,0,0:0:0:0:
402,192,34199,128,0,34254:0:0:0:0:
475,192,34310,1,0,0:0:0:0:
329,192,34365,1,0,0:0:0:0:
36,192,34532,1,0,0:0:0:0:
256,192,34532,1,0,0:0:0:0:
182,192,34532,1,0,0:0:0:0:
109,192,34699,1,0,0:0:0:0:
475,192,34699,128,0,34754:0:0:0:0:
402,192,34782,1,0,0:0:0:0:
329,192,34865,1,0,0:0:0:0:
256,192,34865,1,0,0:0:0:0:
182,192,35032,1,0,0:0:0:0:
109,192,35199,1,0,0:0:0:0:
475,192,35199,128,0,35254:0:0:0:0:
182,192,35365,1,0,0:0:0:0:
256,192,35365,1,0,0:0:0:0:
36,192,35365,1,0,0:0:0:0:
109,192,35699,1,0,0:0:0:0:
402,192,35699,128,0,35754:0:0:0:0:
36,192,35865,1,0,0:0:0:0:
182,192,35865,1,0,0:0:0:0:
256,192,35865,1,0,0:0:0:0:
109,192,36032,1,0,0:0:0:0:
475,192,36199,128,0,36254:0:0:0:0:
329,192,36365,1,0,0:0:0:0:
256,192,36365,1,0,0:0:0:0:
256,192,36532,1,0,0:0:0:0:
36,192,36532,1,0,0:0:0:0:
182,192,36532,1,0,0:0:0:0:
402,192,36865,1,0,0:0:0:0:
36,192,36865,128,0,36921:0:0:0:0:
109,192,37032,1,0,0:0:0:0:
182,192,37199,1,0,0:0:0:0:
256,192,37199,1,0,0:0:0:0:
36,192,37199,1,0,0:0:0:0:
109,192,37365,1,0,0:0:0:0:
475,192,37365,128,0,37421:0:0:0:0:
182,192,37449,1,0,0:0:0:0:
256,192,37532,1,0,0:0:0:0:
329,192,37532,1,0,0:0:0:0:
182,192,37699,1,0,0:0:0:0:
109,192,37865,1,0,0:0:0:0:
475,192,37865,128,0,37921:0:0:0:0:
182,192,38032,1,0,0:0:0:0:
256,192,38032,1,0,0:0:0:0:
36,192,38032,1,0,0:0:0:0:
109,192,38365,1,0,0:0:0:0:
402,192,38365,128,0,38421:0:0:0:0:
109,192,38699,1,0,0:0:0:0:
475,192,38699,128,0,38754:0:0:0:0:
36,192,38865,1,0,0:0:0:0:
182,192,39032,1,0,0:0:0:0:
402,192,39032,128,0,39088:0:0:0:0:
36,192,39199,1,0,0:0:0:0:
182,192,39199,1,0,0:0:0:0:
256,192,39199,1,0,0:0:0:0:
329,192,39365,128,0,39421:0:0:0:0:
36,192,39532,1,0,0:0:0:0:
256,192,39532,128,0,39588:0:0:0:0:
109,192,39699,1,0,0:0:0:0:
182,192,39865,1,0,0:0:0:0:
256,192,39865,1,0,0:0:0:0:
36,192,39865,1,0,0:0:0:0:
329,192,40032,1,0,0:0:0:0:
109,192,40032,128,0,40088:0:0:0:0:
182,192,40115,1,0,0:0:0:0:
256,192,40199,1,0,0:0:0:0:
329,192,40199,1,0,0:0:0:0:
182,192,40365,1,0,0:0:0:0:
36,192,40532,1,0,0:0:0:0:
329,192,40532,128,0,40588:0:0:0:0:
182,192,40699,1,0,0:0:0:0:
256,192,40699,1,0,0:0:0:0:
36,192,40699,1,0,0:0:0:0:
109,192,41032,1,0,0:0:0:0:
402,192,41032,128,0,41088:0:0:0:0:
182,192,41199,1,0,0:0:0:0:
256,192,41199,1,0,0:0:0:0:
36,192,41199,1,0,0:0:0:0:
329,192,41365,1,0,0:0:0:0:
36,192,41532,1,0,0:0:0:0:
182,192,41532,128,0,41588:0:0:0:0:
256,192,41699,1,0,0:0:0:0:
329,192,41699,1,0,0:0:0:0:
256,192,41865,1,0,0:0:0:0:
475,192,41865,1,0,0:0:0:0:
36,192,41865,128,0,41921:0:0:0:0:
402,192,42199,1,0,0:0:0:0:
182,192,42199,128,0,42254:0:0:0:0:
109,192,42365,1,0,0:0:0:0:
182,192,42532,1,0,0:0:0:0:
256,192,42532,1,0,0:0:0:0:
36,192,42532,1,0,0:0:0:0:
329,192,42699,1,0,0:0:0:0:
109,192,42699,128,0,42754:0:0:0:0:
402,192,42782,1,0,0:0:0:0:
256,192,42865,1,0,0:0:0:0:
329,192,42865,1,0,0:0:0:0:
182,192,43032,1,0,0:0:0:0:
109,192,43199,1,0,0:0:0:0:
475,192,43199,128,0,43254:0:0:0:0:
182,192,43365,1,0,0:0:0:0:
256,192,43365,1,0,0:0:0:0:
36,192,43365,1,0,0:0:0:0:
329,192,43699,128,0,43754:0:0:0:0:
109,192,43699,128,0,43754:0:0:0:0:
109,192,44199,1,0,0:0:0:0:
402,192,44199,128,0,44254:0:0:0:0:
256,192,44282,1,0,0:0:0:0:
182,192,44365,1,0,0:0:0:0:
329,192,44449,1,0,0:0:0:0:
256,192,44532,128,0,44588:0:0:0:0:
36,192,44699,1,0,0:0:0:0:
182,192,44782,1,0,0:0:0:0:
109,192,44865,1,0,0:0:0:0:
475,192,44865,1,0,0:0:0:0:
329,192,44865,1,0,0:0:0:0:
402,192,44949,1,0,0:0:0:0:
182,192,45032,1,0,0:0:0:0:
329,192,45115,1,0,0:0:0:0:
256,192,45199,1,0,0:0:0:0:
182,192,45199,1,0,0:0:0:0:
36,192,45199,1,0,0:0:0:0:
109,192,45365,1,0,0:0:0:0:
402,192,45365,1,0,0:0:0:0:
329,192,45532,1,0,0:0:0:0:
182,192,45615,1,0,0:0:0:0:
256,192,45699,1,0,0:0:0:0:
402,192,45699,1,0,0:0:0:0:
329,192,45865,1,0,0:0:0:0:
475,192,45865,1,0,0:0:0:0:
256,192,46032,1,0,0:0:0:0:
182,192,46032,1,0,0:0:0:0:
36,192,46032,1,0,0:0:0:0:
109,192,46365,1,0,0:0:0:0:
402,192,46365,1,0,0:0:0:0:
182,192,46532,1,0,0:0:0:0:
256,192,46532,1,0,0:0:0:0:
36,192,46532,1,0,0:0:0:0:
329,192,46699,1,0,0:0:0:0:
109,192,46865,1,0,0:0:0:0:
256,192,46865,1,0,0:0:0:0:
36,192,47032,1,0,0:0:0:0:
329,192,47032,1,0,0:0:0:0:
109,192,47115,1,0,0:0:0:0:
402,192,47115,1,0,0:0:0:0:
182,192,47199,1,0,0:0:0:0:
256,192,47199,1,0,0:0:0:0:
36,192,47199,1,0,0:0:0:0:
475,192,47199,1,0,0:0:0:0:
329,192,47282,1,0,0:0:0:0:
109,192,47282,1,0,0:0:0:0:
402,192,47365,1,0,0:0:0:0:
182,192,47365,1,0,0:0:0:0:
475,192,47449,1,0,0:0:0:0:
36,192,47449,1,0,0:0:0:0:
109,192,47532,1,0,0:0:0:0:
329,192,47532,1,0,0:0:0:0:
182,192,47699,1,0,0:0:0:0:
329,192,47782,1,0,0:0:0:0:
256,192,47865,1,0,0:0:0:0:
182,192,47865,1,0,0:0:0:0:
36,192,47865,1,0,0:0:0:0:
109,192,48032,1,0,0:0:0:0:
402,192,48032,1,0,0:0:0:0:
329,192,48115,1,0,0:0:0:0:
256,192,48199,1,0,0:0:0:0:
402,192,48199,1,0,0:0:0:0:
402,192,48365,1,0,0:0:0:0:
109,192,48365,1,0,0:0:0:0:
329,192,48532,1,0,0:0:0:0:
109,192,48532,1,0,0:0:0:0:
182,192,48699,1,0,0:0:0:0:
256,192,48699,1,0,0:0:0:0:
36,192,48699,1,0,0:0:0:0:
402,192,49032,1,0,0:0:0:0:
182,192,49032,1,0,0:0:0:0:
182,192,49199,1,0,0:0:0:0:
256,192,49199,1,0,0:0:0:0:
36,192,49199,1,0,0:0:0:0:
475,192,49365,1,0,0:0:0:0:
256,192,49365,1,0,0:0:0:0:
329,192,49532,1,0,0:0:0:0:
475,192,49699,1,0,0:0:0:0:
256,192,49699,1,0,0:0:0:0:
182,192,49865,1,0,0:0:0:0:
256,192,49865,1,0,0:0:0:0:
36,192,49865,1,0,0:0:0:0:
475,192,49949,1,0,0:0:0:0:
109,192,49949,1,0,0:0:0:0:
36,192,50032,1,0,0:0:0:0:
402,192,50032,1,0,0:0:0:0:
329,192,50115,1,0,0:0:0:0:
182,192,50115,1,0,0:0:0:0:
109,192,50199,1,0,0:0:0:0:
475,192,50199,1,0,0:0:0:0:
256,192,50199,1,0,0:0:0:0:
182,192,50365,1,0,0:0:0:0:
182,192,50532,1,0,0:0:0:0:
256,192,50532,1,0,0:0:0:0:
36,192,50532,1,0,0:0:0:0:
109,192,50699,1,0,0:0:0:0:
329,192,50699,1,0,0:0:0:0:
475,192,50782,1,0,0:0:0:0:
256,192,50865,1,0,0:0:0:0:
402,192,50865,1,0,0:0:0:0:
109,192,51032,1,0,0:0:0:0:
329,192,51032,1,0,0:0:0:0:
36,192,51199,1,0,0:0:0:0:
256,192,51365,1,0,0:0:0:0:
36,192,51365,1,0,0:0:0:0:
109,192,51365,1,0,0:0:0:0:
329,192,51532,1,0,0:0:0:0:
36,192,51699,1,0,0:0:0:0:
402,192,51699,1,0,0:0:0:0:
182,192,51865,1,0,0:0:0:0:
256,192,51865,1,0,0:0:0:0:
36,192,51865,1,0,0:0:0:0:
402,192,51949,1,0,0:0:0:0:
475,192,52032,1,0,0:0:0:0:
109,192,52032,1,0,0:0:0:0:
256,192,52199,1,0,0:0:0:0:
109,192,52365,1,0,0:0:0:0:
402,192,52365,1,0,0:0:0:0:
182,192,52532,1,0,0:0:0:0:
256,192,52532,1,0,0:0:0:0:
36,192,52532,1,0,0:0:0:0:
109,192,52699,1,0,0:0:0:0:
329,192,52699,1,0,0:0:0:0:
182,192,52865,1,0,0:0:0:0:
402,192,52865,1,0,0:0:0:0:
36,192,52865,1,0,0:0:0:0:
329,192,53032,1,0,0:0:0:0:
182,192,53199,1,0,0:0:0:0:
256,192,53199,1,0,0:0:0:0:
36,192,53199,1,0,0:0:0:0:
109,192,53365,1,0,0:0:0:0:
402,192,53365,1,0,0:0:0:0:
329,192,53449,1,0,0:0:0:0:
256,192,53532,1,0,0:0:0:0:
402,192,53532,1,0,0:0:0:0:
109,192,53699,1,0,0:0:0:0:
329,192,53699,1,0,0:0:0:0:
182,192,53865,1,0,0:0:0:0:
256,192,54032,1,0,0:0:0:0:
475,192,54032,1,0,0:0:0:0:
182,192,54032,1,0,0:0:0:0:
329,192,54365,1,0,0:0:0:0:
402,192,54365,1,0,0:0:0:0:
109,192,54365,1,0,0:0:0:0:
182,192,54532,1,0,0:0:0:0:
329,192,54615,1,0,0:0:0:0:
109,192,54615,1,0,0:0:0:0:
256,192,54699,1,0,0:0:0:0:
36,192,54699,1,0,0:0:0:0:
182,192,54865,1,0,0:0:0:0:
475,192,54865,1,0,0:0:0:0:
256,192,55032,1,0,0:0:0:0:
402,192,55032,1,0,0:0:0:0:
36,192,55199,1,0,0:0:0:0:
329,192,55199,1,0,0:0:0:0:
182,192,55282,1,0,0:0:0:0:
256,192,55365,1,0,0:0:0:0:
36,192,55365,1,0,0:0:0:0:
109,192,55365,1,0,0:0:0:0:
329,192,55449,1,0,0:0:0:0:
475,192,55449,1,0,0:0:0:0:
36,192,55532,1,0,0:0:0:0:
402,192,55532,1,0,0:0:0:0:
329,192,55699,1,0,0:0:0:0:
109,192,55699,1,0,0:0:0:0:
182,192,55865,1,0,0:0:0:0:
256,192,55865,1,0,0:0:0:0:
36,192,55865,1,0,0:0:0:0:
109,192,56032,1,0,0:0:0:0:
475,192,56032,1,0,0:0:0:0:
402,192,56115,1,0,0:0:0:0:
329,192,56199,1,0,0:0:0:0:
256,192,56199,1,0,0:0:0:0:
182,192,56365,1,0,0:0:0:0:
402,192,56365,1,0,0:0:0:0:
109,192,56532,1,0,0:0:0:0:
475,192,56532,1,0,0:0:0:0:
182,192,56699,1,0,0:0:0:0:
256,192,56699,1,0,0:0:0:0:
36,192,56699,1,0,0:0:0:0:
329,192,56865,1,0,0:0:0:0:
109,192,57032,1,0,0:0:0:0:
402,192,57032,1,0,0:0:0:0:
182,192,57199,1,0,0:0:0:0:
256,192,57199,1,0,0:0:0:0:
36,192,57199,1,0,0:0:0:0:
182,192,57365,1,0,0:0:0:0:
109,192,57532,1,0,0:0:0:0:
475,192,57532,1,0,0:0:0:0:
329,192,57699,1,0,0:0:0:0:
256,192,57699,1,0,0:0:0:0:
256,192,57865,1,0,0:0:0:0:
36,192,57865,1,0,0:0:0:0:
109,192,57865,1,0,0:0:0:0:
182,192,58032,1,0,0:0:0:0:
402,192,58199,1,0,0:0:0:0:
109,192,58199,1,0,0:0:0:0:
329,192,58365,1,0,0:0:0:0:
182,192,58532,1,0,0:0:0:0:
256,192,58532,1,0,0:0:0:0:
36,192,58532,1,0,0:0:0:0:
109,192,58699,1,0,0:0:0:0:
475,192,58699,1,0,0:0:0:0:
182,192,58782,1,0,0:0:0:0:
256,192,58865,1,0,0:0:0:0:
402,192,58865,1,0,0:0:0:0:
329,192,59032,1,0,0:0:0:0:
109,192,59032,1,0,0:0:0:0:
475,192,59199,1,0,0:0:0:0:
109,192,59199,1,0,0:0:0:0:
182,192,59365,1,0,0:0:0:0:
256,192,59365,1,0,0:0:0:0:
36,192,59365,1,0,0:0:0:0:
109,192,59699,1,0,0:0:0:0:
402,192,59699,1,0,0:0:0:0:
329,192,59865,1,0,0:0:0:0:
256,192,59949,1,0,0:0:0:0:
109,192,60032,1,0,0:0:0:0:
475,192,60032,1,0,0:0:0:0:
402,192,60199,1,0,0:0:0:0:
329,192,60365,1,0,0:0:0:0:
109,192,60365,1,0,0:0:0:0:
182,192,60532,1,0,0:0:0:0:
256,192,60532,1,0,0:0:0:0:
36,192,60532,1,0,0:0:0:0:
109,192,60615,1,0,0:0:0:0:
475,192,60615,1,0,0:0:0:0:
402,192,60699,1,0,0:0:0:0:
36,192,60699,1,0,0:0:0:0:
256,192,60699,1,0,0:0:0:0:
182,192,60782,1,0,0:0:0:0:
329,192,60782,1,0,0:0:0:0:
109,192,60865,1,0,0:0:0:0:
256,192,60865,1,0,0:0:0:0:
182,192,61032,1,0,0:0:0:0:
36,192,61199,1,0,0:0:0:0:
182,192,61199,1,0,0:0:0:0:
256,192,61199,1,0,0:0:0:0:
109,192,61365,1,0,0:0:0:0:
329,192,61365,1,0,0:0:0:0:
182,192,61449,1,0,0:0:0:0:
256,192,61532,1,0,0:0:0:0:
402,192,61532,1,0,0:0:0:0:
329,192,61699,1,0,0:0:0:0:
36,192,61699,1,0,0:0:0:0:
109,192,61865,1,0,0:0:0:0:
402,192,61865,1,0,0:0:0:0:
182,192,62032,1,0,0:0:0:0:
256,192,62032,1,0,0:0:0:0:
36,192,62032,1,0,0:0:0:0:
109,192,62365,1,0,0:0:0:0:
475,192,62365,1,0,0:0:0:0:
256,192,62532,1,0,0:0:0:0:
182,192,62532,1,0,0:0:0:0:
36,192,62532,1,0,0:0:0:0:
109,192,62699,1,0,0:0:0:0:
36,192,62865,1,0,0:0:0:0:
402,192,62865,1,0,0:0:0:0:
329,192,63032,1,0,0:0:0:0:
256,192,63032,1,0,0:0:0:0:
256,192,63199,1,0,0:0:0:0:
475,192,63199,1,0,0:0:0:0:
182,192,63199,1,0,0:0:0:0:
109,192,63365,1,0,0:0:0:0:
36,192,63532,1,0,0:0:0:0:
329,192,63532,1,0,0:0:0:0:
182,192,63699,1,0,0:0:0:0:
329,192,63865,1,0,0:0:0:0:
402,192,64032,1,0,0:0:0:0:
475,192,64532,1,0,0:0:0:0:
329,192,76643,5,0,0:0:0:0:
329,192,76699,1,0,0:0:0:0:
475,192,87310,5,0,0:0:0:0:
475,192,87365,1,0,0:0:0:0:
402,192,88865,1,0,0:0:0:0:
109,192,88865,1,0,0:0:0:0:
36,192,88865,1,0,0:0:0:0:
182,192,89032,1,0,0:0:0:0:
256,192,89199,1,0,0:0:0:0:
182,192,89365,1,0,0:0:0:0:
36,192,89532,1,0,0:0:0:0:
256,192,89532,1,0,0:0:0:0:
402,192,89532,1,0,0:0:0:0:
329,192,89699,1,0,0:0:0:0:
109,192,89865,1,0,0:0:0:0:
182,192,90032,1,0,0:0:0:0:
256,192,90199,1,0,0:0:0:0:
329,192,90365,1,0,0:0:0:0:
36,192,90365,1,0,0:0:0:0:
109,192,90532,1,0,0:0:0:0:
256,192,90699,1,0,0:0:0:0:
402,192,90865,1,0,0:0:0:0:
36,192,90865,1,0,0:0:0:0:
109,192,90865,1,0,0:0:0:0:
475,192,91032,1,0,0:0:0:0:
329,192,91199,1,0,0:0:0:0:
256,192,91365,1,0,0:0:0:0:
109,192,91532,1,0,0:0:0:0:
329,192,91532,1,0,0:0:0:0:
36,192,91532,1,0,0:0:0:0:
182,192,91699,1,0,0:0:0:0:
256,192,91865,1,0,0:0:0:0:
402,192,91865,1,0,0:0:0:0:
329,192,91949,1,0,0:0:0:0:
182,192,92032,1,0,0:0:0:0:
329,192,92115,1,0,0:0:0:0:
256,192,92199,1,0,0:0:0:0:
182,192,92199,1,0,0:0:0:0:
36,192,92199,1,0,0:0:0:0:
109,192,92365,1,0,0:0:0:0:
182,192,92532,1,0,0:0:0:0:
329,192,92699,1,0,0:0:0:0:
36,192,92699,1,0,0:0:0:0:
256,192,92865,1,0,0:0:0:0:
182,192,93032,1,0,0:0:0:0:
329,192,93032,1,0,0:0:0:0:
36,192,93199,1,0,0:0:0:0:
182,192,93199,1,0,0:0:0:0:
182,192,93282,1,0,0:0:0:0:
109,192,93365,1,0,0:0:0:0:
402,192,93365,1,0,0:0:0:0:
109,192,93449,1,0,0:0:0:0:
182,192,93532,1,0,0:0:0:0:
256,192,93532,1,0,0:0:0:0:
36,192,93532,1,0,0:0:0:0:
329,192,93699,1,0,0:0:0:0:
109,192,93865,1,0,0:0:0:0:
402,192,93865,1,0,0:0:0:0:
256,192,94032,1,0,0:0:0:0:
182,192,94199,1,0,0:0:0:0:
402,192,94199,1,0,0:0:0:0:
329,192,94365,1,0,0:0:0:0:
109,192,94532,1,0,0:0:0:0:
402,192,94532,1,0,0:0:0:0:
182,192,94699,1,0,0:0:0:0:
182,192,94865,1,0,0:0:0:0:
256,192,94865,1,0,0:0:0:0:
475,192,94865,1,0,0:0:0:0:
329,192,95032,1,0,0:0:0:0:
109,192,95199,1,0,0:0:0:0:
182,192,95365,1,0,0:0:0:0:
256,192,95532,1,0,0:0:0:0:
475,192,95532,1,0,0:0:0:0:
402,192,95699,1,0,0:0:0:0:
182,192,95699,1,0,0:0:0:0:
256,192,95865,1,0,0:0:0:0:
329,192,95949,1,0,0:0:0:0:
182,192,96032,1,0,0:0:0:0:
109,192,96115,1,0,0:0:0:0:
256,192,96199,1,0,0:0:0:0:
182,192,96199,1,0,0:0:0:0:
402,192,96199,1,0,0:0:0:0:
329,192,96365,1,0,0:0:0:0:
402,192,96532,1,0,0:0:0:0:
256,192,96532,1,0,0:0:0:0:
402,192,96615,1,0,0:0:0:0:
475,192,96699,1,0,0:0:0:0:
182,192,96699,1,0,0:0:0:0:
475,192,96782,1,0,0:0:0:0:
402,192,96865,1,0,0:0:0:0:
256,192,96865,1,0,0:0:0:0:
329,192,97032,1,0,0:0:0:0:
256,192,97199,1,0,0:0:0:0:
36,192,97199,1,0,0:0:0:0:
109,192,97365,1,0,0:0:0:0:
329,192,97449,1,0,0:0:0:0:
256,192,97532,1,0,0:0:0:0:
182,192,97532,1,0,0:0:0:0:
36,192,97532,1,0,0:0:0:0:
109,192,97699,1,0,0:0:0:0:
256,192,97865,1,0,0:0:0:0:
402,192,97921,1,0,0:0:0:0:
475,192,97977,1,0,0:0:0:0:
475,192,98032,1,0,0:0:0:0:
329,192,98032,1,0,0:0:0:0:
402,192,98365,1,0,0:0:0:0:
182,192,98365,1,0,0:0:0:0:
256,192,98532,1,0,0:0:0:0:
36,192,98615,1,0,0:0:0:0:
182,192,98699,1,0,0:0:0:0:
109,192,98782,1,0,0:0:0:0:
182,192,98865,1,0,0:0:0:0:
256,192,98865,1,0,0:0:0:0:
36,192,98865,1,0,0:0:0:0:
402,192,99032,1,0,0:0:0:0:
329,192,99199,1,0,0:0:0:0:
109,192,99365,1,0,0:0:0:0:
402,192,99532,1,0,0:0:0:0:
182,192,99532,128,0,99588:0:0:0:0:
36,192,99532,1,0,0:0:0:0:
329,192,99699,1,0,0:0:0:0:
256,192,99865,1,0,0:0:0:0:
36,192,99865,1,0,0:0:0:0:
109,192,100032,1,0,0:0:0:0:
182,192,100199,1,0,0:0:0:0:
256,192,100199,1,0,0:0:0:0:
475,192,100199,1,0,0:0:0:0:
402,192,100365,1,0,0:0:0:0:
329,192,100532,1,0,0:0:0:0:
36,192,100532,1,0,0:0:0:0:
109,192,100699,1,0,0:0:0:0:
402,192,100865,1,0,0:0:0:0:
329,192,101032,1,0,0:0:0:0:
109,192,101032,1,0,0:0:0:0:
182,192,101199,1,0,0:0:0:0:
182,192,101282,1,0,0:0:0:0:
329,192,101365,1,0,0:0:0:0:
36,192,101365,1,0,0:0:0:0:
329,192,101449,1,0,0:0:0:0:
182,192,101532,1,0,0:0:0:0:
256,192,101532,1,0,0:0:0:0:
475,192,101532,1,0,0:0:0:0:
402,192,101699,1,0,0:0:0:0:
109,192,101865,1,0,0:0:0:0:
182,192,102032,1,0,0:0:0:0:
256,192,102199,1,0,0:0:0:0:
475,192,102199,1,0,0:0:0:0:
402,192,102365,1,0,0:0:0:0:
329,192,102532,1,0,0:0:0:0:
36,192,102532,1,0,0:0:0:0:
182,192,102615,1,0,0:0:0:0:
182,192,102699,1,0,0:0:0:0:
36,192,102782,1,0,0:0:0:0:
36,192,102865,1,0,0:0:0:0:
256,192,102865,1,0,0:0:0:0:
182,192,102865,1,0,0:0:0:0:
109,192,103032,1,0,0:0:0:0:
475,192,103032,1,0,0:0:0:0:
329,192,103032,1,0,0:0:0:0:
402,192,103282,1,0,0:0:0:0:
256,192,103282,1,0,0:0:0:0:
182,192,103282,1,0,0:0:0:0:
182,192,103449,1,0,0:0:0:0:
109,192,103532,1,0,0:0:0:0:
329,192,103532,1,0,0:0:0:0:
36,192,103532,1,0,0:0:0:0:
182,192,103699,1,0,0:0:0:0:
402,192,103699,1,0,0:0:0:0:
256,192,103865,1,0,0:0:0:0:
36,192,103865,1,0,0:0:0:0:
182,192,103949,1,0,0:0:0:0:
329,192,104032,1,0,0:0:0:0:
109,192,104115,1,0,0:0:0:0:
182,192,104199,1,0,0:0:0:0:
256,192,104199,1,0,0:0:0:0:
36,192,104199,1,0,0:0:0:0:
402,192,104365,1,0,0:0:0:0:
329,192,104532,1,0,0:0:0:0:
182,192,104699,1,0,0:0:0:0:
36,192,104865,1,0,0:0:0:0:
402,192,104865,1,0,0:0:0:0:
329,192,104949,1,0,0:0:0:0:
182,192,105032,1,0,0:0:0:0:
256,192,105115,1,0,0:0:0:0:
402,192,105199,1,0,0:0:0:0:
109,192,105199,1,0,0:0:0:0:
182,192,105365,1,0,0:0:0:0:
475,192,105532,1,0,0:0:0:0:
256,192,105532,1,0,0:0:0:0:
182,192,105532,1,0,0:0:0:0:
402,192,105699,1,0,0:0:0:0:
182,192,105865,1,0,0:0:0:0:
329,192,106032,1,0,0:0:0:0:
36,192,106199,1,0,0:0:0:0:
402,192,106199,1,0,0:0:0:0:
329,192,106365,1,0,0:0:0:0:
182,192,106365,1,0,0:0:0:0:
109,192,106532,1,0,0:0:0:0:
36,192,106699,1,0,0:0:0:0:
182,192,106865,1,0,0:0:0:0:
256,192,106865,1,0,0:0:0:0:
475,192,106865,1,0,0:0:0:0:
329,192,107032,1,0,0:0:0:0:
182,192,107115,1,0,0:0:0:0:
256,192,107199,1,0,0:0:0:0:
109,192,107365,1,0,0:0:0:0:
182,192,107532,1,0,0:0:0:0:
402,192,107532,1,0,0:0:0:0:
329,192,107699,1,0,0:0:0:0:
109,192,107865,1,0,0:0:0:0:
256,192,107865,1,0,0:0:0:0:
36,192,108032,1,0,0:0:0:0:
109,192,108115,1,0,0:0:0:0:
182,192,108199,1,0,0:0:0:0:
256,192,108199,1,0,0:0:0:0:
36,192,108199,1,0,0:0:0:0:
329,192,108365,1,0,0:0:0:0:
475,192,108449,1,0,0:0:0:0:
402,192,108532,1,0,0:0:0:0:
329,192,108588,1,0,0:0:0:0:
182,192,108643,1,0,0:0:0:0:
182,192,108699,1,0,0:0:0:0:
36,192,108699,1,0,0:0:0:0:
182,192,109032,1,0,0:0:0:0:
256,192,109199,1,0,0:0:0:0:
329,192,109365,1,0,0:0:0:0:
256,192,109449,1,0,0:0:0:0:
109,192,109532,1,0,0:0:0:0:
182,192,109615,1,0,0:0:0:0:
329,192,109699,1,0,0:0:0:0:
256,192,109782,1,0,0:0:0:0:
402,192,109865,1,0,0:0:0:0:
256,192,110032,1,0,0:0:0:0:
329,192,110115,1,0,0:0:0:0:
402,192,110199,128,0,110254:0:0:0:0:
109,192,110199,128,0,110254:0:0:0:0:
402,192,110365,1,0,0:0:0:0:
329,192,110532,1,0,0:0:0:0:
182,192,110699,1,0,0:0:0:0:
402,192,110699,128,0,110754:0:0:0:0:
256,192,111199,1,0,0:0:0:0:
36,192,111199,1,0,0:0:0:0:
402,192,111199,128,0,111254:0:0:0:0:
182,192,111199,128,0,111254:0:0:0:0:
329,192,112032,1,0,0:0:0:0:
109,192,112032,1,0,0:0:0:0:
36,192,112199,1,0,0:0:0:0:
182,192,112199,1,0,0:0:0:0:
256,192,112199,128,0,112254:0:0:0:0:
402,192,112199,128,0,112254:0:0:0:0:
329,192,112365,128,0,112421:0:0:0:0:
256,192,112532,128,0,112588:0:0:0:0:
182,192,112699,128,0,112754:0:0:0:0:
109,192,112865,128,0,112921:0:0:0:0:
402,192,112865,128,0,112921:0:0:0:0:
329,192,113032,1,0,0:0:0:0:
182,192,113199,1,0,0:0:0:0:
475,192,113365,128,0,113421:0:0:0:0:
256,192,113365,128,0,113421:0:0:0:0:
402,192,113865,128,0,113921:0:0:0:0:
36,192,113865,1,0,0:0:0:0:
256,192,113865,128,0,113921:0:0:0:0:
182,192,113865,1,0,0:0:0:0:
182,192,114699,128,0,114754:0:0:0:0:
36,192,114699,128,0,114754:0:0:0:0:
182,192,114865,128,0,114921:0:0:0:0:
329,192,114865,128,0,114921:0:0:0:0:
256,192,114865,1,0,0:0:0:0:
36,192,114865,1,0,0:0:0:0:
475,192,115032,128,0,115088:0:0:0:0:
182,192,115199,128,0,115254:0:0:0:0:
475,192,115365,128,0,115421:0:0:0:0:
329,192,115532,128,0,115588:0:0:0:0:
109,192,115532,128,0,115588:0:0:0:0:
256,192,115699,1,0,0:0:0:0:
182,192,115865,1,0,0:0:0:0:
109,192,116032,128,0,116088:0:0:0:0:
402,192,116032,128,0,116088:0:0:0:0:
402,192,116532,128,0,116588:0:0:0:0:
182,192,116532,128,0,116588:0:0:0:0:
256,192,116532,1,0,0:0:0:0:
36,192,116532,1,0,0:0:0:0:
329,192,117365,128,0,117421:0:0:0:0:
182,192,117365,128,0,117421:0:0:0:0:
256,192,117532,128,0,117588:0:0:0:0:
402,192,117532,128,0,117588:0:0:0:0:
182,192,117532,1,0,0:0:0:0:
36,192,117532,1,0,0:0:0:0:
329,192,117699,128,0,117754:0:0:0:0:
256,192,117865,128,0,117921:0:0:0:0:
182,192,118032,128,0,118088:0:0:0:0:
182,192,118199,128,0,118254:0:0:0:0:
402,192,118199,128,0,118254:0:0:0:0:
329,192,118365,1,0,0:0:0:0:
109,192,118532,1,0,0:0:0:0:
182,192,118699,128,0,118754:0:0:0:0:
475,192,118699,128,0,118754:0:0:0:0:
402,192,119199,128,0,119254:0:0:0:0:
256,192,119199,128,0,119254:0:0:0:0:
182,192,119199,1,0,0:0:0:0:
36,192,119199,1,0,0:0:0:0:
182,192,120032,128,0,120088:0:0:0:0:
329,192,120032,128,0,120088:0:0:0:0:
256,192,120199,128,0,120254:0:0:0:0:
402,192,120199,128,0,120254:0:0:0:0:
109,192,120199,1,0,0:0:0:0:
36,192,120199,1,0,0:0:0:0:
329,192,120365,128,0,120421:0:0:0:0:
402,192,120532,128,0,120588:0:0:0:0:
475,192,120699,128,0,120754:0:0:0:0:
182,192,120699,1,0,0:0:0:0:
402,192,120865,128,0,120921:0:0:0:0:
109,192,120865,128,0,120921:0:0:0:0:
329,192,120865,1,0,0:0:0:0:
182,192,121032,1,0,0:0:0:0:
329,192,121199,1,0,0:0:0:0:
402,192,121365,128,0,121421:0:0:0:0:
109,192,121365,128,0,121421:0:0:0:0:
36,192,121865,128,0,121921:0:0:0:0:
329,192,121865,128,0,121921:0:0:0:0:
256,192,121865,1,0,0:0:0:0:
109,192,121865,1,0,0:0:0:0:
109,192,122699,128,0,122754:0:0:0:0:
256,192,122699,128,0,122754:0:0:0:0:
36,192,122865,1,0,0:0:0:0:
329,192,122865,128,0,122921:0:0:0:0:
182,192,122865,128,0,122921:0:0:0:0:
402,192,123032,128,0,123088:0:0:0:0:
329,192,123199,128,0,123254:0:0:0:0:
256,192,123365,128,0,123421:0:0:0:0:
109,192,123532,128,0,123588:0:0:0:0:
402,192,123532,128,0,123588:0:0:0:0:
182,192,123699,1,0,0:0:0:0:
329,192,123865,1,0,0:0:0:0:
182,192,124032,128,0,124088:0:0:0:0:
475,192,124032,128,0,124088:0:0:0:0:
182,192,124532,128,0,124588:0:0:0:0:
402,192,124532,128,0,124588:0:0:0:0:
256,192,124532,1,0,0:0:0:0:
36,192,124532,1,0,0:0:0:0:
402,192,125365,128,0,125421:0:0:0:0:
256,192,125365,128,0,125421:0:0:0:0:
36,192,125532,1,0,0:0:0:0:
182,192,125532,128,0,125588:0:0:0:0:
256,192,125532,1,0,0:0:0:0:
329,192,125699,128,0,125754:0:0:0:0:
182,192,125865,128,0,125921:0:0:0:0:
475,192,125921,1,0,0:0:0:0:
402,192,125977,1,0,0:0:0:0:
329,192,126032,1,0,0:0:0:0:
256,192,126088,1,0,0:0:0:0:
182,192,126143,1,0,0:0:0:0:
109,192,126199,128,0,126254:0:0:0:0:
402,192,126199,128,0,126254:0:0:0:0:
182,192,126365,1,0,0:0:0:0:
329,192,126532,1,0,0:0:0:0:
402,192,126699,128,0,126754:0:0:0:0:
182,192,126699,128,0,126754:0:0:0:0:
475,192,127199,128,0,127254:0:0:0:0:
256,192,127199,128,0,127254:0:0:0:0:
329,192,127199,1,0,0:0:0:0:
36,192,127199,1,0,0:0:0:0:
256,192,128032,128,0,128088:0:0:0:0:
402,192,128032,128,0,128088:0:0:0:0:
475,192,128199,128,0,128254:0:0:0:0:
182,192,128199,1,0,0:0:0:0:
36,192,128199,1,0,0:0:0:0:
256,192,128199,1,0,0:0:0:0:
402,192,128365,128,0,128421:0:0:0:0:
329,192,128532,128,0,128588:0:0:0:0:
256,192,128699,128,0,128754:0:0:0:0:
109,192,128865,128,0,128921:0:0:0:0:
402,192,128865,128,0,128921:0:0:0:0:
329,192,129032,1,0,0:0:0:0:
402,192,129199,1,0,0:0:0:0:
182,192,129365,128,0,129421:0:0:0:0:
475,192,129365,128,0,129421:0:0:0:0:
402,192,129865,128,0,129921:0:0:0:0:
256,192,129865,128,0,129921:0:0:0:0:
182,192,129865,1,0,0:0:0:0:
36,192,129865,1,0,0:0:0:0:
475,192,131199,1,0,0:0:0:0:
329,192,131282,1,0,0:0:0:0:
402,192,131365,1,0,0:0:0:0:
182,192,131449,1,0,0:0:0:0:
182,192,131532,1,0,0:0:0:0:
402,192,131532,1,0,0:0:0:0:
36,192,131532,1,0,0:0:0:0:
109,192,131699,1,0,0:0:0:0:
329,192,131699,1,0,0:0:0:0:
475,192,131699,1,0,0:0:0:0:
256,192,131782,1,0,0:0:0:0:
182,192,131865,1,0,0:0:0:0:
36,192,131865,1,0,0:0:0:0:
402,192,131865,1,0,0:0:0:0:
329,192,131865,1,0,0:0:0:0:
109,192,132032,1,0,0:0:0:0:
256,192,132032,1,0,0:0:0:0:
402,192,132032,1,0,0:0:0:0:
182,192,132199,1,0,0:0:0:0:
475,192,132199,1,0,0:0:0:0:
329,192,132199,1,0,0:0:0:0:
402,192,132365,1,0,0:0:0:0:
109,192,132365,1,0,0:0:0:0:
329,192,132365,1,0,0:0:0:0:
182,192,132532,1,0,0:0:0:0:
256,192,132532,1,0,0:0:0:0:
36,192,132532,1,0,0:0:0:0:
402,192,132532,1,0,0:0:0:0:
329,192,132699,1,0,0:0:0:0:
109,192,132699,1,0,0:0:0:0:
182,192,132865,1,0,0:0:0:0:
402,192,132865,1,0,0:0:0:0:
475,192,132865,1,0,0:0:0:0:
329,192,133032,1,0,0:0:0:0:
109,192,133032,1,0,0:0:0:0:
36,192,133032,1,0,0:0:0:0:
182,192,133199,1,0,0:0:0:0:
256,192,133199,1,0,0:0:0:0:
36,192,133199,1,0,0:0:0:0:
402,192,133199,1,0,0:0:0:0:
109,192,133365,1,0,0:0:0:0:
329,192,133365,1,0,0:0:0:0:
256,192,133449,1,0,0:0:0:0:
182,192,133532,1,0,0:0:0:0:
402,192,133532,1,0,0:0:0:0:
475,192,133699,1,0,0:0:0:0:
109,192,133699,1,0,0:0:0:0:
329,192,133699,1,0,0:0:0:0:
402,192,133865,1,0,0:0:0:0:
182,192,133865,1,0,0:0:0:0:
36,192,133865,1,0,0:0:0:0:
256,192,133865,1,0,0:0:0:0:
329,192,134032,1,0,0:0:0:0:
182,192,134032,1,0,0:0:0:0:
256,192,134199,1,0,0:0:0:0:
109,192,134199,1,0,0:0:0:0:
475,192,134199,1,0,0:0:0:0:
402,192,134365,1,0,0:0:0:0:
182,192,134365,1,0,0:0:0:0:
36,192,134365,1,0,0:0:0:0:
182,192,134532,1,0,0:0:0:0:
256,192,134532,1,0,0:0:0:0:
475,192,134532,1,0,0:0:0:0:
329,192,134532,1,0,0:0:0:0:
109,192,134699,1,0,0:0:0:0:
402,192,134699,1,0,0:0:0:0:
182,192,134782,1,0,0:0:0:0:
329,192,134865,1,0,0:0:0:0:
475,192,134865,1,0,0:0:0:0:
109,192,134865,1,0,0:0:0:0:
256,192,135032,1,0,0:0:0:0:
36,192,135032,1,0,0:0:0:0:
475,192,135199,1,0,0:0:0:0:
402,192,135199,1,0,0:0:0:0:
36,192,135199,1,0,0:0:0:0:
182,192,135199,1,0,0:0:0:0:
109,192,135365,1,0,0:0:0:0:
329,192,135365,1,0,0:0:0:0:
182,192,135532,1,0,0:0:0:0:
475,192,135532,1,0,0:0:0:0:
36,192,135532,1,0,0:0:0:0:
109,192,135699,1,0,0:0:0:0:
329,192,135699,1,0,0:0:0:0:
402,192,135699,1,0,0:0:0:0:
182,192,135865,1,0,0:0:0:0:
256,192,135865,1,0,0:0:0:0:
475,192,135865,1,0,0:0:0:0:
36,192,135865,1,0,0:0:0:0:
182,192,136032,1,0,0:0:0:0:
402,192,136032,1,0,0:0:0:0:
329,192,136199,1,0,0:0:0:0:
182,192,136199,1,0,0:0:0:0:
36,192,136199,1,0,0:0:0:0:
109,192,136365,1,0,0:0:0:0:
329,192,136365,1,0,0:0:0:0:
475,192,136365,1,0,0:0:0:0:
182,192,136532,1,0,0:0:0:0:
256,192,136532,1,0,0:0:0:0:
402,192,136532,1,0,0:0:0:0:
36,192,136532,1,0,0:0:0:0:
109,192,136699,1,0,0:0:0:0:
329,192,136699,1,0,0:0:0:0:
402,192,136699,1,0,0:0:0:0:
182,192,136865,1,0,0:0:0:0:
475,192,136865,1,0,0:0:0:0:
36,192,136865,1,0,0:0:0:0:
109,192,137032,1,0,0:0:0:0:
256,192,137032,1,0,0:0:0:0:
402,192,137032,1,0,0:0:0:0:
329,192,137115,1,0,0:0:0:0:
182,192,137199,1,0,0:0:0:0:
475,192,137199,1,0,0:0:0:0:
256,192,137199,1,0,0:0:0:0:
36,192,137199,1,0,0:0:0:0:
475,192,137365,1,0,0:0:0:0:
109,192,137365,1,0,0:0:0:0:
329,192,137365,1,0,0:0:0:0:
402,192,137532,1,0,0:0:0:0:
182,192,137532,1,0,0:0:0:0:
109,192,137615,1,0,0:0:0:0:
329,192,137615,1,0,0:0:0:0:
36,192,137699,1,0,0:0:0:0:
402,192,137699,1,0,0:0:0:0:
182,192,137699,1,0,0:0:0:0:
182,192,137865,1,0,0:0:0:0:
256,192,137865,1,0,0:0:0:0:
36,192,137865,1,0,0:0:0:0:
475,192,137865,1,0,0:0:0:0:
109,192,138032,1,0,0:0:0:0:
402,192,138032,1,0,0:0:0:0:
182,192,138199,1,0,0:0:0:0:
329,192,138199,1,0,0:0:0:0:
475,192,138199,1,0,0:0:0:0:
36,192,138365,1,0,0:0:0:0:
109,192,138365,1,0,0:0:0:0:
402,192,138365,1,0,0:0:0:0:
182,192,138532,1,0,0:0:0:0:
256,192,138532,1,0,0:0:0:0:
36,192,138532,1,0,0:0:0:0:
475,192,138532,1,0,0:0:0:0:
402,192,138699,1,0,0:0:0:0:
109,192,138699,1,0,0:0:0:0:
329,192,138699,1,0,0:0:0:0:
182,192,138865,1,0,0:0:0:0:
256,192,138865,1,0,0:0:0:0:
475,192,138865,1,0,0:0:0:0:
402,192,139032,1,0,0:0:0:0:
36,192,139032,1,0,0:0:0:0:
109,192,139032,1,0,0:0:0:0:
329,192,139199,1,0,0:0:0:0:
256,192,139199,1,0,0:0:0:0:
475,192,139199,1,0,0:0:0:0:
109,192,139199,1,0,0:0:0:0:
182,192,139365,1,0,0:0:0:0:
402,192,139365,1,0,0:0:0:0:
36,192,139365,1,0,0:0:0:0:
256,192,139532,1,0,0:0:0:0:
36,192,139532,1,0,0:0:0:0:
475,192,139532,1,0,0:0:0:0:
109,192,139699,1,0,0:0:0:0:
329,192,139699,1,0,0:0:0:0:
475,192,139699,1,0,0:0:0:0:
402,192,139782,1,0,0:0:0:0:
182,192,139865,1,0,0:0:0:0:
256,192,139865,1,0,0:0:0:0:
36,192,139865,1,0,0:0:0:0:
475,192,139865,1,0,0:0:0:0:
109,192,140032,1,0,0:0:0:0:
402,192,140032,1,0,0:0:0:0:
329,192,140115,1,0,0:0:0:0:
256,192,140199,1,0,0:0:0:0:
475,192,140199,1,0,0:0:0:0:
36,192,140365,1,0,0:0:0:0:
402,192,140365,1,0,0:0:0:0:
182,192,140365,1,0,0:0:0:0:
109,192,140532,1,0,0:0:0:0:
256,192,140532,1,0,0:0:0:0:
329,192,140532,1,0,0:0:0:0:
475,192,140532,1,0,0:0:0:0:
402,192,140699,1,0,0:0:0:0:
36,192,140699,1,0,0:0:0:0:
109,192,140865,1,0,0:0:0:0:
256,192,140865,1,0,0:0:0:0:
475,192,140865,1,0,0:0:0:0:
182,192,141032,1,0,0:0:0:0:
329,192,141032,1,0,0:0:0:0:
475,192,141032,1,0,0:0:0:0:
36,192,141199,1,0,0:0:0:0:
256,192,141199,1,0,0:0:0:0:
402,192,141199,1,0,0:0:0:0:
182,192,141199,1,0,0:0:0:0:
109,192,141365,1,0,0:0:0:0:
329,192,141365,1,0,0:0:0:0:
475,192,141365,1,0,0:0:0:0:
182,192,141532,1,0,0:0:0:0:
256,192,141532,1,0,0:0:0:0:
402,192,141532,1,0,0:0:0:0:
109,192,141615,1,0,0:0:0:0:
329,192,141699,1,0,0:0:0:0:
475,192,141699,1,0,0:0:0:0:
36,192,141699,1,0,0:0:0:0:
256,192,141865,1,0,0:0:0:0:
36,192,141865,1,0,0:0:0:0:
402,192,141865,1,0,0:0:0:0:
182,192,141865,1,0,0:0:0:0:
109,192,142032,1,0,0:0:0:0:
329,192,142032,1,0,0:0:0:0:
182,192,142199,1,0,0:0:0:0:
475,192,142199,1,0,0:0:0:0:
402,192,142365,1,0,0:0:0:0:
256,192,142365,1,0,0:0:0:0:
109,192,142365,1,0,0:0:0:0:
182,192,142532,1,0,0:0:0:0:
256,192,142532,1,0,0:0:0:0:
36,192,142532,1,0,0:0:0:0:
475,192,142532,1,0,0:0:0:0:
402,192,142699,1,0,0:0:0:0:
109,192,142699,1,0,0:0:0:0:
329,192,142782,1,0,0:0:0:0:
36,192,142865,1,0,0:0:0:0:
256,192,142865,1,0,0:0:0:0:
402,192,142865,1,0,0:0:0:0:
109,192,142949,1,0,0:0:0:0:
182,192,143032,1,0,0:0:0:0:
36,192,143032,1,0,0:0:0:0:
475,192,143032,1,0,0:0:0:0:
182,192,143199,1,0,0:0:0:0:
256,192,143199,1,0,0:0:0:0:
36,192,143199,1,0,0:0:0:0:
402,192,143199,1,0,0:0:0:0:
109,192,143365,1,0,0:0:0:0:
329,192,143365,1,0,0:0:0:0:
475,192,143365,1,0,0:0:0:0:
182,192,143532,1,0,0:0:0:0:
402,192,143532,1,0,0:0:0:0:
36,192,143699,1,0,0:0:0:0:
182,192,143699,1,0,0:0:0:0:
329,192,143699,1,0,0:0:0:0:
182,192,143865,1,0,0:0:0:0:
256,192,143865,1,0,0:0:0:0:
36,192,143865,1,0,0:0:0:0:
402,192,143865,1,0,0:0:0:0:
329,192,143949,1,0,0:0:0:0:
109,192,144032,1,0,0:0:0:0:
402,192,144032,1,0,0:0:0:0:
256,192,144199,1,0,0:0:0:0:
109,192,144199,1,0,0:0:0:0:
475,192,144199,1,0,0:0:0:0:
329,192,144365,1,0,0:0:0:0:
475,192,144365,1,0,0:0:0:0:
36,192,144365,1,0,0:0:0:0:
182,192,144532,1,0,0:0:0:0:
256,192,144532,1,0,0:0:0:0:
36,192,144532,1,0,0:0:0:0:
402,192,144532,1,0,0:0:0:0:
329,192,144699,1,0,0:0:0:0:
182,192,144699,1,0,0:0:0:0:
402,192,144699,1,0,0:0:0:0:
109,192,144865,1,0,0:0:0:0:
256,192,144865,1,0,0:0:0:0:
475,192,144865,1,0,0:0:0:0:
402,192,145032,1,0,0:0:0:0:
182,192,145032,1,0,0:0:0:0:
36,192,145032,1,0,0:0:0:0:
182,192,145199,1,0,0:0:0:0:
256,192,145199,1,0,0:0:0:0:
36,192,145199,1,0,0:0:0:0:
329,192,145199,1,0,0:0:0:0:
109,192,145365,1,0,0:0:0:0:
402,192,145365,1,0,0:0:0:0:
182,192,145449,1,0,0:0:0:0:
256,192,145532,1,0,0:0:0:0:
475,192,145532,1,0,0:0:0:0:
36,192,145532,1,0,0:0:0:0:
402,192,145615,1,0,0:0:0:0:
109,192,145699,1,0,0:0:0:0:
475,192,145699,1,0,0:0:0:0:
329,192,145699,1,0,0:0:0:0:
182,192,145865,1,0,0:0:0:0:
402,192,145865,1,0,0:0:0:0:
256,192,145865,1,0,0:0:0:0:
36,192,145865,1,0,0:0:0:0:
109,192,146032,1,0,0:0:0:0:
329,192,146032,1,0,0:0:0:0:
182,192,146199,1,0,0:0:0:0:
475,192,146199,1,0,0:0:0:0:
402,192,146365,1,0,0:0:0:0:
256,192,146365,1,0,0:0:0:0:
109,192,146365,1,0,0:0:0:0:
475,192,146532,1,0,0:0:0:0:
256,192,146532,1,0,0:0:0:0:
36,192,146532,1,0,0:0:0:0:
329,192,146532,1,0,0:0:0:0:
182,192,146699,1,0,0:0:0:0:
402,192,146699,1,0,0:0:0:0:
109,192,146699,1,0,0:0:0:0:
475,192,146865,1,0,0:0:0:0:
36,192,146865,1,0,0:0:0:0:
256,192,146865,1,0,0:0:0:0:
109,192,147032,1,0,0:0:0:0:
329,192,147032,1,0,0:0:0:0:
475,192,147032,1,0,0:0:0:0:
402,192,147199,1,0,0:0:0:0:
256,192,147199,1,0,0:0:0:0:
182,192,147199,1,0,0:0:0:0:
36,192,147199,1,0,0:0:0:0:
109,192,147365,1,0,0:0:0:0:
475,192,147365,1,0,0:0:0:0:
256,192,147365,1,0,0:0:0:0:
402,192,147532,1,0,0:0:0:0:
182,192,147532,1,0,0:0:0:0:
475,192,147532,1,0,0:0:0:0:
36,192,147699,1,0,0:0:0:0:
182,192,147699,1,0,0:0:0:0:
329,192,147699,1,0,0:0:0:0:
256,192,147865,1,0,0:0:0:0:
182,192,147865,1,0,0:0:0:0:
475,192,147865,1,0,0:0:0:0:
109,192,147865,1,0,0:0:0:0:
402,192,148032,1,0,0:0:0:0:
329,192,148032,1,0,0:0:0:0:
36,192,148032,1,0,0:0:0:0:
256,192,148115,1,0,0:0:0:0:
182,192,148199,1,0,0:0:0:0:
475,192,148199,1,0,0:0:0:0:
329,192,148199,1,0,0:0:0:0:
36,192,148282,1,0,0:0:0:0:
109,192,148365,1,0,0:0:0:0:
256,192,148365,1,0,0:0:0:0:
329,192,148365,1,0,0:0:0:0:
182,192,148532,1,0,0:0:0:0:
256,192,148532,1,0,0:0:0:0:
36,192,148532,1,0,0:0:0:0:
475,192,148532,1,0,0:0:0:0:
329,192,148699,1,0,0:0:0:0:
475,192,148699,1,0,0:0:0:0:
109,192,148699,1,0,0:0:0:0:
256,192,148865,1,0,0:0:0:0:
402,192,148865,1,0,0:0:0:0:
36,192,149032,1,0,0:0:0:0:
329,192,149032,1,0,0:0:0:0:
475,192,149032,1,0,0:0:0:0:
182,192,149199,1,0,0:0:0:0:
256,192,149199,1,0,0:0:0:0:
36,192,149199,1,0,0:0:0:0:
402,192,149199,1,0,0:0:0:0:
329,192,149365,1,0,0:0:0:0:
109,192,149365,1,0,0:0:0:0:
256,192,149532,1,0,0:0:0:0:
402,192,149532,1,0,0:0:0:0:
36,192,149532,1,0,0:0:0:0:
329,192,149699,1,0,0:0:0:0:
475,192,149699,1,0,0:0:0:0:
109,192,149699,1,0,0:0:0:0:
182,192,149699,1,0,0:0:0:0:
256,192,149865,1,0,0:0:0:0:
182,192,149865,1,0,0:0:0:0:
36,192,149865,1,0,0:0:0:0:
475,192,149865,1,0,0:0:0:0:
402,192,150032,1,0,0:0:0:0:
109,192,150032,1,0,0:0:0:0:
329,192,150032,1,0,0:0:0:0:
182,192,150199,1,0,0:0:0:0:
475,192,150199,1,0,0:0:0:0:
36,192,150199,1,0,0:0:0:0:
109,192,150365,1,0,0:0:0:0:
256,192,150365,1,0,0:0:0:0:
402,192,150365,1,0,0:0:0:0:
256,192,150532,1,0,0:0:0:0:
182,192,150532,1,0,0:0:0:0:
36,192,150532,1,0,0:0:0:0:
475,192,150532,1,0,0:0:0:0:
329,192,150699,1,0,0:0:0:0:
475,192,150699,1,0,0:0:0:0:
402,192,150782,1,0,0:0:0:0:
329,192,150865,1,0,0:0:0:0:
36,192,150865,1,0,0:0:0:0:
182,192,150865,1,0,0:0:0:0:
256,192,150949,1,0,0:0:0:0:
109,192,151032,1,0,0:0:0:0:
329,192,151032,1,0,0:0:0:0:
475,192,151032,1,0,0:0:0:0:
182,192,151199,1,0,0:0:0:0:
256,192,151199,1,0,0:0:0:0:
402,192,151199,1,0,0:0:0:0:
36,192,151199,1,0,0:0:0:0:
109,192,151365,1,0,0:0:0:0:
256,192,151365,1,0,0:0:0:0:
475,192,151365,1,0,0:0:0:0:
182,192,151532,1,0,0:0:0:0:
475,192,151532,1,0,0:0:0:0:
36,192,151532,1,0,0:0:0:0:
109,192,151699,1,0,0:0:0:0:
329,192,151699,1,0,0:0:0:0:
402,192,151699,1,0,0:0:0:0:
182,192,151865,1,0,0:0:0:0:
256,192,151865,1,0,0:0:0:0:
36,192,151865,1,0,0:0:0:0:
402,192,151865,1,0,0:0:0:0:
329,192,152032,1,0,0:0:0:0:
109,192,152032,1,0,0:0:0:0:
182,192,152199,1,0,0:0:0:0:
256,192,152199,1,0,0:0:0:0:
475,192,152199,1,0,0:0:0:0:
329,192,152365,1,0,0:0:0:0:
475,192,152365,1,0,0:0:0:0:
36,192,152365,1,0,0:0:0:0:
109,192,152532,1,0,0:0:0:0:
256,192,152532,1,0,0:0:0:0:
182,192,152532,1,0,0:0:0:0:
402,192,152532,1,0,0:0:0:0:
329,192,152699,1,0,0:0:0:0:
36,192,152699,1,0,0:0:0:0:
182,192,152865,1,0,0:0:0:0:
475,192,152865,1,0,0:0:0:0:
475,192,153032,1,0,0:0:0:0:
329,192,153032,1,0,0:0:0:0:
402,192,153199,1,0,0:0:0:0:
256,192,153199,1,0,0:0:0:0:
329,192,153532,1,0,0:0:0:0:
475,192,153532,1,0,0:0:0:0:
402,192,153699,1,0,0:0:0:0:
256,192,153699,1,0,0:0:0:0:
475,192,153865,1,0,0:0:0:0:
402,192,154032,1,0,0:0:0:0:
256,192,154032,1,0,0:0:0:0:
329,192,154199,1,0,0:0:0:0:
329,192,154365,1,0,0:0:0:0:
475,192,154365,1,0,0:0:0:0:
402,192,154532,1,0,0:0:0:0:
256,192,154532,1,0,0:0:0:0:
329,192,154699,1,0,0:0:0:0:
182,192,154699,1,0,0:0:0:0:
256,192,154865,1,0,0:0:0:0:
109,192,154865,1,0,0:0:0:0:
182,192,154949,1,0,0:0:0:0:
36,192,154949,1,0,0:0:0:0:
256,192,155032,1,0,0:0:0:0:
402,192,155032,1,0,0:0:0:0:
182,192,155115,1,0,0:0:0:0:
36,192,155115,1,0,0:0:0:0:
475,192,155199,1,0,0:0:0:0:
109,192,155199,1,0,0:0:0:0:
402,192,155282,1,0,0:0:0:0:
36,192,155282,1,0,0:0:0:0:
329,192,155365,1,0,0:0:0:0:
109,192,155365,1,0,0:0:0:0:
475,192,155365,1,0,0:0:0:0:
256,192,155365,1,0,0:0:0:0:
182,192,155449,1,0,0:0:0:0:
402,192,155532,1,0,0:0:0:0:
36,192,155532,1,0,0:0:0:0:
256,192,155532,1,0,0:0:0:0:
329,192,155615,1,0,0:0:0:0:
475,192,155699,1,0,0:0:0:0:
36,192,155699,1,0,0:0:0:0:
182,192,155699,1,0,0:0:0:0:
182,192,155865,1,0,0:0:0:0:
256,192,155865,1,0,0:0:0:0:
402,192,155865,1,0,0:0:0:0:
36,192,155865,1,0,0:0:0:0:
109,192,156032,1,0,0:0:0:0:
329,192,156032,1,0,0:0:0:0:
475,192,156032,1,0,0:0:0:0:
182,192,156199,1,0,0:0:0:0:
402,192,156199,1,0,0:0:0:0:
329,192,156282,1,0,0:0:0:0:
475,192,156365,1,0,0:0:0:0:
36,192,156365,1,0,0:0:0:0:
256,192,156365,1,0,0:0:0:0:
256,192,156532,1,0,0:0:0:0:
182,192,156532,1,0,0:0:0:0:
36,192,156532,1,0,0:0:0:0:
402,192,156532,1,0,0:0:0:0:
109,192,156699,1,0,0:0:0:0:
329,192,156699,1,0,0:0:0:0:
182,192,156865,1,0,0:0:0:0:
475,192,156865,1,0,0:0:0:0:
329,192,156865,1,0,0:0:0:0:
402,192,157032,1,0,0:0:0:0:
36,192,157032,1,0,0:0:0:0:
182,192,157032,1,0,0:0:0:0:
182,192,157199,1,0,0:0:0:0:
256,192,157199,1,0,0:0:0:0:
36,192,157199,1,0,0:0:0:0:
475,192,157199,1,0,0:0:0:0:
402,192,157282,1,0,0:0:0:0:
109,192,157282,1,0,0:0:0:0:
329,192,157365,1,0,0:0:0:0:
182,192,157365,1,0,0:0:0:0:
36,192,157532,1,0,0:0:0:0:
256,192,157532,1,0,0:0:0:0:
402,192,157532,1,0,0:0:0:0:
329,192,157699,1,0,0:0:0:0:
475,192,157699,1,0,0:0:0:0:
109,192,157699,1,0,0:0:0:0:
182,192,157865,1,0,0:0:0:0:
256,192,157865,1,0,0:0:0:0:
36,192,157865,1,0,0:0:0:0:
402,192,157865,1,0,0:0:0:0:
329,192,157949,1,0,0:0:0:0:
109,192,157949,1,0,0:0:0:0:
475,192,158032,1,0,0:0:0:0:
182,192,158032,1,0,0:0:0:0:
36,192,158032,1,0,0:0:0:0:
109,192,158199,1,0,0:0:0:0:
329,192,158199,1,0,0:0:0:0:
475,192,158199,1,0,0:0:0:0:
182,192,158365,1,0,0:0:0:0:
402,192,158365,1,0,0:0:0:0:
182,192,158532,1,0,0:0:0:0:
256,192,158532,1,0,0:0:0:0:
36,192,158532,1,0,0:0:0:0:
475,192,158532,1,0,0:0:0:0:
329,192,158699,1,0,0:0:0:0:
109,192,158699,1,0,0:0:0:0:
182,192,158782,1,0,0:0:0:0:
256,192,158865,1,0,0:0:0:0:
475,192,158865,1,0,0:0:0:0:
402,192,158865,1,0,0:0:0:0:
36,192,158949,1,0,0:0:0:0:
109,192,159032,1,0,0:0:0:0:
329,192,159032,1,0,0:0:0:0:
475,192,159032,1,0,0:0:0:0:
182,192,159199,1,0,0:0:0:0:
256,192,159199,1,0,0:0:0:0:
402,192,159199,1,0,0:0:0:0:
36,192,159199,1,0,0:0:0:0:
109,192,159365,1,0,0:0:0:0:
329,192,159365,1,0,0:0:0:0:
182,192,159532,1,0,0:0:0:0:
475,192,159532,1,0,0:0:0:0:
329,192,159532,1,0,0:0:0:0:
36,192,159699,1,0,0:0:0:0:
402,192,159699,1,0,0:0:0:0:
182,192,159699,1,0,0:0:0:0:
109,192,159865,1,0,0:0:0:0:
256,192,159865,1,0,0:0:0:0:
329,192,159865,1,0,0:0:0:0:
475,192,159865,1,0,0:0:0:0:
402,192,159949,1,0,0:0:0:0:
182,192,159949,1,0,0:0:0:0:
36,192,160032,1,0,0:0:0:0:
256,192,160032,1,0,0:0:0:0:
475,192,160032,1,0,0:0:0:0:
402,192,160199,1,0,0:0:0:0:
182,192,160199,1,0,0:0:0:0:
109,192,160199,1,0,0:0:0:0:
329,192,160365,1,0,0:0:0:0:
182,192,160365,1,0,0:0:0:0:
36,192,160365,1,0,0:0:0:0:
256,192,160532,1,0,0:0:0:0:
182,192,160532,1,0,0:0:0:0:
475,192,160532,1,0,0:0:0:0:
402,192,160532,1,0,0:0:0:0:
329,192,160699,1,0,0:0:0:0:
109,192,160699,1,0,0:0:0:0:
36,192,160865,1,0,0:0:0:0:
256,192,160865,1,0,0:0:0:0:
475,192,160865,1,0,0:0:0:0:
109,192,161032,1,0,0:0:0:0:
329,192,161032,1,0,0:0:0:0:
402,192,161032,1,0,0:0:0:0:
182,192,161199,1,0,0:0:0:0:
256,192,161199,1,0,0:0:0:0:
36,192,161199,1,0,0:0:0:0:
475,192,161199,1,0,0:0:0:0:
402,192,161365,1,0,0:0:0:0:
109,192,161365,1,0,0:0:0:0:
182,192,161449,1,0,0:0:0:0:
256,192,161532,1,0,0:0:0:0:
475,192,161532,1,0,0:0:0:0:
329,192,161532,1,0,0:0:0:0:
36,192,161615,1,0,0:0:0:0:
109,192,161699,1,0,0:0:0:0:
182,192,161699,1,0,0:0:0:0:
402,192,161699,1,0,0:0:0:0:
256,192,161865,1,0,0:0:0:0:
182,192,161865,1,0,0:0:0:0:
329,192,161865,1,0,0:0:0:0:
475,192,161865,1,0,0:0:0:0:
402,192,162032,1,0,0:0:0:0:
109,192,162032,1,0,0:0:0:0:
36,192,162199,1,0,0:0:0:0:
256,192,162199,1,0,0:0:0:0:
182,192,162365,1,0,0:0:0:0:
402,192,162365,1,0,0:0:0:0:
182,192,162532,1,0,0:0:0:0:
256,192,162532,1,0,0:0:0:0:
36,192,162532,1,0,0:0:0:0:
402,192,162532,1,0,0:0:0:0:
329,192,162699,1,0,0:0:0:0:
182,192,162699,1,0,0:0:0:0:
36,192,162699,1,0,0:0:0:0:
256,192,162865,1,0,0:0:0:0:
402,192,162865,1,0,0:0:0:0:
109,192,162865,1,0,0:0:0:0:
182,192,162949,1,0,0:0:0:0:
329,192,163032,1,0,0:0:0:0:
475,192,163032,1,0,0:0:0:0:
109,192,163032,1,0,0:0:0:0:
329,192,163199,1,0,0:0:0:0:
36,192,163199,1,0,0:0:0:0:
475,192,163199,1,0,0:0:0:0:
256,192,163199,1,0,0:0:0:0:
109,192,163282,1,0,0:0:0:0:
402,192,163282,1,0,0:0:0:0:
182,192,163365,1,0,0:0:0:0:
475,192,163365,1,0,0:0:0:0:
36,192,163365,1,0,0:0:0:0:
329,192,163449,1,0,0:0:0:0:
256,192,163532,1,0,0:0:0:0:
109,192,163532,1,0,0:0:0:0:
402,192,163532,1,0,0:0:0:0:
182,192,163699,1,0,0:0:0:0:
329,192,163699,1,0,0:0:0:0:
475,192,163699,1,0,0:0:0:0:
256,192,163865,1,0,0:0:0:0:
182,192,163865,1,0,0:0:0:0:
36,192,163865,1,0,0:0:0:0:
402,192,163865,1,0,0:0:0:0:
109,192,164032,1,0,0:0:0:0:
329,192,164032,1,0,0:0:0:0:
402,192,164115,1,0,0:0:0:0:
182,192,164199,1,0,0:0:0:0:
475,192,164199,1,0,0:0:0:0:
329,192,164199,1,0,0:0:0:0:
109,192,164282,1,0,0:0:0:0:
36,192,164365,1,0,0:0:0:0:
256,192,164365,1,0,0:0:0:0:
402,192,164365,1,0,0:0:0:0:
182,192,164532,1,0,0:0:0:0:
256,192,164532,1,0,0:0:0:0:
475,192,164532,1,0,0:0:0:0:
36,192,164532,1,0,0:0:0:0:
109,192,164699,1,0,0:0:0:0:
329,192,164699,1,0,0:0:0:0:
182,192,164865,1,0,0:0:0:0:
402,192,164865,1,0,0:0:0:0:
256,192,165032,1,0,0:0:0:0:
329,192,165032,1,0,0:0:0:0:
36,192,165032,1,0,0:0:0:0:
182,192,165199,1,0,0:0:0:0:
256,192,165199,1,0,0:0:0:0:
475,192,165199,1,0,0:0:0:0:
109,192,165199,1,0,0:0:0:0:
36,192,165365,1,0,0:0:0:0:
182,192,165365,1,0,0:0:0:0:
402,192,165365,1,0,0:0:0:0:
329,192,165449,1,0,0:0:0:0:
109,192,165449,1,0,0:0:0:0:
182,192,165532,1,0,0:0:0:0:
475,192,165532,1,0,0:0:0:0:
256,192,165532,1,0,0:0:0:0:
36,192,165699,1,0,0:0:0:0:
329,192,165699,1,0,0:0:0:0:
402,192,165699,1,0,0:0:0:0:
109,192,165865,1,0,0:0:0:0:
475,192,165865,1,0,0:0:0:0:
256,192,165865,1,0,0:0:0:0:
329,192,165865,1,0,0:0:0:0:
182,192,166032,1,0,0:0:0:0:
36,192,166032,1,0,0:0:0:0:
402,192,166032,1,0,0:0:0:0:
109,192,166199,1,0,0:0:0:0:
256,192,166199,1,0,0:0:0:0:
475,192,166199,1,0,0:0:0:0:
402,192,166365,1,0,0:0:0:0:
182,192,166365,1,0,0:0:0:0:
256,192,166532,1,0,0:0:0:0:
182,192,166532,1,0,0:0:0:0:
402,192,166532,1,0,0:0:0:0:
475,192,166532,1,0,0:0:0:0:
329,192,166699,1,0,0:0:0:0:
36,192,166699,1,0,0:0:0:0:
109,192,166699,1,0,0:0:0:0:
182,192,166782,1,0,0:0:0:0:
256,192,166865,1,0,0:0:0:0:
475,192,166865,1,0,0:0:0:0:
109,192,166865,1,0,0:0:0:0:
402,192,166949,1,0,0:0:0:0:
329,192,167032,1,0,0:0:0:0:
36,192,167032,1,0,0:0:0:0:
182,192,167032,1,0,0:0:0:0:
182,192,167199,1,0,0:0:0:0:
256,192,167199,1,0,0:0:0:0:
36,192,167199,1,0,0:0:0:0:
402,192,167199,1,0,0:0:0:0:
109,192,167365,1,0,0:0:0:0:
329,192,167365,1,0,0:0:0:0:
182,192,167532,1,0,0:0:0:0:
402,192,167532,1,0,0:0:0:0:
256,192,167699,1,0,0:0:0:0:
329,192,167699,1,0,0:0:0:0:
475,192,167699,1,0,0:0:0:0:
182,192,167865,1,0,0:0:0:0:
256,192,167865,1,0,0:0:0:0:
36,192,167865,1,0,0:0:0:0:
402,192,167865,1,0,0:0:0:0:
329,192,167949,1,0,0:0:0:0:
475,192,167949,1,0,0:0:0:0:
109,192,168032,1,0,0:0:0:0:
36,192,168032,1,0,0:0:0:0:
402,192,168032,1,0,0:0:0:0:
182,192,168199,1,0,0:0:0:0:
329,192,168199,1,0,0:0:0:0:
475,192,168199,1,0,0:0:0:0:
256,192,168365,1,0,0:0:0:0:
402,192,168365,1,0,0:0:0:0:
36,192,168365,1,0,0:0:0:0:
109,192,168532,1,0,0:0:0:0:
182,192,168532,1,0,0:0:0:0:
329,192,168532,1,0,0:0:0:0:
475,192,168532,1,0,0:0:0:0:
402,192,168615,1,0,0:0:0:0:
36,192,168615,1,0,0:0:0:0:
109,192,168699,1,0,0:0:0:0:
256,192,168699,1,0,0:0:0:0:
475,192,168699,1,0,0:0:0:0:
182,192,168865,1,0,0:0:0:0:
329,192,168865,1,0,0:0:0:0:
475,192,168865,1,0,0:0:0:0:
109,192,169032,1,0,0:0:0:0:
256,192,169032,1,0,0:0:0:0:
402,192,169032,1,0,0:0:0:0:
182,192,169199,1,0,0:0:0:0:
256,192,169199,1,0,0:0:0:0:
36,192,169199,1,0,0:0:0:0:
475,192,169199,1,0,0:0:0:0:
402,192,169365,1,0,0:0:0:0:
182,192,169365,1,0,0:0:0:0:
329,192,169449,1,0,0:0:0:0:
256,192,169532,1,0,0:0:0:0:
36,192,169532,1,0,0:0:0:0:
402,192,169532,1,0,0:0:0:0:
109,192,169615,1,0,0:0:0:0:
182,192,169699,1,0,0:0:0:0:
475,192,169699,1,0,0:0:0:0:
256,192,169865,1,0,0:0:0:0:
329,192,169865,1,0,0:0:0:0:
475,192,169865,1,0,0:0:0:0:
36,192,169865,1,0,0:0:0:0:
109,192,170032,1,0,0:0:0:0:
182,192,170032,1,0,0:0:0:0:
402,192,170032,1,0,0:0:0:0:
256,192,170199,1,0,0:0:0:0:
475,192,170199,1,0,0:0:0:0:
36,192,170365,1,0,0:0:0:0:
182,192,170365,1,0,0:0:0:0:
402,192,170365,1,0,0:0:0:0:
256,192,170532,1,0,0:0:0:0:
329,192,170532,1,0,0:0:0:0:
475,192,170532,1,0,0:0:0:0:
109,192,170532,1,0,0:0:0:0:
182,192,170699,1,0,0:0:0:0:
329,192,170699,1,0,0:0:0:0:
109,192,170699,1,0,0:0:0:0:
256,192,170865,1,0,0:0:0:0:
402,192,170865,1,0,0:0:0:0:
36,192,170865,1,0,0:0:0:0:
182,192,171032,1,0,0:0:0:0:
329,192,171032,1,0,0:0:0:0:
475,192,171032,1,0,0:0:0:0:
402,192,171199,1,0,0:0:0:0:
256,192,171199,1,0,0:0:0:0:
182,192,171199,1,0,0:0:0:0:
36,192,171199,1,0,0:0:0:0:
109,192,171365,1,0,0:0:0:0:
329,192,171365,1,0,0:0:0:0:
182,192,171532,1,0,0:0:0:0:
402,192,171532,1,0,0:0:0:0:
36,192,171699,1,0,0:0:0:0:
329,192,171699,1,0,0:0:0:0:
475,192,171699,1,0,0:0:0:0:
256,192,171865,1,0,0:0:0:0:
182,192,171865,1,0,0:0:0:0:
109,192,171865,1,0,0:0:0:0:
402,192,171865,1,0,0:0:0:0:
329,192,172032,1,0,0:0:0:0:
475,192,172032,1,0,0:0:0:0:
36,192,172032,1,0,0:0:0:0:
109,192,172115,1,0,0:0:0:0:
182,192,172199,1,0,0:0:0:0:
402,192,172199,1,0,0:0:0:0:
329,192,172282,1,0,0:0:0:0:
256,192,172365,1,0,0:0:0:0:
36,192,172365,1,0,0:0:0:0:
475,192,172365,1,0,0:0:0:0:
182,192,172532,1,0,0:0:0:0:
256,192,172532,1,0,0:0:0:0:
36,192,172532,1,0,0:0:0:0:
402,192,172532,1,0,0:0:0:0:
109,192,172699,1,0,0:0:0:0:
329,192,172699,1,0,0:0:0:0:
182,192,172865,1,0,0:0:0:0:
475,192,172865,1,0,0:0:0:0:
402,192,173032,1,0,0:0:0:0:
36,192,173032,1,0,0:0:0:0:
109,192,173199,1,0,0:0:0:0:
329,192,173199,1,0,0:0:0:0:
256,192,173365,1,0,0:0:0:0:
109,192,173532,1,0,0:0:0:0:
402,192,173532,1,0,0:0:0:0:
36,192,173699,1,0,0:0:0:0:
475,192,173699,1,0,0:0:0:0:
402,192,173865,1,0,0:0:0:0:
109,192,174032,1,0,0:0:0:0:
329,192,174032,1,0,0:0:0:0:
182,192,174199,1,0,0:0:0:0:
256,192,174199,1,0,0:0:0:0:
475,192,174199,1,0,0:0:0:0:
36,192,174199,1,0,0:0:0:0:
329,192,174199,1,0,0:0:0:0:
109,192,174365,1,0,0:0:0:0:
182,192,174532,1,0,0:0:0:0:
256,192,174532,1,0,0:0:0:0:
402,192,174532,1,0,0:0:0:0:
475,192,174532,1,0,0:0:0:0:
36,192,174699,1,0,0:0:0:0:
329,192,174699,1,0,0:0:0:0:
182,192,174699,1,0,0:0:0:0:
109,192,174782,1,0,0:0:0:0:
402,192,174782,1,0,0:0:0:0:
182,192,174865,1,0,0:0:0:0:
256,192,174865,1,0,0:0:0:0:
475,192,174865,1,0,0:0:0:0:
36,192,175032,1,0,0:0:0:0:
329,192,175032,1,0,0:0:0:0:
475,192,175032,1,0,0:0:0:0:
109,192,175199,1,0,0:0:0:0:
402,192,175199,1,0,0:0:0:0:
182,192,175199,1,0,0:0:0:0:
182,192,175365,1,0,0:0:0:0:
256,192,175365,1,0,0:0:0:0:
36,192,175365,1,0,0:0:0:0:
475,192,175365,1,0,0:0:0:0:
109,192,175532,1,0,0:0:0:0:
329,192,175532,1,0,0:0:0:0:
182,192,175699,1,0,0:0:0:0:
402,192,175699,1,0,0:0:0:0:
475,192,175699,1,0,0:0:0:0:
329,192,175865,1,0,0:0:0:0:
256,192,175865,1,0,0:0:0:0:
36,192,175865,1,0,0:0:0:0:
109,192,175865,1,0,0:0:0:0:
475,192,175949,1,0,0:0:0:0:
182,192,176032,1,0,0:0:0:0:
402,192,176032,1,0,0:0:0:0:
256,192,176115,1,0,0:0:0:0:
329,192,176199,1,0,0:0:0:0:
475,192,176199,1,0,0:0:0:0:
109,192,176199,1,0,0:0:0:0:
182,192,176365,1,0,0:0:0:0:
402,192,176365,1,0,0:0:0:0:
36,192,176449,1,0,0:0:0:0:
329,192,176449,1,0,0:0:0:0:
109,192,176532,1,0,0:0:0:0:
475,192,176532,1,0,0:0:0:0:
256,192,176532,1,0,0:0:0:0:
402,192,176532,1,0,0:0:0:0:
36,192,176615,1,0,0:0:0:0:
329,192,176615,1,0,0:0:0:0:
475,192,176699,1,0,0:0:0:0:
109,192,176699,1,0,0:0:0:0:
182,192,176699,1,0,0:0:0:0:
256,192,176782,1,0,0:0:0:0:
402,192,176782,1,0,0:0:0:0:
329,192,176865,1,0,0:0:0:0:
182,192,176865,1,0,0:0:0:0:
36,192,176865,1,0,0:0:0:0:
256,192,177032,1,0,0:0:0:0:
475,192,177032,1,0,0:0:0:0:
109,192,177032,1,0,0:0:0:0:
182,192,177199,1,0,0:0:0:0:
256,192,177199,1,0,0:0:0:0:
402,192,177199,1,0,0:0:0:0:
36,192,177199,1,0,0:0:0:0:
109,192,177365,1,0,0:0:0:0:
329,192,177365,1,0,0:0:0:0:
475,192,177365,1,0,0:0:0:0:
36,192,177365,1,0,0:0:0:0:
182,192,177449,1,0,0:0:0:0:
256,192,177532,1,0,0:0:0:0:
402,192,177532,1,0,0:0:0:0:
109,192,177615,1,0,0:0:0:0:
182,192,177699,1,0,0:0:0:0:
475,192,177699,1,0,0:0:0:0:
36,192,177699,1,0,0:0:0:0:
109,192,177865,1,0,0:0:0:0:
329,192,177865,1,0,0:0:0:0:
475,192,177865,1,0,0:0:0:0:
182,192,178032,1,0,0:0:0:0:
256,192,178032,1,0,0:0:0:0:
402,192,178032,1,0,0:0:0:0:
36,192,178032,1,0,0:0:0:0:
329,192,178199,1,0,0:0:0:0:
475,192,178199,1,0,0:0:0:0:
109,192,178199,1,0,0:0:0:0:
402,192,178365,1,0,0:0:0:0:
182,192,178365,1,0,0:0:0:0:
36,192,178365,1,0,0:0:0:0:
109,192,178532,1,0,0:0:0:0:
256,192,178532,1,0,0:0:0:0:
329,192,178532,1,0,0:0:0:0:
475,192,178532,1,0,0:0:0:0:
182,192,178615,1,0,0:0:0:0:
329,192,178699,1,0,0:0:0:0:
475,192,178699,1,0,0:0:0:0:
109,192,178699,1,0,0:0:0:0:
402,192,178782,1,0,0:0:0:0:
182,192,178865,1,0,0:0:0:0:
36,192,178865,1,0,0:0:0:0:
402,192,179032,1,0,0:0:0:0:
256,192,179032,1,0,0:0:0:0:
36,192,179032,1,0,0:0:0:0:
329,192,179199,1,0,0:0:0:0:
256,192,179199,1,0,0:0:0:0:
475,192,179199,1,0,0:0:0:0:
109,192,179199,1,0,0:0:0:0:
182,192,179282,1,0,0:0:0:0:
402,192,179282,1,0,0:0:0:0:
329,192,179365,1,0,0:0:0:0:
109,192,179365,1,0,0:0:0:0:
475,192,179365,1,0,0:0:0:0:
256,192,179449,1,0,0:0:0:0:
36,192,179449,1,0,0:0:0:0:
475,192,179532,1,0,0:0:0:0:
182,192,179532,1,0,0:0:0:0:
329,192,179532,1,0,0:0:0:0:
256,192,179699,1,0,0:0:0:0:
109,192,179699,1,0,0:0:0:0:
475,192,179699,1,0,0:0:0:0:
329,192,179782,1,0,0:0:0:0:
182,192,179865,1,0,0:0:0:0:
256,192,179865,1,0,0:0:0:0:
402,192,179865,1,0,0:0:0:0:
36,192,179865,1,0,0:0:0:0:
109,192,180032,1,0,0:0:0:0:
329,192,180032,1,0,0:0:0:0:
475,192,180032,1,0,0:0:0:0:
182,192,180115,1,0,0:0:0:0:
256,192,180199,1,0,0:0:0:0:
402,192,180199,1,0,0:0:0:0:
36,192,180199,1,0,0:0:0:0:
109,192,180365,1,0,0:0:0:0:
329,192,180365,1,0,0:0:0:0:
475,192,180365,1,0,0:0:0:0:
329,192,180532,1,0,0:0:0:0:
182,192,180532,1,0,0:0:0:0:
109,192,180532,1,0,0:0:0:0:
256,192,180699,1,0,0:0:0:0:
182,192,180699,1,0,0:0:0:0:
36,192,180699,1,0,0:0:0:0:
402,192,180699,1,0,0:0:0:0:
109,192,180865,1,0,0:0:0:0:
329,192,180865,1,0,0:0:0:0:
475,192,180865,1,0,0:0:0:0:
36,192,181032,1,0,0:0:0:0:
109,192,181032,1,0,0:0:0:0:
256,192,181032,1,0,0:0:0:0:
182,192,181199,1,0,0:0:0:0:
475,192,181199,1,0,0:0:0:0:
256,192,181199,1,0,0:0:0:0:
36,192,181199,1,0,0:0:0:0:
402,192,181282,1,0,0:0:0:0:
329,192,181365,1,0,0:0:0:0:
109,192,181365,1,0,0:0:0:0:
475,192,181365,1,0,0:0:0:0:
256,192,181449,1,0,0:0:0:0:
182,192,181532,1,0,0:0:0:0:
402,192,181532,1,0,0:0:0:0:
329,192,181615,1,0,0:0:0:0:
256,192,181699,1,0,0:0:0:0:
36,192,181699,1,0,0:0:0:0:
475,192,181699,1,0,0:0:0:0:
182,192,181865,1,0,0:0:0:0:
256,192,181865,1,0,0:0:0:0:
402,192,181865,1,0,0:0:0:0:
36,192,181865,1,0,0:0:0:0:
109,192,182032,1,0,0:0:0:0:
329,192,182032,1,0,0:0:0:0:
475,192,182032,1,0,0:0:0:0:
182,192,182199,1,0,0:0:0:0:
402,192,182199,1,0,0:0:0:0:
36,192,182199,1,0,0:0:0:0:
256,192,182365,1,0,0:0:0:0:
475,192,182365,1,0,0:0:0:0:
329,192,182365,1,0,0:0:0:0:
329,192,182532,1,0,0:0:0:0:
109,192,182532,1,0,0:0:0:0:
182,192,182532,1,0,0:0:0:0:
475,192,182532,1,0,0:0:0:0:
402,192,182699,1,0,0:0:0:0:
256,192,182699,1,0,0:0:0:0:
36,192,182699,1,0,0:0:0:0:
182,192,182782,1,0,0:0:0:0:
109,192,182865,1,0,0:0:0:0:
475,192,182865,1,0,0:0:0:0:
329,192,183032,1,0,0:0:0:0:
182,192,183032,1,0,0:0:0:0:
36,192,183032,1,0,0:0:0:0:
109,192,183199,1,0,0:0:0:0:
256,192,183199,1,0,0:0:0:0:
475,192,183199,1,0,0:0:0:0:
182,192,183365,1,0,0:0:0:0:
256,192,183365,1,0,0:0:0:0:
475,192,183365,1,0,0:0:0:0:
36,192,183365,1,0,0:0:0:0:
329,192,183532,1,0,0:0:0:0:
402,192,183699,1,0,0:0:0:0:
182,192,183699,1,0,0:0:0:0:
36,192,183699,1,0,0:0:0:0:
329,192,183865,1,0,0:0:0:0:
256,192,183949,1,0,0:0:0:0:
475,192,183949,1,0,0:0:0:0:
109,192,184032,1,0,0:0:0:0:
402,192,184032,1,0,0:0:0:0:
329,192,184115,1,0,0:0:0:0:
36,192,184115,1,0,0:0:0:0:
256,192,184199,1,0,0:0:0:0:
475,192,184199,1,0,0:0:0:0:
182,192,184199,1,0,0:0:0:0:
402,192,184365,1,0,0:0:0:0:
109,192,184365,1,0,0:0:0:0:
329,192,184532,1,0,0:0:0:0:
182,192,184532,1,0,0:0:0:0:
36,192,184532,1,0,0:0:0:0:
109,192,184699,1,0,0:0:0:0:
256,192,184699,1,0,0:0:0:0:
329,192,184699,1,0,0:0:0:0:
475,192,184699,1,0,0:0:0:0:
182,192,184782,1,0,0:0:0:0:
402,192,184782,1,0,0:0:0:0:
36,192,184782,1,0,0:0:0:0:
475,192,184865,1,0,0:0:0:0:
256,192,184865,1,0,0:0:0:0:
109,192,184865,1,0,0:0:0:0:
329,192,184865,1,0,0:0:0:0:
109,192,185032,1,0,0:0:0:0:
402,192,185032,1,0,0:0:0:0:
182,192,185032,1,0,0:0:0:0:
256,192,185199,1,0,0:0:0:0:
182,192,185199,1,0,0:0:0:0:
36,192,185199,1,0,0:0:0:0:
475,192,185199,1,0,0:0:0:0:
329,192,185199,1,0,0:0:0:0:
109,192,185365,1,0,0:0:0:0:
329,192,185365,1,0,0:0:0:0:
475,192,185365,1,0,0:0:0:0:
36,192,185365,1,0,0:0:0:0:
182,192,185449,1,0,0:0:0:0:
256,192,185532,1,0,0:0:0:0:
109,192,185532,1,0,0:0:0:0:
182,192,185699,1,0,0:0:0:0:
402,192,185699,1,0,0:0:0:0:
109,192,185865,1,0,0:0:0:0:
329,192,185865,1,0,0:0:0:0:
475,192,185865,1,0,0:0:0:0:
36,192,185865,1,0,0:0:0:0:
256,192,186032,1,0,0:0:0:0:
182,192,186032,1,0,0:0:0:0:
36,192,186032,1,0,0:0:0:0:
402,192,186032,1,0,0:0:0:0:
109,192,186199,1,0,0:0:0:0:
329,192,186199,1,0,0:0:0:0:
256,192,186365,1,0,0:0:0:0:
402,192,186365,1,0,0:0:0:0:
109,192,186365,1,0,0:0:0:0:
36,192,186365,1,0,0:0:0:0:
182,192,186532,1,0,0:0:0:0:
256,192,186532,1,0,0:0:0:0:
36,192,186532,1,0,0:0:0:0:
475,192,186532,1,0,0:0:0:0:
182,192,186699,1,0,0:0:0:0:
329,192,186699,1,0,0:0:0:0:
109,192,186865,1,0,0:0:0:0:
329,192,186865,1,0,0:0:0:0:
475,192,186865,1,0,0:0:0:0:
36,192,186865,1,0,0:0:0:0:
402,192,187032,1,0,0:0:0:0:
182,192,187032,1,0,0:0:0:0:
256,192,187199,1,0,0:0:0:0:
182,192,187199,1,0,0:0:0:0:
36,192,187199,1,0,0:0:0:0:
475,192,187199,1,0,0:0:0:0:
329,192,187365,1,0,0:0:0:0:
182,192,187532,1,0,0:0:0:0:
329,192,187532,1,0,0:0:0:0:
36,192,187532,1,0,0:0:0:0:
402,192,187532,1,0,0:0:0:0:
402,192,187699,1,0,0:0:0:0:
109,192,187699,1,0,0:0:0:0:
475,192,187699,1,0,0:0:0:0:
329,192,187782,1,0,0:0:0:0:
256,192,187865,1,0,0:0:0:0:
182,192,187865,1,0,0:0:0:0:
36,192,187865,1,0,0:0:0:0:
475,192,187865,1,0,0:0:0:0:
109,192,188032,1,0,0:0:0:0:
329,192,188032,1,0,0:0:0:0:
475,192,188032,1,0,0:0:0:0:
36,192,188032,1,0,0:0:0:0:
256,192,188115,1,0,0:0:0:0:
182,192,188199,1,0,0:0:0:0:
402,192,188199,1,0,0:0:0:0:
36,192,188282,1,0,0:0:0:0:
329,192,188365,1,0,0:0:0:0:
109,192,188365,1,0,0:0:0:0:
475,192,188532,1,0,0:0:0:0:
109,192,188532,1,0,0:0:0:0:
329,192,188532,1,0,0:0:0:0:
36,192,188532,1,0,0:0:0:0:
256,192,188699,1,0,0:0:0:0:
182,192,188699,1,0,0:0:0:0:
36,192,188699,1,0,0:0:0:0:
402,192,188699,1,0,0:0:0:0:
109,192,188865,1,0,0:0:0:0:
329,192,188865,1,0,0:0:0:0:
475,192,188865,1,0,0:0:0:0:
182,192,189032,1,0,0:0:0:0:
36,192,189032,1,0,0:0:0:0:
402,192,189032,1,0,0:0:0:0:
256,192,189199,1,0,0:0:0:0:
329,192,189365,1,0,0:0:0:0:
475,192,189365,1,0,0:0:0:0:
109,192,189365,1,0,0:0:0:0:
36,192,189365,1,0,0:0:0:0:
36,192,189532,1,0,0:0:0:0:
182,192,189532,1,0,0:0:0:0:
402,192,189699,1,0,0:0:0:0:
256,192,189699,1,0,0:0:0:0:
109,192,189699,1,0,0:0:0:0:
36,192,189782,1,0,0:0:0:0:
182,192,189865,1,0,0:0:0:0:
256,192,189865,1,0,0:0:0:0:
475,192,189865,1,0,0:0:0:0:
402,192,189949,1,0,0:0:0:0:
109,192,189949,1,0,0:0:0:0:
36,192,190032,1,0,0:0:0:0:
475,192,190032,1,0,0:0:0:0:
182,192,190032,1,0,0:0:0:0:
256,192,190115,1,0,0:0:0:0:
402,192,190115,1,0,0:0:0:0:
329,192,190199,1,0,0:0:0:0:
182,192,190199,1,0,0:0:0:0:
475,192,190199,1,0,0:0:0:0:
109,192,190199,1,0,0:0:0:0:
402,192,190365,1,0,0:0:0:0:
109,192,190365,1,0,0:0:0:0:
256,192,190532,1,0,0:0:0:0:
182,192,190532,1,0,0:0:0:0:
36,192,190532,1,0,0:0:0:0:
329,192,190532,1,0,0:0:0:0:
109,192,190699,1,0,0:0:0:0:
182,192,190699,1,0,0:0:0:0:
402,192,190699,1,0,0:0:0:0:
329,192,190782,1,0,0:0:0:0:
256,192,190865,1,0,0:0:0:0:
36,192,190865,1,0,0:0:0:0:
329,192,191032,1,0,0:0:0:0:
182,192,191032,1,0,0:0:0:0:
36,192,191032,1,0,0:0:0:0:
109,192,191199,1,0,0:0:0:0:
475,192,191199,1,0,0:0:0:0:
256,192,191199,1,0,0:0:0:0:
182,192,191365,1,0,0:0:0:0:
256,192,191365,1,0,0:0:0:0:
36,192,191365,1,0,0:0:0:0:
402,192,191365,1,0,0:0:0:0:
329,192,191532,1,0,0:0:0:0:
109,192,191699,1,0,0:0:0:0:
475,192,191699,1,0,0:0:0:0:
329,192,191699,1,0,0:0:0:0:
182,192,191865,1,0,0:0:0:0:
256,192,191865,1,0,0:0:0:0:
36,192,191865,1,0,0:0:0:0:
402,192,191865,1,0,0:0:0:0:
36,192,192032,1,0,0:0:0:0:
329,192,192032,1,0,0:0:0:0:
109,192,192199,1,0,0:0:0:0:
402,192,192199,1,0,0:0:0:0:
329,192,192365,1,0,0:0:0:0:
182,192,192365,1,0,0:0:0:0:
256,192,192532,1,0,0:0:0:0:
109,192,192532,1,0,0:0:0:0:
402,192,192532,1,0,0:0:0:0:
475,192,192532,1,0,0:0:0:0:
182,192,192699,1,0,0:0:0:0:
36,192,192699,1,0,0:0:0:0:
109,192,192865,1,0,0:0:0:0:
182,192,192865,1,0,0:0:0:0:
402,192,192865,1,0,0:0:0:0:
36,192,193032,1,0,0:0:0:0:
256,192,193032,1,0,0:0:0:0:
182,192,193199,1,0,0:0:0:0:
256,192,193199,1,0,0:0:0:0:
36,192,193199,1,0,0:0:0:0:
402,192,193199,1,0,0:0:0:0:
109,192,193365,1,0,0:0:0:0:
182,192,193365,1,0,0:0:0:0:
402,192,193365,1,0,0:0:0:0:
329,192,193449,1,0,0:0:0:0:
36,192,193532,1,0,0:0:0:0:
256,192,193532,1,0,0:0:0:0:
109,192,193699,1,0,0:0:0:0:
402,192,193699,1,0,0:0:0:0:
475,192,193865,1,0,0:0:0:0:
329,192,193865,1,0,0:0:0:0:
109,192,193865,1,0,0:0:0:0:
182,192,194032,1,0,0:0:0:0:
256,192,194032,1,0,0:0:0:0:
36,192,194032,1,0,0:0:0:0:
402,192,194032,1,0,0:0:0:0:
329,192,194199,1,0,0:0:0:0:
36,192,194199,1,0,0:0:0:0:
475,192,194199,1,0,0:0:0:0:
402,192,194365,1,0,0:0:0:0:
109,192,194365,1,0,0:0:0:0:
329,192,194365,1,0,0:0:0:0:
256,192,194865,1,0,0:0:0:0:
402,192,194865,1,0,0:0:0:0:
182,192,194949,1,0,0:0:0:0:
329,192,194949,1,0,0:0:0:0:
36,192,195032,1,0,0:0:0:0:
109,192,195115,1,0,0:0:0:0:
402,192,195115,1,0,0:0:0:0:
329,192,195199,1,0,0:0:0:0:
475,192,195199,1,0,0:0:0:0:
182,192,195199,1,0,0:0:0:0:
256,192,195365,1,0,0:0:0:0:
402,192,195365,1,0,0:0:0:0:
109,192,195449,1,0,0:0:0:0:
329,192,195449,1,0,0:0:0:0:
182,192,195532,1,0,0:0:0:0:
256,192,195532,1,0,0:0:0:0:
475,192,195532,1,0,0:0:0:0:
36,192,195532,1,0,0:0:0:0:
402,192,195532,1,0,0:0:0:0:
109,192,195699,1,0,0:0:0:0:
256,192,195699,1,0,0:0:0:0:
182,192,195865,1,0,0:0:0:0:
329,192,195865,1,0,0:0:0:0:
402,192,196032,1,0,0:0:0:0:
329,192,196032,1,0,0:0:0:0:
256,192,196199,1,0,0:0:0:0:
182,192,196199,1,0,0:0:0:0:
36,192,196199,1,0,0:0:0:0:
475,192,196199,1,0,0:0:0:0:
329,192,196365,1,0,0:0:0:0:
36,192,196365,1,0,0:0:0:0:
475,192,196532,1,0,0:0:0:0:
109,192,196532,1,0,0:0:0:0:
329,192,196532,1,0,0:0:0:0:
256,192,196699,1,0,0:0:0:0:
36,192,196699,1,0,0:0:0:0:
109,192,196865,1,0,0:0:0:0:
182,192,196865,1,0,0:0:0:0:
402,192,196865,1,0,0:0:0:0:
475,192,196865,1,0,0:0:0:0:
402,192,197032,1,0,0:0:0:0:
256,192,197032,1,0,0:0:0:0:
36,192,197032,1,0,0:0:0:0:
182,192,197115,1,0,0:0:0:0:
329,192,197115,1,0,0:0:0:0:
109,192,197199,1,0,0:0:0:0:
256,192,197199,1,0,0:0:0:0:
402,192,197282,1,0,0:0:0:0:
475,192,197365,1,0,0:0:0:0:
329,192,197365,1,0,0:0:0:0:
182,192,197532,1,0,0:0:0:0:
256,192,197532,1,0,0:0:0:0:
36,192,197532,1,0,0:0:0:0:
402,192,197532,1,0,0:0:0:0:
109,192,197699,1,0,0:0:0:0:
329,192,197699,1,0,0:0:0:0:
475,192,197699,1,0,0:0:0:0:
182,192,197865,1,0,0:0:0:0:
402,192,197865,1,0,0:0:0:0:
36,192,197865,1,0,0:0:0:0:
109,192,197949,1,0,0:0:0:0:
329,192,197949,1,0,0:0:0:0:
256,192,198032,1,0,0:0:0:0:
475,192,198032,1,0,0:0:0:0:
402,192,198115,1,0,0:0:0:0:
109,192,198115,1,0,0:0:0:0:
182,192,198199,1,0,0:0:0:0:
329,192,198199,1,0,0:0:0:0:
36,192,198199,1,0,0:0:0:0:
256,192,198365,1,0,0:0:0:0:
402,192,198365,1,0,0:0:0:0:
329,192,198532,1,0,0:0:0:0:
475,192,198532,1,0,0:0:0:0:
182,192,198532,1,0,0:0:0:0:
36,192,198699,1,0,0:0:0:0:
256,192,198699,1,0,0:0:0:0:
402,192,198699,1,0,0:0:0:0:
256,192,198865,1,0,0:0:0:0:
329,192,198865,1,0,0:0:0:0:
109,192,198865,1,0,0:0:0:0:
475,192,198865,1,0,0:0:0:0:
329,192,199032,1,0,0:0:0:0:
475,192,199032,1,0,0:0:0:0:
182,192,199115,1,0,0:0:0:0:
256,192,199199,1,0,0:0:0:0:
36,192,199199,1,0,0:0:0:0:
109,192,199365,1,0,0:0:0:0:
402,192,199365,1,0,0:0:0:0:
475,192,199532,1,0,0:0:0:0:
182,192,199532,1,0,0:0:0:0:
256,192,199699,1,0,0:0:0:0:
329,192,199699,1,0,0:0:0:0:
475,192,199699,1,0,0:0:0:0:
182,192,199865,1,0,0:0:0:0:
402,192,199865,1,0,0:0:0:0:
109,192,199949,1,0,0:0:0:0:
329,192,199949,1,0,0:0:0:0:
256,192,200032,1,0,0:0:0:0:
475,192,200032,1,0,0:0:0:0:
182,192,200032,1,0,0:0:0:0:
182,192,200199,1,0,0:0:0:0:
256,192,200199,1,0,0:0:0:0:
36,192,200199,1,0,0:0:0:0:
402,192,200199,1,0,0:0:0:0:
109,192,200365,1,0,0:0:0:0:
329,192,200365,1,0,0:0:0:0:
475,192,200365,1,0,0:0:0:0:
402,192,200532,1,0,0:0:0:0:
182,192,200532,1,0,0:0:0:0:
36,192,200532,1,0,0:0:0:0:
329,192,200699,1,0,0:0:0:0:
36,192,200699,1,0,0:0:0:0:
109,192,200699,1,0,0:0:0:0:
182,192,200865,1,0,0:0:0:0:
256,192,200865,1,0,0:0:0:0:
475,192,200865,1,0,0:0:0:0:
402,192,201032,1,0,0:0:0:0:
256,192,201032,1,0,0:0:0:0:
329,192,201199,1,0,0:0:0:0:
475,192,201199,1,0,0:0:0:0:
109,192,201365,1,0,0:0:0:0:
402,192,201365,1,0,0:0:0:0:
182,192,201449,1,0,0:0:0:0:
329,192,201449,1,0,0:0:0:0:
256,192,201532,1,0,0:0:0:0:
109,192,201532,1,0,0:0:0:0:
36,192,201532,1,0,0:0:0:0:
475,192,201532,1,0,0:0:0:0:
402,192,201699,1,0,0:0:0:0:
109,192,201699,1,0,0:0:0:0:
329,192,201699,1,0,0:0:0:0:
256,192,201865,1,0,0:0:0:0:
475,192,201865,1,0,0:0:0:0:
329,192,202032,1,0,0:0:0:0:
36,192,202032,1,0,0:0:0:0:
109,192,202032,1,0,0:0:0:0:
256,192,202115,1,0,0:0:0:0:
182,192,202199,1,0,0:0:0:0:
402,192,202199,1,0,0:0:0:0:
36,192,202199,1,0,0:0:0:0:
475,192,202199,1,0,0:0:0:0:
329,192,202365,1,0,0:0:0:0:
182,192,202365,1,0,0:0:0:0:
256,192,202449,1,0,0:0:0:0:
475,192,202449,1,0,0:0:0:0:
109,192,202449,1,0,0:0:0:0:
36,192,202615,1,0,0:0:0:0:
402,192,202615,1,0,0:0:0:0:
109,192,202699,1,0,0:0:0:0:
475,192,202699,1,0,0:0:0:0:
329,192,202699,1,0,0:0:0:0:
182,192,202865,1,0,0:0:0:0:
256,192,202865,1,0,0:0:0:0:
36,192,202865,1,0,0:0:0:0:
402,192,202865,1,0,0:0:0:0:
109,192,203032,1,0,0:0:0:0:
256,192,203032,1,0,0:0:0:0:
402,192,203032,1,0,0:0:0:0:
182,192,203199,1,0,0:0:0:0:
36,192,203199,1,0,0:0:0:0:
109,192,203365,1,0,0:0:0:0:
182,192,203365,1,0,0:0:0:0:
402,192,203365,1,0,0:0:0:0:
256,192,203532,1,0,0:0:0:0:
329,192,203532,1,0,0:0:0:0:
36,192,203532,1,0,0:0:0:0:
475,192,203532,1,0,0:0:0:0:
402,192,203699,1,0,0:0:0:0:
256,192,203699,1,0,0:0:0:0:
182,192,203782,1,0,0:0:0:0:
475,192,203865,1,0,0:0:0:0:
329,192,203865,1,0,0:0:0:0:
256,192,204032,1,0,0:0:0:0:
109,192,204032,1,0,0:0:0:0:
182,192,204199,1,0,0:0:0:0:
256,192,204199,1,0,0:0:0:0:
36,192,204199,1,0,0:0:0:0:
402,192,204199,1,0,0:0:0:0:
109,192,204365,1,0,0:0:0:0:
402,192,204365,1,0,0:0:0:0:
182,192,204365,1,0,0:0:0:0:
256,192,204532,1,0,0:0:0:0:
36,192,204532,1,0,0:0:0:0:
329,192,204699,1,0,0:0:0:0:
475,192,204699,1,0,0:0:0:0:
256,192,204865,1,0,0:0:0:0:
402,192,204865,1,0,0:0:0:0:
182,192,205032,1,0,0:0:0:0:
36,192,205032,1,0,0:0:0:0:
109,192,205199,1,0,0:0:0:0:
329,192,205199,1,0,0:0:0:0:
182,192,205365,1,0,0:0:0:0:
402,192,205365,1,0,0:0:0:0:
256,192,205532,1,0,0:0:0:0:
182,192,205532,1,0,0:0:0:0:
36,192,205532,1,0,0:0:0:0:
402,192,205532,1,0,0:0:0:0:
475,192,205532,1,0,0:0:0:0:
329,192,205699,1,0,0:0:0:0:
475,192,205699,1,0,0:0:0:0:
109,192,205699,1,0,0:0:0:0:
256,192,205865,1,0,0:0:0:0:
402,192,205865,1,0,0:0:0:0:
109,192,205865,1,0,0:0:0:0:
109,192,206032,1,0,0:0:0:0:
182,192,206032,1,0,0:0:0:0:
329,192,206032,1,0,0:0:0:0:
36,192,206199,1,0,0:0:0:0:
256,192,206199,1,0,0:0:0:0:
402,192,206199,1,0,0:0:0:0:
475,192,206699,1,0,0:0:0:0:
475,192,207199,1,0,0:0:0:0:
329,192,207699,1,0,0:0:0:0:
475,192,208199,1,0,0:0:0:0:
329,192,208865,1,0,0:0:0:0:
36,192,208865,1,0,0:0:0:0:
475,192,209365,1,0,0:0:0:0:
475,192,209865,1,0,0:0:0:0:
329,192,210365,1,0,0:0:0:0:
475,192,210532,1,0,0:0:0:0:
329,192,210699,1,0,0:0:0:0:
475,192,210699,1,0,0:0:0:0:
256,192,210865,1,0,0:0:0:0:
182,192,210865,1,0,0:0:0:0:
36,192,210865,1,0,0:0:0:0:
329,192,210865,1,0,0:0:0:0:
475,192,210865,1,0,0:0:0:0:
402,192,210949,1,0,0:0:0:0:
109,192,210949,1,0,0:0:0:0:
182,192,211032,1,0,0:0:0:0:
36,192,211032,1,0,0:0:0:0:
329,192,211032,1,0,0:0:0:0:
475,192,211032,1,0,0:0:0:0:
402,192,211115,1,0,0:0:0:0:
256,192,211115,1,0,0:0:0:0:
182,192,211199,1,0,0:0:0:0:
182,192,211365,1,0,0:0:0:0:
329,192,211365,1,0,0:0:0:0:
36,192,211365,1,0,0:0:0:0:
109,192,211449,1,0,0:0:0:0:
256,192,211449,1,0,0:0:0:0:
36,192,211532,1,0,0:0:0:0:
182,192,211532,1,0,0:0:0:0:
329,192,211532,1,0,0:0:0:0:
402,192,211532,1,0,0:0:0:0:
475,192,211532,1,0,0:0:0:0:
256,192,211699,1,0,0:0:0:0:
402,192,211699,1,0,0:0:0:0:
109,192,211699,1,0,0:0:0:0:
329,192,211865,1,0,0:0:0:0:
475,192,211865,1,0,0:0:0:0:
36,192,211865,1,0,0:0:0:0:
182,192,212032,1,0,0:0:0:0:
402,192,212032,1,0,0:0:0:0:
256,192,212199,1,0,0:0:0:0:
182,192,212199,1,0,0:0:0:0:
36,192,212199,1,0,0:0:0:0:
475,192,212199,1,0,0:0:0:0:
329,192,212365,1,0,0:0:0:0:
475,192,212365,1,0,0:0:0:0:
402,192,212532,1,0,0:0:0:0:
256,192,212532,1,0,0:0:0:0:
256,192,212699,1,0,0:0:0:0:
109,192,212699,1,0,0:0:0:0:
182,192,212865,1,0,0:0:0:0:
36,192,212865,1,0,0:0:0:0:
256,192,212865,1,0,0:0:0:0:
402,192,212865,1,0,0:0:0:0:
329,192,213032,1,0,0:0:0:0:
475,192,213032,1,0,0:0:0:0:
109,192,213032,1,0,0:0:0:0:
256,192,213115,1,0,0:0:0:0:
36,192,213115,1,0,0:0:0:0:
182,192,213199,1,0,0:0:0:0:
402,192,213199,1,0,0:0:0:0:
329,192,213365,1,0,0:0:0:0:
182,192,213365,1,0,0:0:0:0:
109,192,213365,1,0,0:0:0:0:
256,192,213449,1,0,0:0:0:0:
402,192,213449,1,0,0:0:0:0:
182,192,213532,1,0,0:0:0:0:
329,192,213532,1,0,0:0:0:0:
475,192,213532,1,0,0:0:0:0:
36,192,213532,1,0,0:0:0:0:
256,192,213699,1,0,0:0:0:0:
402,192,213699,1,0,0:0:0:0:
329,192,213865,1,0,0:0:0:0:
182,192,213865,1,0,0:0:0:0:
109,192,213865,1,0,0:0:0:0:
256,192,213949,1,0,0:0:0:0:
109,192,214032,1,0,0:0:0:0:
36,192,214032,1,0,0:0:0:0:
182,192,214115,1,0,0:0:0:0:
256,192,214199,1,0,0:0:0:0:
329,192,214199,1,0,0:0:0:0:
475,192,214199,1,0,0:0:0:0:
402,192,214365,1,0,0:0:0:0:
256,192,214365,1,0,0:0:0:0:
329,192,214532,1,0,0:0:0:0:
475,192,214532,1,0,0:0:0:0:
109,192,214532,1,0,0:0:0:0:
256,192,214699,1,0,0:0:0:0:
36,192,214699,1,0,0:0:0:0:
182,192,214865,1,0,0:0:0:0:
256,192,214865,1,0,0:0:0:0:
36,192,214865,1,0,0:0:0:0:
402,192,214865,1,0,0:0:0:0:
182,192,215032,1,0,0:0:0:0:
329,192,215032,1,0,0:0:0:0:
329,192,215199,1,0,0:0:0:0:
475,192,215199,1,0,0:0:0:0:
109,192,215199,1,0,0:0:0:0:
402,192,215365,1,0,0:0:0:0:
256,192,215365,1,0,0:0:0:0:
329,192,215532,1,0,0:0:0:0:
182,192,215532,1,0,0:0:0:0:
109,192,215532,1,0,0:0:0:0:
36,192,215532,1,0,0:0:0:0:
475,192,215699,1,0,0:0:0:0:
329,192,215699,1,0,0:0:0:0:
402,192,215865,1,0,0:0:0:0:
256,192,215865,1,0,0:0:0:0:
329,192,216032,1,0,0:0:0:0:
182,192,216032,1,0,0:0:0:0:
36,192,216199,1,0,0:0:0:0:
109,192,216199,1,0,0:0:0:0:
402,192,216199,1,0,0:0:0:0:
256,192,216199,1,0,0:0:0:0:
182,192,216282,1,0,0:0:0:0:
329,192,216282,1,0,0:0:0:0:
475,192,216365,1,0,0:0:0:0:
256,192,216365,1,0,0:0:0:0:
109,192,216449,1,0,0:0:0:0:
182,192,216449,1,0,0:0:0:0:
36,192,216532,1,0,0:0:0:0:
475,192,216532,1,0,0:0:0:0:
329,192,216532,1,0,0:0:0:0:
256,192,216699,1,0,0:0:0:0:
109,192,216699,1,0,0:0:0:0:
329,192,216782,1,0,0:0:0:0:
182,192,216782,1,0,0:0:0:0:
256,192,216865,1,0,0:0:0:0:
109,192,216865,1,0,0:0:0:0:
36,192,216865,1,0,0:0:0:0:
475,192,216865,1,0,0:0:0:0:
