osu file format v14

[General]
AudioFilename: high.mp3
AudioLeadIn: 0
PreviewTime: 54784
Countdown: 1
SampleSet: Normal
StackLeniency: 0.7
Mode: 3
LetterboxInBreaks: 0
SpecialStyle: 0
WidescreenStoryboard: 0

[Editor]
DistanceSpacing: 1.1
BeatDivisor: 4
GridSize: 4
TimelineZoom: 1.9

[Metadata]
Title:4k Vibro Pack 3
TitleUnicode:4k Vibro Pack 3
Artist:Various Artists
ArtistUnicode:Various Artists
Creator:Staravia
Version:Vibro x Vibro
Source:
Tags:mapset jackhammer vibration
BeatmapID:1213523
BeatmapSetID:572754

[Difficulty]
HPDrainRate:8
CircleSize:4
OverallDifficulty:2
ApproachRate:5
SliderMultiplier:1.4
SliderTickRate:1

[Events]
//Background and Video events
0,0,"715080.jpg",0,0
//Break Periods
//Storyboard Layer 0 (Background)
//Storyboard Layer 1 (Fail)
//Storyboard Layer 2 (Pass)
//Storyboard Layer 3 (Foreground)
//Storyboard Sound Samples

[TimingPoints]
255,352.941176470588,4,1,0,30,1,0
55313,-100,4,1,0,30,0,1
66431,-100,4,1,0,30,0,0
66607,-100,4,1,0,30,0,1
77902,-100,4,1,0,30,0,0

[HitObjects]
448,192,255,5,0,0:0:0:0:
320,192,255,1,0,0:0:0:0:
448,192,343,1,0,0:0:0:0:
320,192,343,1,0,0:0:0:0:
448,192,431,1,0,0:0:0:0:
320,192,431,1,0,0:0:0:0:
320,192,519,1,0,0:0:0:0:
448,192,519,1,0,0:0:0:0:
64,192,607,1,0,0:0:0:0:
192,192,607,1,0,0:0:0:0:
192,192,696,1,0,0:0:0:0:
64,192,696,1,0,0:0:0:0:
64,192,784,1,0,0:0:0:0:
192,192,784,1,0,0:0:0:0:
192,192,872,1,0,0:0:0:0:
64,192,872,1,0,0:0:0:0:
320,192,960,1,0,0:0:0:0:
192,192,960,1,0,0:0:0:0:
64,192,960,1,0,0:0:0:0:
64,192,1049,1,0,0:0:0:0:
192,192,1049,1,0,0:0:0:0:
320,192,1049,1,0,0:0:0:0:
320,192,1137,1,0,0:0:0:0:
192,192,1137,1,0,0:0:0:0:
64,192,1137,1,0,0:0:0:0:
64,192,1225,1,0,0:0:0:0:
192,192,1225,1,0,0:0:0:0:
320,192,1225,1,0,0:0:0:0:
448,192,1313,1,0,0:0:0:0:
320,192,1313,1,0,0:0:0:0:
192,192,1313,1,0,0:0:0:0:
64,192,1313,1,0,0:0:0:0:
64,192,1402,1,0,0:0:0:0:
192,192,1402,1,0,0:0:0:0:
320,192,1402,1,0,0:0:0:0:
448,192,1402,1,0,0:0:0:0:
448,192,1490,1,0,0:0:0:0:
320,192,1490,1,0,0:0:0:0:
192,192,1490,1,0,0:0:0:0:
64,192,1490,1,0,0:0:0:0:
64,192,1578,1,0,0:0:0:0:
192,192,1578,1,0,0:0:0:0:
320,192,1578,1,0,0:0:0:0:
448,192,1578,1,0,0:0:0:0:
448,192,1666,1,0,0:0:0:0:
320,192,1666,1,0,0:0:0:0:
192,192,1666,1,0,0:0:0:0:
64,192,1666,1,0,0:0:0:0:
448,192,2019,1,0,0:0:0:0:
448,192,2372,1,0,0:0:0:0:
448,192,2725,1,0,0:0:0:0:
192,192,2902,1,0,0:0:0:0:
64,192,3078,1,0,0:0:0:0:
320,192,3078,1,0,0:0:0:0:
448,192,3078,1,0,0:0:0:0:
192,192,3078,1,0,0:0:0:0:
320,192,3254,1,0,0:0:0:0:
64,192,3607,1,0,0:0:0:0:
320,192,3960,1,0,0:0:0:0:
192,192,4137,1,0,0:0:0:0:
64,192,4313,1,0,0:0:0:0:
192,192,4313,1,0,0:0:0:0:
320,192,4313,1,0,0:0:0:0:
448,192,4313,1,0,0:0:0:0:
448,192,4490,1,0,0:0:0:0:
64,192,4666,1,0,0:0:0:0:
192,192,4666,1,0,0:0:0:0:
320,192,4666,1,0,0:0:0:0:
448,192,4666,1,0,0:0:0:0:
64,192,4843,1,0,0:0:0:0:
320,192,5019,1,0,0:0:0:0:
64,192,5196,1,0,0:0:0:0:
192,192,5196,1,0,0:0:0:0:
320,192,5196,1,0,0:0:0:0:
448,192,5196,1,0,0:0:0:0:
448,192,5549,1,0,0:0:0:0:
64,192,5725,1,0,0:0:0:0:
448,192,5902,1,0,0:0:0:0:
320,192,5902,1,0,0:0:0:0:
192,192,5902,1,0,0:0:0:0:
64,192,5902,1,0,0:0:0:0:
448,192,5990,1,0,0:0:0:0:
320,192,5990,1,0,0:0:0:0:
320,192,6078,1,0,0:0:0:0:
448,192,6078,1,0,0:0:0:0:
448,192,6166,1,0,0:0:0:0:
320,192,6166,1,0,0:0:0:0:
320,192,6254,1,0,0:0:0:0:
448,192,6254,1,0,0:0:0:0:
448,192,6343,1,0,0:0:0:0:
320,192,6343,1,0,0:0:0:0:
320,192,6431,1,0,0:0:0:0:
448,192,6431,1,0,0:0:0:0:
448,192,6519,1,0,0:0:0:0:
320,192,6519,1,0,0:0:0:0:
320,192,6607,1,0,0:0:0:0:
192,192,6607,1,0,0:0:0:0:
64,192,6607,1,0,0:0:0:0:
64,192,6696,1,0,0:0:0:0:
192,192,6696,1,0,0:0:0:0:
320,192,6696,1,0,0:0:0:0:
64,192,6784,1,0,0:0:0:0:
192,192,6784,1,0,0:0:0:0:
320,192,6784,1,0,0:0:0:0:
64,192,6872,1,0,0:0:0:0:
192,192,6872,1,0,0:0:0:0:
320,192,6872,1,0,0:0:0:0:
64,192,6960,1,0,0:0:0:0:
192,192,6960,1,0,0:0:0:0:
320,192,6960,1,0,0:0:0:0:
64,192,7049,1,0,0:0:0:0:
320,192,7049,1,0,0:0:0:0:
192,192,7049,1,0,0:0:0:0:
192,192,7137,1,0,0:0:0:0:
320,192,7137,1,0,0:0:0:0:
64,192,7137,1,0,0:0:0:0:
320,192,7225,1,0,0:0:0:0:
64,192,7225,1,0,0:0:0:0:
192,192,7225,1,0,0:0:0:0:
448,192,7313,1,0,0:0:0:0:
192,192,7313,1,0,0:0:0:0:
320,192,7313,1,0,0:0:0:0:
64,192,7313,1,0,0:0:0:0:
448,192,7490,1,0,0:0:0:0:
64,192,7666,1,0,0:0:0:0:
320,192,7666,1,0,0:0:0:0:
192,192,7666,128,0,7843:0:0:0:0:
64,192,7843,1,0,0:0:0:0:
192,192,8019,1,0,0:0:0:0:
448,192,8019,1,0,0:0:0:0:
320,192,8019,128,0,8196:0:0:0:0:
64,192,8196,1,0,0:0:0:0:
448,192,8196,128,0,8372:0:0:0:0:
320,192,8372,1,0,0:0:0:0:
192,192,8372,1,0,0:0:0:0:
64,192,8372,128,0,8549:0:0:0:0:
448,192,8549,1,0,0:0:0:0:
320,192,8549,128,0,8725:0:0:0:0:
64,192,8725,1,0,0:0:0:0:
448,192,8725,1,0,0:0:0:0:
192,192,8902,128,0,9078:0:0:0:0:
320,192,8902,1,0,0:0:0:0:
64,192,9078,1,0,0:0:0:0:
320,192,9078,1,0,0:0:0:0:
448,192,9078,128,0,9254:0:0:0:0:
192,192,9254,1,0,0:0:0:0:
64,192,9254,128,0,9431:0:0:0:0:
320,192,9431,128,0,9607:0:0:0:0:
192,192,9431,1,0,0:0:0:0:
448,192,9431,1,0,0:0:0:0:
64,192,9607,1,0,0:0:0:0:
448,192,9607,128,0,9784:0:0:0:0:
192,192,9784,1,0,0:0:0:0:
320,192,9784,1,0,0:0:0:0:
64,192,9960,128,0,10137:0:0:0:0:
320,192,9960,1,0,0:0:0:0:
448,192,9960,1,0,0:0:0:0:
192,192,10137,1,0,0:0:0:0:
448,192,10137,1,0,0:0:0:0:
320,192,10313,128,0,10490:0:0:0:0:
192,192,10313,1,0,0:0:0:0:
64,192,10313,1,0,0:0:0:0:
448,192,10490,1,0,0:0:0:0:
64,192,10490,1,0,0:0:0:0:
192,192,10666,128,0,10843:0:0:0:0:
448,192,10666,1,0,0:0:0:0:
320,192,10666,1,0,0:0:0:0:
64,192,10843,128,0,11019:0:0:0:0:
320,192,10843,1,0,0:0:0:0:
448,192,11019,128,0,11196:0:0:0:0:
192,192,11019,1,0,0:0:0:0:
320,192,11196,128,0,11372:0:0:0:0:
192,192,11196,1,0,0:0:0:0:
64,192,11196,1,0,0:0:0:0:
64,192,11372,128,0,11549:0:0:0:0:
448,192,11372,1,0,0:0:0:0:
320,192,11549,1,0,0:0:0:0:
192,192,11549,1,0,0:0:0:0:
448,192,11725,128,0,11902:0:0:0:0:
192,192,11725,1,0,0:0:0:0:
320,192,11902,128,0,12078:0:0:0:0:
192,192,11902,1,0,0:0:0:0:
64,192,11902,1,0,0:0:0:0:
64,192,12078,128,0,12254:0:0:0:0:
448,192,12078,1,0,0:0:0:0:
192,192,12254,128,0,12431:0:0:0:0:
320,192,12254,1,0,0:0:0:0:
448,192,12431,128,0,12607:0:0:0:0:
64,192,12431,1,0,0:0:0:0:
320,192,12607,128,0,12784:0:0:0:0:
192,192,12607,1,0,0:0:0:0:
64,192,12784,128,0,12960:0:0:0:0:
192,192,12784,1,0,0:0:0:0:
320,192,12960,1,0,0:0:0:0:
448,192,12960,1,0,0:0:0:0:
64,192,13137,128,0,13313:0:0:0:0:
192,192,13137,1,0,0:0:0:0:
320,192,13313,128,0,13490:0:0:0:0:
448,192,13313,1,0,0:0:0:0:
448,192,13490,128,0,13666:0:0:0:0:
192,192,13490,1,0,0:0:0:0:
192,192,13666,1,0,0:0:0:0:
64,192,13666,1,0,0:0:0:0:
320,192,13843,128,0,14019:0:0:0:0:
64,192,13843,1,0,0:0:0:0:
192,192,14019,128,0,14196:0:0:0:0:
448,192,14019,1,0,0:0:0:0:
64,192,14196,128,0,14372:0:0:0:0:
448,192,14196,1,0,0:0:0:0:
320,192,14372,1,0,0:0:0:0:
448,192,14372,1,0,0:0:0:0:
192,192,14549,128,0,14725:0:0:0:0:
320,192,14549,1,0,0:0:0:0:
448,192,14725,128,0,14902:0:0:0:0:
64,192,14725,1,0,0:0:0:0:
320,192,14902,128,0,15078:0:0:0:0:
64,192,14902,1,0,0:0:0:0:
192,192,15078,128,0,15254:0:0:0:0:
448,192,15078,1,0,0:0:0:0:
448,192,15254,128,0,15431:0:0:0:0:
64,192,15254,1,0,0:0:0:0:
64,192,15431,1,0,0:0:0:0:
192,192,15431,1,0,0:0:0:0:
320,192,15607,128,0,16666:0:0:0:0:
448,192,15607,1,0,0:0:0:0:
192,192,15607,1,0,0:0:0:0:
64,192,15784,1,0,0:0:0:0:
192,192,15960,1,0,0:0:0:0:
192,192,16137,1,0,0:0:0:0:
64,192,16313,1,0,0:0:0:0:
64,192,16490,1,0,0:0:0:0:
192,192,16666,1,0,0:0:0:0:
64,192,16666,1,0,0:0:0:0:
320,192,16843,1,0,0:0:0:0:
448,192,16843,1,0,0:0:0:0:
64,192,17019,128,0,17196:0:0:0:0:
192,192,17019,1,0,0:0:0:0:
448,192,17019,1,0,0:0:0:0:
320,192,17196,1,0,0:0:0:0:
192,192,17196,1,0,0:0:0:0:
448,192,17284,1,0,0:0:0:0:
64,192,17372,1,0,0:0:0:0:
192,192,17372,1,0,0:0:0:0:
448,192,17460,1,0,0:0:0:0:
320,192,17549,1,0,0:0:0:0:
192,192,17637,1,0,0:0:0:0:
320,192,17725,1,0,0:0:0:0:
448,192,17725,1,0,0:0:0:0:
64,192,17813,1,0,0:0:0:0:
192,192,17902,1,0,0:0:0:0:
448,192,17990,1,0,0:0:0:0:
192,192,18078,1,0,0:0:0:0:
64,192,18078,1,0,0:0:0:0:
448,192,18166,1,0,0:0:0:0:
320,192,18254,1,0,0:0:0:0:
192,192,18343,1,0,0:0:0:0:
320,192,18431,1,0,0:0:0:0:
448,192,18431,1,0,0:0:0:0:
64,192,18431,1,0,0:0:0:0:
448,192,18607,1,0,0:0:0:0:
320,192,18784,1,0,0:0:0:0:
192,192,18784,1,0,0:0:0:0:
64,192,18784,1,0,0:0:0:0:
192,192,18960,1,0,0:0:0:0:
448,192,18960,1,0,0:0:0:0:
448,192,19137,1,0,0:0:0:0:
64,192,19137,1,0,0:0:0:0:
192,192,19313,1,0,0:0:0:0:
64,192,19313,1,0,0:0:0:0:
320,192,19313,1,0,0:0:0:0:
448,192,19490,1,0,0:0:0:0:
192,192,19490,1,0,0:0:0:0:
64,192,19666,1,0,0:0:0:0:
448,192,19666,1,0,0:0:0:0:
320,192,19666,1,0,0:0:0:0:
192,192,19843,1,0,0:0:0:0:
320,192,19843,1,0,0:0:0:0:
192,192,20019,1,0,0:0:0:0:
64,192,20019,1,0,0:0:0:0:
448,192,20019,1,0,0:0:0:0:
320,192,20196,1,0,0:0:0:0:
448,192,20196,1,0,0:0:0:0:
64,192,20372,1,0,0:0:0:0:
192,192,20372,1,0,0:0:0:0:
320,192,20372,1,0,0:0:0:0:
448,192,20549,1,0,0:0:0:0:
64,192,20549,1,0,0:0:0:0:
192,192,20725,1,0,0:0:0:0:
320,192,20725,1,0,0:0:0:0:
448,192,20725,1,0,0:0:0:0:
320,192,20902,1,0,0:0:0:0:
64,192,20902,1,0,0:0:0:0:
192,192,21078,1,0,0:0:0:0:
64,192,21078,1,0,0:0:0:0:
448,192,21078,1,0,0:0:0:0:
320,192,21254,1,0,0:0:0:0:
448,192,21254,1,0,0:0:0:0:
320,192,21431,1,0,0:0:0:0:
192,192,21431,1,0,0:0:0:0:
64,192,21431,1,0,0:0:0:0:
64,192,21607,1,0,0:0:0:0:
448,192,21607,1,0,0:0:0:0:
320,192,21784,1,0,0:0:0:0:
192,192,21784,1,0,0:0:0:0:
64,192,21960,1,0,0:0:0:0:
192,192,21960,1,0,0:0:0:0:
448,192,21960,1,0,0:0:0:0:
320,192,22137,1,0,0:0:0:0:
192,192,22137,1,0,0:0:0:0:
320,192,22313,1,0,0:0:0:0:
448,192,22313,1,0,0:0:0:0:
64,192,22313,1,0,0:0:0:0:
192,192,22490,1,0,0:0:0:0:
320,192,22490,1,0,0:0:0:0:
64,192,22666,128,0,22931:0:0:0:0:
320,192,22666,128,0,22931:0:0:0:0:
448,192,22666,128,0,22931:0:0:0:0:
192,192,23019,1,0,0:0:0:0:
320,192,23019,1,0,0:0:0:0:
448,192,23019,1,0,0:0:0:0:
64,192,23372,128,0,23637:0:0:0:0:
192,192,23372,128,0,23637:0:0:0:0:
320,192,23372,128,0,23637:0:0:0:0:
64,192,23725,1,0,0:0:0:0:
448,192,23725,1,0,0:0:0:0:
192,192,23725,1,0,0:0:0:0:
320,192,24078,1,0,0:0:0:0:
448,192,24078,1,0,0:0:0:0:
64,192,24078,1,0,0:0:0:0:
448,192,24254,1,0,0:0:0:0:
320,192,24431,1,0,0:0:0:0:
192,192,24431,1,0,0:0:0:0:
64,192,24431,1,0,0:0:0:0:
192,192,24607,1,0,0:0:0:0:
448,192,24607,1,0,0:0:0:0:
448,192,24784,1,0,0:0:0:0:
64,192,24784,1,0,0:0:0:0:
192,192,24960,1,0,0:0:0:0:
64,192,24960,1,0,0:0:0:0:
320,192,24960,1,0,0:0:0:0:
448,192,25137,1,0,0:0:0:0:
192,192,25137,1,0,0:0:0:0:
64,192,25313,1,0,0:0:0:0:
448,192,25313,1,0,0:0:0:0:
320,192,25313,1,0,0:0:0:0:
192,192,25490,1,0,0:0:0:0:
320,192,25490,1,0,0:0:0:0:
192,192,25666,1,0,0:0:0:0:
64,192,25666,1,0,0:0:0:0:
448,192,25666,1,0,0:0:0:0:
320,192,25843,1,0,0:0:0:0:
64,192,25843,1,0,0:0:0:0:
320,192,26019,1,0,0:0:0:0:
192,192,26019,1,0,0:0:0:0:
448,192,26019,1,0,0:0:0:0:
448,192,26196,1,0,0:0:0:0:
64,192,26196,1,0,0:0:0:0:
192,192,26372,1,0,0:0:0:0:
320,192,26372,1,0,0:0:0:0:
64,192,26372,1,0,0:0:0:0:
320,192,26549,1,0,0:0:0:0:
192,192,26549,1,0,0:0:0:0:
192,192,26725,1,0,0:0:0:0:
64,192,26725,1,0,0:0:0:0:
448,192,26725,1,0,0:0:0:0:
320,192,26902,1,0,0:0:0:0:
448,192,26902,1,0,0:0:0:0:
320,192,27078,1,0,0:0:0:0:
192,192,27078,1,0,0:0:0:0:
64,192,27078,1,0,0:0:0:0:
64,192,27254,1,0,0:0:0:0:
448,192,27254,1,0,0:0:0:0:
320,192,27431,1,0,0:0:0:0:
192,192,27431,1,0,0:0:0:0:
64,192,27607,1,0,0:0:0:0:
192,192,27607,1,0,0:0:0:0:
448,192,27607,1,0,0:0:0:0:
320,192,27784,1,0,0:0:0:0:
192,192,27784,1,0,0:0:0:0:
320,192,27960,1,0,0:0:0:0:
448,192,27960,1,0,0:0:0:0:
64,192,27960,1,0,0:0:0:0:
192,192,28137,1,0,0:0:0:0:
320,192,28137,1,0,0:0:0:0:
64,192,28313,128,0,28578:0:0:0:0:
320,192,28313,128,0,28578:0:0:0:0:
448,192,28313,128,0,28578:0:0:0:0:
192,192,28666,1,0,0:0:0:0:
320,192,28666,1,0,0:0:0:0:
448,192,28666,1,0,0:0:0:0:
64,192,28843,1,0,0:0:0:0:
448,192,28843,1,0,0:0:0:0:
64,192,29019,128,0,29284:0:0:0:0:
192,192,29019,128,0,29284:0:0:0:0:
320,192,29019,128,0,29284:0:0:0:0:
64,192,29372,1,0,0:0:0:0:
448,192,29372,1,0,0:0:0:0:
192,192,29372,1,0,0:0:0:0:
320,192,29549,1,0,0:0:0:0:
192,192,29549,1,0,0:0:0:0:
320,192,29725,1,0,0:0:0:0:
64,192,29725,1,0,0:0:0:0:
448,192,29725,128,0,29990:0:0:0:0:
448,192,30078,1,0,0:0:0:0:
320,192,30078,1,0,0:0:0:0:
192,192,30078,1,0,0:0:0:0:
192,192,30254,1,0,0:0:0:0:
64,192,30254,1,0,0:0:0:0:
320,192,30431,1,0,0:0:0:0:
448,192,30431,1,0,0:0:0:0:
64,192,30431,1,0,0:0:0:0:
192,192,30607,1,0,0:0:0:0:
320,192,30607,1,0,0:0:0:0:
192,192,30784,1,0,0:0:0:0:
64,192,30784,1,0,0:0:0:0:
320,192,30960,1,0,0:0:0:0:
448,192,30960,1,0,0:0:0:0:
64,192,30960,1,0,0:0:0:0:
192,192,31137,1,0,0:0:0:0:
448,192,31137,1,0,0:0:0:0:
320,192,31313,1,0,0:0:0:0:
192,192,31313,1,0,0:0:0:0:
64,192,31313,1,0,0:0:0:0:
448,192,31490,1,0,0:0:0:0:
64,192,31490,1,0,0:0:0:0:
448,192,31666,1,0,0:0:0:0:
320,192,31666,1,0,0:0:0:0:
192,192,31666,1,0,0:0:0:0:
192,192,31843,1,0,0:0:0:0:
64,192,31843,1,0,0:0:0:0:
320,192,32019,1,0,0:0:0:0:
448,192,32019,1,0,0:0:0:0:
64,192,32019,1,0,0:0:0:0:
192,192,32196,1,0,0:0:0:0:
320,192,32196,1,0,0:0:0:0:
192,192,32372,1,0,0:0:0:0:
64,192,32372,1,0,0:0:0:0:
448,192,32372,1,0,0:0:0:0:
320,192,32549,1,0,0:0:0:0:
192,192,32549,1,0,0:0:0:0:
320,192,32725,1,0,0:0:0:0:
448,192,32725,1,0,0:0:0:0:
64,192,32725,1,0,0:0:0:0:
192,192,32902,1,0,0:0:0:0:
448,192,32902,1,0,0:0:0:0:
320,192,33078,1,0,0:0:0:0:
64,192,33078,1,0,0:0:0:0:
192,192,33254,1,0,0:0:0:0:
448,192,33254,1,0,0:0:0:0:
448,192,33431,1,0,0:0:0:0:
64,192,33431,1,0,0:0:0:0:
320,192,33607,1,0,0:0:0:0:
64,192,33607,1,0,0:0:0:0:
192,192,33784,1,0,0:0:0:0:
320,192,33784,1,0,0:0:0:0:
64,192,33960,128,0,34225:0:0:0:0:
320,192,33960,128,0,34225:0:0:0:0:
448,192,33960,128,0,34225:0:0:0:0:
192,192,34313,1,0,0:0:0:0:
320,192,34313,1,0,0:0:0:0:
448,192,34313,1,0,0:0:0:0:
64,192,34490,1,0,0:0:0:0:
448,192,34490,1,0,0:0:0:0:
320,192,34666,128,0,34931:0:0:0:0:
192,192,34666,128,0,34931:0:0:0:0:
64,192,34666,128,0,34931:0:0:0:0:
320,192,35019,1,0,0:0:0:0:
448,192,35019,1,0,0:0:0:0:
64,192,35019,1,0,0:0:0:0:
192,192,35196,1,0,0:0:0:0:
320,192,35196,1,0,0:0:0:0:
192,192,35372,1,0,0:0:0:0:
448,192,35372,1,0,0:0:0:0:
64,192,35372,128,0,35637:0:0:0:0:
192,192,35725,1,0,0:0:0:0:
64,192,35725,1,0,0:0:0:0:
320,192,35725,1,0,0:0:0:0:
320,192,35902,1,0,0:0:0:0:
448,192,35902,1,0,0:0:0:0:
192,192,36078,1,0,0:0:0:0:
64,192,36078,1,0,0:0:0:0:
448,192,36254,1,0,0:0:0:0:
320,192,36254,1,0,0:0:0:0:
64,192,36254,1,0,0:0:0:0:
192,192,36431,1,0,0:0:0:0:
320,192,36431,1,0,0:0:0:0:
192,192,36607,1,0,0:0:0:0:
64,192,36607,1,0,0:0:0:0:
448,192,36607,1,0,0:0:0:0:
320,192,36784,1,0,0:0:0:0:
448,192,36784,1,0,0:0:0:0:
192,192,36960,1,0,0:0:0:0:
64,192,36960,1,0,0:0:0:0:
320,192,36960,1,0,0:0:0:0:
448,192,37137,1,0,0:0:0:0:
64,192,37137,1,0,0:0:0:0:
192,192,37313,1,0,0:0:0:0:
320,192,37313,1,0,0:0:0:0:
448,192,37313,1,0,0:0:0:0:
320,192,37490,1,0,0:0:0:0:
64,192,37490,1,0,0:0:0:0:
192,192,37666,1,0,0:0:0:0:
64,192,37666,1,0,0:0:0:0:
448,192,37666,1,0,0:0:0:0:
320,192,37843,1,0,0:0:0:0:
448,192,37843,1,0,0:0:0:0:
192,192,38019,1,0,0:0:0:0:
320,192,38019,1,0,0:0:0:0:
64,192,38019,1,0,0:0:0:0:
64,192,38196,1,0,0:0:0:0:
448,192,38196,1,0,0:0:0:0:
192,192,38196,1,0,0:0:0:0:
448,192,38372,1,0,0:0:0:0:
192,192,38549,1,0,0:0:0:0:
64,192,38549,1,0,0:0:0:0:
320,192,38549,1,0,0:0:0:0:
64,192,38725,1,0,0:0:0:0:
192,192,38902,1,0,0:0:0:0:
320,192,38902,1,0,0:0:0:0:
448,192,38902,1,0,0:0:0:0:
192,192,39078,1,0,0:0:0:0:
320,192,39254,1,0,0:0:0:0:
64,192,39254,1,0,0:0:0:0:
448,192,39254,1,0,0:0:0:0:
192,192,39431,1,0,0:0:0:0:
192,192,39607,1,0,0:0:0:0:
320,192,39607,1,0,0:0:0:0:
64,192,39607,1,0,0:0:0:0:
448,192,39696,1,0,0:0:0:0:
320,192,39784,1,0,0:0:0:0:
192,192,39872,1,0,0:0:0:0:
64,192,39960,1,0,0:0:0:0:
448,192,39960,1,0,0:0:0:0:
320,192,40049,1,0,0:0:0:0:
64,192,40137,1,0,0:0:0:0:
192,192,40225,1,0,0:0:0:0:
320,192,40313,1,0,0:0:0:0:
448,192,40313,1,0,0:0:0:0:
64,192,40402,1,0,0:0:0:0:
320,192,40490,1,0,0:0:0:0:
192,192,40490,1,0,0:0:0:0:
448,192,40578,1,0,0:0:0:0:
64,192,40666,1,0,0:0:0:0:
192,192,40666,1,0,0:0:0:0:
320,192,40754,1,0,0:0:0:0:
192,192,40843,1,0,0:0:0:0:
448,192,40843,1,0,0:0:0:0:
64,192,40931,1,0,0:0:0:0:
320,192,41019,1,0,0:0:0:0:
448,192,41019,1,0,0:0:0:0:
192,192,41107,1,0,0:0:0:0:
448,192,41196,1,0,0:0:0:0:
192,192,41196,1,0,0:0:0:0:
64,192,41196,1,0,0:0:0:0:
320,192,41372,1,0,0:0:0:0:
192,192,41549,1,0,0:0:0:0:
64,192,41549,1,0,0:0:0:0:
448,192,41725,1,0,0:0:0:0:
64,192,41725,1,0,0:0:0:0:
192,192,41902,1,0,0:0:0:0:
320,192,41902,1,0,0:0:0:0:
448,192,41902,1,0,0:0:0:0:
320,192,42078,1,0,0:0:0:0:
192,192,42254,1,0,0:0:0:0:
64,192,42254,1,0,0:0:0:0:
320,192,42431,1,0,0:0:0:0:
448,192,42431,1,0,0:0:0:0:
448,192,42607,1,0,0:0:0:0:
320,192,42607,1,0,0:0:0:0:
64,192,42607,1,0,0:0:0:0:
64,192,42784,1,0,0:0:0:0:
192,192,42784,1,0,0:0:0:0:
192,192,42960,1,0,0:0:0:0:
320,192,42960,1,0,0:0:0:0:
320,192,43137,1,0,0:0:0:0:
448,192,43137,1,0,0:0:0:0:
192,192,43313,1,0,0:0:0:0:
448,192,43313,1,0,0:0:0:0:
64,192,43313,1,0,0:0:0:0:
192,192,43490,1,0,0:0:0:0:
192,192,43666,1,0,0:0:0:0:
320,192,43666,1,0,0:0:0:0:
320,192,43843,1,0,0:0:0:0:
448,192,43843,1,0,0:0:0:0:
192,192,44019,1,0,0:0:0:0:
64,192,44019,1,0,0:0:0:0:
448,192,44019,1,0,0:0:0:0:
64,192,44196,1,0,0:0:0:0:
64,192,44372,1,0,0:0:0:0:
320,192,44372,1,0,0:0:0:0:
448,192,44549,1,0,0:0:0:0:
320,192,44549,1,0,0:0:0:0:
192,192,44549,1,0,0:0:0:0:
448,192,44725,1,0,0:0:0:0:
320,192,44902,1,0,0:0:0:0:
64,192,44902,1,0,0:0:0:0:
192,192,45078,1,0,0:0:0:0:
192,192,45254,1,0,0:0:0:0:
320,192,45254,1,0,0:0:0:0:
448,192,45254,1,0,0:0:0:0:
320,192,45431,1,0,0:0:0:0:
64,192,45431,1,0,0:0:0:0:
192,192,45607,1,0,0:0:0:0:
64,192,45607,1,0,0:0:0:0:
448,192,45607,1,0,0:0:0:0:
320,192,45784,1,0,0:0:0:0:
448,192,45784,1,0,0:0:0:0:
320,192,45960,1,0,0:0:0:0:
192,192,45960,1,0,0:0:0:0:
64,192,45960,1,0,0:0:0:0:
64,192,46137,1,0,0:0:0:0:
448,192,46137,1,0,0:0:0:0:
448,192,46313,1,0,0:0:0:0:
320,192,46313,1,0,0:0:0:0:
192,192,46313,1,0,0:0:0:0:
192,192,46490,1,0,0:0:0:0:
320,192,46490,1,0,0:0:0:0:
192,192,46666,1,0,0:0:0:0:
64,192,46666,1,0,0:0:0:0:
448,192,46666,1,0,0:0:0:0:
320,192,46843,1,0,0:0:0:0:
192,192,47019,1,0,0:0:0:0:
64,192,47019,1,0,0:0:0:0:
320,192,47196,1,0,0:0:0:0:
448,192,47196,1,0,0:0:0:0:
192,192,47372,1,0,0:0:0:0:
64,192,47372,1,0,0:0:0:0:
448,192,47372,1,0,0:0:0:0:
320,192,47549,1,0,0:0:0:0:
192,192,47549,1,0,0:0:0:0:
320,192,47725,1,0,0:0:0:0:
448,192,47725,1,0,0:0:0:0:
64,192,47725,1,0,0:0:0:0:
192,192,47902,1,0,0:0:0:0:
64,192,47902,1,0,0:0:0:0:
448,192,47902,1,0,0:0:0:0:
320,192,48078,1,0,0:0:0:0:
192,192,48078,1,0,0:0:0:0:
320,192,48254,1,0,0:0:0:0:
448,192,48254,1,0,0:0:0:0:
64,192,48254,1,0,0:0:0:0:
192,192,48431,1,0,0:0:0:0:
64,192,48431,1,0,0:0:0:0:
448,192,48431,1,0,0:0:0:0:
320,192,48607,1,0,0:0:0:0:
448,192,48607,1,0,0:0:0:0:
192,192,48607,1,0,0:0:0:0:
64,192,48784,1,0,0:0:0:0:
192,192,48784,1,0,0:0:0:0:
192,192,48960,1,0,0:0:0:0:
320,192,48960,1,0,0:0:0:0:
320,192,49137,1,0,0:0:0:0:
448,192,49137,1,0,0:0:0:0:
64,192,49137,1,0,0:0:0:0:
192,192,49313,1,0,0:0:0:0:
64,192,49313,1,0,0:0:0:0:
320,192,49490,1,0,0:0:0:0:
448,192,49490,1,0,0:0:0:0:
192,192,49490,1,0,0:0:0:0:
64,192,49666,1,0,0:0:0:0:
320,192,49666,1,0,0:0:0:0:
448,192,49666,1,0,0:0:0:0:
192,192,49843,1,0,0:0:0:0:
320,192,50019,1,0,0:0:0:0:
448,192,50196,1,0,0:0:0:0:
192,192,50372,1,0,0:0:0:0:
64,192,50549,1,0,0:0:0:0:
320,192,50725,1,0,0:0:0:0:
192,192,50902,1,0,0:0:0:0:
192,192,51078,1,0,0:0:0:0:
320,192,51078,1,0,0:0:0:0:
64,192,51078,1,0,0:0:0:0:
448,192,51254,1,0,0:0:0:0:
64,192,51431,1,0,0:0:0:0:
192,192,51607,1,0,0:0:0:0:
192,192,51784,1,0,0:0:0:0:
64,192,51784,1,0,0:0:0:0:
448,192,51784,1,0,0:0:0:0:
320,192,51960,1,0,0:0:0:0:
64,192,52137,1,0,0:0:0:0:
192,192,52313,1,0,0:0:0:0:
320,192,52313,1,0,0:0:0:0:
448,192,52490,1,0,0:0:0:0:
64,192,52490,1,0,0:0:0:0:
320,192,52490,1,0,0:0:0:0:
192,192,52666,1,0,0:0:0:0:
320,192,52843,1,0,0:0:0:0:
192,192,52843,1,0,0:0:0:0:
64,192,52843,1,0,0:0:0:0:
448,192,53019,1,0,0:0:0:0:
448,192,53196,1,0,0:0:0:0:
320,192,53196,1,0,0:0:0:0:
192,192,53196,1,0,0:0:0:0:
64,192,53372,1,0,0:0:0:0:
320,192,53372,1,0,0:0:0:0:
192,192,53549,1,0,0:0:0:0:
64,192,53549,1,0,0:0:0:0:
448,192,53549,1,0,0:0:0:0:
192,192,53725,5,0,0:0:0:0:
320,192,53725,1,0,0:0:0:0:
448,192,53725,1,0,0:0:0:0:
192,192,54078,1,0,0:0:0:0:
320,192,54078,1,0,0:0:0:0:
448,192,54078,1,0,0:0:0:0:
448,192,54254,1,0,0:0:0:0:
64,192,54254,1,0,0:0:0:0:
320,192,54254,1,0,0:0:0:0:
192,192,54431,1,0,0:0:0:0:
320,192,54431,1,0,0:0:0:0:
448,192,54431,1,0,0:0:0:0:
64,192,54431,1,0,0:0:0:0:
320,192,54960,5,0,0:0:0:0:
192,192,55137,1,0,0:0:0:0:
64,192,55313,5,0,0:0:0:0:
192,192,55313,1,0,0:0:0:0:
320,192,55313,1,0,0:0:0:0:
448,192,55313,1,0,0:0:0:0:
448,192,55402,1,0,0:0:0:0:
320,192,55402,1,0,0:0:0:0:
192,192,55402,1,0,0:0:0:0:
64,192,55402,1,0,0:0:0:0:
64,192,55490,1,0,0:0:0:0:
192,192,55490,1,0,0:0:0:0:
320,192,55490,1,0,0:0:0:0:
448,192,55490,1,0,0:0:0:0:
448,192,55578,1,0,0:0:0:0:
320,192,55578,1,0,0:0:0:0:
192,192,55578,1,0,0:0:0:0:
64,192,55578,1,0,0:0:0:0:
64,192,55666,1,0,0:0:0:0:
192,192,55666,1,0,0:0:0:0:
320,192,55666,1,0,0:0:0:0:
448,192,55666,1,0,0:0:0:0:
192,192,55754,1,0,0:0:0:0:
320,192,55754,1,0,0:0:0:0:
64,192,55754,1,0,0:0:0:0:
448,192,55754,1,0,0:0:0:0:
448,192,55843,1,0,0:0:0:0:
320,192,55843,1,0,0:0:0:0:
192,192,55843,1,0,0:0:0:0:
64,192,55843,1,0,0:0:0:0:
320,192,55931,1,0,0:0:0:0:
64,192,55931,1,0,0:0:0:0:
192,192,55931,1,0,0:0:0:0:
448,192,55931,1,0,0:0:0:0:
192,192,56019,1,0,0:0:0:0:
64,192,56019,1,0,0:0:0:0:
320,192,56019,1,0,0:0:0:0:
448,192,56019,1,0,0:0:0:0:
320,192,56107,1,0,0:0:0:0:
64,192,56107,1,0,0:0:0:0:
448,192,56107,1,0,0:0:0:0:
192,192,56107,1,0,0:0:0:0:
64,192,56196,1,0,0:0:0:0:
448,192,56196,1,0,0:0:0:0:
192,192,56196,1,0,0:0:0:0:
320,192,56196,1,0,0:0:0:0:
192,192,56284,1,0,0:0:0:0:
64,192,56284,1,0,0:0:0:0:
448,192,56284,1,0,0:0:0:0:
320,192,56284,1,0,0:0:0:0:
192,192,56372,1,0,0:0:0:0:
448,192,56372,1,0,0:0:0:0:
320,192,56372,1,0,0:0:0:0:
64,192,56372,1,0,0:0:0:0:
320,192,56460,1,0,0:0:0:0:
448,192,56460,1,0,0:0:0:0:
192,192,56460,1,0,0:0:0:0:
64,192,56460,1,0,0:0:0:0:
448,192,56549,1,0,0:0:0:0:
192,192,56549,1,0,0:0:0:0:
320,192,56549,1,0,0:0:0:0:
64,192,56549,1,0,0:0:0:0:
64,192,56637,1,0,0:0:0:0:
192,192,56637,1,0,0:0:0:0:
320,192,56637,1,0,0:0:0:0:
448,192,56637,1,0,0:0:0:0:
448,192,56725,1,0,0:0:0:0:
320,192,56725,1,0,0:0:0:0:
192,192,56725,1,0,0:0:0:0:
64,192,56725,1,0,0:0:0:0:
64,192,56813,1,0,0:0:0:0:
192,192,56813,1,0,0:0:0:0:
320,192,56813,1,0,0:0:0:0:
448,192,56813,1,0,0:0:0:0:
448,192,56902,1,0,0:0:0:0:
320,192,56902,1,0,0:0:0:0:
192,192,56902,1,0,0:0:0:0:
64,192,56902,1,0,0:0:0:0:
64,192,56990,1,0,0:0:0:0:
192,192,56990,1,0,0:0:0:0:
320,192,56990,1,0,0:0:0:0:
448,192,56990,1,0,0:0:0:0:
192,192,57078,1,0,0:0:0:0:
320,192,57078,1,0,0:0:0:0:
64,192,57078,1,0,0:0:0:0:
448,192,57078,1,0,0:0:0:0:
448,192,57166,1,0,0:0:0:0:
320,192,57166,1,0,0:0:0:0:
192,192,57166,1,0,0:0:0:0:
64,192,57166,1,0,0:0:0:0:
320,192,57254,1,0,0:0:0:0:
64,192,57254,1,0,0:0:0:0:
192,192,57254,1,0,0:0:0:0:
448,192,57254,1,0,0:0:0:0:
192,192,57343,1,0,0:0:0:0:
64,192,57343,1,0,0:0:0:0:
320,192,57343,1,0,0:0:0:0:
448,192,57343,1,0,0:0:0:0:
320,192,57431,1,0,0:0:0:0:
64,192,57431,1,0,0:0:0:0:
448,192,57431,1,0,0:0:0:0:
192,192,57431,1,0,0:0:0:0:
64,192,57519,1,0,0:0:0:0:
192,192,57519,1,0,0:0:0:0:
320,192,57519,1,0,0:0:0:0:
448,192,57519,1,0,0:0:0:0:
192,192,57607,1,0,0:0:0:0:
64,192,57607,1,0,0:0:0:0:
448,192,57607,1,0,0:0:0:0:
320,192,57607,1,0,0:0:0:0:
192,192,57784,1,0,0:0:0:0:
64,192,57784,1,0,0:0:0:0:
448,192,57960,1,0,0:0:0:0:
320,192,57960,1,0,0:0:0:0:
320,192,58137,1,0,0:0:0:0:
448,192,58137,1,0,0:0:0:0:
64,192,58137,1,0,0:0:0:0:
192,192,58137,1,0,0:0:0:0:
192,192,58225,1,0,0:0:0:0:
64,192,58225,1,0,0:0:0:0:
448,192,58225,1,0,0:0:0:0:
320,192,58225,1,0,0:0:0:0:
320,192,58313,1,0,0:0:0:0:
448,192,58313,1,0,0:0:0:0:
64,192,58313,1,0,0:0:0:0:
192,192,58313,1,0,0:0:0:0:
192,192,58402,1,0,0:0:0:0:
64,192,58402,1,0,0:0:0:0:
448,192,58402,1,0,0:0:0:0:
320,192,58402,1,0,0:0:0:0:
320,192,58490,1,0,0:0:0:0:
448,192,58490,1,0,0:0:0:0:
64,192,58490,1,0,0:0:0:0:
192,192,58490,1,0,0:0:0:0:
64,192,58578,1,0,0:0:0:0:
448,192,58578,1,0,0:0:0:0:
192,192,58578,1,0,0:0:0:0:
320,192,58578,1,0,0:0:0:0:
192,192,58666,1,0,0:0:0:0:
64,192,58666,1,0,0:0:0:0:
448,192,58666,1,0,0:0:0:0:
320,192,58666,1,0,0:0:0:0:
192,192,58754,1,0,0:0:0:0:
448,192,58754,1,0,0:0:0:0:
320,192,58754,1,0,0:0:0:0:
64,192,58754,1,0,0:0:0:0:
320,192,58843,1,0,0:0:0:0:
448,192,58843,1,0,0:0:0:0:
192,192,58843,1,0,0:0:0:0:
64,192,58843,1,0,0:0:0:0:
448,192,58931,1,0,0:0:0:0:
192,192,58931,1,0,0:0:0:0:
320,192,58931,1,0,0:0:0:0:
64,192,58931,1,0,0:0:0:0:
192,192,59019,1,0,0:0:0:0:
320,192,59019,1,0,0:0:0:0:
64,192,59019,1,0,0:0:0:0:
448,192,59019,1,0,0:0:0:0:
448,192,59107,1,0,0:0:0:0:
320,192,59107,1,0,0:0:0:0:
192,192,59107,1,0,0:0:0:0:
64,192,59107,1,0,0:0:0:0:
320,192,59196,1,0,0:0:0:0:
64,192,59196,1,0,0:0:0:0:
192,192,59196,1,0,0:0:0:0:
448,192,59196,1,0,0:0:0:0:
192,192,59284,1,0,0:0:0:0:
64,192,59284,1,0,0:0:0:0:
320,192,59284,1,0,0:0:0:0:
448,192,59284,1,0,0:0:0:0:
64,192,59372,1,0,0:0:0:0:
192,192,59372,1,0,0:0:0:0:
320,192,59372,1,0,0:0:0:0:
448,192,59372,1,0,0:0:0:0:
448,192,59460,1,0,0:0:0:0:
320,192,59460,1,0,0:0:0:0:
192,192,59460,1,0,0:0:0:0:
64,192,59460,1,0,0:0:0:0:
64,192,59549,1,0,0:0:0:0:
192,192,59549,1,0,0:0:0:0:
320,192,59549,1,0,0:0:0:0:
448,192,59549,1,0,0:0:0:0:
448,192,59637,1,0,0:0:0:0:
320,192,59637,1,0,0:0:0:0:
192,192,59637,1,0,0:0:0:0:
64,192,59637,1,0,0:0:0:0:
64,192,59725,1,0,0:0:0:0:
192,192,59725,1,0,0:0:0:0:
320,192,59725,1,0,0:0:0:0:
448,192,59725,1,0,0:0:0:0:
192,192,59813,1,0,0:0:0:0:
320,192,59813,1,0,0:0:0:0:
64,192,59813,1,0,0:0:0:0:
448,192,59813,1,0,0:0:0:0:
448,192,59902,1,0,0:0:0:0:
320,192,59902,1,0,0:0:0:0:
192,192,59902,1,0,0:0:0:0:
64,192,59902,1,0,0:0:0:0:
320,192,59990,1,0,0:0:0:0:
64,192,59990,1,0,0:0:0:0:
192,192,59990,1,0,0:0:0:0:
448,192,59990,1,0,0:0:0:0:
192,192,60078,1,0,0:0:0:0:
64,192,60078,1,0,0:0:0:0:
320,192,60078,1,0,0:0:0:0:
448,192,60078,1,0,0:0:0:0:
320,192,60166,1,0,0:0:0:0:
64,192,60166,1,0,0:0:0:0:
448,192,60166,1,0,0:0:0:0:
192,192,60166,1,0,0:0:0:0:
64,192,60254,1,0,0:0:0:0:
448,192,60254,1,0,0:0:0:0:
192,192,60254,1,0,0:0:0:0:
320,192,60254,1,0,0:0:0:0:
192,192,60343,1,0,0:0:0:0:
64,192,60343,1,0,0:0:0:0:
448,192,60343,1,0,0:0:0:0:
320,192,60343,1,0,0:0:0:0:
192,192,60431,1,0,0:0:0:0:
448,192,60431,1,0,0:0:0:0:
320,192,60431,1,0,0:0:0:0:
64,192,60431,1,0,0:0:0:0:
192,192,60607,1,0,0:0:0:0:
64,192,60607,1,0,0:0:0:0:
320,192,60784,1,0,0:0:0:0:
448,192,60784,1,0,0:0:0:0:
64,192,60960,5,0,0:0:0:0:
320,192,60960,1,0,0:0:0:0:
192,192,60960,1,0,0:0:0:0:
320,192,61049,1,0,0:0:0:0:
192,192,61049,1,0,0:0:0:0:
64,192,61049,1,0,0:0:0:0:
64,192,61137,1,0,0:0:0:0:
192,192,61137,1,0,0:0:0:0:
320,192,61137,1,0,0:0:0:0:
320,192,61225,1,0,0:0:0:0:
192,192,61225,1,0,0:0:0:0:
64,192,61225,1,0,0:0:0:0:
64,192,61313,1,0,0:0:0:0:
192,192,61313,1,0,0:0:0:0:
320,192,61313,1,0,0:0:0:0:
192,192,61402,1,0,0:0:0:0:
320,192,61402,1,0,0:0:0:0:
64,192,61402,1,0,0:0:0:0:
320,192,61490,1,0,0:0:0:0:
192,192,61490,1,0,0:0:0:0:
64,192,61490,1,0,0:0:0:0:
320,192,61578,1,0,0:0:0:0:
64,192,61578,1,0,0:0:0:0:
192,192,61578,1,0,0:0:0:0:
192,192,61666,1,0,0:0:0:0:
64,192,61666,1,0,0:0:0:0:
320,192,61666,1,0,0:0:0:0:
320,192,61754,1,0,0:0:0:0:
64,192,61754,1,0,0:0:0:0:
192,192,61754,1,0,0:0:0:0:
64,192,61843,1,0,0:0:0:0:
192,192,61843,1,0,0:0:0:0:
320,192,61843,1,0,0:0:0:0:
192,192,61931,1,0,0:0:0:0:
64,192,61931,1,0,0:0:0:0:
320,192,61931,1,0,0:0:0:0:
192,192,62019,1,0,0:0:0:0:
320,192,62019,1,0,0:0:0:0:
64,192,62019,1,0,0:0:0:0:
448,192,62196,1,0,0:0:0:0:
320,192,62196,1,0,0:0:0:0:
64,192,62196,1,0,0:0:0:0:
320,192,62372,1,0,0:0:0:0:
192,192,62372,1,0,0:0:0:0:
448,192,62372,1,0,0:0:0:0:
448,192,62460,1,0,0:0:0:0:
320,192,62460,1,0,0:0:0:0:
192,192,62460,1,0,0:0:0:0:
192,192,62549,1,0,0:0:0:0:
320,192,62549,1,0,0:0:0:0:
448,192,62549,1,0,0:0:0:0:
448,192,62637,1,0,0:0:0:0:
320,192,62637,1,0,0:0:0:0:
192,192,62637,1,0,0:0:0:0:
320,192,62725,1,0,0:0:0:0:
192,192,62725,1,0,0:0:0:0:
448,192,62725,1,0,0:0:0:0:
192,192,62813,1,0,0:0:0:0:
320,192,62813,1,0,0:0:0:0:
448,192,62813,1,0,0:0:0:0:
192,192,62902,1,0,0:0:0:0:
448,192,62902,1,0,0:0:0:0:
320,192,62902,1,0,0:0:0:0:
320,192,62990,1,0,0:0:0:0:
448,192,62990,1,0,0:0:0:0:
192,192,62990,1,0,0:0:0:0:
192,192,63078,1,0,0:0:0:0:
448,192,63078,1,0,0:0:0:0:
320,192,63078,1,0,0:0:0:0:
448,192,63166,1,0,0:0:0:0:
320,192,63166,1,0,0:0:0:0:
192,192,63166,1,0,0:0:0:0:
320,192,63254,1,0,0:0:0:0:
448,192,63254,1,0,0:0:0:0:
192,192,63254,1,0,0:0:0:0:
192,192,63343,1,0,0:0:0:0:
320,192,63343,1,0,0:0:0:0:
448,192,63343,1,0,0:0:0:0:
192,192,63431,1,0,0:0:0:0:
448,192,63431,1,0,0:0:0:0:
320,192,63431,1,0,0:0:0:0:
192,192,63607,1,0,0:0:0:0:
64,192,63607,1,0,0:0:0:0:
448,192,63607,1,0,0:0:0:0:
64,192,63784,5,0,0:0:0:0:
192,192,63784,1,0,0:0:0:0:
320,192,63784,1,0,0:0:0:0:
320,192,63872,1,0,0:0:0:0:
192,192,63872,1,0,0:0:0:0:
64,192,63872,1,0,0:0:0:0:
64,192,63960,1,0,0:0:0:0:
192,192,63960,1,0,0:0:0:0:
320,192,63960,1,0,0:0:0:0:
320,192,64049,1,0,0:0:0:0:
192,192,64049,1,0,0:0:0:0:
64,192,64049,1,0,0:0:0:0:
64,192,64137,1,0,0:0:0:0:
192,192,64137,1,0,0:0:0:0:
320,192,64137,1,0,0:0:0:0:
192,192,64225,1,0,0:0:0:0:
320,192,64225,1,0,0:0:0:0:
64,192,64225,1,0,0:0:0:0:
320,192,64313,1,0,0:0:0:0:
192,192,64313,1,0,0:0:0:0:
64,192,64313,1,0,0:0:0:0:
64,192,64402,1,0,0:0:0:0:
192,192,64402,1,0,0:0:0:0:
320,192,64402,1,0,0:0:0:0:
320,192,64490,1,0,0:0:0:0:
64,192,64490,1,0,0:0:0:0:
448,192,64490,1,0,0:0:0:0:
448,192,64578,1,0,0:0:0:0:
64,192,64578,1,0,0:0:0:0:
320,192,64578,1,0,0:0:0:0:
64,192,64666,1,0,0:0:0:0:
320,192,64666,1,0,0:0:0:0:
448,192,64666,1,0,0:0:0:0:
320,192,64754,1,0,0:0:0:0:
64,192,64754,1,0,0:0:0:0:
448,192,64754,1,0,0:0:0:0:
320,192,64843,1,0,0:0:0:0:
448,192,64843,1,0,0:0:0:0:
64,192,64843,1,0,0:0:0:0:
64,192,64931,1,0,0:0:0:0:
320,192,64931,1,0,0:0:0:0:
448,192,64931,1,0,0:0:0:0:
448,192,65019,1,0,0:0:0:0:
320,192,65019,1,0,0:0:0:0:
64,192,65019,1,0,0:0:0:0:
64,192,65107,1,0,0:0:0:0:
320,192,65107,1,0,0:0:0:0:
448,192,65107,1,0,0:0:0:0:
320,192,65196,1,0,0:0:0:0:
192,192,65196,1,0,0:0:0:0:
448,192,65196,1,0,0:0:0:0:
448,192,65284,1,0,0:0:0:0:
320,192,65284,1,0,0:0:0:0:
192,192,65284,1,0,0:0:0:0:
192,192,65372,1,0,0:0:0:0:
320,192,65372,1,0,0:0:0:0:
448,192,65372,1,0,0:0:0:0:
448,192,65460,1,0,0:0:0:0:
320,192,65460,1,0,0:0:0:0:
192,192,65460,1,0,0:0:0:0:
448,192,65549,1,0,0:0:0:0:
192,192,65549,1,0,0:0:0:0:
64,192,65549,1,0,0:0:0:0:
64,192,65637,1,0,0:0:0:0:
192,192,65637,1,0,0:0:0:0:
448,192,65637,1,0,0:0:0:0:
64,192,65725,1,0,0:0:0:0:
448,192,65725,1,0,0:0:0:0:
192,192,65725,1,0,0:0:0:0:
192,192,65813,1,0,0:0:0:0:
448,192,65813,1,0,0:0:0:0:
64,192,65813,1,0,0:0:0:0:
64,192,65902,1,0,0:0:0:0:
192,192,65902,1,0,0:0:0:0:
320,192,65902,1,0,0:0:0:0:
320,192,65990,1,0,0:0:0:0:
192,192,65990,1,0,0:0:0:0:
64,192,65990,1,0,0:0:0:0:
192,192,66078,1,0,0:0:0:0:
320,192,66078,1,0,0:0:0:0:
64,192,66078,1,0,0:0:0:0:
320,192,66166,1,0,0:0:0:0:
64,192,66166,1,0,0:0:0:0:
192,192,66166,1,0,0:0:0:0:
192,192,66254,1,0,0:0:0:0:
320,192,66254,1,0,0:0:0:0:
448,192,66254,1,0,0:0:0:0:
64,192,66431,1,0,0:0:0:0:
320,192,66431,1,0,0:0:0:0:
448,192,66431,1,0,0:0:0:0:
64,192,66607,5,0,0:0:0:0:
320,192,66607,1,0,0:0:0:0:
192,192,66607,1,0,0:0:0:0:
448,192,66607,1,0,0:0:0:0:
448,192,66696,1,0,0:0:0:0:
320,192,66696,1,0,0:0:0:0:
192,192,66696,1,0,0:0:0:0:
64,192,66696,1,0,0:0:0:0:
64,192,66784,1,0,0:0:0:0:
192,192,66784,1,0,0:0:0:0:
320,192,66784,1,0,0:0:0:0:
448,192,66784,1,0,0:0:0:0:
448,192,66872,1,0,0:0:0:0:
320,192,66872,1,0,0:0:0:0:
192,192,66872,1,0,0:0:0:0:
64,192,66872,1,0,0:0:0:0:
64,192,66960,1,0,0:0:0:0:
192,192,66960,1,0,0:0:0:0:
320,192,66960,1,0,0:0:0:0:
448,192,66960,1,0,0:0:0:0:
192,192,67049,1,0,0:0:0:0:
320,192,67049,1,0,0:0:0:0:
64,192,67049,1,0,0:0:0:0:
448,192,67049,1,0,0:0:0:0:
448,192,67137,1,0,0:0:0:0:
320,192,67137,1,0,0:0:0:0:
192,192,67137,1,0,0:0:0:0:
64,192,67137,1,0,0:0:0:0:
320,192,67225,1,0,0:0:0:0:
64,192,67225,1,0,0:0:0:0:
192,192,67225,1,0,0:0:0:0:
448,192,67225,1,0,0:0:0:0:
192,192,67313,1,0,0:0:0:0:
64,192,67313,1,0,0:0:0:0:
320,192,67313,1,0,0:0:0:0:
448,192,67313,1,0,0:0:0:0:
320,192,67402,1,0,0:0:0:0:
64,192,67402,1,0,0:0:0:0:
448,192,67402,1,0,0:0:0:0:
192,192,67402,1,0,0:0:0:0:
64,192,67490,1,0,0:0:0:0:
448,192,67490,1,0,0:0:0:0:
192,192,67490,1,0,0:0:0:0:
320,192,67490,1,0,0:0:0:0:
192,192,67578,1,0,0:0:0:0:
64,192,67578,1,0,0:0:0:0:
448,192,67578,1,0,0:0:0:0:
320,192,67578,1,0,0:0:0:0:
192,192,67666,1,0,0:0:0:0:
448,192,67666,1,0,0:0:0:0:
320,192,67666,1,0,0:0:0:0:
64,192,67666,1,0,0:0:0:0:
320,192,67754,1,0,0:0:0:0:
448,192,67754,1,0,0:0:0:0:
192,192,67754,1,0,0:0:0:0:
64,192,67754,1,0,0:0:0:0:
448,192,67843,1,0,0:0:0:0:
192,192,67843,1,0,0:0:0:0:
320,192,67843,1,0,0:0:0:0:
64,192,67843,1,0,0:0:0:0:
64,192,67931,1,0,0:0:0:0:
192,192,67931,1,0,0:0:0:0:
320,192,67931,1,0,0:0:0:0:
448,192,67931,1,0,0:0:0:0:
448,192,68019,1,0,0:0:0:0:
320,192,68019,1,0,0:0:0:0:
192,192,68019,1,0,0:0:0:0:
64,192,68019,1,0,0:0:0:0:
64,192,68107,1,0,0:0:0:0:
192,192,68107,1,0,0:0:0:0:
320,192,68107,1,0,0:0:0:0:
448,192,68107,1,0,0:0:0:0:
448,192,68196,1,0,0:0:0:0:
320,192,68196,1,0,0:0:0:0:
192,192,68196,1,0,0:0:0:0:
64,192,68196,1,0,0:0:0:0:
64,192,68284,1,0,0:0:0:0:
192,192,68284,1,0,0:0:0:0:
320,192,68284,1,0,0:0:0:0:
448,192,68284,1,0,0:0:0:0:
192,192,68372,1,0,0:0:0:0:
320,192,68372,1,0,0:0:0:0:
64,192,68372,1,0,0:0:0:0:
448,192,68372,1,0,0:0:0:0:
448,192,68460,1,0,0:0:0:0:
320,192,68460,1,0,0:0:0:0:
192,192,68460,1,0,0:0:0:0:
64,192,68460,1,0,0:0:0:0:
320,192,68549,1,0,0:0:0:0:
64,192,68549,1,0,0:0:0:0:
192,192,68549,1,0,0:0:0:0:
448,192,68549,1,0,0:0:0:0:
192,192,68637,1,0,0:0:0:0:
64,192,68637,1,0,0:0:0:0:
320,192,68637,1,0,0:0:0:0:
448,192,68637,1,0,0:0:0:0:
320,192,68725,1,0,0:0:0:0:
64,192,68725,1,0,0:0:0:0:
448,192,68725,1,0,0:0:0:0:
192,192,68725,1,0,0:0:0:0:
64,192,68813,1,0,0:0:0:0:
192,192,68813,1,0,0:0:0:0:
320,192,68813,1,0,0:0:0:0:
448,192,68813,1,0,0:0:0:0:
192,192,68902,1,0,0:0:0:0:
64,192,68902,1,0,0:0:0:0:
448,192,68902,1,0,0:0:0:0:
320,192,68902,1,0,0:0:0:0:
192,192,69078,1,0,0:0:0:0:
64,192,69078,1,0,0:0:0:0:
448,192,69254,1,0,0:0:0:0:
320,192,69254,1,0,0:0:0:0:
320,192,69431,1,0,0:0:0:0:
448,192,69431,1,0,0:0:0:0:
64,192,69431,1,0,0:0:0:0:
192,192,69431,1,0,0:0:0:0:
192,192,69519,1,0,0:0:0:0:
64,192,69519,1,0,0:0:0:0:
448,192,69519,1,0,0:0:0:0:
320,192,69519,1,0,0:0:0:0:
320,192,69607,1,0,0:0:0:0:
448,192,69607,1,0,0:0:0:0:
64,192,69607,1,0,0:0:0:0:
192,192,69607,1,0,0:0:0:0:
192,192,69696,1,0,0:0:0:0:
64,192,69696,1,0,0:0:0:0:
448,192,69696,1,0,0:0:0:0:
320,192,69696,1,0,0:0:0:0:
320,192,69784,1,0,0:0:0:0:
448,192,69784,1,0,0:0:0:0:
64,192,69784,1,0,0:0:0:0:
192,192,69784,1,0,0:0:0:0:
64,192,69872,1,0,0:0:0:0:
448,192,69872,1,0,0:0:0:0:
192,192,69872,1,0,0:0:0:0:
320,192,69872,1,0,0:0:0:0:
192,192,69960,1,0,0:0:0:0:
64,192,69960,1,0,0:0:0:0:
448,192,69960,1,0,0:0:0:0:
320,192,69960,1,0,0:0:0:0:
192,192,70049,1,0,0:0:0:0:
448,192,70049,1,0,0:0:0:0:
320,192,70049,1,0,0:0:0:0:
64,192,70049,1,0,0:0:0:0:
320,192,70137,1,0,0:0:0:0:
448,192,70137,1,0,0:0:0:0:
192,192,70137,1,0,0:0:0:0:
64,192,70137,1,0,0:0:0:0:
448,192,70225,1,0,0:0:0:0:
192,192,70225,1,0,0:0:0:0:
320,192,70225,1,0,0:0:0:0:
64,192,70225,1,0,0:0:0:0:
192,192,70313,1,0,0:0:0:0:
320,192,70313,1,0,0:0:0:0:
64,192,70313,1,0,0:0:0:0:
448,192,70313,1,0,0:0:0:0:
448,192,70490,1,0,0:0:0:0:
64,192,70490,1,0,0:0:0:0:
192,192,70490,1,0,0:0:0:0:
192,192,70666,1,0,0:0:0:0:
320,192,70666,1,0,0:0:0:0:
448,192,70666,1,0,0:0:0:0:
448,192,70754,1,0,0:0:0:0:
320,192,70754,1,0,0:0:0:0:
192,192,70754,1,0,0:0:0:0:
192,192,70843,1,0,0:0:0:0:
320,192,70843,1,0,0:0:0:0:
448,192,70843,1,0,0:0:0:0:
192,192,70931,1,0,0:0:0:0:
320,192,70931,1,0,0:0:0:0:
448,192,70931,1,0,0:0:0:0:
192,192,71019,1,0,0:0:0:0:
320,192,71019,1,0,0:0:0:0:
448,192,71019,1,0,0:0:0:0:
192,192,71107,1,0,0:0:0:0:
320,192,71107,1,0,0:0:0:0:
448,192,71107,1,0,0:0:0:0:
448,192,71196,1,0,0:0:0:0:
320,192,71196,1,0,0:0:0:0:
192,192,71196,1,0,0:0:0:0:
192,192,71372,1,0,0:0:0:0:
64,192,71372,1,0,0:0:0:0:
320,192,71372,1,0,0:0:0:0:
320,192,71460,1,0,0:0:0:0:
64,192,71460,1,0,0:0:0:0:
192,192,71460,1,0,0:0:0:0:
64,192,71549,1,0,0:0:0:0:
192,192,71549,1,0,0:0:0:0:
320,192,71549,1,0,0:0:0:0:
192,192,71637,1,0,0:0:0:0:
64,192,71637,1,0,0:0:0:0:
320,192,71637,1,0,0:0:0:0:
192,192,71725,1,0,0:0:0:0:
320,192,71725,1,0,0:0:0:0:
64,192,71725,1,0,0:0:0:0:
320,192,71813,1,0,0:0:0:0:
192,192,71813,1,0,0:0:0:0:
64,192,71813,1,0,0:0:0:0:
320,192,71902,1,0,0:0:0:0:
192,192,71902,1,0,0:0:0:0:
64,192,71902,1,0,0:0:0:0:
64,192,72078,1,0,0:0:0:0:
192,192,72078,1,0,0:0:0:0:
320,192,72078,1,0,0:0:0:0:
448,192,72078,1,0,0:0:0:0:
448,192,72254,5,0,0:0:0:0:
320,192,72254,1,0,0:0:0:0:
192,192,72254,1,0,0:0:0:0:
192,192,72343,1,0,0:0:0:0:
320,192,72343,1,0,0:0:0:0:
448,192,72343,1,0,0:0:0:0:
448,192,72431,1,0,0:0:0:0:
320,192,72431,1,0,0:0:0:0:
192,192,72431,1,0,0:0:0:0:
192,192,72519,1,0,0:0:0:0:
320,192,72519,1,0,0:0:0:0:
448,192,72519,1,0,0:0:0:0:
448,192,72607,1,0,0:0:0:0:
320,192,72607,1,0,0:0:0:0:
192,192,72607,1,0,0:0:0:0:
320,192,72696,1,0,0:0:0:0:
192,192,72696,1,0,0:0:0:0:
448,192,72696,1,0,0:0:0:0:
192,192,72784,1,0,0:0:0:0:
320,192,72784,1,0,0:0:0:0:
448,192,72784,1,0,0:0:0:0:
192,192,72872,1,0,0:0:0:0:
448,192,72872,1,0,0:0:0:0:
320,192,72872,1,0,0:0:0:0:
320,192,72960,1,0,0:0:0:0:
448,192,72960,1,0,0:0:0:0:
192,192,72960,1,0,0:0:0:0:
192,192,73049,1,0,0:0:0:0:
448,192,73049,1,0,0:0:0:0:
320,192,73049,1,0,0:0:0:0:
448,192,73137,1,0,0:0:0:0:
320,192,73137,1,0,0:0:0:0:
192,192,73137,1,0,0:0:0:0:
320,192,73225,1,0,0:0:0:0:
448,192,73225,1,0,0:0:0:0:
192,192,73225,1,0,0:0:0:0:
320,192,73313,1,0,0:0:0:0:
192,192,73313,1,0,0:0:0:0:
448,192,73313,1,0,0:0:0:0:
64,192,73490,1,0,0:0:0:0:
192,192,73490,1,0,0:0:0:0:
448,192,73490,1,0,0:0:0:0:
192,192,73666,1,0,0:0:0:0:
320,192,73666,1,0,0:0:0:0:
64,192,73666,1,0,0:0:0:0:
64,192,73754,1,0,0:0:0:0:
192,192,73754,1,0,0:0:0:0:
320,192,73754,1,0,0:0:0:0:
320,192,73843,1,0,0:0:0:0:
192,192,73843,1,0,0:0:0:0:
64,192,73843,1,0,0:0:0:0:
64,192,73931,1,0,0:0:0:0:
192,192,73931,1,0,0:0:0:0:
320,192,73931,1,0,0:0:0:0:
192,192,74019,1,0,0:0:0:0:
320,192,74019,1,0,0:0:0:0:
64,192,74019,1,0,0:0:0:0:
320,192,74107,1,0,0:0:0:0:
192,192,74107,1,0,0:0:0:0:
64,192,74107,1,0,0:0:0:0:
320,192,74196,1,0,0:0:0:0:
64,192,74196,1,0,0:0:0:0:
192,192,74196,1,0,0:0:0:0:
192,192,74284,1,0,0:0:0:0:
64,192,74284,1,0,0:0:0:0:
320,192,74284,1,0,0:0:0:0:
320,192,74372,1,0,0:0:0:0:
64,192,74372,1,0,0:0:0:0:
192,192,74372,1,0,0:0:0:0:
64,192,74460,1,0,0:0:0:0:
192,192,74460,1,0,0:0:0:0:
320,192,74460,1,0,0:0:0:0:
192,192,74549,1,0,0:0:0:0:
64,192,74549,1,0,0:0:0:0:
320,192,74549,1,0,0:0:0:0:
320,192,74725,1,0,0:0:0:0:
64,192,74725,1,0,0:0:0:0:
448,192,74725,1,0,0:0:0:0:
448,192,74902,1,0,0:0:0:0:
320,192,74902,1,0,0:0:0:0:
192,192,74902,1,0,0:0:0:0:
192,192,74990,1,0,0:0:0:0:
320,192,74990,1,0,0:0:0:0:
448,192,74990,1,0,0:0:0:0:
448,192,75078,1,0,0:0:0:0:
320,192,75078,1,0,0:0:0:0:
192,192,75078,1,0,0:0:0:0:
192,192,75166,1,0,0:0:0:0:
320,192,75166,1,0,0:0:0:0:
448,192,75166,1,0,0:0:0:0:
448,192,75254,1,0,0:0:0:0:
320,192,75254,1,0,0:0:0:0:
64,192,75254,1,0,0:0:0:0:
320,192,75343,1,0,0:0:0:0:
448,192,75343,1,0,0:0:0:0:
64,192,75343,1,0,0:0:0:0:
64,192,75431,1,0,0:0:0:0:
320,192,75431,1,0,0:0:0:0:
448,192,75431,1,0,0:0:0:0:
64,192,75519,1,0,0:0:0:0:
320,192,75519,1,0,0:0:0:0:
448,192,75519,1,0,0:0:0:0:
64,192,75607,1,0,0:0:0:0:
320,192,75607,1,0,0:0:0:0:
192,192,75607,1,0,0:0:0:0:
320,192,75696,1,0,0:0:0:0:
192,192,75696,1,0,0:0:0:0:
64,192,75696,1,0,0:0:0:0:
64,192,75784,1,0,0:0:0:0:
192,192,75784,1,0,0:0:0:0:
320,192,75784,1,0,0:0:0:0:
320,192,75872,1,0,0:0:0:0:
192,192,75872,1,0,0:0:0:0:
64,192,75872,1,0,0:0:0:0:
64,192,75960,1,0,0:0:0:0:
192,192,75960,1,0,0:0:0:0:
448,192,75960,1,0,0:0:0:0:
192,192,76049,1,0,0:0:0:0:
64,192,76049,1,0,0:0:0:0:
448,192,76049,1,0,0:0:0:0:
64,192,76137,1,0,0:0:0:0:
192,192,76137,1,0,0:0:0:0:
448,192,76137,1,0,0:0:0:0:
192,192,76225,1,0,0:0:0:0:
64,192,76225,1,0,0:0:0:0:
448,192,76225,1,0,0:0:0:0:
64,192,76313,1,0,0:0:0:0:
192,192,76313,1,0,0:0:0:0:
448,192,76313,1,0,0:0:0:0:
320,192,76313,1,0,0:0:0:0:
64,192,76402,1,0,0:0:0:0:
192,192,76402,1,0,0:0:0:0:
320,192,76402,1,0,0:0:0:0:
448,192,76402,1,0,0:0:0:0:
320,192,76490,1,0,0:0:0:0:
448,192,76490,1,0,0:0:0:0:
192,192,76490,1,0,0:0:0:0:
64,192,76490,1,0,0:0:0:0:
64,192,76578,1,0,0:0:0:0:
192,192,76578,1,0,0:0:0:0:
320,192,76578,1,0,0:0:0:0:
448,192,76578,1,0,0:0:0:0:
192,192,76666,1,0,0:0:0:0:
320,192,76666,1,0,0:0:0:0:
64,192,76666,1,0,0:0:0:0:
448,192,76666,1,0,0:0:0:0:
64,192,76754,1,0,0:0:0:0:
448,192,76754,1,0,0:0:0:0:
192,192,76754,1,0,0:0:0:0:
320,192,76754,1,0,0:0:0:0:
64,192,76843,1,0,0:0:0:0:
448,192,76843,1,0,0:0:0:0:
192,192,76843,1,0,0:0:0:0:
320,192,76843,1,0,0:0:0:0:
320,192,76931,1,0,0:0:0:0:
64,192,76931,1,0,0:0:0:0:
448,192,76931,1,0,0:0:0:0:
192,192,76931,1,0,0:0:0:0:
64,192,77019,1,0,0:0:0:0:
448,192,77019,1,0,0:0:0:0:
192,192,77019,1,0,0:0:0:0:
320,192,77019,1,0,0:0:0:0:
192,192,77107,1,0,0:0:0:0:
320,192,77107,1,0,0:0:0:0:
64,192,77107,1,0,0:0:0:0:
448,192,77107,1,0,0:0:0:0:
192,192,77196,1,0,0:0:0:0:
320,192,77196,1,0,0:0:0:0:
64,192,77196,1,0,0:0:0:0:
448,192,77196,1,0,0:0:0:0:
448,192,77284,1,0,0:0:0:0:
192,192,77284,1,0,0:0:0:0:
320,192,77284,1,0,0:0:0:0:
64,192,77284,1,0,0:0:0:0:
192,192,77372,1,0,0:0:0:0:
320,192,77372,1,0,0:0:0:0:
64,192,77372,1,0,0:0:0:0:
448,192,77372,1,0,0:0:0:0:
64,192,77460,1,0,0:0:0:0:
448,192,77460,1,0,0:0:0:0:
192,192,77460,1,0,0:0:0:0:
320,192,77460,1,0,0:0:0:0:
64,192,77549,1,0,0:0:0:0:
448,192,77549,1,0,0:0:0:0:
192,192,77549,1,0,0:0:0:0:
320,192,77549,1,0,0:0:0:0:
320,192,77637,1,0,0:0:0:0:
64,192,77637,1,0,0:0:0:0:
448,192,77637,1,0,0:0:0:0:
192,192,77637,1,0,0:0:0:0:
64,192,77725,1,0,0:0:0:0:
448,192,77725,1,0,0:0:0:0:
192,192,77725,1,0,0:0:0:0:
320,192,77725,1,0,0:0:0:0:
192,192,77813,1,0,0:0:0:0:
320,192,77813,1,0,0:0:0:0:
64,192,77813,1,0,0:0:0:0:
448,192,77813,1,0,0:0:0:0:
192,192,77902,1,0,0:0:0:0:
320,192,77902,1,0,0:0:0:0:
64,192,77902,1,0,0:0:0:0:
448,192,77902,1,0,0:0:0:0:
448,192,78078,1,0,0:0:0:0:
320,192,78078,1,0,0:0:0:0:
64,192,78078,1,0,0:0:0:0:
192,192,78254,1,0,0:0:0:0:
320,192,78254,1,0,0:0:0:0:
448,192,78254,1,0,0:0:0:0:
64,192,78431,1,0,0:0:0:0:
320,192,78607,1,0,0:0:0:0:
448,192,78607,1,0,0:0:0:0:
64,192,78607,1,0,0:0:0:0:
320,192,78784,1,0,0:0:0:0:
192,192,78960,1,0,0:0:0:0:
64,192,78960,1,0,0:0:0:0:
448,192,78960,1,0,0:0:0:0:
320,192,79137,1,0,0:0:0:0:
192,192,79137,1,0,0:0:0:0:
448,192,79313,1,0,0:0:0:0:
320,192,79490,1,0,0:0:0:0:
192,192,79490,1,0,0:0:0:0:
64,192,79490,1,0,0:0:0:0:
192,192,79666,1,0,0:0:0:0:
64,192,79666,1,0,0:0:0:0:
320,192,79843,1,0,0:0:0:0:
448,192,80019,1,0,0:0:0:0:
320,192,80019,1,0,0:0:0:0:
192,192,80019,1,0,0:0:0:0:
448,192,80196,1,0,0:0:0:0:
64,192,80196,1,0,0:0:0:0:
320,192,80372,1,0,0:0:0:0:
64,192,80372,1,0,0:0:0:0:
192,192,80372,1,0,0:0:0:0:
448,192,80549,1,0,0:0:0:0:
320,192,80549,1,0,0:0:0:0:
192,192,80725,1,0,0:0:0:0:
192,192,80902,1,0,0:0:0:0:
320,192,81078,1,0,0:0:0:0:
448,192,81078,1,0,0:0:0:0:
64,192,81078,1,0,0:0:0:0:
448,192,81254,1,0,0:0:0:0:
320,192,81431,1,0,0:0:0:0:
64,192,81431,1,0,0:0:0:0:
64,192,81607,1,0,0:0:0:0:
192,192,81784,1,0,0:0:0:0:
320,192,81784,1,0,0:0:0:0:
448,192,81784,1,0,0:0:0:0:
448,192,81960,1,0,0:0:0:0:
64,192,81960,1,0,0:0:0:0:
192,192,82137,1,0,0:0:0:0:
320,192,82313,1,0,0:0:0:0:
448,192,82313,1,0,0:0:0:0:
64,192,82490,1,0,0:0:0:0:
192,192,82490,1,0,0:0:0:0:
448,192,82666,1,0,0:0:0:0:
64,192,82666,1,0,0:0:0:0:
192,192,82843,1,0,0:0:0:0:
448,192,82843,1,0,0:0:0:0:
320,192,83019,1,0,0:0:0:0:
64,192,83019,1,0,0:0:0:0:
192,192,83196,1,0,0:0:0:0:
64,192,83196,1,0,0:0:0:0:
320,192,83372,1,0,0:0:0:0:
448,192,83372,1,0,0:0:0:0:
192,192,83549,1,0,0:0:0:0:
64,192,83549,1,0,0:0:0:0:
448,192,83549,1,0,0:0:0:0:
64,192,83725,1,0,0:0:0:0:
320,192,83902,1,0,0:0:0:0:
448,192,83902,1,0,0:0:0:0:
192,192,83902,1,0,0:0:0:0:
320,192,84078,1,0,0:0:0:0:
192,192,84254,1,0,0:0:0:0:
64,192,84254,1,0,0:0:0:0:
320,192,84254,1,0,0:0:0:0:
64,192,84431,1,0,0:0:0:0:
320,192,84607,1,0,0:0:0:0:
448,192,84607,1,0,0:0:0:0:
192,192,84784,1,0,0:0:0:0:
448,192,84784,1,0,0:0:0:0:
64,192,84960,1,0,0:0:0:0:
192,192,85137,1,0,0:0:0:0:
320,192,85137,1,0,0:0:0:0:
448,192,85137,1,0,0:0:0:0:
320,192,85313,1,0,0:0:0:0:
192,192,85490,1,0,0:0:0:0:
64,192,85490,1,0,0:0:0:0:
320,192,85666,1,0,0:0:0:0:
448,192,85666,1,0,0:0:0:0:
192,192,85666,1,0,0:0:0:0:
448,192,85843,1,0,0:0:0:0:
192,192,86019,1,0,0:0:0:0:
64,192,86019,1,0,0:0:0:0:
320,192,86196,1,0,0:0:0:0:
64,192,86196,1,0,0:0:0:0:
448,192,86372,1,0,0:0:0:0:
320,192,86372,1,0,0:0:0:0:
192,192,86372,1,0,0:0:0:0:
448,192,86549,1,0,0:0:0:0:
192,192,86725,1,0,0:0:0:0:
64,192,86725,1,0,0:0:0:0:
320,192,86725,1,0,0:0:0:0:
448,192,86725,1,0,0:0:0:0:
64,192,86902,1,0,0:0:0:0:
64,192,87078,1,0,0:0:0:0:
192,192,87078,1,0,0:0:0:0:
320,192,87078,1,0,0:0:0:0:
448,192,87078,1,0,0:0:0:0:
320,192,87254,1,0,0:0:0:0:
448,192,87431,1,0,0:0:0:0:
192,192,87431,1,0,0:0:0:0:
64,192,87431,1,0,0:0:0:0:
320,192,87607,1,0,0:0:0:0:
448,192,87607,1,0,0:0:0:0:
192,192,87607,1,0,0:0:0:0:
64,192,87784,1,0,0:0:0:0:
448,192,87960,1,0,0:0:0:0:
320,192,87960,1,0,0:0:0:0:
192,192,87960,1,0,0:0:0:0:
64,192,88137,1,0,0:0:0:0:
192,192,88137,1,0,0:0:0:0:
320,192,88137,1,0,0:0:0:0:
448,192,88313,1,0,0:0:0:0:
320,192,88313,1,0,0:0:0:0:
192,192,88313,1,0,0:0:0:0:
448,192,88490,1,0,0:0:0:0:
448,192,88666,1,0,0:0:0:0:
320,192,88666,1,0,0:0:0:0:
192,192,88666,1,0,0:0:0:0:
64,192,88666,1,0,0:0:0:0:
