osu file format v14

[General]
AudioFilename: brave.mp3
AudioLeadIn: 0
PreviewTime: 50219
Countdown: 0
SampleSet: None
StackLeniency: 0.7
Mode: 3
LetterboxInBreaks: 0
SpecialStyle: 0
WidescreenStoryboard: 1

[Editor]
DistanceSpacing: 0.8
BeatDivisor: 4
GridSize: 4
TimelineZoom: 2.2

[Metadata]
Title:4k Vibro Pack 3
TitleUnicode:4k Vibro Pack 3
Artist:Various Artists
ArtistUnicode:Various Artists
Creator:Staravia
Version:Vibro Freak Out
Source:
Tags:mapset jackhammer vibration
BeatmapID:1213522
BeatmapSetID:572754

[Difficulty]
HPDrainRate:6
CircleSize:4
OverallDifficulty:6
ApproachRate:5
SliderMultiplier:1.4
SliderTickRate:1

[Events]
//Background and Video events
0,0,"dds.png",0,0
//Break Periods
//Storyboard Layer 0 (Background)
//Storyboard Layer 1 (Fail)
//Storyboard Layer 2 (Pass)
//Storyboard Layer 3 (Foreground)
//Storyboard Sound Samples

[TimingPoints]
482,292.682926829268,4,2,1,50,1,0
482,-102.040816326531,4,2,1,50,0,0
1506,352.941176470588,4,2,1,50,1,0
1506,-84.7457627118644,4,2,1,50,0,0
1682,300.075018754689,4,2,1,50,1,0
16085,-100,4,2,1,25,0,0
18186,-100,4,2,1,50,0,0
50744,-100,4,2,1,50,0,1
69949,-100,4,2,1,50,0,0

[HitObjects]
64,192,482,5,0,0:0:0:0:
192,192,482,1,0,0:0:0:0:
192,192,555,1,0,0:0:0:0:
64,192,555,1,0,0:0:0:0:
64,192,628,1,0,0:0:0:0:
192,192,628,1,0,0:0:0:0:
64,192,701,1,0,0:0:0:0:
192,192,701,1,0,0:0:0:0:
192,192,774,1,0,0:0:0:0:
64,192,774,1,0,0:0:0:0:
448,192,774,1,0,0:0:0:0:
64,192,847,1,0,0:0:0:0:
192,192,847,1,0,0:0:0:0:
448,192,847,1,0,0:0:0:0:
192,192,921,1,0,0:0:0:0:
64,192,921,1,0,0:0:0:0:
448,192,921,1,0,0:0:0:0:
64,192,994,1,0,0:0:0:0:
192,192,994,1,0,0:0:0:0:
448,192,994,1,0,0:0:0:0:
448,192,1067,1,0,0:0:0:0:
320,192,1067,1,0,0:0:0:0:
192,192,1067,1,0,0:0:0:0:
192,192,1140,1,0,0:0:0:0:
320,192,1140,1,0,0:0:0:0:
448,192,1140,1,0,0:0:0:0:
448,192,1213,1,0,0:0:0:0:
320,192,1213,1,0,0:0:0:0:
192,192,1213,1,0,0:0:0:0:
192,192,1286,1,0,0:0:0:0:
320,192,1286,1,0,0:0:0:0:
448,192,1286,1,0,0:0:0:0:
448,192,1360,1,0,0:0:0:0:
320,192,1360,1,0,0:0:0:0:
64,192,1360,1,0,0:0:0:0:
64,192,1433,1,0,0:0:0:0:
448,192,1433,1,0,0:0:0:0:
320,192,1433,1,0,0:0:0:0:
64,192,1506,1,0,0:0:0:0:
320,192,1506,1,0,0:0:0:0:
448,192,1506,1,0,0:0:0:0:
192,192,1506,1,0,0:0:0:0:
320,192,1832,1,0,0:0:0:0:
192,192,1982,1,0,0:0:0:0:
448,192,2282,1,0,0:0:0:0:
64,192,2582,1,0,0:0:0:0:
192,192,2582,1,0,0:0:0:0:
320,192,2732,1,0,0:0:0:0:
320,192,3032,1,0,0:0:0:0:
64,192,3182,1,0,0:0:0:0:
320,192,3332,1,0,0:0:0:0:
448,192,3482,1,0,0:0:0:0:
192,192,3632,128,0,3857:0:0:0:0:
448,192,3932,1,0,0:0:0:0:
320,192,3932,1,0,0:0:0:0:
192,192,3932,1,0,0:0:0:0:
64,192,3932,1,0,0:0:0:0:
320,192,4082,1,0,0:0:0:0:
448,192,4082,1,0,0:0:0:0:
320,192,4157,1,0,0:0:0:0:
448,192,4157,1,0,0:0:0:0:
192,192,4232,1,0,0:0:0:0:
448,192,4232,1,0,0:0:0:0:
320,192,4232,1,0,0:0:0:0:
320,192,4307,1,0,0:0:0:0:
448,192,4307,1,0,0:0:0:0:
320,192,4382,1,0,0:0:0:0:
448,192,4382,1,0,0:0:0:0:
64,192,4382,1,0,0:0:0:0:
192,192,4382,1,0,0:0:0:0:
64,192,4457,1,0,0:0:0:0:
192,192,4457,1,0,0:0:0:0:
64,192,4532,1,0,0:0:0:0:
192,192,4532,1,0,0:0:0:0:
192,192,4607,1,0,0:0:0:0:
64,192,4607,1,0,0:0:0:0:
192,192,4682,1,0,0:0:0:0:
64,192,4682,1,0,0:0:0:0:
448,192,4682,1,0,0:0:0:0:
192,192,4757,1,0,0:0:0:0:
64,192,4757,1,0,0:0:0:0:
64,192,4832,1,0,0:0:0:0:
192,192,4832,1,0,0:0:0:0:
320,192,4832,1,0,0:0:0:0:
448,192,4832,1,0,0:0:0:0:
192,192,4982,1,0,0:0:0:0:
320,192,4982,1,0,0:0:0:0:
192,192,5132,1,0,0:0:0:0:
64,192,5132,1,0,0:0:0:0:
448,192,5132,1,0,0:0:0:0:
320,192,5432,1,0,0:0:0:0:
448,192,5432,1,0,0:0:0:0:
192,192,5733,1,0,0:0:0:0:
64,192,5883,1,0,0:0:0:0:
320,192,6033,1,0,0:0:0:0:
448,192,6183,1,0,0:0:0:0:
192,192,6333,1,0,0:0:0:0:
64,192,6333,1,0,0:0:0:0:
320,192,6333,1,0,0:0:0:0:
448,192,6333,1,0,0:0:0:0:
192,192,6483,1,0,0:0:0:0:
64,192,6483,1,0,0:0:0:0:
64,192,6558,1,0,0:0:0:0:
192,192,6558,1,0,0:0:0:0:
192,192,6633,1,0,0:0:0:0:
64,192,6633,1,0,0:0:0:0:
320,192,6633,1,0,0:0:0:0:
64,192,6708,1,0,0:0:0:0:
192,192,6708,1,0,0:0:0:0:
192,192,6783,1,0,0:0:0:0:
64,192,6783,1,0,0:0:0:0:
448,192,6783,1,0,0:0:0:0:
320,192,6783,1,0,0:0:0:0:
64,192,6858,1,0,0:0:0:0:
192,192,6858,1,0,0:0:0:0:
192,192,6933,1,0,0:0:0:0:
64,192,6933,1,0,0:0:0:0:
448,192,6933,1,0,0:0:0:0:
64,192,7008,1,0,0:0:0:0:
192,192,7008,1,0,0:0:0:0:
192,192,7083,1,0,0:0:0:0:
64,192,7083,1,0,0:0:0:0:
320,192,7083,1,0,0:0:0:0:
192,192,7158,1,0,0:0:0:0:
64,192,7158,1,0,0:0:0:0:
320,192,7233,1,0,0:0:0:0:
192,192,7233,1,0,0:0:0:0:
64,192,7233,1,0,0:0:0:0:
448,192,7233,1,0,0:0:0:0:
64,192,7308,1,0,0:0:0:0:
192,192,7308,1,0,0:0:0:0:
192,192,7383,1,0,0:0:0:0:
64,192,7383,1,0,0:0:0:0:
448,192,7383,1,0,0:0:0:0:
192,192,7458,1,0,0:0:0:0:
64,192,7458,1,0,0:0:0:0:
64,192,7533,1,0,0:0:0:0:
192,192,7533,1,0,0:0:0:0:
192,192,7608,1,0,0:0:0:0:
64,192,7608,1,0,0:0:0:0:
64,192,7683,1,0,0:0:0:0:
192,192,7683,1,0,0:0:0:0:
320,192,7683,1,0,0:0:0:0:
192,192,7758,1,0,0:0:0:0:
64,192,7758,1,0,0:0:0:0:
64,192,7833,1,0,0:0:0:0:
192,192,7833,1,0,0:0:0:0:
448,192,7833,1,0,0:0:0:0:
192,192,7908,1,0,0:0:0:0:
64,192,7908,1,0,0:0:0:0:
64,192,7983,1,0,0:0:0:0:
192,192,7983,1,0,0:0:0:0:
448,192,7983,1,0,0:0:0:0:
320,192,7983,1,0,0:0:0:0:
192,192,8058,1,0,0:0:0:0:
64,192,8058,1,0,0:0:0:0:
192,192,8133,1,0,0:0:0:0:
320,192,8133,1,0,0:0:0:0:
192,192,8208,1,0,0:0:0:0:
320,192,8208,1,0,0:0:0:0:
192,192,8283,1,0,0:0:0:0:
320,192,8283,1,0,0:0:0:0:
320,192,8433,1,0,0:0:0:0:
448,192,8433,1,0,0:0:0:0:
320,192,8583,1,0,0:0:0:0:
192,192,8583,1,0,0:0:0:0:
64,192,8733,1,0,0:0:0:0:
192,192,8733,1,0,0:0:0:0:
448,192,8733,1,0,0:0:0:0:
192,192,8808,1,0,0:0:0:0:
64,192,8808,1,0,0:0:0:0:
64,192,8883,1,0,0:0:0:0:
192,192,8883,1,0,0:0:0:0:
320,192,8883,1,0,0:0:0:0:
448,192,8883,1,0,0:0:0:0:
448,192,8958,1,0,0:0:0:0:
320,192,8958,1,0,0:0:0:0:
320,192,9033,1,0,0:0:0:0:
448,192,9033,1,0,0:0:0:0:
448,192,9108,1,0,0:0:0:0:
320,192,9108,1,0,0:0:0:0:
320,192,9183,1,0,0:0:0:0:
448,192,9183,1,0,0:0:0:0:
192,192,9183,1,0,0:0:0:0:
64,192,9183,1,0,0:0:0:0:
320,192,9258,1,0,0:0:0:0:
448,192,9258,1,0,0:0:0:0:
448,192,9333,1,0,0:0:0:0:
320,192,9333,1,0,0:0:0:0:
192,192,9333,1,0,0:0:0:0:
320,192,9408,1,0,0:0:0:0:
448,192,9408,1,0,0:0:0:0:
448,192,9483,1,0,0:0:0:0:
320,192,9483,1,0,0:0:0:0:
64,192,9483,1,0,0:0:0:0:
448,192,9558,1,0,0:0:0:0:
320,192,9558,1,0,0:0:0:0:
320,192,9633,1,0,0:0:0:0:
448,192,9633,1,0,0:0:0:0:
64,192,9633,1,0,0:0:0:0:
320,192,9784,1,0,0:0:0:0:
192,192,9784,1,0,0:0:0:0:
320,192,10084,1,0,0:0:0:0:
448,192,10084,1,0,0:0:0:0:
320,192,10159,1,0,0:0:0:0:
448,192,10159,1,0,0:0:0:0:
448,192,10234,1,0,0:0:0:0:
320,192,10234,1,0,0:0:0:0:
192,192,10234,1,0,0:0:0:0:
64,192,10234,1,0,0:0:0:0:
64,192,10309,1,0,0:0:0:0:
192,192,10309,1,0,0:0:0:0:
192,192,10384,1,0,0:0:0:0:
64,192,10384,1,0,0:0:0:0:
64,192,10459,1,0,0:0:0:0:
192,192,10459,1,0,0:0:0:0:
192,192,10534,1,0,0:0:0:0:
64,192,10534,1,0,0:0:0:0:
320,192,10534,1,0,0:0:0:0:
192,192,10609,1,0,0:0:0:0:
320,192,10609,1,0,0:0:0:0:
192,192,10684,1,0,0:0:0:0:
320,192,10684,1,0,0:0:0:0:
320,192,10759,1,0,0:0:0:0:
192,192,10759,1,0,0:0:0:0:
320,192,10834,1,0,0:0:0:0:
448,192,10834,1,0,0:0:0:0:
192,192,10834,1,0,0:0:0:0:
192,192,10984,1,0,0:0:0:0:
64,192,10984,1,0,0:0:0:0:
320,192,10984,1,0,0:0:0:0:
320,192,11134,1,0,0:0:0:0:
448,192,11134,1,0,0:0:0:0:
192,192,11134,1,0,0:0:0:0:
320,192,11209,1,0,0:0:0:0:
448,192,11209,1,0,0:0:0:0:
448,192,11284,1,0,0:0:0:0:
320,192,11284,1,0,0:0:0:0:
192,192,11284,1,0,0:0:0:0:
64,192,11284,1,0,0:0:0:0:
64,192,11359,1,0,0:0:0:0:
192,192,11359,1,0,0:0:0:0:
192,192,11434,1,0,0:0:0:0:
64,192,11434,1,0,0:0:0:0:
64,192,11509,1,0,0:0:0:0:
192,192,11509,1,0,0:0:0:0:
192,192,11584,1,0,0:0:0:0:
64,192,11584,1,0,0:0:0:0:
320,192,11584,1,0,0:0:0:0:
448,192,11584,1,0,0:0:0:0:
64,192,11659,1,0,0:0:0:0:
192,192,11659,1,0,0:0:0:0:
192,192,11734,1,0,0:0:0:0:
64,192,11734,1,0,0:0:0:0:
448,192,11734,1,0,0:0:0:0:
64,192,11809,1,0,0:0:0:0:
192,192,11809,1,0,0:0:0:0:
192,192,11884,1,0,0:0:0:0:
64,192,11884,1,0,0:0:0:0:
320,192,11884,1,0,0:0:0:0:
320,192,12034,1,0,0:0:0:0:
448,192,12034,1,0,0:0:0:0:
64,192,12034,1,0,0:0:0:0:
192,192,12184,1,0,0:0:0:0:
320,192,12184,1,0,0:0:0:0:
320,192,12334,1,0,0:0:0:0:
448,192,12334,1,0,0:0:0:0:
448,192,12409,1,0,0:0:0:0:
320,192,12409,1,0,0:0:0:0:
320,192,12484,1,0,0:0:0:0:
448,192,12484,1,0,0:0:0:0:
192,192,12484,1,0,0:0:0:0:
64,192,12484,1,0,0:0:0:0:
192,192,12559,1,0,0:0:0:0:
64,192,12559,1,0,0:0:0:0:
64,192,12634,1,0,0:0:0:0:
192,192,12634,1,0,0:0:0:0:
192,192,12709,1,0,0:0:0:0:
64,192,12709,1,0,0:0:0:0:
64,192,12784,1,0,0:0:0:0:
192,192,12784,1,0,0:0:0:0:
320,192,12784,1,0,0:0:0:0:
448,192,12784,1,0,0:0:0:0:
448,192,12859,1,0,0:0:0:0:
320,192,12859,1,0,0:0:0:0:
320,192,12934,1,0,0:0:0:0:
448,192,12934,1,0,0:0:0:0:
448,192,13009,1,0,0:0:0:0:
320,192,13009,1,0,0:0:0:0:
448,192,13084,1,0,0:0:0:0:
320,192,13084,1,0,0:0:0:0:
64,192,13084,1,0,0:0:0:0:
320,192,13159,1,0,0:0:0:0:
448,192,13159,1,0,0:0:0:0:
448,192,13234,1,0,0:0:0:0:
320,192,13234,1,0,0:0:0:0:
192,192,13234,1,0,0:0:0:0:
320,192,13309,1,0,0:0:0:0:
448,192,13309,1,0,0:0:0:0:
448,192,13384,1,0,0:0:0:0:
320,192,13384,1,0,0:0:0:0:
192,192,13384,1,0,0:0:0:0:
64,192,13384,1,0,0:0:0:0:
448,192,13534,1,0,0:0:0:0:
320,192,13534,1,0,0:0:0:0:
320,192,13609,1,0,0:0:0:0:
448,192,13609,1,0,0:0:0:0:
448,192,13685,1,0,0:0:0:0:
320,192,13685,1,0,0:0:0:0:
192,192,13685,1,0,0:0:0:0:
64,192,13685,1,0,0:0:0:0:
192,192,13760,1,0,0:0:0:0:
64,192,13760,1,0,0:0:0:0:
64,192,13835,1,0,0:0:0:0:
192,192,13835,1,0,0:0:0:0:
448,192,13835,1,0,0:0:0:0:
192,192,13910,1,0,0:0:0:0:
64,192,13910,1,0,0:0:0:0:
192,192,13985,1,0,0:0:0:0:
64,192,13985,1,0,0:0:0:0:
320,192,13985,1,0,0:0:0:0:
448,192,13985,1,0,0:0:0:0:
192,192,14060,1,0,0:0:0:0:
64,192,14060,1,0,0:0:0:0:
192,192,14135,1,0,0:0:0:0:
64,192,14135,1,0,0:0:0:0:
320,192,14135,1,0,0:0:0:0:
192,192,14210,1,0,0:0:0:0:
64,192,14210,1,0,0:0:0:0:
192,192,14285,1,0,0:0:0:0:
64,192,14285,1,0,0:0:0:0:
448,192,14285,1,0,0:0:0:0:
192,192,14360,1,0,0:0:0:0:
64,192,14360,1,0,0:0:0:0:
320,192,14435,1,0,0:0:0:0:
64,192,14435,1,0,0:0:0:0:
192,192,14435,1,0,0:0:0:0:
192,192,14510,1,0,0:0:0:0:
64,192,14510,1,0,0:0:0:0:
320,192,14585,1,0,0:0:0:0:
448,192,14585,1,0,0:0:0:0:
64,192,14585,1,0,0:0:0:0:
192,192,14585,1,0,0:0:0:0:
192,192,14735,1,0,0:0:0:0:
320,192,14735,1,0,0:0:0:0:
64,192,14735,1,0,0:0:0:0:
64,192,14810,1,0,0:0:0:0:
192,192,14810,1,0,0:0:0:0:
320,192,14810,1,0,0:0:0:0:
320,192,14885,1,0,0:0:0:0:
448,192,14885,1,0,0:0:0:0:
192,192,14885,1,0,0:0:0:0:
192,192,14960,1,0,0:0:0:0:
320,192,14960,1,0,0:0:0:0:
448,192,14960,1,0,0:0:0:0:
320,192,15035,1,0,0:0:0:0:
448,192,15035,1,0,0:0:0:0:
64,192,15035,1,0,0:0:0:0:
448,192,15110,1,0,0:0:0:0:
320,192,15110,1,0,0:0:0:0:
64,192,15110,1,0,0:0:0:0:
192,192,15185,1,0,0:0:0:0:
64,192,15185,1,0,0:0:0:0:
448,192,15185,1,0,0:0:0:0:
448,192,15260,1,0,0:0:0:0:
192,192,15260,1,0,0:0:0:0:
64,192,15260,1,0,0:0:0:0:
192,192,15335,1,0,0:0:0:0:
320,192,15335,1,0,0:0:0:0:
192,192,15410,1,0,0:0:0:0:
320,192,15410,1,0,0:0:0:0:
64,192,15485,1,0,0:0:0:0:
320,192,15485,1,0,0:0:0:0:
448,192,15485,1,0,0:0:0:0:
64,192,15635,1,0,0:0:0:0:
192,192,15635,1,0,0:0:0:0:
320,192,15635,1,0,0:0:0:0:
448,192,15635,1,0,0:0:0:0:
320,192,16085,1,0,0:0:0:0:
64,192,17135,1,0,0:0:0:0:
192,192,17210,1,0,0:0:0:0:
448,192,17285,1,0,0:0:0:0:
320,192,18186,1,0,0:0:0:0:
192,192,18336,1,0,0:0:0:0:
320,192,18486,1,0,0:0:0:0:
192,192,18486,1,0,0:0:0:0:
64,192,18486,1,0,0:0:0:0:
64,192,18636,1,0,0:0:0:0:
64,192,18786,1,0,0:0:0:0:
448,192,18786,1,0,0:0:0:0:
64,192,18936,1,0,0:0:0:0:
192,192,19086,1,0,0:0:0:0:
320,192,19086,1,0,0:0:0:0:
320,192,19236,1,0,0:0:0:0:
192,192,19386,1,0,0:0:0:0:
448,192,19386,1,0,0:0:0:0:
320,192,19386,1,0,0:0:0:0:
64,192,19536,1,0,0:0:0:0:
192,192,19536,1,0,0:0:0:0:
64,192,19686,1,0,0:0:0:0:
448,192,19686,1,0,0:0:0:0:
320,192,19686,1,0,0:0:0:0:
448,192,19836,1,0,0:0:0:0:
192,192,19836,1,0,0:0:0:0:
192,192,19986,1,0,0:0:0:0:
192,192,20136,1,0,0:0:0:0:
64,192,20136,1,0,0:0:0:0:
320,192,20136,1,0,0:0:0:0:
64,192,20286,1,0,0:0:0:0:
192,192,20436,1,0,0:0:0:0:
448,192,20436,1,0,0:0:0:0:
448,192,20586,1,0,0:0:0:0:
192,192,20736,1,0,0:0:0:0:
320,192,20736,1,0,0:0:0:0:
192,192,20886,1,0,0:0:0:0:
448,192,20886,1,0,0:0:0:0:
320,192,21036,1,0,0:0:0:0:
320,192,21186,1,0,0:0:0:0:
64,192,21186,1,0,0:0:0:0:
320,192,21336,1,0,0:0:0:0:
320,192,21486,1,0,0:0:0:0:
192,192,21486,1,0,0:0:0:0:
192,192,21636,1,0,0:0:0:0:
192,192,21787,1,0,0:0:0:0:
448,192,21787,1,0,0:0:0:0:
448,192,21937,1,0,0:0:0:0:
320,192,21937,1,0,0:0:0:0:
64,192,22087,1,0,0:0:0:0:
192,192,22087,1,0,0:0:0:0:
320,192,22087,1,0,0:0:0:0:
64,192,22237,1,0,0:0:0:0:
448,192,22237,1,0,0:0:0:0:
192,192,22387,1,0,0:0:0:0:
192,192,22537,1,0,0:0:0:0:
320,192,22537,1,0,0:0:0:0:
192,192,22687,1,0,0:0:0:0:
448,192,22687,1,0,0:0:0:0:
320,192,22837,1,0,0:0:0:0:
192,192,22837,1,0,0:0:0:0:
64,192,22837,1,0,0:0:0:0:
192,192,22987,1,0,0:0:0:0:
320,192,22987,1,0,0:0:0:0:
448,192,22987,1,0,0:0:0:0:
320,192,23137,1,0,0:0:0:0:
192,192,23137,1,0,0:0:0:0:
64,192,23137,1,0,0:0:0:0:
320,192,23287,1,0,0:0:0:0:
448,192,23287,1,0,0:0:0:0:
64,192,23287,1,0,0:0:0:0:
320,192,23437,1,0,0:0:0:0:
320,192,23587,1,0,0:0:0:0:
64,192,23587,1,0,0:0:0:0:
320,192,23737,1,0,0:0:0:0:
192,192,23887,1,0,0:0:0:0:
320,192,23887,1,0,0:0:0:0:
448,192,23887,1,0,0:0:0:0:
192,192,24037,1,0,0:0:0:0:
192,192,24187,1,0,0:0:0:0:
448,192,24187,1,0,0:0:0:0:
64,192,24187,1,0,0:0:0:0:
192,192,24337,1,0,0:0:0:0:
192,192,24487,1,0,0:0:0:0:
320,192,24487,1,0,0:0:0:0:
320,192,24637,1,0,0:0:0:0:
320,192,24787,1,0,0:0:0:0:
64,192,24787,1,0,0:0:0:0:
192,192,24787,1,0,0:0:0:0:
64,192,24937,1,0,0:0:0:0:
64,192,25087,1,0,0:0:0:0:
448,192,25087,1,0,0:0:0:0:
192,192,25237,1,0,0:0:0:0:
192,192,25387,1,0,0:0:0:0:
320,192,25387,1,0,0:0:0:0:
448,192,25387,1,0,0:0:0:0:
64,192,25537,1,0,0:0:0:0:
448,192,25537,1,0,0:0:0:0:
320,192,25688,1,0,0:0:0:0:
192,192,25688,1,0,0:0:0:0:
64,192,25688,1,0,0:0:0:0:
192,192,25838,1,0,0:0:0:0:
320,192,25838,1,0,0:0:0:0:
192,192,25988,1,0,0:0:0:0:
320,192,25988,1,0,0:0:0:0:
320,192,26138,1,0,0:0:0:0:
192,192,26138,1,0,0:0:0:0:
192,192,26288,1,0,0:0:0:0:
320,192,26288,1,0,0:0:0:0:
192,192,26438,1,0,0:0:0:0:
448,192,26438,1,0,0:0:0:0:
448,192,26588,1,0,0:0:0:0:
192,192,26588,1,0,0:0:0:0:
320,192,26588,1,0,0:0:0:0:
64,192,26738,1,0,0:0:0:0:
448,192,26738,1,0,0:0:0:0:
448,192,26888,1,0,0:0:0:0:
64,192,26888,1,0,0:0:0:0:
192,192,26888,1,0,0:0:0:0:
320,192,27038,1,0,0:0:0:0:
64,192,27038,1,0,0:0:0:0:
320,192,27188,1,0,0:0:0:0:
192,192,27188,1,0,0:0:0:0:
448,192,27188,1,0,0:0:0:0:
64,192,27338,1,0,0:0:0:0:
448,192,27338,1,0,0:0:0:0:
320,192,27488,1,0,0:0:0:0:
192,192,27488,1,0,0:0:0:0:
192,192,27638,1,0,0:0:0:0:
320,192,27638,1,0,0:0:0:0:
320,192,27788,1,0,0:0:0:0:
448,192,27788,1,0,0:0:0:0:
64,192,27788,1,0,0:0:0:0:
64,192,27938,1,0,0:0:0:0:
448,192,27938,1,0,0:0:0:0:
448,192,28088,1,0,0:0:0:0:
320,192,28088,1,0,0:0:0:0:
192,192,28088,1,0,0:0:0:0:
64,192,28088,1,0,0:0:0:0:
192,192,28238,1,0,0:0:0:0:
64,192,28388,1,0,0:0:0:0:
192,192,28388,1,0,0:0:0:0:
320,192,28388,1,0,0:0:0:0:
448,192,28538,1,0,0:0:0:0:
64,192,28688,1,0,0:0:0:0:
192,192,28688,1,0,0:0:0:0:
192,192,28763,1,0,0:0:0:0:
64,192,28763,1,0,0:0:0:0:
64,192,28838,1,0,0:0:0:0:
192,192,28838,1,0,0:0:0:0:
320,192,28838,1,0,0:0:0:0:
64,192,28913,1,0,0:0:0:0:
192,192,28913,1,0,0:0:0:0:
320,192,28913,1,0,0:0:0:0:
192,192,28988,1,0,0:0:0:0:
64,192,28988,1,0,0:0:0:0:
320,192,28988,1,0,0:0:0:0:
448,192,29063,1,0,0:0:0:0:
320,192,29063,1,0,0:0:0:0:
192,192,29063,1,0,0:0:0:0:
192,192,29138,1,0,0:0:0:0:
320,192,29138,1,0,0:0:0:0:
448,192,29138,1,0,0:0:0:0:
448,192,29213,1,0,0:0:0:0:
320,192,29213,1,0,0:0:0:0:
192,192,29213,1,0,0:0:0:0:
320,192,29288,1,0,0:0:0:0:
448,192,29288,1,0,0:0:0:0:
64,192,29288,1,0,0:0:0:0:
192,192,29438,1,0,0:0:0:0:
320,192,29438,1,0,0:0:0:0:
448,192,29588,1,0,0:0:0:0:
192,192,29588,1,0,0:0:0:0:
64,192,29588,1,0,0:0:0:0:
320,192,29739,1,0,0:0:0:0:
448,192,29889,1,0,0:0:0:0:
320,192,29889,1,0,0:0:0:0:
192,192,29889,1,0,0:0:0:0:
64,192,30039,1,0,0:0:0:0:
192,192,30189,1,0,0:0:0:0:
64,192,30189,1,0,0:0:0:0:
448,192,30189,1,0,0:0:0:0:
320,192,30339,1,0,0:0:0:0:
192,192,30339,1,0,0:0:0:0:
320,192,30489,1,0,0:0:0:0:
448,192,30489,1,0,0:0:0:0:
64,192,30489,1,0,0:0:0:0:
192,192,30639,1,0,0:0:0:0:
64,192,30639,1,0,0:0:0:0:
320,192,30789,1,0,0:0:0:0:
448,192,30789,1,0,0:0:0:0:
192,192,30789,1,0,0:0:0:0:
64,192,30939,1,0,0:0:0:0:
448,192,30939,1,0,0:0:0:0:
192,192,31089,1,0,0:0:0:0:
320,192,31089,1,0,0:0:0:0:
64,192,31089,1,0,0:0:0:0:
448,192,31239,1,0,0:0:0:0:
192,192,31239,1,0,0:0:0:0:
320,192,31389,1,0,0:0:0:0:
448,192,31389,1,0,0:0:0:0:
64,192,31389,1,0,0:0:0:0:
192,192,31539,1,0,0:0:0:0:
320,192,31689,1,0,0:0:0:0:
192,192,31689,1,0,0:0:0:0:
64,192,31689,1,0,0:0:0:0:
448,192,31839,1,0,0:0:0:0:
448,192,31989,1,0,0:0:0:0:
320,192,31989,1,0,0:0:0:0:
192,192,31989,1,0,0:0:0:0:
64,192,32139,1,0,0:0:0:0:
320,192,32139,1,0,0:0:0:0:
192,192,32139,1,0,0:0:0:0:
64,192,32289,1,0,0:0:0:0:
192,192,32439,1,0,0:0:0:0:
320,192,32439,1,0,0:0:0:0:
448,192,32439,1,0,0:0:0:0:
320,192,32589,1,0,0:0:0:0:
192,192,32739,1,0,0:0:0:0:
64,192,32739,1,0,0:0:0:0:
448,192,32739,1,0,0:0:0:0:
64,192,32889,1,0,0:0:0:0:
320,192,33039,1,0,0:0:0:0:
448,192,33039,1,0,0:0:0:0:
448,192,33189,1,0,0:0:0:0:
64,192,33189,1,0,0:0:0:0:
192,192,33339,1,0,0:0:0:0:
320,192,33489,1,0,0:0:0:0:
192,192,33489,1,0,0:0:0:0:
448,192,33489,1,0,0:0:0:0:
320,192,33639,1,0,0:0:0:0:
192,192,33790,1,0,0:0:0:0:
64,192,33790,1,0,0:0:0:0:
320,192,33940,1,0,0:0:0:0:
448,192,33940,1,0,0:0:0:0:
448,192,34015,1,0,0:0:0:0:
320,192,34015,1,0,0:0:0:0:
192,192,34090,1,0,0:0:0:0:
64,192,34090,1,0,0:0:0:0:
320,192,34090,1,0,0:0:0:0:
448,192,34090,1,0,0:0:0:0:
192,192,34240,1,0,0:0:0:0:
320,192,34240,1,0,0:0:0:0:
64,192,34390,1,0,0:0:0:0:
448,192,34390,1,0,0:0:0:0:
192,192,34540,1,0,0:0:0:0:
320,192,34540,1,0,0:0:0:0:
448,192,34540,1,0,0:0:0:0:
64,192,34690,1,0,0:0:0:0:
320,192,34840,1,0,0:0:0:0:
192,192,34840,1,0,0:0:0:0:
64,192,34840,1,0,0:0:0:0:
448,192,34990,1,0,0:0:0:0:
448,192,35140,1,0,0:0:0:0:
320,192,35140,1,0,0:0:0:0:
192,192,35140,1,0,0:0:0:0:
64,192,35290,1,0,0:0:0:0:
64,192,35440,1,0,0:0:0:0:
320,192,35440,1,0,0:0:0:0:
448,192,35590,1,0,0:0:0:0:
192,192,35590,1,0,0:0:0:0:
64,192,35590,1,0,0:0:0:0:
320,192,35740,1,0,0:0:0:0:
192,192,35890,1,0,0:0:0:0:
320,192,35890,1,0,0:0:0:0:
192,192,36040,1,0,0:0:0:0:
448,192,36190,1,0,0:0:0:0:
320,192,36190,1,0,0:0:0:0:
64,192,36190,1,0,0:0:0:0:
448,192,36340,1,0,0:0:0:0:
448,192,36490,1,0,0:0:0:0:
320,192,36490,1,0,0:0:0:0:
64,192,36490,1,0,0:0:0:0:
192,192,36490,1,0,0:0:0:0:
192,192,36640,1,0,0:0:0:0:
320,192,36790,1,0,0:0:0:0:
448,192,36790,1,0,0:0:0:0:
64,192,36790,1,0,0:0:0:0:
320,192,36940,1,0,0:0:0:0:
192,192,36940,1,0,0:0:0:0:
64,192,37090,1,0,0:0:0:0:
448,192,37090,1,0,0:0:0:0:
192,192,37090,1,0,0:0:0:0:
64,192,37240,1,0,0:0:0:0:
320,192,37240,1,0,0:0:0:0:
192,192,37390,1,0,0:0:0:0:
320,192,37390,1,0,0:0:0:0:
448,192,37390,1,0,0:0:0:0:
448,192,37540,1,0,0:0:0:0:
64,192,37540,1,0,0:0:0:0:
320,192,37691,1,0,0:0:0:0:
192,192,37691,1,0,0:0:0:0:
64,192,37691,1,0,0:0:0:0:
320,192,37841,1,0,0:0:0:0:
448,192,37841,1,0,0:0:0:0:
448,192,37991,1,0,0:0:0:0:
192,192,37991,1,0,0:0:0:0:
64,192,37991,1,0,0:0:0:0:
192,192,38141,1,0,0:0:0:0:
320,192,38141,1,0,0:0:0:0:
320,192,38291,1,0,0:0:0:0:
448,192,38291,1,0,0:0:0:0:
64,192,38291,1,0,0:0:0:0:
448,192,38366,1,0,0:0:0:0:
320,192,38366,1,0,0:0:0:0:
64,192,38366,1,0,0:0:0:0:
320,192,38441,1,0,0:0:0:0:
448,192,38441,1,0,0:0:0:0:
64,192,38441,1,0,0:0:0:0:
448,192,38516,1,0,0:0:0:0:
320,192,38516,1,0,0:0:0:0:
64,192,38516,1,0,0:0:0:0:
192,192,38591,1,0,0:0:0:0:
64,192,38591,1,0,0:0:0:0:
320,192,38591,1,0,0:0:0:0:
320,192,38666,1,0,0:0:0:0:
192,192,38666,1,0,0:0:0:0:
64,192,38666,1,0,0:0:0:0:
192,192,38741,1,0,0:0:0:0:
320,192,38741,1,0,0:0:0:0:
64,192,38741,1,0,0:0:0:0:
320,192,38816,1,0,0:0:0:0:
64,192,38816,1,0,0:0:0:0:
192,192,38816,1,0,0:0:0:0:
64,192,38891,1,0,0:0:0:0:
320,192,38891,1,0,0:0:0:0:
448,192,38891,1,0,0:0:0:0:
192,192,38891,1,0,0:0:0:0:
320,192,39041,1,0,0:0:0:0:
320,192,39191,1,0,0:0:0:0:
64,192,39191,1,0,0:0:0:0:
448,192,39191,1,0,0:0:0:0:
192,192,39341,1,0,0:0:0:0:
192,192,39491,1,0,0:0:0:0:
320,192,39491,1,0,0:0:0:0:
448,192,39491,1,0,0:0:0:0:
64,192,39641,1,0,0:0:0:0:
448,192,39791,1,0,0:0:0:0:
192,192,39791,1,0,0:0:0:0:
64,192,39791,1,0,0:0:0:0:
320,192,39941,1,0,0:0:0:0:
448,192,39941,1,0,0:0:0:0:
64,192,39941,1,0,0:0:0:0:
192,192,40091,1,0,0:0:0:0:
320,192,40091,1,0,0:0:0:0:
448,192,40241,1,0,0:0:0:0:
192,192,40241,1,0,0:0:0:0:
64,192,40241,1,0,0:0:0:0:
64,192,40391,1,0,0:0:0:0:
448,192,40541,1,0,0:0:0:0:
320,192,40541,1,0,0:0:0:0:
192,192,40541,1,0,0:0:0:0:
64,192,40691,1,0,0:0:0:0:
448,192,40691,1,0,0:0:0:0:
192,192,40841,1,0,0:0:0:0:
320,192,40841,1,0,0:0:0:0:
64,192,40841,1,0,0:0:0:0:
448,192,40916,1,0,0:0:0:0:
320,192,40916,1,0,0:0:0:0:
320,192,40991,1,0,0:0:0:0:
448,192,40991,1,0,0:0:0:0:
192,192,40991,1,0,0:0:0:0:
64,192,41141,1,0,0:0:0:0:
448,192,41141,1,0,0:0:0:0:
320,192,41291,1,0,0:0:0:0:
192,192,41291,1,0,0:0:0:0:
64,192,41291,1,0,0:0:0:0:
320,192,41441,1,0,0:0:0:0:
192,192,41591,1,0,0:0:0:0:
320,192,41591,1,0,0:0:0:0:
448,192,41591,1,0,0:0:0:0:
192,192,41742,1,0,0:0:0:0:
64,192,41742,1,0,0:0:0:0:
320,192,41892,1,0,0:0:0:0:
448,192,41892,1,0,0:0:0:0:
64,192,42042,1,0,0:0:0:0:
192,192,42192,1,0,0:0:0:0:
320,192,42192,1,0,0:0:0:0:
448,192,42192,1,0,0:0:0:0:
320,192,42342,1,0,0:0:0:0:
448,192,42342,1,0,0:0:0:0:
64,192,42342,1,0,0:0:0:0:
192,192,42492,1,0,0:0:0:0:
192,192,42642,1,0,0:0:0:0:
320,192,42642,1,0,0:0:0:0:
448,192,42717,1,0,0:0:0:0:
192,192,42792,1,0,0:0:0:0:
64,192,42792,1,0,0:0:0:0:
320,192,42942,1,0,0:0:0:0:
192,192,43092,1,0,0:0:0:0:
320,192,43092,1,0,0:0:0:0:
448,192,43092,1,0,0:0:0:0:
64,192,43167,1,0,0:0:0:0:
192,192,43242,1,0,0:0:0:0:
320,192,43317,1,0,0:0:0:0:
448,192,43317,1,0,0:0:0:0:
64,192,43317,1,0,0:0:0:0:
192,192,43392,1,0,0:0:0:0:
320,192,43467,1,0,0:0:0:0:
448,192,43542,1,0,0:0:0:0:
192,192,43542,1,0,0:0:0:0:
64,192,43542,1,0,0:0:0:0:
192,192,43692,1,0,0:0:0:0:
448,192,43692,1,0,0:0:0:0:
320,192,43692,128,0,44067:0:0:0:0:
448,192,44142,1,0,0:0:0:0:
192,192,44142,1,0,0:0:0:0:
320,192,44142,128,0,44517:0:0:0:0:
192,192,44592,1,0,0:0:0:0:
64,192,44592,1,0,0:0:0:0:
320,192,44592,128,0,44817:0:0:0:0:
320,192,44892,1,0,0:0:0:0:
448,192,44892,1,0,0:0:0:0:
192,192,44892,128,0,45267:0:0:0:0:
320,192,45342,1,0,0:0:0:0:
192,192,45342,1,0,0:0:0:0:
64,192,45342,128,0,45718:0:0:0:0:
64,192,45793,1,0,0:0:0:0:
192,192,45793,1,0,0:0:0:0:
448,192,45793,128,0,46018:0:0:0:0:
320,192,46093,1,0,0:0:0:0:
192,192,46093,1,0,0:0:0:0:
448,192,46093,128,0,46468:0:0:0:0:
192,192,46243,1,0,0:0:0:0:
64,192,46243,1,0,0:0:0:0:
320,192,46393,1,0,0:0:0:0:
192,192,46393,1,0,0:0:0:0:
320,192,46543,1,0,0:0:0:0:
64,192,46543,1,0,0:0:0:0:
448,192,46543,128,0,46918:0:0:0:0:
192,192,46693,1,0,0:0:0:0:
64,192,46693,1,0,0:0:0:0:
320,192,46843,1,0,0:0:0:0:
192,192,46843,1,0,0:0:0:0:
320,192,46993,1,0,0:0:0:0:
448,192,46993,1,0,0:0:0:0:
64,192,46993,128,0,47218:0:0:0:0:
192,192,47143,1,0,0:0:0:0:
320,192,47143,1,0,0:0:0:0:
192,192,47293,1,0,0:0:0:0:
64,192,47293,1,0,0:0:0:0:
448,192,47293,128,0,47518:0:0:0:0:
192,192,47443,1,0,0:0:0:0:
320,192,47443,1,0,0:0:0:0:
448,192,47593,1,0,0:0:0:0:
320,192,47593,1,0,0:0:0:0:
192,192,47743,1,0,0:0:0:0:
448,192,47743,1,0,0:0:0:0:
64,192,47743,128,0,47968:0:0:0:0:
320,192,47893,1,0,0:0:0:0:
448,192,47893,1,0,0:0:0:0:
192,192,48043,1,0,0:0:0:0:
64,192,48043,1,0,0:0:0:0:
448,192,48193,1,0,0:0:0:0:
192,192,48193,1,0,0:0:0:0:
320,192,48193,1,0,0:0:0:0:
192,192,48343,1,0,0:0:0:0:
64,192,48343,1,0,0:0:0:0:
320,192,48418,1,0,0:0:0:0:
448,192,48418,1,0,0:0:0:0:
448,192,48493,1,0,0:0:0:0:
320,192,48493,1,0,0:0:0:0:
64,192,48493,1,0,0:0:0:0:
192,192,48493,128,0,48868:0:0:0:0:
448,192,48943,1,0,0:0:0:0:
192,192,48943,1,0,0:0:0:0:
64,192,48943,1,0,0:0:0:0:
320,192,48943,128,0,49318:0:0:0:0:
448,192,49393,1,0,0:0:0:0:
320,192,49393,1,0,0:0:0:0:
192,192,49393,1,0,0:0:0:0:
64,192,49393,1,0,0:0:0:0:
320,192,50294,5,0,0:0:0:0:
192,192,50444,1,0,0:0:0:0:
320,192,50744,1,0,0:0:0:0:
448,192,50744,1,0,0:0:0:0:
64,192,50744,1,0,0:0:0:0:
320,192,50819,1,0,0:0:0:0:
448,192,50819,1,0,0:0:0:0:
448,192,50894,1,0,0:0:0:0:
320,192,50894,1,0,0:0:0:0:
320,192,50969,1,0,0:0:0:0:
448,192,50969,1,0,0:0:0:0:
448,192,51044,1,0,0:0:0:0:
320,192,51044,1,0,0:0:0:0:
192,192,51044,1,0,0:0:0:0:
320,192,51119,1,0,0:0:0:0:
448,192,51119,1,0,0:0:0:0:
320,192,51194,1,0,0:0:0:0:
64,192,51194,1,0,0:0:0:0:
192,192,51194,1,0,0:0:0:0:
64,192,51269,1,0,0:0:0:0:
192,192,51269,1,0,0:0:0:0:
320,192,51269,1,0,0:0:0:0:
320,192,51344,1,0,0:0:0:0:
64,192,51344,1,0,0:0:0:0:
192,192,51344,1,0,0:0:0:0:
320,192,51419,1,0,0:0:0:0:
192,192,51419,1,0,0:0:0:0:
64,192,51419,1,0,0:0:0:0:
64,192,51494,1,0,0:0:0:0:
192,192,51494,1,0,0:0:0:0:
320,192,51494,1,0,0:0:0:0:
448,192,51494,1,0,0:0:0:0:
448,192,51569,1,0,0:0:0:0:
448,192,51644,1,0,0:0:0:0:
64,192,51644,1,0,0:0:0:0:
448,192,51719,1,0,0:0:0:0:
448,192,51794,1,0,0:0:0:0:
192,192,51794,1,0,0:0:0:0:
320,192,51794,1,0,0:0:0:0:
448,192,51869,1,0,0:0:0:0:
64,192,51944,1,0,0:0:0:0:
448,192,51944,1,0,0:0:0:0:
448,192,52019,1,0,0:0:0:0:
448,192,52094,1,0,0:0:0:0:
320,192,52094,1,0,0:0:0:0:
192,192,52094,1,0,0:0:0:0:
64,192,52094,1,0,0:0:0:0:
192,192,52169,1,0,0:0:0:0:
192,192,52244,1,0,0:0:0:0:
192,192,52319,1,0,0:0:0:0:
320,192,52394,1,0,0:0:0:0:
448,192,52394,1,0,0:0:0:0:
64,192,52394,1,0,0:0:0:0:
320,192,52469,1,0,0:0:0:0:
448,192,52469,1,0,0:0:0:0:
448,192,52544,1,0,0:0:0:0:
320,192,52544,1,0,0:0:0:0:
320,192,52619,1,0,0:0:0:0:
448,192,52619,1,0,0:0:0:0:
448,192,52694,1,0,0:0:0:0:
320,192,52694,1,0,0:0:0:0:
64,192,52694,1,0,0:0:0:0:
320,192,52769,1,0,0:0:0:0:
448,192,52769,1,0,0:0:0:0:
448,192,52844,1,0,0:0:0:0:
320,192,52844,1,0,0:0:0:0:
192,192,52844,1,0,0:0:0:0:
320,192,52919,1,0,0:0:0:0:
448,192,52919,1,0,0:0:0:0:
448,192,52994,1,0,0:0:0:0:
320,192,52994,1,0,0:0:0:0:
192,192,52994,1,0,0:0:0:0:
64,192,52994,1,0,0:0:0:0:
448,192,53069,1,0,0:0:0:0:
64,192,53144,1,0,0:0:0:0:
192,192,53144,1,0,0:0:0:0:
64,192,53219,1,0,0:0:0:0:
64,192,53294,1,0,0:0:0:0:
64,192,53369,1,0,0:0:0:0:
64,192,53444,1,0,0:0:0:0:
320,192,53444,1,0,0:0:0:0:
64,192,53519,1,0,0:0:0:0:
64,192,53594,1,0,0:0:0:0:
448,192,53594,1,0,0:0:0:0:
320,192,53594,1,0,0:0:0:0:
64,192,53669,1,0,0:0:0:0:
64,192,53745,1,0,0:0:0:0:
64,192,53820,1,0,0:0:0:0:
192,192,53895,1,0,0:0:0:0:
320,192,53895,1,0,0:0:0:0:
448,192,53895,1,0,0:0:0:0:
320,192,53970,1,0,0:0:0:0:
320,192,54045,1,0,0:0:0:0:
320,192,54120,1,0,0:0:0:0:
320,192,54195,1,0,0:0:0:0:
192,192,54195,1,0,0:0:0:0:
64,192,54195,1,0,0:0:0:0:
448,192,54345,1,0,0:0:0:0:
320,192,54345,1,0,0:0:0:0:
64,192,54345,1,0,0:0:0:0:
448,192,54420,1,0,0:0:0:0:
448,192,54495,1,0,0:0:0:0:
448,192,54570,1,0,0:0:0:0:
448,192,54645,1,0,0:0:0:0:
192,192,54645,1,0,0:0:0:0:
64,192,54645,1,0,0:0:0:0:
192,192,54720,1,0,0:0:0:0:
192,192,54795,1,0,0:0:0:0:
192,192,54870,1,0,0:0:0:0:
192,192,54945,1,0,0:0:0:0:
320,192,54945,1,0,0:0:0:0:
192,192,55020,1,0,0:0:0:0:
192,192,55095,1,0,0:0:0:0:
448,192,55095,1,0,0:0:0:0:
64,192,55245,1,0,0:0:0:0:
192,192,55245,1,0,0:0:0:0:
320,192,55245,1,0,0:0:0:0:
448,192,55395,1,0,0:0:0:0:
64,192,55395,1,0,0:0:0:0:
64,192,55545,1,0,0:0:0:0:
192,192,55545,1,0,0:0:0:0:
320,192,55545,1,0,0:0:0:0:
448,192,55545,1,0,0:0:0:0:
320,192,55620,1,0,0:0:0:0:
320,192,55695,1,0,0:0:0:0:
320,192,55770,1,0,0:0:0:0:
320,192,55845,1,0,0:0:0:0:
64,192,55845,1,0,0:0:0:0:
320,192,55920,1,0,0:0:0:0:
320,192,55995,1,0,0:0:0:0:
192,192,55995,1,0,0:0:0:0:
192,192,56070,1,0,0:0:0:0:
320,192,56070,1,0,0:0:0:0:
320,192,56145,1,0,0:0:0:0:
192,192,56145,1,0,0:0:0:0:
192,192,56220,1,0,0:0:0:0:
320,192,56220,1,0,0:0:0:0:
320,192,56295,1,0,0:0:0:0:
192,192,56295,1,0,0:0:0:0:
448,192,56295,1,0,0:0:0:0:
448,192,56370,1,0,0:0:0:0:
192,192,56370,1,0,0:0:0:0:
448,192,56445,1,0,0:0:0:0:
192,192,56445,1,0,0:0:0:0:
448,192,56520,1,0,0:0:0:0:
192,192,56520,1,0,0:0:0:0:
448,192,56595,1,0,0:0:0:0:
320,192,56595,1,0,0:0:0:0:
448,192,56670,1,0,0:0:0:0:
320,192,56670,1,0,0:0:0:0:
448,192,56745,1,0,0:0:0:0:
64,192,56745,1,0,0:0:0:0:
192,192,56745,1,0,0:0:0:0:
64,192,56895,1,0,0:0:0:0:
192,192,56895,1,0,0:0:0:0:
320,192,56895,1,0,0:0:0:0:
448,192,56895,1,0,0:0:0:0:
448,192,57045,1,0,0:0:0:0:
320,192,57045,1,0,0:0:0:0:
192,192,57045,1,0,0:0:0:0:
64,192,57045,1,0,0:0:0:0:
192,192,57120,1,0,0:0:0:0:
320,192,57120,1,0,0:0:0:0:
448,192,57120,1,0,0:0:0:0:
64,192,57120,1,0,0:0:0:0:
64,192,57195,1,0,0:0:0:0:
192,192,57195,1,0,0:0:0:0:
320,192,57195,1,0,0:0:0:0:
448,192,57195,1,0,0:0:0:0:
64,192,57270,1,0,0:0:0:0:
192,192,57270,1,0,0:0:0:0:
320,192,57270,1,0,0:0:0:0:
448,192,57270,1,0,0:0:0:0:
64,192,57345,1,0,0:0:0:0:
192,192,57345,1,0,0:0:0:0:
320,192,57345,1,0,0:0:0:0:
448,192,57345,1,0,0:0:0:0:
192,192,57495,1,0,0:0:0:0:
320,192,57495,1,0,0:0:0:0:
448,192,57495,1,0,0:0:0:0:
64,192,57645,1,0,0:0:0:0:
192,192,57645,1,0,0:0:0:0:
320,192,57645,1,0,0:0:0:0:
448,192,57796,1,0,0:0:0:0:
64,192,57796,1,0,0:0:0:0:
192,192,57946,1,0,0:0:0:0:
320,192,57946,1,0,0:0:0:0:
448,192,57946,1,0,0:0:0:0:
192,192,58021,1,0,0:0:0:0:
320,192,58021,1,0,0:0:0:0:
448,192,58021,1,0,0:0:0:0:
448,192,58096,1,0,0:0:0:0:
320,192,58096,1,0,0:0:0:0:
192,192,58096,1,0,0:0:0:0:
192,192,58171,1,0,0:0:0:0:
320,192,58171,1,0,0:0:0:0:
448,192,58171,1,0,0:0:0:0:
448,192,58246,1,0,0:0:0:0:
320,192,58246,1,0,0:0:0:0:
192,192,58246,1,0,0:0:0:0:
192,192,58321,1,0,0:0:0:0:
320,192,58321,1,0,0:0:0:0:
448,192,58321,1,0,0:0:0:0:
448,192,58396,1,0,0:0:0:0:
64,192,58396,1,0,0:0:0:0:
320,192,58396,1,0,0:0:0:0:
320,192,58471,1,0,0:0:0:0:
448,192,58471,1,0,0:0:0:0:
64,192,58471,1,0,0:0:0:0:
320,192,58546,1,0,0:0:0:0:
448,192,58546,1,0,0:0:0:0:
64,192,58546,1,0,0:0:0:0:
320,192,58621,1,0,0:0:0:0:
448,192,58621,1,0,0:0:0:0:
64,192,58621,1,0,0:0:0:0:
448,192,58696,1,0,0:0:0:0:
64,192,58696,1,0,0:0:0:0:
320,192,58696,1,0,0:0:0:0:
320,192,58846,1,0,0:0:0:0:
192,192,58846,1,0,0:0:0:0:
64,192,58846,1,0,0:0:0:0:
320,192,58996,1,0,0:0:0:0:
448,192,58996,1,0,0:0:0:0:
192,192,58996,1,0,0:0:0:0:
192,192,59146,1,0,0:0:0:0:
64,192,59146,1,0,0:0:0:0:
448,192,59146,1,0,0:0:0:0:
192,192,59221,1,0,0:0:0:0:
64,192,59221,1,0,0:0:0:0:
448,192,59221,1,0,0:0:0:0:
448,192,59296,1,0,0:0:0:0:
192,192,59296,1,0,0:0:0:0:
64,192,59296,1,0,0:0:0:0:
448,192,59371,1,0,0:0:0:0:
64,192,59371,1,0,0:0:0:0:
192,192,59371,1,0,0:0:0:0:
448,192,59446,1,0,0:0:0:0:
192,192,59446,1,0,0:0:0:0:
64,192,59446,1,0,0:0:0:0:
320,192,59521,1,0,0:0:0:0:
64,192,59521,1,0,0:0:0:0:
192,192,59521,1,0,0:0:0:0:
320,192,59596,1,0,0:0:0:0:
192,192,59596,1,0,0:0:0:0:
64,192,59596,1,0,0:0:0:0:
320,192,59671,1,0,0:0:0:0:
448,192,59671,1,0,0:0:0:0:
64,192,59671,1,0,0:0:0:0:
448,192,59746,1,0,0:0:0:0:
320,192,59746,1,0,0:0:0:0:
64,192,59746,1,0,0:0:0:0:
192,192,59821,1,0,0:0:0:0:
320,192,59821,1,0,0:0:0:0:
448,192,59821,1,0,0:0:0:0:
448,192,59896,1,0,0:0:0:0:
320,192,59896,1,0,0:0:0:0:
192,192,59896,1,0,0:0:0:0:
320,192,60046,1,0,0:0:0:0:
192,192,60046,1,0,0:0:0:0:
64,192,60046,1,0,0:0:0:0:
448,192,60196,1,0,0:0:0:0:
192,192,60196,1,0,0:0:0:0:
320,192,60346,1,0,0:0:0:0:
448,192,60346,1,0,0:0:0:0:
64,192,60346,1,0,0:0:0:0:
320,192,60421,1,0,0:0:0:0:
448,192,60421,1,0,0:0:0:0:
448,192,60496,1,0,0:0:0:0:
320,192,60496,1,0,0:0:0:0:
320,192,60571,1,0,0:0:0:0:
448,192,60571,1,0,0:0:0:0:
448,192,60646,1,0,0:0:0:0:
320,192,60646,1,0,0:0:0:0:
192,192,60646,1,0,0:0:0:0:
320,192,60721,1,0,0:0:0:0:
448,192,60721,1,0,0:0:0:0:
320,192,60796,1,0,0:0:0:0:
64,192,60796,1,0,0:0:0:0:
192,192,60796,1,0,0:0:0:0:
64,192,60871,1,0,0:0:0:0:
192,192,60871,1,0,0:0:0:0:
320,192,60871,1,0,0:0:0:0:
320,192,60946,1,0,0:0:0:0:
64,192,60946,1,0,0:0:0:0:
192,192,60946,1,0,0:0:0:0:
320,192,61021,1,0,0:0:0:0:
192,192,61021,1,0,0:0:0:0:
64,192,61021,1,0,0:0:0:0:
64,192,61096,1,0,0:0:0:0:
192,192,61096,1,0,0:0:0:0:
320,192,61096,1,0,0:0:0:0:
448,192,61096,1,0,0:0:0:0:
448,192,61171,1,0,0:0:0:0:
448,192,61246,1,0,0:0:0:0:
64,192,61246,1,0,0:0:0:0:
448,192,61321,1,0,0:0:0:0:
448,192,61396,1,0,0:0:0:0:
192,192,61396,1,0,0:0:0:0:
320,192,61396,1,0,0:0:0:0:
448,192,61471,1,0,0:0:0:0:
64,192,61546,1,0,0:0:0:0:
448,192,61546,1,0,0:0:0:0:
192,192,61546,1,0,0:0:0:0:
448,192,61621,1,0,0:0:0:0:
448,192,61697,1,0,0:0:0:0:
64,192,61697,1,0,0:0:0:0:
448,192,61772,1,0,0:0:0:0:
192,192,61847,1,0,0:0:0:0:
448,192,61847,1,0,0:0:0:0:
448,192,61922,1,0,0:0:0:0:
320,192,61997,1,0,0:0:0:0:
448,192,61997,1,0,0:0:0:0:
64,192,61997,1,0,0:0:0:0:
320,192,62072,1,0,0:0:0:0:
448,192,62072,1,0,0:0:0:0:
448,192,62147,1,0,0:0:0:0:
320,192,62147,1,0,0:0:0:0:
192,192,62147,1,0,0:0:0:0:
320,192,62222,1,0,0:0:0:0:
448,192,62222,1,0,0:0:0:0:
448,192,62297,1,0,0:0:0:0:
320,192,62297,1,0,0:0:0:0:
320,192,62372,1,0,0:0:0:0:
448,192,62372,1,0,0:0:0:0:
192,192,62447,1,0,0:0:0:0:
64,192,62447,1,0,0:0:0:0:
64,192,62522,1,0,0:0:0:0:
192,192,62522,1,0,0:0:0:0:
192,192,62597,1,0,0:0:0:0:
64,192,62597,1,0,0:0:0:0:
448,192,62597,1,0,0:0:0:0:
192,192,62672,1,0,0:0:0:0:
64,192,62672,1,0,0:0:0:0:
64,192,62747,1,0,0:0:0:0:
192,192,62747,1,0,0:0:0:0:
448,192,62747,1,0,0:0:0:0:
320,192,62747,1,0,0:0:0:0:
192,192,62822,1,0,0:0:0:0:
192,192,62897,1,0,0:0:0:0:
192,192,62972,1,0,0:0:0:0:
192,192,63047,1,0,0:0:0:0:
192,192,63122,1,0,0:0:0:0:
320,192,63197,1,0,0:0:0:0:
192,192,63197,1,0,0:0:0:0:
192,192,63272,1,0,0:0:0:0:
320,192,63272,1,0,0:0:0:0:
192,192,63347,1,0,0:0:0:0:
320,192,63347,1,0,0:0:0:0:
320,192,63422,1,0,0:0:0:0:
192,192,63422,1,0,0:0:0:0:
192,192,63497,1,0,0:0:0:0:
320,192,63497,1,0,0:0:0:0:
448,192,63497,1,0,0:0:0:0:
320,192,63572,1,0,0:0:0:0:
320,192,63647,1,0,0:0:0:0:
64,192,63647,1,0,0:0:0:0:
320,192,63722,1,0,0:0:0:0:
320,192,63797,1,0,0:0:0:0:
192,192,63797,1,0,0:0:0:0:
64,192,63797,1,0,0:0:0:0:
448,192,63947,1,0,0:0:0:0:
320,192,63947,1,0,0:0:0:0:
64,192,63947,1,0,0:0:0:0:
448,192,64022,1,0,0:0:0:0:
448,192,64097,1,0,0:0:0:0:
448,192,64172,1,0,0:0:0:0:
448,192,64247,1,0,0:0:0:0:
192,192,64247,1,0,0:0:0:0:
64,192,64247,1,0,0:0:0:0:
192,192,64322,1,0,0:0:0:0:
192,192,64397,1,0,0:0:0:0:
192,192,64472,1,0,0:0:0:0:
192,192,64547,1,0,0:0:0:0:
320,192,64547,1,0,0:0:0:0:
192,192,64622,1,0,0:0:0:0:
192,192,64697,1,0,0:0:0:0:
448,192,64697,1,0,0:0:0:0:
64,192,64847,1,0,0:0:0:0:
192,192,64847,1,0,0:0:0:0:
320,192,64847,1,0,0:0:0:0:
448,192,64997,1,0,0:0:0:0:
64,192,64997,1,0,0:0:0:0:
64,192,65147,1,0,0:0:0:0:
192,192,65147,1,0,0:0:0:0:
320,192,65147,1,0,0:0:0:0:
448,192,65147,1,0,0:0:0:0:
320,192,65222,1,0,0:0:0:0:
320,192,65297,1,0,0:0:0:0:
320,192,65372,1,0,0:0:0:0:
320,192,65447,1,0,0:0:0:0:
64,192,65447,1,0,0:0:0:0:
320,192,65522,1,0,0:0:0:0:
320,192,65597,1,0,0:0:0:0:
192,192,65597,1,0,0:0:0:0:
192,192,65672,1,0,0:0:0:0:
320,192,65672,1,0,0:0:0:0:
320,192,65748,1,0,0:0:0:0:
192,192,65748,1,0,0:0:0:0:
192,192,65823,1,0,0:0:0:0:
320,192,65823,1,0,0:0:0:0:
320,192,65898,1,0,0:0:0:0:
192,192,65898,1,0,0:0:0:0:
448,192,65898,1,0,0:0:0:0:
448,192,65973,1,0,0:0:0:0:
192,192,65973,1,0,0:0:0:0:
448,192,66048,1,0,0:0:0:0:
192,192,66048,1,0,0:0:0:0:
448,192,66123,1,0,0:0:0:0:
192,192,66123,1,0,0:0:0:0:
448,192,66198,1,0,0:0:0:0:
320,192,66198,1,0,0:0:0:0:
448,192,66273,1,0,0:0:0:0:
320,192,66273,1,0,0:0:0:0:
448,192,66348,1,0,0:0:0:0:
320,192,66348,1,0,0:0:0:0:
320,192,66423,1,0,0:0:0:0:
448,192,66423,1,0,0:0:0:0:
192,192,66498,1,0,0:0:0:0:
64,192,66498,1,0,0:0:0:0:
320,192,66648,1,0,0:0:0:0:
192,192,66648,1,0,0:0:0:0:
320,192,66798,1,0,0:0:0:0:
448,192,66798,1,0,0:0:0:0:
64,192,66798,1,0,0:0:0:0:
64,192,66873,1,0,0:0:0:0:
320,192,66873,1,0,0:0:0:0:
64,192,66948,1,0,0:0:0:0:
320,192,66948,1,0,0:0:0:0:
64,192,67023,1,0,0:0:0:0:
320,192,67023,1,0,0:0:0:0:
192,192,67098,1,0,0:0:0:0:
320,192,67098,1,0,0:0:0:0:
320,192,67173,1,0,0:0:0:0:
192,192,67173,1,0,0:0:0:0:
192,192,67248,1,0,0:0:0:0:
320,192,67248,1,0,0:0:0:0:
320,192,67323,1,0,0:0:0:0:
192,192,67323,1,0,0:0:0:0:
320,192,67398,1,0,0:0:0:0:
448,192,67398,1,0,0:0:0:0:
64,192,67398,1,0,0:0:0:0:
320,192,67548,1,0,0:0:0:0:
192,192,67548,1,0,0:0:0:0:
64,192,67548,1,0,0:0:0:0:
192,192,67623,1,0,0:0:0:0:
64,192,67623,1,0,0:0:0:0:
64,192,67698,1,0,0:0:0:0:
192,192,67698,1,0,0:0:0:0:
192,192,67773,1,0,0:0:0:0:
64,192,67773,1,0,0:0:0:0:
64,192,67848,1,0,0:0:0:0:
192,192,67848,1,0,0:0:0:0:
448,192,67848,1,0,0:0:0:0:
192,192,67923,1,0,0:0:0:0:
64,192,67923,1,0,0:0:0:0:
448,192,67923,1,0,0:0:0:0:
64,192,67998,1,0,0:0:0:0:
192,192,67998,1,0,0:0:0:0:
320,192,67998,1,0,0:0:0:0:
192,192,68073,1,0,0:0:0:0:
64,192,68073,1,0,0:0:0:0:
64,192,68148,1,0,0:0:0:0:
192,192,68148,1,0,0:0:0:0:
320,192,68148,1,0,0:0:0:0:
448,192,68148,1,0,0:0:0:0:
192,192,68223,1,0,0:0:0:0:
64,192,68223,1,0,0:0:0:0:
64,192,68298,1,0,0:0:0:0:
192,192,68298,1,0,0:0:0:0:
448,192,68298,1,0,0:0:0:0:
192,192,68373,1,0,0:0:0:0:
192,192,68448,1,0,0:0:0:0:
320,192,68448,1,0,0:0:0:0:
192,192,68523,1,0,0:0:0:0:
192,192,68598,1,0,0:0:0:0:
448,192,68598,1,0,0:0:0:0:
320,192,68598,1,0,0:0:0:0:
320,192,68748,1,0,0:0:0:0:
192,192,68748,1,0,0:0:0:0:
64,192,68748,1,0,0:0:0:0:
320,192,68823,1,0,0:0:0:0:
192,192,68823,1,0,0:0:0:0:
64,192,68823,1,0,0:0:0:0:
192,192,68898,1,0,0:0:0:0:
64,192,68898,1,0,0:0:0:0:
448,192,68898,1,0,0:0:0:0:
192,192,68973,1,0,0:0:0:0:
64,192,68973,1,0,0:0:0:0:
448,192,68973,1,0,0:0:0:0:
64,192,69048,1,0,0:0:0:0:
448,192,69048,1,0,0:0:0:0:
320,192,69048,1,0,0:0:0:0:
64,192,69123,1,0,0:0:0:0:
320,192,69123,1,0,0:0:0:0:
448,192,69123,1,0,0:0:0:0:
448,192,69198,1,0,0:0:0:0:
320,192,69198,1,0,0:0:0:0:
192,192,69198,1,0,0:0:0:0:
448,192,69273,1,0,0:0:0:0:
320,192,69273,1,0,0:0:0:0:
192,192,69273,1,0,0:0:0:0:
320,192,69348,1,0,0:0:0:0:
192,192,69348,1,0,0:0:0:0:
64,192,69348,1,0,0:0:0:0:
320,192,69423,1,0,0:0:0:0:
192,192,69423,1,0,0:0:0:0:
64,192,69423,1,0,0:0:0:0:
64,192,69498,1,0,0:0:0:0:
320,192,69498,1,0,0:0:0:0:
448,192,69498,1,0,0:0:0:0:
320,192,69648,1,0,0:0:0:0:
192,192,69648,1,0,0:0:0:0:
448,192,69648,1,0,0:0:0:0:
64,192,69648,1,0,0:0:0:0:
448,192,69949,1,0,0:0:0:0:
192,192,69949,1,0,0:0:0:0:
64,192,69949,1,0,0:0:0:0:
192,192,70024,1,0,0:0:0:0:
192,192,70099,1,0,0:0:0:0:
192,192,70174,1,0,0:0:0:0:
192,192,70249,1,0,0:0:0:0:
320,192,70249,1,0,0:0:0:0:
320,192,70324,1,0,0:0:0:0:
320,192,70399,1,0,0:0:0:0:
320,192,70474,1,0,0:0:0:0:
320,192,70549,1,0,0:0:0:0:
192,192,70549,1,0,0:0:0:0:
64,192,70549,1,0,0:0:0:0:
64,192,70624,1,0,0:0:0:0:
64,192,70699,1,0,0:0:0:0:
64,192,70774,1,0,0:0:0:0:
64,192,70849,1,0,0:0:0:0:
192,192,70849,1,0,0:0:0:0:
448,192,70849,1,0,0:0:0:0:
448,192,70924,1,0,0:0:0:0:
448,192,70999,1,0,0:0:0:0:
448,192,71074,1,0,0:0:0:0:
448,192,71149,1,0,0:0:0:0:
320,192,71149,1,0,0:0:0:0:
192,192,71149,1,0,0:0:0:0:
192,192,71224,1,0,0:0:0:0:
320,192,71224,1,0,0:0:0:0:
320,192,71299,1,0,0:0:0:0:
192,192,71299,1,0,0:0:0:0:
320,192,71374,1,0,0:0:0:0:
192,192,71374,1,0,0:0:0:0:
320,192,71449,1,0,0:0:0:0:
192,192,71449,1,0,0:0:0:0:
320,192,71524,1,0,0:0:0:0:
192,192,71524,1,0,0:0:0:0:
320,192,71599,1,0,0:0:0:0:
192,192,71599,1,0,0:0:0:0:
192,192,71749,1,0,0:0:0:0:
64,192,71749,1,0,0:0:0:0:
320,192,71899,1,0,0:0:0:0:
448,192,71899,1,0,0:0:0:0:
64,192,71899,1,0,0:0:0:0:
192,192,72049,1,0,0:0:0:0:
320,192,72049,1,0,0:0:0:0:
192,192,72199,1,0,0:0:0:0:
64,192,72199,1,0,0:0:0:0:
448,192,72199,1,0,0:0:0:0:
448,192,72349,1,0,0:0:0:0:
320,192,72349,1,0,0:0:0:0:
192,192,72349,1,0,0:0:0:0:
64,192,72349,1,0,0:0:0:0:
320,192,72424,1,0,0:0:0:0:
320,192,72499,1,0,0:0:0:0:
320,192,72574,1,0,0:0:0:0:
320,192,72649,1,0,0:0:0:0:
192,192,72649,1,0,0:0:0:0:
320,192,72724,1,0,0:0:0:0:
320,192,72799,1,0,0:0:0:0:
192,192,72799,1,0,0:0:0:0:
64,192,72799,1,0,0:0:0:0:
320,192,72874,1,0,0:0:0:0:
320,192,72949,1,0,0:0:0:0:
448,192,73099,1,0,0:0:0:0:
64,192,73099,1,0,0:0:0:0:
192,192,73099,1,0,0:0:0:0:
320,192,73249,1,0,0:0:0:0:
64,192,73249,1,0,0:0:0:0:
448,192,73249,1,0,0:0:0:0:
320,192,73399,1,0,0:0:0:0:
192,192,73399,1,0,0:0:0:0:
448,192,73549,1,0,0:0:0:0:
64,192,73549,1,0,0:0:0:0:
192,192,73549,1,0,0:0:0:0:
448,192,73624,1,0,0:0:0:0:
192,192,73624,1,0,0:0:0:0:
64,192,73624,1,0,0:0:0:0:
448,192,73700,1,0,0:0:0:0:
64,192,73700,1,0,0:0:0:0:
192,192,73700,1,0,0:0:0:0:
448,192,73775,1,0,0:0:0:0:
192,192,73775,1,0,0:0:0:0:
64,192,73775,1,0,0:0:0:0:
64,192,73850,1,0,0:0:0:0:
192,192,73850,1,0,0:0:0:0:
320,192,73850,1,0,0:0:0:0:
320,192,73925,1,0,0:0:0:0:
192,192,73925,1,0,0:0:0:0:
64,192,73925,1,0,0:0:0:0:
320,192,74000,1,0,0:0:0:0:
192,192,74000,1,0,0:0:0:0:
64,192,74000,1,0,0:0:0:0:
64,192,74075,1,0,0:0:0:0:
192,192,74075,1,0,0:0:0:0:
320,192,74075,1,0,0:0:0:0:
192,192,74150,1,0,0:0:0:0:
448,192,74150,1,0,0:0:0:0:
192,192,74225,1,0,0:0:0:0:
448,192,74225,1,0,0:0:0:0:
192,192,74300,1,0,0:0:0:0:
448,192,74300,1,0,0:0:0:0:
64,192,74450,1,0,0:0:0:0:
192,192,74450,1,0,0:0:0:0:
320,192,74450,1,0,0:0:0:0:
448,192,74600,1,0,0:0:0:0:
192,192,74600,1,0,0:0:0:0:
64,192,74600,1,0,0:0:0:0:
320,192,74750,1,0,0:0:0:0:
448,192,74750,1,0,0:0:0:0:
448,192,74825,1,0,0:0:0:0:
320,192,74825,1,0,0:0:0:0:
320,192,74900,1,0,0:0:0:0:
448,192,74900,1,0,0:0:0:0:
320,192,74975,1,0,0:0:0:0:
448,192,74975,1,0,0:0:0:0:
320,192,75050,1,0,0:0:0:0:
448,192,75050,1,0,0:0:0:0:
192,192,75050,1,0,0:0:0:0:
448,192,75125,1,0,0:0:0:0:
320,192,75125,1,0,0:0:0:0:
192,192,75125,1,0,0:0:0:0:
320,192,75200,1,0,0:0:0:0:
448,192,75200,1,0,0:0:0:0:
64,192,75200,1,0,0:0:0:0:
320,192,75275,1,0,0:0:0:0:
448,192,75275,1,0,0:0:0:0:
448,192,75350,1,0,0:0:0:0:
320,192,75350,1,0,0:0:0:0:
320,192,75425,1,0,0:0:0:0:
448,192,75425,1,0,0:0:0:0:
448,192,75500,1,0,0:0:0:0:
320,192,75500,1,0,0:0:0:0:
192,192,75500,1,0,0:0:0:0:
320,192,75575,1,0,0:0:0:0:
448,192,75575,1,0,0:0:0:0:
448,192,75650,1,0,0:0:0:0:
320,192,75650,1,0,0:0:0:0:
64,192,75650,1,0,0:0:0:0:
320,192,75725,1,0,0:0:0:0:
448,192,75725,1,0,0:0:0:0:
448,192,75800,1,0,0:0:0:0:
320,192,75800,1,0,0:0:0:0:
64,192,75800,1,0,0:0:0:0:
192,192,75800,1,0,0:0:0:0:
192,192,75950,1,0,0:0:0:0:
320,192,75950,1,0,0:0:0:0:
448,192,76100,1,0,0:0:0:0:
320,192,76100,1,0,0:0:0:0:
192,192,76250,1,0,0:0:0:0:
64,192,76250,1,0,0:0:0:0:
320,192,76400,1,0,0:0:0:0:
448,192,76400,1,0,0:0:0:0:
192,192,76400,1,0,0:0:0:0:
320,192,76550,1,0,0:0:0:0:
448,192,76550,1,0,0:0:0:0:
64,192,76550,1,0,0:0:0:0:
192,192,76700,1,0,0:0:0:0:
320,192,76700,1,0,0:0:0:0:
192,192,76850,1,0,0:0:0:0:
64,192,76850,1,0,0:0:0:0:
320,192,77000,1,0,0:0:0:0:
64,192,77000,1,0,0:0:0:0:
64,192,77150,5,0,0:0:0:0:
192,192,77150,1,0,0:0:0:0:
320,192,77150,1,0,0:0:0:0:
448,192,77150,1,0,0:0:0:0:
320,192,77225,1,0,0:0:0:0:
448,192,77225,1,0,0:0:0:0:
448,192,77300,1,0,0:0:0:0:
320,192,77300,1,0,0:0:0:0:
320,192,77375,1,0,0:0:0:0:
448,192,77375,1,0,0:0:0:0:
448,192,77450,1,0,0:0:0:0:
320,192,77450,1,0,0:0:0:0:
64,192,77450,1,0,0:0:0:0:
320,192,77525,1,0,0:0:0:0:
64,192,77525,1,0,0:0:0:0:
320,192,77600,1,0,0:0:0:0:
64,192,77600,1,0,0:0:0:0:
320,192,77675,1,0,0:0:0:0:
64,192,77675,1,0,0:0:0:0:
192,192,77751,1,0,0:0:0:0:
320,192,77751,1,0,0:0:0:0:
64,192,77751,1,0,0:0:0:0:
64,192,77826,1,0,0:0:0:0:
192,192,77826,1,0,0:0:0:0:
192,192,77901,1,0,0:0:0:0:
64,192,77901,1,0,0:0:0:0:
64,192,77976,1,0,0:0:0:0:
192,192,77976,1,0,0:0:0:0:
192,192,78051,1,0,0:0:0:0:
64,192,78051,1,0,0:0:0:0:
320,192,78051,1,0,0:0:0:0:
448,192,78051,1,0,0:0:0:0:
448,192,78126,1,0,0:0:0:0:
320,192,78126,1,0,0:0:0:0:
320,192,78201,1,0,0:0:0:0:
448,192,78201,1,0,0:0:0:0:
448,192,78276,1,0,0:0:0:0:
320,192,78276,1,0,0:0:0:0:
320,192,78351,1,0,0:0:0:0:
448,192,78351,1,0,0:0:0:0:
192,192,78351,1,0,0:0:0:0:
64,192,78351,1,0,0:0:0:0:
192,192,78426,1,0,0:0:0:0:
64,192,78426,1,0,0:0:0:0:
448,192,78426,1,0,0:0:0:0:
64,192,78501,1,0,0:0:0:0:
192,192,78501,1,0,0:0:0:0:
448,192,78501,1,0,0:0:0:0:
320,192,78576,1,0,0:0:0:0:
192,192,78576,1,0,0:0:0:0:
64,192,78576,1,0,0:0:0:0:
320,192,78651,1,0,0:0:0:0:
192,192,78651,1,0,0:0:0:0:
64,192,78651,1,0,0:0:0:0:
320,192,78726,1,0,0:0:0:0:
448,192,78726,1,0,0:0:0:0:
192,192,78726,1,0,0:0:0:0:
448,192,78801,1,0,0:0:0:0:
320,192,78801,1,0,0:0:0:0:
192,192,78801,1,0,0:0:0:0:
320,192,78876,1,0,0:0:0:0:
448,192,78876,1,0,0:0:0:0:
64,192,78876,1,0,0:0:0:0:
64,192,78951,1,0,0:0:0:0:
320,192,78951,1,0,0:0:0:0:
448,192,78951,1,0,0:0:0:0:
192,192,79026,1,0,0:0:0:0:
64,192,79026,1,0,0:0:0:0:
448,192,79026,1,0,0:0:0:0:
448,192,79101,1,0,0:0:0:0:
192,192,79101,1,0,0:0:0:0:
64,192,79101,1,0,0:0:0:0:
192,192,79251,1,0,0:0:0:0:
320,192,79251,1,0,0:0:0:0:
448,192,79251,1,0,0:0:0:0:
64,192,79551,1,0,0:0:0:0:
192,192,79551,1,0,0:0:0:0:
320,192,79551,1,0,0:0:0:0:
448,192,79701,1,0,0:0:0:0:
192,192,79851,1,0,0:0:0:0:
64,192,79851,1,0,0:0:0:0:
320,192,79926,1,0,0:0:0:0:
448,192,80001,1,0,0:0:0:0:
64,192,80001,1,0,0:0:0:0:
192,192,80001,1,0,0:0:0:0:
448,192,80151,1,0,0:0:0:0:
320,192,80301,1,0,0:0:0:0:
192,192,80301,1,0,0:0:0:0:
64,192,80301,1,0,0:0:0:0:
64,192,80451,1,0,0:0:0:0:
320,192,80601,1,0,0:0:0:0:
448,192,80601,1,0,0:0:0:0:
192,192,80751,1,0,0:0:0:0:
64,192,80751,1,0,0:0:0:0:
448,192,80751,1,0,0:0:0:0:
320,192,80901,1,0,0:0:0:0:
192,192,81051,1,0,0:0:0:0:
64,192,81051,1,0,0:0:0:0:
192,192,81201,1,0,0:0:0:0:
320,192,81201,1,0,0:0:0:0:
448,192,81351,1,0,0:0:0:0:
320,192,81351,1,0,0:0:0:0:
192,192,81501,1,0,0:0:0:0:
64,192,81501,1,0,0:0:0:0:
320,192,81651,1,0,0:0:0:0:
448,192,81651,1,0,0:0:0:0:
320,192,81727,1,0,0:0:0:0:
448,192,81727,1,0,0:0:0:0:
448,192,81802,1,0,0:0:0:0:
320,192,81802,1,0,0:0:0:0:
320,192,81877,1,0,0:0:0:0:
448,192,81877,1,0,0:0:0:0:
448,192,81952,1,0,0:0:0:0:
320,192,81952,1,0,0:0:0:0:
192,192,81952,1,0,0:0:0:0:
64,192,81952,1,0,0:0:0:0:
192,192,82102,1,0,0:0:0:0:
320,192,82252,1,0,0:0:0:0:
448,192,82252,1,0,0:0:0:0:
64,192,82252,1,0,0:0:0:0:
192,192,82402,1,0,0:0:0:0:
320,192,82402,1,0,0:0:0:0:
64,192,82402,1,0,0:0:0:0:
448,192,82552,1,0,0:0:0:0:
320,192,82627,1,0,0:0:0:0:
192,192,82702,1,0,0:0:0:0:
64,192,82702,1,0,0:0:0:0:
448,192,82702,1,0,0:0:0:0:
320,192,82852,1,0,0:0:0:0:
192,192,82852,1,0,0:0:0:0:
320,192,83002,1,0,0:0:0:0:
448,192,83002,1,0,0:0:0:0:
192,192,83152,1,0,0:0:0:0:
64,192,83152,1,0,0:0:0:0:
448,192,83152,1,0,0:0:0:0:
320,192,83302,1,0,0:0:0:0:
192,192,83452,1,0,0:0:0:0:
64,192,83452,1,0,0:0:0:0:
320,192,83452,1,0,0:0:0:0:
448,192,83602,1,0,0:0:0:0:
64,192,83602,1,0,0:0:0:0:
320,192,83752,1,0,0:0:0:0:
448,192,83752,1,0,0:0:0:0:
192,192,83902,1,0,0:0:0:0:
64,192,83902,1,0,0:0:0:0:
320,192,84052,1,0,0:0:0:0:
192,192,84052,1,0,0:0:0:0:
320,192,84202,1,0,0:0:0:0:
448,192,84202,1,0,0:0:0:0:
64,192,84202,1,0,0:0:0:0:
64,192,84352,1,0,0:0:0:0:
192,192,84352,1,0,0:0:0:0:
320,192,84352,1,0,0:0:0:0:
448,192,84352,1,0,0:0:0:0:
64,192,84427,1,0,0:0:0:0:
192,192,84427,1,0,0:0:0:0:
320,192,84427,1,0,0:0:0:0:
448,192,84427,1,0,0:0:0:0:
64,192,84502,1,0,0:0:0:0:
192,192,84502,1,0,0:0:0:0:
320,192,84502,1,0,0:0:0:0:
448,192,84502,1,0,0:0:0:0:
64,192,84577,1,0,0:0:0:0:
192,192,84577,1,0,0:0:0:0:
320,192,84577,1,0,0:0:0:0:
448,192,84577,1,0,0:0:0:0:
64,192,84652,1,0,0:0:0:0:
192,192,84652,1,0,0:0:0:0:
320,192,84652,1,0,0:0:0:0:
448,192,84652,1,0,0:0:0:0:
64,192,84727,1,0,0:0:0:0:
192,192,84727,1,0,0:0:0:0:
320,192,84727,1,0,0:0:0:0:
448,192,84727,1,0,0:0:0:0:
64,192,84802,1,0,0:0:0:0:
192,192,84802,1,0,0:0:0:0:
320,192,84802,1,0,0:0:0:0:
448,192,84802,1,0,0:0:0:0:
64,192,84877,1,0,0:0:0:0:
192,192,84877,1,0,0:0:0:0:
320,192,84877,1,0,0:0:0:0:
448,192,84877,1,0,0:0:0:0:
64,192,84952,1,0,0:0:0:0:
192,192,84952,1,0,0:0:0:0:
320,192,84952,1,0,0:0:0:0:
448,192,84952,1,0,0:0:0:0:
64,192,85027,1,0,0:0:0:0:
192,192,85027,1,0,0:0:0:0:
320,192,85027,1,0,0:0:0:0:
448,192,85027,1,0,0:0:0:0:
320,192,85102,1,0,0:0:0:0:
192,192,85102,1,0,0:0:0:0:
64,192,85102,1,0,0:0:0:0:
448,192,85102,1,0,0:0:0:0:
448,192,85177,1,0,0:0:0:0:
192,192,85177,1,0,0:0:0:0:
64,192,85177,1,0,0:0:0:0:
320,192,85177,1,0,0:0:0:0:
320,192,85252,1,0,0:0:0:0:
448,192,85252,1,0,0:0:0:0:
192,192,85252,1,0,0:0:0:0:
64,192,85252,1,0,0:0:0:0:
448,192,85327,1,0,0:0:0:0:
64,192,85327,1,0,0:0:0:0:
192,192,85327,1,0,0:0:0:0:
320,192,85327,1,0,0:0:0:0:
448,192,85402,1,0,0:0:0:0:
320,192,85402,1,0,0:0:0:0:
192,192,85402,1,0,0:0:0:0:
64,192,85402,1,0,0:0:0:0:
320,192,85552,1,0,0:0:0:0:
448,192,85552,1,0,0:0:0:0:
64,192,85703,1,0,0:0:0:0:
192,192,85853,1,0,0:0:0:0:
320,192,85853,1,0,0:0:0:0:
448,192,85928,1,0,0:0:0:0:
64,192,85928,1,0,0:0:0:0:
192,192,86003,1,0,0:0:0:0:
320,192,86003,1,0,0:0:0:0:
192,192,86153,1,0,0:0:0:0:
64,192,86153,1,0,0:0:0:0:
320,192,86303,1,0,0:0:0:0:
448,192,86303,1,0,0:0:0:0:
192,192,86453,1,0,0:0:0:0:
320,192,86453,1,0,0:0:0:0:
192,192,86603,1,0,0:0:0:0:
64,192,86603,1,0,0:0:0:0:
448,192,86603,1,0,0:0:0:0:
448,192,86753,1,0,0:0:0:0:
320,192,86753,1,0,0:0:0:0:
192,192,86753,1,0,0:0:0:0:
320,192,86903,1,0,0:0:0:0:
192,192,87053,1,0,0:0:0:0:
64,192,87053,1,0,0:0:0:0:
320,192,87128,1,0,0:0:0:0:
448,192,87203,1,0,0:0:0:0:
192,192,87203,1,0,0:0:0:0:
64,192,87203,1,0,0:0:0:0:
320,192,87353,1,0,0:0:0:0:
192,192,87353,1,0,0:0:0:0:
320,192,87503,1,0,0:0:0:0:
448,192,87503,1,0,0:0:0:0:
64,192,87503,1,0,0:0:0:0:
192,192,87653,1,0,0:0:0:0:
320,192,87653,1,0,0:0:0:0:
192,192,87803,1,0,0:0:0:0:
64,192,87803,1,0,0:0:0:0:
448,192,87803,1,0,0:0:0:0:
64,192,87953,128,0,88553:0:0:0:0:
192,192,87953,128,0,88553:0:0:0:0:
320,192,87953,128,0,88553:0:0:0:0:
448,192,87953,128,0,88553:0:0:0:0:
