osu file format v14

[General]
AudioFilename: question.mp3
AudioLeadIn: 0
PreviewTime: 39225
Countdown: 1
SampleSet: None
StackLeniency: 0.7
Mode: 3
LetterboxInBreaks: 0
SpecialStyle: 0
WidescreenStoryboard: 1

[Editor]
DistanceSpacing: 0.8
BeatDivisor: 4
GridSize: 8
TimelineZoom: 1.5

[Metadata]
Title:4k Vibro Pack 3
TitleUnicode:4k Vibro Pack 3
Artist:Various Artists
ArtistUnicode:Various Artists
Creator:Staravia
Version:Question (TV Vibro)
Source:
Tags:mapset jackhammer vibration
BeatmapID:1213521
BeatmapSetID:572754

[Difficulty]
HPDrainRate:6
CircleSize:4
OverallDifficulty:4
ApproachRate:9
SliderMultiplier:1.4
SliderTickRate:1

[Events]
//Background and Video events
0,0,"maxresdefault.jpg",0,0
//Break Periods
//Storyboard Layer 0 (Background)
//Storyboard Layer 1 (Fail)
//Storyboard Layer 2 (Pass)
//Storyboard Layer 3 (Foreground)
//Storyboard Sound Samples

[TimingPoints]
72.0816723919055,338.989753449446,4,3,0,40,1,0
40750,-100,4,3,0,40,0,1
62446,-100,4,3,0,40,0,0

[HitObjects]
448,192,72,128,0,241:0:0:0:0:
192,192,241,128,0,411:0:0:0:0:
320,192,411,128,0,580:0:0:0:0:
64,192,580,1,0,0:0:0:0:
320,192,750,1,0,0:0:0:0:
192,192,919,128,0,1089:0:0:0:0:
320,192,1089,128,0,1258:0:0:0:0:
64,192,1258,128,0,1428:0:0:0:0:
448,192,1428,128,0,1597:0:0:0:0:
320,192,1597,128,0,1767:0:0:0:0:
64,192,1767,128,0,1936:0:0:0:0:
192,192,1936,128,0,2275:0:0:0:0:
448,192,2275,128,0,2445:0:0:0:0:
320,192,2445,128,0,2614:0:0:0:0:
64,192,2614,1,0,0:0:0:0:
192,192,2783,1,0,0:0:0:0:
64,192,2783,1,0,0:0:0:0:
448,192,2783,1,0,0:0:0:0:
320,192,2953,1,0,0:0:0:0:
448,192,2953,1,0,0:0:0:0:
192,192,3122,1,0,0:0:0:0:
64,192,3122,1,0,0:0:0:0:
320,192,3122,1,0,0:0:0:0:
448,192,3292,1,0,0:0:0:0:
192,192,3461,1,0,0:0:0:0:
64,192,3461,1,0,0:0:0:0:
320,192,3631,1,0,0:0:0:0:
192,192,3631,1,0,0:0:0:0:
64,192,3800,1,0,0:0:0:0:
320,192,3800,1,0,0:0:0:0:
448,192,3800,1,0,0:0:0:0:
192,192,3970,1,0,0:0:0:0:
64,192,3970,1,0,0:0:0:0:
448,192,4139,1,0,0:0:0:0:
320,192,4139,1,0,0:0:0:0:
320,192,4309,1,0,0:0:0:0:
448,192,4309,1,0,0:0:0:0:
192,192,4478,1,0,0:0:0:0:
64,192,4478,1,0,0:0:0:0:
448,192,4478,1,0,0:0:0:0:
320,192,4648,1,0,0:0:0:0:
192,192,4648,1,0,0:0:0:0:
64,192,4817,1,0,0:0:0:0:
320,192,4987,1,0,0:0:0:0:
448,192,4987,1,0,0:0:0:0:
192,192,5156,1,0,0:0:0:0:
64,192,5156,1,0,0:0:0:0:
448,192,5156,1,0,0:0:0:0:
320,192,5326,1,0,0:0:0:0:
192,192,5495,1,0,0:0:0:0:
320,192,5495,1,0,0:0:0:0:
448,192,5495,1,0,0:0:0:0:
64,192,5665,1,0,0:0:0:0:
192,192,5665,1,0,0:0:0:0:
320,192,5834,1,0,0:0:0:0:
448,192,5834,1,0,0:0:0:0:
64,192,5834,1,0,0:0:0:0:
192,192,6004,1,0,0:0:0:0:
320,192,6173,1,0,0:0:0:0:
448,192,6173,1,0,0:0:0:0:
192,192,6343,1,0,0:0:0:0:
64,192,6343,1,0,0:0:0:0:
320,192,6512,1,0,0:0:0:0:
448,192,6512,1,0,0:0:0:0:
192,192,6512,1,0,0:0:0:0:
64,192,6682,1,0,0:0:0:0:
448,192,6682,1,0,0:0:0:0:
320,192,6851,1,0,0:0:0:0:
192,192,6851,1,0,0:0:0:0:
192,192,7021,1,0,0:0:0:0:
320,192,7021,1,0,0:0:0:0:
320,192,7190,1,0,0:0:0:0:
448,192,7190,1,0,0:0:0:0:
64,192,7190,1,0,0:0:0:0:
192,192,7360,1,0,0:0:0:0:
64,192,7360,1,0,0:0:0:0:
448,192,7529,1,0,0:0:0:0:
192,192,7699,1,0,0:0:0:0:
64,192,7699,1,0,0:0:0:0:
320,192,7868,1,0,0:0:0:0:
448,192,7868,1,0,0:0:0:0:
320,192,8038,1,0,0:0:0:0:
192,192,8207,1,0,0:0:0:0:
64,192,8207,1,0,0:0:0:0:
448,192,8207,1,0,0:0:0:0:
320,192,8377,1,0,0:0:0:0:
192,192,8377,1,0,0:0:0:0:
320,192,8546,1,0,0:0:0:0:
448,192,8546,1,0,0:0:0:0:
64,192,8546,1,0,0:0:0:0:
192,192,8716,1,0,0:0:0:0:
320,192,8885,1,0,0:0:0:0:
64,192,9055,1,0,0:0:0:0:
448,192,9055,1,0,0:0:0:0:
320,192,9224,1,0,0:0:0:0:
64,192,9224,1,0,0:0:0:0:
192,192,9224,1,0,0:0:0:0:
448,192,9394,1,0,0:0:0:0:
320,192,9394,1,0,0:0:0:0:
192,192,9563,1,0,0:0:0:0:
64,192,9563,1,0,0:0:0:0:
192,192,9733,1,0,0:0:0:0:
64,192,9733,1,0,0:0:0:0:
320,192,9902,1,0,0:0:0:0:
448,192,9902,1,0,0:0:0:0:
64,192,9902,1,0,0:0:0:0:
192,192,10072,1,0,0:0:0:0:
320,192,10072,1,0,0:0:0:0:
448,192,10241,1,0,0:0:0:0:
64,192,10411,1,0,0:0:0:0:
192,192,10411,1,0,0:0:0:0:
192,192,10580,1,0,0:0:0:0:
320,192,10580,1,0,0:0:0:0:
448,192,10580,1,0,0:0:0:0:
320,192,10750,1,0,0:0:0:0:
448,192,10750,1,0,0:0:0:0:
192,192,10919,1,0,0:0:0:0:
64,192,10919,1,0,0:0:0:0:
448,192,10919,1,0,0:0:0:0:
64,192,11089,1,0,0:0:0:0:
192,192,11089,1,0,0:0:0:0:
320,192,11258,1,0,0:0:0:0:
448,192,11258,1,0,0:0:0:0:
64,192,11258,1,0,0:0:0:0:
192,192,11428,1,0,0:0:0:0:
320,192,11597,1,0,0:0:0:0:
64,192,11767,1,0,0:0:0:0:
320,192,11767,1,0,0:0:0:0:
192,192,11936,1,0,0:0:0:0:
64,192,11936,1,0,0:0:0:0:
448,192,11936,1,0,0:0:0:0:
320,192,12106,1,0,0:0:0:0:
448,192,12106,1,0,0:0:0:0:
192,192,12275,1,0,0:0:0:0:
64,192,12275,1,0,0:0:0:0:
192,192,12445,1,0,0:0:0:0:
64,192,12445,1,0,0:0:0:0:
320,192,12614,1,0,0:0:0:0:
448,192,12614,1,0,0:0:0:0:
64,192,12614,1,0,0:0:0:0:
192,192,12784,1,0,0:0:0:0:
320,192,12784,1,0,0:0:0:0:
64,192,12953,1,0,0:0:0:0:
320,192,13123,1,0,0:0:0:0:
448,192,13123,1,0,0:0:0:0:
320,192,13292,1,0,0:0:0:0:
192,192,13292,1,0,0:0:0:0:
64,192,13292,1,0,0:0:0:0:
64,192,13462,1,0,0:0:0:0:
192,192,13462,1,0,0:0:0:0:
448,192,13462,1,0,0:0:0:0:
448,192,13631,1,0,0:0:0:0:
64,192,13631,1,0,0:0:0:0:
320,192,13631,128,0,16174:0:0:0:0:
64,192,14648,1,0,0:0:0:0:
192,192,14818,1,0,0:0:0:0:
192,192,14987,1,0,0:0:0:0:
64,192,15326,1,0,0:0:0:0:
192,192,15665,1,0,0:0:0:0:
192,192,16004,1,0,0:0:0:0:
64,192,16174,1,0,0:0:0:0:
64,192,16343,1,0,0:0:0:0:
448,192,16513,128,0,16682:0:0:0:0:
192,192,16682,128,0,16852:0:0:0:0:
320,192,16852,128,0,17021:0:0:0:0:
64,192,17021,128,0,17360:0:0:0:0:
448,192,17360,128,0,17699:0:0:0:0:
192,192,17530,1,0,0:0:0:0:
192,192,17699,1,0,0:0:0:0:
64,192,17869,128,0,18038:0:0:0:0:
320,192,18038,1,0,0:0:0:0:
192,192,18208,128,0,18547:0:0:0:0:
448,192,18377,1,0,0:0:0:0:
320,192,18547,128,0,18716:0:0:0:0:
64,192,18716,128,0,19055:0:0:0:0:
448,192,18886,1,0,0:0:0:0:
448,192,19055,1,0,0:0:0:0:
320,192,19055,1,0,0:0:0:0:
192,192,19225,128,0,19394:0:0:0:0:
64,192,19394,128,0,19563:0:0:0:0:
320,192,19394,1,0,0:0:0:0:
448,192,19563,128,0,19733:0:0:0:0:
192,192,19563,1,0,0:0:0:0:
320,192,19733,128,0,20072:0:0:0:0:
64,192,19733,1,0,0:0:0:0:
64,192,20072,128,0,20241:0:0:0:0:
448,192,20241,128,0,20411:0:0:0:0:
192,192,20411,128,0,20750:0:0:0:0:
320,192,20750,1,0,0:0:0:0:
64,192,20919,128,0,21258:0:0:0:0:
448,192,21089,1,0,0:0:0:0:
320,192,21089,1,0,0:0:0:0:
192,192,21258,1,0,0:0:0:0:
448,192,21428,128,0,21767:0:0:0:0:
64,192,21428,1,0,0:0:0:0:
320,192,21597,1,0,0:0:0:0:
192,192,21767,1,0,0:0:0:0:
64,192,21767,1,0,0:0:0:0:
320,192,21767,1,0,0:0:0:0:
64,192,21936,1,0,0:0:0:0:
320,192,22106,1,0,0:0:0:0:
448,192,22106,1,0,0:0:0:0:
320,192,22275,1,0,0:0:0:0:
192,192,22275,1,0,0:0:0:0:
64,192,22445,1,0,0:0:0:0:
448,192,22614,1,0,0:0:0:0:
192,192,22784,1,0,0:0:0:0:
64,192,22784,1,0,0:0:0:0:
320,192,22784,1,0,0:0:0:0:
64,192,22953,1,0,0:0:0:0:
320,192,23123,1,0,0:0:0:0:
448,192,23123,1,0,0:0:0:0:
192,192,23292,1,0,0:0:0:0:
320,192,23462,1,0,0:0:0:0:
192,192,23462,1,0,0:0:0:0:
64,192,23462,1,0,0:0:0:0:
320,192,23631,1,0,0:0:0:0:
448,192,23631,1,0,0:0:0:0:
64,192,23801,1,0,0:0:0:0:
320,192,23970,1,0,0:0:0:0:
448,192,24140,1,0,0:0:0:0:
320,192,24140,1,0,0:0:0:0:
192,192,24140,1,0,0:0:0:0:
64,192,24309,1,0,0:0:0:0:
192,192,24479,1,0,0:0:0:0:
64,192,24479,1,0,0:0:0:0:
448,192,24479,1,0,0:0:0:0:
320,192,24648,1,0,0:0:0:0:
192,192,24818,1,0,0:0:0:0:
448,192,24818,1,0,0:0:0:0:
320,192,24818,1,0,0:0:0:0:
64,192,24987,1,0,0:0:0:0:
448,192,25157,1,0,0:0:0:0:
192,192,25326,1,0,0:0:0:0:
64,192,25496,1,0,0:0:0:0:
448,192,25496,1,0,0:0:0:0:
320,192,25496,1,0,0:0:0:0:
192,192,25665,1,0,0:0:0:0:
448,192,25835,1,0,0:0:0:0:
320,192,26004,1,0,0:0:0:0:
192,192,26174,1,0,0:0:0:0:
64,192,26174,1,0,0:0:0:0:
448,192,26174,1,0,0:0:0:0:
320,192,26343,1,0,0:0:0:0:
192,192,26513,1,0,0:0:0:0:
64,192,26682,1,0,0:0:0:0:
192,192,26852,1,0,0:0:0:0:
320,192,26852,1,0,0:0:0:0:
448,192,26852,1,0,0:0:0:0:
320,192,27021,1,0,0:0:0:0:
64,192,27191,1,0,0:0:0:0:
448,192,27191,1,0,0:0:0:0:
192,192,27360,1,0,0:0:0:0:
320,192,27530,1,0,0:0:0:0:
448,192,27530,1,0,0:0:0:0:
64,192,27530,1,0,0:0:0:0:
448,192,27699,1,0,0:0:0:0:
192,192,27699,1,0,0:0:0:0:
320,192,27869,1,0,0:0:0:0:
64,192,28038,1,0,0:0:0:0:
320,192,28208,1,0,0:0:0:0:
192,192,28208,1,0,0:0:0:0:
448,192,28208,1,0,0:0:0:0:
64,192,28377,1,0,0:0:0:0:
448,192,28547,1,0,0:0:0:0:
320,192,28547,1,0,0:0:0:0:
320,192,28716,1,0,0:0:0:0:
448,192,28886,1,0,0:0:0:0:
192,192,28886,1,0,0:0:0:0:
64,192,28886,1,0,0:0:0:0:
64,192,29055,1,0,0:0:0:0:
448,192,29225,1,0,0:0:0:0:
192,192,29394,1,0,0:0:0:0:
64,192,29564,1,0,0:0:0:0:
320,192,29564,1,0,0:0:0:0:
448,192,29564,1,0,0:0:0:0:
192,192,29733,1,0,0:0:0:0:
64,192,29733,1,0,0:0:0:0:
320,192,29903,1,0,0:0:0:0:
448,192,29903,1,0,0:0:0:0:
192,192,29903,1,0,0:0:0:0:
448,192,30072,1,0,0:0:0:0:
320,192,30242,1,0,0:0:0:0:
192,192,30242,1,0,0:0:0:0:
64,192,30242,1,0,0:0:0:0:
64,192,30411,1,0,0:0:0:0:
448,192,30411,1,0,0:0:0:0:
320,192,30581,1,0,0:0:0:0:
192,192,30750,1,0,0:0:0:0:
64,192,30920,1,0,0:0:0:0:
320,192,30920,1,0,0:0:0:0:
448,192,30920,1,0,0:0:0:0:
448,192,31089,1,0,0:0:0:0:
192,192,31089,1,0,0:0:0:0:
192,192,31259,1,0,0:0:0:0:
64,192,31259,1,0,0:0:0:0:
448,192,31428,1,0,0:0:0:0:
320,192,31598,1,0,0:0:0:0:
192,192,31598,1,0,0:0:0:0:
64,192,31598,1,0,0:0:0:0:
64,192,31767,1,0,0:0:0:0:
320,192,31937,1,0,0:0:0:0:
448,192,31937,1,0,0:0:0:0:
192,192,32106,1,0,0:0:0:0:
64,192,32106,1,0,0:0:0:0:
192,192,32276,1,0,0:0:0:0:
320,192,32276,1,0,0:0:0:0:
320,192,32445,1,0,0:0:0:0:
448,192,32445,1,0,0:0:0:0:
192,192,32615,1,0,0:0:0:0:
448,192,32615,1,0,0:0:0:0:
64,192,32615,128,0,33293:0:0:0:0:
192,192,33123,1,0,0:0:0:0:
320,192,33293,1,0,0:0:0:0:
448,192,33293,128,0,33971:0:0:0:0:
192,192,33801,1,0,0:0:0:0:
64,192,33801,1,0,0:0:0:0:
320,192,33971,128,0,35157:0:0:0:0:
192,192,34140,1,0,0:0:0:0:
64,192,34140,1,0,0:0:0:0:
448,192,34479,1,0,0:0:0:0:
192,192,34649,1,0,0:0:0:0:
64,192,34649,1,0,0:0:0:0:
192,192,35157,1,0,0:0:0:0:
320,192,35327,1,0,0:0:0:0:
64,192,35327,128,0,36682:0:0:0:0:
192,192,35835,1,0,0:0:0:0:
320,192,36004,1,0,0:0:0:0:
448,192,36004,1,0,0:0:0:0:
320,192,36343,128,0,36598:0:0:0:0:
192,192,36513,1,0,0:0:0:0:
320,192,36682,1,0,0:0:0:0:
448,192,36682,128,0,37699:0:0:0:0:
192,192,36852,1,0,0:0:0:0:
64,192,36852,1,0,0:0:0:0:
320,192,37191,1,0,0:0:0:0:
192,192,37360,1,0,0:0:0:0:
64,192,37360,1,0,0:0:0:0:
320,192,37699,128,0,37954:0:0:0:0:
192,192,37699,1,0,0:0:0:0:
64,192,38038,1,0,0:0:0:0:
320,192,38038,1,0,0:0:0:0:
448,192,38038,1,0,0:0:0:0:
192,192,38038,128,0,39310:0:0:0:0:
64,192,39394,5,0,0:0:0:0:
192,192,39394,1,0,0:0:0:0:
448,192,39394,1,0,0:0:0:0:
320,192,39564,1,0,0:0:0:0:
192,192,39564,1,0,0:0:0:0:
448,192,39733,1,0,0:0:0:0:
320,192,39733,1,0,0:0:0:0:
64,192,39903,1,0,0:0:0:0:
192,192,39903,1,0,0:0:0:0:
320,192,40072,1,0,0:0:0:0:
448,192,40072,1,0,0:0:0:0:
192,192,40072,1,0,0:0:0:0:
64,192,40072,1,0,0:0:0:0:
320,192,40157,1,0,0:0:0:0:
448,192,40157,1,0,0:0:0:0:
192,192,40157,1,0,0:0:0:0:
64,192,40157,1,0,0:0:0:0:
448,192,40242,1,0,0:0:0:0:
320,192,40242,1,0,0:0:0:0:
192,192,40242,1,0,0:0:0:0:
64,192,40242,1,0,0:0:0:0:
320,192,40327,1,0,0:0:0:0:
448,192,40327,1,0,0:0:0:0:
192,192,40327,1,0,0:0:0:0:
64,192,40327,1,0,0:0:0:0:
192,192,40411,1,0,0:0:0:0:
64,192,40411,1,0,0:0:0:0:
320,192,40411,1,0,0:0:0:0:
448,192,40411,1,0,0:0:0:0:
64,192,40496,1,0,0:0:0:0:
192,192,40496,1,0,0:0:0:0:
448,192,40496,1,0,0:0:0:0:
320,192,40496,1,0,0:0:0:0:
192,192,40581,1,0,0:0:0:0:
64,192,40581,1,0,0:0:0:0:
320,192,40581,1,0,0:0:0:0:
448,192,40581,1,0,0:0:0:0:
64,192,40666,1,0,0:0:0:0:
192,192,40666,1,0,0:0:0:0:
448,192,40666,1,0,0:0:0:0:
320,192,40666,1,0,0:0:0:0:
320,192,40750,5,0,0:0:0:0:
448,192,40750,1,0,0:0:0:0:
192,192,40750,1,0,0:0:0:0:
64,192,40750,1,0,0:0:0:0:
448,192,40835,1,0,0:0:0:0:
64,192,40920,1,0,0:0:0:0:
448,192,40920,1,0,0:0:0:0:
448,192,41005,1,0,0:0:0:0:
448,192,41089,1,0,0:0:0:0:
192,192,41089,1,0,0:0:0:0:
192,192,41174,1,0,0:0:0:0:
192,192,41259,1,0,0:0:0:0:
192,192,41344,1,0,0:0:0:0:
320,192,41428,1,0,0:0:0:0:
64,192,41428,1,0,0:0:0:0:
320,192,41513,1,0,0:0:0:0:
320,192,41598,1,0,0:0:0:0:
320,192,41683,1,0,0:0:0:0:
448,192,41767,1,0,0:0:0:0:
192,192,41767,1,0,0:0:0:0:
192,192,41852,1,0,0:0:0:0:
192,192,41937,1,0,0:0:0:0:
320,192,41937,1,0,0:0:0:0:
192,192,42022,1,0,0:0:0:0:
448,192,42106,1,0,0:0:0:0:
64,192,42106,1,0,0:0:0:0:
448,192,42191,1,0,0:0:0:0:
448,192,42276,1,0,0:0:0:0:
448,192,42361,1,0,0:0:0:0:
320,192,42445,1,0,0:0:0:0:
64,192,42445,1,0,0:0:0:0:
320,192,42530,1,0,0:0:0:0:
64,192,42530,1,0,0:0:0:0:
320,192,42615,1,0,0:0:0:0:
64,192,42615,1,0,0:0:0:0:
320,192,42700,1,0,0:0:0:0:
64,192,42700,1,0,0:0:0:0:
64,192,42784,1,0,0:0:0:0:
448,192,42784,1,0,0:0:0:0:
64,192,42869,1,0,0:0:0:0:
64,192,42954,1,0,0:0:0:0:
320,192,42954,1,0,0:0:0:0:
64,192,43039,1,0,0:0:0:0:
448,192,43123,1,0,0:0:0:0:
192,192,43123,1,0,0:0:0:0:
448,192,43208,1,0,0:0:0:0:
448,192,43293,1,0,0:0:0:0:
448,192,43378,1,0,0:0:0:0:
320,192,43462,1,0,0:0:0:0:
64,192,43462,1,0,0:0:0:0:
320,192,43547,1,0,0:0:0:0:
320,192,43632,1,0,0:0:0:0:
320,192,43717,1,0,0:0:0:0:
320,192,43801,1,0,0:0:0:0:
192,192,43801,1,0,0:0:0:0:
320,192,43886,1,0,0:0:0:0:
320,192,43971,1,0,0:0:0:0:
320,192,44056,1,0,0:0:0:0:
64,192,44140,1,0,0:0:0:0:
448,192,44140,1,0,0:0:0:0:
64,192,44225,1,0,0:0:0:0:
64,192,44310,1,0,0:0:0:0:
64,192,44394,1,0,0:0:0:0:
64,192,44479,1,0,0:0:0:0:
448,192,44479,1,0,0:0:0:0:
64,192,44564,1,0,0:0:0:0:
64,192,44649,1,0,0:0:0:0:
320,192,44649,1,0,0:0:0:0:
64,192,44733,1,0,0:0:0:0:
192,192,44818,1,0,0:0:0:0:
448,192,44818,1,0,0:0:0:0:
448,192,44903,1,0,0:0:0:0:
448,192,44988,1,0,0:0:0:0:
448,192,45072,1,0,0:0:0:0:
448,192,45157,1,0,0:0:0:0:
64,192,45157,1,0,0:0:0:0:
448,192,45242,1,0,0:0:0:0:
448,192,45327,1,0,0:0:0:0:
448,192,45411,1,0,0:0:0:0:
192,192,45496,1,0,0:0:0:0:
320,192,45496,1,0,0:0:0:0:
192,192,45581,1,0,0:0:0:0:
192,192,45666,1,0,0:0:0:0:
192,192,45750,1,0,0:0:0:0:
192,192,45835,1,0,0:0:0:0:
448,192,45835,1,0,0:0:0:0:
192,192,45920,1,0,0:0:0:0:
192,192,46005,1,0,0:0:0:0:
192,192,46089,1,0,0:0:0:0:
320,192,46174,1,0,0:0:0:0:
64,192,46174,1,0,0:0:0:0:
320,192,46259,1,0,0:0:0:0:
320,192,46344,1,0,0:0:0:0:
192,192,46344,1,0,0:0:0:0:
320,192,46428,1,0,0:0:0:0:
448,192,46513,1,0,0:0:0:0:
64,192,46513,1,0,0:0:0:0:
448,192,46598,1,0,0:0:0:0:
448,192,46683,1,0,0:0:0:0:
448,192,46767,1,0,0:0:0:0:
192,192,46852,1,0,0:0:0:0:
320,192,46852,1,0,0:0:0:0:
192,192,46937,1,0,0:0:0:0:
192,192,47022,1,0,0:0:0:0:
192,192,47106,1,0,0:0:0:0:
64,192,47191,1,0,0:0:0:0:
448,192,47191,1,0,0:0:0:0:
64,192,47276,1,0,0:0:0:0:
64,192,47361,1,0,0:0:0:0:
320,192,47361,1,0,0:0:0:0:
64,192,47445,1,0,0:0:0:0:
448,192,47530,1,0,0:0:0:0:
192,192,47530,1,0,0:0:0:0:
448,192,47615,1,0,0:0:0:0:
448,192,47700,1,0,0:0:0:0:
448,192,47784,1,0,0:0:0:0:
192,192,47869,1,0,0:0:0:0:
320,192,47869,1,0,0:0:0:0:
192,192,47954,1,0,0:0:0:0:
192,192,48039,1,0,0:0:0:0:
192,192,48123,1,0,0:0:0:0:
64,192,48208,1,0,0:0:0:0:
448,192,48208,1,0,0:0:0:0:
448,192,48293,1,0,0:0:0:0:
192,192,48378,1,0,0:0:0:0:
448,192,48378,1,0,0:0:0:0:
448,192,48462,1,0,0:0:0:0:
320,192,48547,1,0,0:0:0:0:
64,192,48547,1,0,0:0:0:0:
64,192,48632,1,0,0:0:0:0:
64,192,48717,1,0,0:0:0:0:
64,192,48801,1,0,0:0:0:0:
192,192,48886,1,0,0:0:0:0:
448,192,48886,1,0,0:0:0:0:
192,192,48971,1,0,0:0:0:0:
448,192,48971,1,0,0:0:0:0:
192,192,49056,1,0,0:0:0:0:
448,192,49056,1,0,0:0:0:0:
192,192,49140,1,0,0:0:0:0:
448,192,49140,1,0,0:0:0:0:
320,192,49225,1,0,0:0:0:0:
320,192,49310,1,0,0:0:0:0:
320,192,49395,1,0,0:0:0:0:
320,192,49479,1,0,0:0:0:0:
64,192,49564,1,0,0:0:0:0:
448,192,49564,1,0,0:0:0:0:
64,192,49649,1,0,0:0:0:0:
448,192,49649,1,0,0:0:0:0:
64,192,49734,1,0,0:0:0:0:
448,192,49734,1,0,0:0:0:0:
64,192,49818,1,0,0:0:0:0:
448,192,49818,1,0,0:0:0:0:
192,192,49903,1,0,0:0:0:0:
320,192,49903,1,0,0:0:0:0:
320,192,49988,1,0,0:0:0:0:
320,192,50073,1,0,0:0:0:0:
64,192,50073,1,0,0:0:0:0:
320,192,50157,1,0,0:0:0:0:
192,192,50242,1,0,0:0:0:0:
448,192,50242,1,0,0:0:0:0:
192,192,50327,1,0,0:0:0:0:
192,192,50412,1,0,0:0:0:0:
192,192,50496,1,0,0:0:0:0:
64,192,50581,1,0,0:0:0:0:
320,192,50581,1,0,0:0:0:0:
64,192,50666,1,0,0:0:0:0:
64,192,50751,1,0,0:0:0:0:
64,192,50835,1,0,0:0:0:0:
192,192,50920,1,0,0:0:0:0:
448,192,50920,1,0,0:0:0:0:
64,192,50920,1,0,0:0:0:0:
320,192,51090,1,0,0:0:0:0:
192,192,51090,1,0,0:0:0:0:
448,192,51259,1,0,0:0:0:0:
320,192,51259,1,0,0:0:0:0:
192,192,51429,1,0,0:0:0:0:
320,192,51429,1,0,0:0:0:0:
448,192,51598,5,0,0:0:0:0:
64,192,51598,1,0,0:0:0:0:
192,192,51598,1,0,0:0:0:0:
64,192,51683,1,0,0:0:0:0:
64,192,51768,1,0,0:0:0:0:
64,192,51852,1,0,0:0:0:0:
320,192,51937,1,0,0:0:0:0:
64,192,51937,1,0,0:0:0:0:
192,192,51937,1,0,0:0:0:0:
320,192,52022,1,0,0:0:0:0:
320,192,52107,1,0,0:0:0:0:
320,192,52191,1,0,0:0:0:0:
448,192,52276,1,0,0:0:0:0:
192,192,52276,1,0,0:0:0:0:
192,192,52361,1,0,0:0:0:0:
192,192,52445,1,0,0:0:0:0:
192,192,52530,1,0,0:0:0:0:
320,192,52615,1,0,0:0:0:0:
64,192,52615,1,0,0:0:0:0:
320,192,52700,1,0,0:0:0:0:
192,192,52784,1,0,0:0:0:0:
320,192,52784,1,0,0:0:0:0:
320,192,52869,1,0,0:0:0:0:
448,192,52954,1,0,0:0:0:0:
64,192,52954,1,0,0:0:0:0:
64,192,53039,1,0,0:0:0:0:
64,192,53123,1,0,0:0:0:0:
64,192,53208,1,0,0:0:0:0:
448,192,53293,1,0,0:0:0:0:
192,192,53293,1,0,0:0:0:0:
448,192,53378,1,0,0:0:0:0:
448,192,53462,1,0,0:0:0:0:
448,192,53547,1,0,0:0:0:0:
64,192,53632,1,0,0:0:0:0:
448,192,53632,1,0,0:0:0:0:
448,192,53717,1,0,0:0:0:0:
192,192,53801,1,0,0:0:0:0:
448,192,53801,1,0,0:0:0:0:
448,192,53886,1,0,0:0:0:0:
320,192,53971,1,0,0:0:0:0:
64,192,53971,1,0,0:0:0:0:
64,192,54056,1,0,0:0:0:0:
64,192,54140,1,0,0:0:0:0:
64,192,54225,1,0,0:0:0:0:
448,192,54310,1,0,0:0:0:0:
192,192,54310,1,0,0:0:0:0:
192,192,54395,1,0,0:0:0:0:
192,192,54479,1,0,0:0:0:0:
192,192,54564,1,0,0:0:0:0:
320,192,54649,1,0,0:0:0:0:
192,192,54649,1,0,0:0:0:0:
192,192,54734,1,0,0:0:0:0:
192,192,54818,1,0,0:0:0:0:
192,192,54903,1,0,0:0:0:0:
64,192,54988,1,0,0:0:0:0:
448,192,54988,1,0,0:0:0:0:
448,192,55073,1,0,0:0:0:0:
448,192,55157,1,0,0:0:0:0:
448,192,55242,1,0,0:0:0:0:
64,192,55327,1,0,0:0:0:0:
448,192,55327,1,0,0:0:0:0:
448,192,55412,1,0,0:0:0:0:
192,192,55496,1,0,0:0:0:0:
448,192,55496,1,0,0:0:0:0:
448,192,55581,1,0,0:0:0:0:
64,192,55666,1,0,0:0:0:0:
320,192,55666,1,0,0:0:0:0:
64,192,55751,1,0,0:0:0:0:
64,192,55835,1,0,0:0:0:0:
64,192,55920,1,0,0:0:0:0:
448,192,56005,1,0,0:0:0:0:
64,192,56005,1,0,0:0:0:0:
64,192,56090,1,0,0:0:0:0:
64,192,56174,1,0,0:0:0:0:
64,192,56259,1,0,0:0:0:0:
192,192,56344,1,0,0:0:0:0:
320,192,56344,1,0,0:0:0:0:
320,192,56429,1,0,0:0:0:0:
320,192,56513,1,0,0:0:0:0:
320,192,56598,1,0,0:0:0:0:
64,192,56683,1,0,0:0:0:0:
320,192,56683,1,0,0:0:0:0:
320,192,56768,1,0,0:0:0:0:
320,192,56852,1,0,0:0:0:0:
320,192,56937,1,0,0:0:0:0:
448,192,57022,1,0,0:0:0:0:
192,192,57022,1,0,0:0:0:0:
192,192,57107,1,0,0:0:0:0:
320,192,57191,1,0,0:0:0:0:
192,192,57191,1,0,0:0:0:0:
192,192,57276,1,0,0:0:0:0:
448,192,57361,1,0,0:0:0:0:
64,192,57361,1,0,0:0:0:0:
64,192,57446,1,0,0:0:0:0:
64,192,57530,1,0,0:0:0:0:
64,192,57615,1,0,0:0:0:0:
192,192,57700,1,0,0:0:0:0:
320,192,57700,1,0,0:0:0:0:
320,192,57785,1,0,0:0:0:0:
320,192,57869,1,0,0:0:0:0:
320,192,57954,1,0,0:0:0:0:
64,192,58039,1,0,0:0:0:0:
448,192,58039,1,0,0:0:0:0:
448,192,58124,1,0,0:0:0:0:
192,192,58208,1,0,0:0:0:0:
448,192,58208,1,0,0:0:0:0:
448,192,58293,1,0,0:0:0:0:
320,192,58378,1,0,0:0:0:0:
64,192,58378,1,0,0:0:0:0:
64,192,58463,1,0,0:0:0:0:
64,192,58547,1,0,0:0:0:0:
64,192,58632,1,0,0:0:0:0:
192,192,58717,1,0,0:0:0:0:
320,192,58717,1,0,0:0:0:0:
320,192,58802,1,0,0:0:0:0:
320,192,58886,1,0,0:0:0:0:
320,192,58971,1,0,0:0:0:0:
64,192,59056,1,0,0:0:0:0:
448,192,59056,1,0,0:0:0:0:
64,192,59141,1,0,0:0:0:0:
64,192,59225,1,0,0:0:0:0:
320,192,59225,1,0,0:0:0:0:
64,192,59310,1,0,0:0:0:0:
448,192,59395,1,0,0:0:0:0:
192,192,59395,1,0,0:0:0:0:
448,192,59480,1,0,0:0:0:0:
448,192,59564,1,0,0:0:0:0:
448,192,59649,1,0,0:0:0:0:
64,192,59734,1,0,0:0:0:0:
320,192,59734,1,0,0:0:0:0:
64,192,59819,1,0,0:0:0:0:
320,192,59819,1,0,0:0:0:0:
64,192,59903,1,0,0:0:0:0:
320,192,59903,1,0,0:0:0:0:
64,192,59988,1,0,0:0:0:0:
320,192,59988,1,0,0:0:0:0:
192,192,60073,1,0,0:0:0:0:
192,192,60158,1,0,0:0:0:0:
192,192,60242,1,0,0:0:0:0:
192,192,60327,1,0,0:0:0:0:
64,192,60412,1,0,0:0:0:0:
448,192,60412,1,0,0:0:0:0:
64,192,60497,1,0,0:0:0:0:
64,192,60581,1,0,0:0:0:0:
64,192,60666,1,0,0:0:0:0:
64,192,60751,1,0,0:0:0:0:
320,192,60751,1,0,0:0:0:0:
64,192,60835,1,0,0:0:0:0:
448,192,60920,1,0,0:0:0:0:
64,192,60920,1,0,0:0:0:0:
64,192,61005,1,0,0:0:0:0:
192,192,61090,1,0,0:0:0:0:
320,192,61090,1,0,0:0:0:0:
320,192,61174,1,0,0:0:0:0:
320,192,61259,1,0,0:0:0:0:
320,192,61344,1,0,0:0:0:0:
64,192,61429,1,0,0:0:0:0:
448,192,61429,1,0,0:0:0:0:
448,192,61513,1,0,0:0:0:0:
448,192,61598,1,0,0:0:0:0:
448,192,61683,1,0,0:0:0:0:
64,192,61768,1,0,0:0:0:0:
320,192,61768,1,0,0:0:0:0:
64,192,61852,1,0,0:0:0:0:
64,192,61937,1,0,0:0:0:0:
64,192,62022,1,0,0:0:0:0:
448,192,62107,1,0,0:0:0:0:
192,192,62107,1,0,0:0:0:0:
192,192,62191,1,0,0:0:0:0:
192,192,62276,1,0,0:0:0:0:
192,192,62361,1,0,0:0:0:0:
320,192,62446,1,0,0:0:0:0:
448,192,62446,1,0,0:0:0:0:
64,192,62446,1,0,0:0:0:0:
320,192,62615,1,0,0:0:0:0:
448,192,62785,1,0,0:0:0:0:
64,192,62785,1,0,0:0:0:0:
192,192,62785,1,0,0:0:0:0:
320,192,62954,1,0,0:0:0:0:
448,192,63124,1,0,0:0:0:0:
192,192,63124,1,0,0:0:0:0:
192,192,63293,1,0,0:0:0:0:
64,192,63293,1,0,0:0:0:0:
320,192,63293,1,0,0:0:0:0:
64,192,63463,1,0,0:0:0:0:
448,192,63463,1,0,0:0:0:0:
320,192,63632,1,0,0:0:0:0:
448,192,63632,1,0,0:0:0:0:
192,192,63632,1,0,0:0:0:0:
192,192,63802,1,0,0:0:0:0:
64,192,63802,1,0,0:0:0:0:
320,192,63971,1,0,0:0:0:0:
448,192,64141,1,0,0:0:0:0:
192,192,64141,1,0,0:0:0:0:
320,192,64310,1,0,0:0:0:0:
192,192,64310,1,0,0:0:0:0:
64,192,64310,1,0,0:0:0:0:
64,192,64480,1,0,0:0:0:0:
320,192,64649,1,0,0:0:0:0:
448,192,64649,1,0,0:0:0:0:
192,192,64819,1,0,0:0:0:0:
64,192,64819,1,0,0:0:0:0:
448,192,64819,1,0,0:0:0:0:
192,192,64988,1,0,0:0:0:0:
320,192,65158,1,0,0:0:0:0:
448,192,65158,1,0,0:0:0:0:
192,192,65327,1,0,0:0:0:0:
64,192,65327,1,0,0:0:0:0:
448,192,65497,1,0,0:0:0:0:
64,192,65497,1,0,0:0:0:0:
192,192,65666,1,0,0:0:0:0:
320,192,65666,1,0,0:0:0:0:
448,192,65836,1,0,0:0:0:0:
192,192,66005,1,0,0:0:0:0:
64,192,66005,1,0,0:0:0:0:
320,192,66175,1,0,0:0:0:0:
448,192,66175,1,0,0:0:0:0:
192,192,66344,1,0,0:0:0:0:
64,192,66344,1,0,0:0:0:0:
320,192,66514,1,0,0:0:0:0:
448,192,66514,1,0,0:0:0:0:
64,192,66683,1,0,0:0:0:0:
448,192,66683,1,0,0:0:0:0:
320,192,66853,1,0,0:0:0:0:
192,192,66853,1,0,0:0:0:0:
192,192,67022,1,0,0:0:0:0:
64,192,67022,1,0,0:0:0:0:
320,192,67192,1,0,0:0:0:0:
448,192,67192,1,0,0:0:0:0:
192,192,67361,1,0,0:0:0:0:
64,192,67531,1,0,0:0:0:0:
448,192,67531,1,0,0:0:0:0:
192,192,67700,1,0,0:0:0:0:
64,192,67700,1,0,0:0:0:0:
320,192,67870,1,0,0:0:0:0:
448,192,67870,1,0,0:0:0:0:
192,192,67870,1,0,0:0:0:0:
320,192,68039,1,0,0:0:0:0:
448,192,68209,1,0,0:0:0:0:
64,192,68209,1,0,0:0:0:0:
192,192,68209,1,0,0:0:0:0:
320,192,68378,1,0,0:0:0:0:
448,192,68548,1,0,0:0:0:0:
192,192,68548,1,0,0:0:0:0:
192,192,68717,1,0,0:0:0:0:
64,192,68717,1,0,0:0:0:0:
320,192,68717,1,0,0:0:0:0:
64,192,68887,1,0,0:0:0:0:
448,192,68887,1,0,0:0:0:0:
320,192,69056,1,0,0:0:0:0:
448,192,69056,1,0,0:0:0:0:
192,192,69056,1,0,0:0:0:0:
192,192,69225,1,0,0:0:0:0:
64,192,69225,1,0,0:0:0:0:
320,192,69395,1,0,0:0:0:0:
448,192,69564,1,0,0:0:0:0:
192,192,69564,1,0,0:0:0:0:
320,192,69734,1,0,0:0:0:0:
192,192,69734,1,0,0:0:0:0:
64,192,69734,1,0,0:0:0:0:
64,192,69903,1,0,0:0:0:0:
320,192,70073,1,0,0:0:0:0:
448,192,70073,1,0,0:0:0:0:
192,192,70242,1,0,0:0:0:0:
64,192,70242,1,0,0:0:0:0:
448,192,70242,1,0,0:0:0:0:
192,192,70412,1,0,0:0:0:0:
320,192,70581,1,0,0:0:0:0:
448,192,70581,1,0,0:0:0:0:
64,192,70581,1,0,0:0:0:0:
320,192,70666,1,0,0:0:0:0:
320,192,70751,1,0,0:0:0:0:
320,192,70836,1,0,0:0:0:0:
192,192,70920,1,0,0:0:0:0:
448,192,70920,1,0,0:0:0:0:
192,192,71005,1,0,0:0:0:0:
192,192,71090,1,0,0:0:0:0:
192,192,71175,1,0,0:0:0:0:
64,192,71259,1,0,0:0:0:0:
320,192,71259,1,0,0:0:0:0:
64,192,71344,1,0,0:0:0:0:
64,192,71429,1,0,0:0:0:0:
64,192,71514,1,0,0:0:0:0:
64,192,71598,1,0,0:0:0:0:
448,192,71598,1,0,0:0:0:0:
64,192,71683,1,0,0:0:0:0:
320,192,71768,1,0,0:0:0:0:
64,192,71768,1,0,0:0:0:0:
64,192,71853,1,0,0:0:0:0:
192,192,71937,1,0,0:0:0:0:
448,192,71937,1,0,0:0:0:0:
448,192,72022,1,0,0:0:0:0:
448,192,72107,1,0,0:0:0:0:
448,192,72192,1,0,0:0:0:0:
320,192,72276,1,0,0:0:0:0:
64,192,72276,1,0,0:0:0:0:
320,192,72361,1,0,0:0:0:0:
320,192,72446,1,0,0:0:0:0:
320,192,72531,1,0,0:0:0:0:
320,192,72615,1,0,0:0:0:0:
192,192,72615,1,0,0:0:0:0:
320,192,72700,1,0,0:0:0:0:
320,192,72785,1,0,0:0:0:0:
320,192,72870,1,0,0:0:0:0:
64,192,72954,1,0,0:0:0:0:
448,192,72954,1,0,0:0:0:0:
64,192,73039,1,0,0:0:0:0:
64,192,73124,1,0,0:0:0:0:
64,192,73209,1,0,0:0:0:0:
320,192,73293,1,0,0:0:0:0:
448,192,73293,1,0,0:0:0:0:
192,192,73293,1,0,0:0:0:0:
320,192,73463,1,0,0:0:0:0:
448,192,73632,1,0,0:0:0:0:
64,192,73632,1,0,0:0:0:0:
192,192,73632,1,0,0:0:0:0:
320,192,73802,1,0,0:0:0:0:
448,192,73971,1,0,0:0:0:0:
192,192,73971,1,0,0:0:0:0:
192,192,74141,1,0,0:0:0:0:
64,192,74141,1,0,0:0:0:0:
320,192,74141,1,0,0:0:0:0:
64,192,74310,1,0,0:0:0:0:
448,192,74310,1,0,0:0:0:0:
320,192,74480,1,0,0:0:0:0:
448,192,74480,1,0,0:0:0:0:
192,192,74480,1,0,0:0:0:0:
192,192,74649,1,0,0:0:0:0:
64,192,74649,1,0,0:0:0:0:
320,192,74819,1,0,0:0:0:0:
448,192,74988,1,0,0:0:0:0:
192,192,74988,1,0,0:0:0:0:
320,192,75158,1,0,0:0:0:0:
192,192,75158,1,0,0:0:0:0:
64,192,75158,1,0,0:0:0:0:
64,192,75327,1,0,0:0:0:0:
320,192,75497,1,0,0:0:0:0:
448,192,75497,1,0,0:0:0:0:
192,192,75666,1,0,0:0:0:0:
64,192,75666,1,0,0:0:0:0:
448,192,75666,1,0,0:0:0:0:
192,192,75836,1,0,0:0:0:0:
320,192,76005,1,0,0:0:0:0:
448,192,76005,1,0,0:0:0:0:
64,192,76005,1,0,0:0:0:0:
320,192,76175,1,0,0:0:0:0:
448,192,76344,1,0,0:0:0:0:
64,192,76344,1,0,0:0:0:0:
192,192,76344,1,0,0:0:0:0:
192,192,76514,1,0,0:0:0:0:
448,192,76683,1,0,0:0:0:0:
320,192,76683,1,0,0:0:0:0:
192,192,76853,1,0,0:0:0:0:
64,192,76853,1,0,0:0:0:0:
448,192,76853,1,0,0:0:0:0:
320,192,77022,1,0,0:0:0:0:
192,192,77022,1,0,0:0:0:0:
64,192,77192,1,0,0:0:0:0:
320,192,77192,1,0,0:0:0:0:
448,192,77192,1,0,0:0:0:0:
192,192,77361,1,0,0:0:0:0:
64,192,77531,1,0,0:0:0:0:
448,192,77531,1,0,0:0:0:0:
320,192,77700,1,0,0:0:0:0:
192,192,77700,1,0,0:0:0:0:
192,192,77870,1,0,0:0:0:0:
64,192,77870,1,0,0:0:0:0:
448,192,77870,1,0,0:0:0:0:
320,192,78039,1,0,0:0:0:0:
448,192,78039,1,0,0:0:0:0:
192,192,78209,1,0,0:0:0:0:
64,192,78209,1,0,0:0:0:0:
64,192,78378,1,0,0:0:0:0:
448,192,78378,1,0,0:0:0:0:
320,192,78378,1,0,0:0:0:0:
192,192,78548,1,0,0:0:0:0:
64,192,78717,1,0,0:0:0:0:
192,192,78717,1,0,0:0:0:0:
320,192,78717,1,0,0:0:0:0:
320,192,78887,1,0,0:0:0:0:
448,192,79056,1,0,0:0:0:0:
64,192,79056,1,0,0:0:0:0:
192,192,79056,1,0,0:0:0:0:
320,192,79226,1,0,0:0:0:0:
448,192,79395,1,0,0:0:0:0:
192,192,79395,1,0,0:0:0:0:
192,192,79565,1,0,0:0:0:0:
64,192,79565,1,0,0:0:0:0:
320,192,79565,1,0,0:0:0:0:
64,192,79734,1,0,0:0:0:0:
448,192,79734,1,0,0:0:0:0:
320,192,79904,1,0,0:0:0:0:
448,192,79904,1,0,0:0:0:0:
192,192,79904,1,0,0:0:0:0:
192,192,80073,1,0,0:0:0:0:
64,192,80073,1,0,0:0:0:0:
320,192,80243,1,0,0:0:0:0:
448,192,80412,1,0,0:0:0:0:
192,192,80412,1,0,0:0:0:0:
320,192,80582,1,0,0:0:0:0:
192,192,80582,1,0,0:0:0:0:
64,192,80582,1,0,0:0:0:0:
64,192,80751,1,0,0:0:0:0:
320,192,80921,1,0,0:0:0:0:
448,192,80921,1,0,0:0:0:0:
192,192,81090,1,0,0:0:0:0:
64,192,81090,1,0,0:0:0:0:
448,192,81090,1,0,0:0:0:0:
192,192,81260,1,0,0:0:0:0:
320,192,81429,1,0,0:0:0:0:
448,192,81429,1,0,0:0:0:0:
64,192,81429,1,0,0:0:0:0:
320,192,81514,1,0,0:0:0:0:
320,192,81599,1,0,0:0:0:0:
320,192,81683,1,0,0:0:0:0:
192,192,81768,1,0,0:0:0:0:
448,192,81768,1,0,0:0:0:0:
192,192,81853,1,0,0:0:0:0:
192,192,81938,1,0,0:0:0:0:
192,192,82022,1,0,0:0:0:0:
64,192,82107,1,0,0:0:0:0:
320,192,82107,1,0,0:0:0:0:
64,192,82192,1,0,0:0:0:0:
64,192,82277,1,0,0:0:0:0:
64,192,82361,1,0,0:0:0:0:
64,192,82446,1,0,0:0:0:0:
448,192,82446,1,0,0:0:0:0:
64,192,82531,1,0,0:0:0:0:
320,192,82616,1,0,0:0:0:0:
64,192,82616,1,0,0:0:0:0:
64,192,82700,1,0,0:0:0:0:
192,192,82785,1,0,0:0:0:0:
448,192,82785,1,0,0:0:0:0:
448,192,82870,1,0,0:0:0:0:
448,192,82955,1,0,0:0:0:0:
448,192,83039,1,0,0:0:0:0:
320,192,83124,1,0,0:0:0:0:
64,192,83124,1,0,0:0:0:0:
320,192,83209,1,0,0:0:0:0:
320,192,83294,1,0,0:0:0:0:
320,192,83378,1,0,0:0:0:0:
320,192,83463,1,0,0:0:0:0:
192,192,83463,1,0,0:0:0:0:
320,192,83548,1,0,0:0:0:0:
320,192,83633,1,0,0:0:0:0:
320,192,83717,1,0,0:0:0:0:
64,192,83802,1,0,0:0:0:0:
448,192,83802,1,0,0:0:0:0:
192,192,83802,1,0,0:0:0:0:
192,192,84141,1,0,0:0:0:0:
448,192,84141,1,0,0:0:0:0:
320,192,84141,1,0,0:0:0:0:
64,192,84141,1,0,0:0:0:0:
192,192,84226,1,0,0:0:0:0:
320,192,84226,1,0,0:0:0:0:
448,192,84226,1,0,0:0:0:0:
64,192,84226,1,0,0:0:0:0:
64,192,84311,1,0,0:0:0:0:
192,192,84311,1,0,0:0:0:0:
320,192,84311,1,0,0:0:0:0:
448,192,84311,1,0,0:0:0:0:
448,192,84395,1,0,0:0:0:0:
320,192,84395,1,0,0:0:0:0:
192,192,84395,1,0,0:0:0:0:
64,192,84395,1,0,0:0:0:0:
64,192,84480,1,0,0:0:0:0:
448,192,84480,1,0,0:0:0:0:
320,192,84480,1,0,0:0:0:0:
192,192,84480,1,0,0:0:0:0:
192,192,84565,1,0,0:0:0:0:
64,192,84565,1,0,0:0:0:0:
448,192,84565,1,0,0:0:0:0:
320,192,84565,1,0,0:0:0:0:
448,192,84650,1,0,0:0:0:0:
320,192,84650,1,0,0:0:0:0:
192,192,84650,1,0,0:0:0:0:
64,192,84650,1,0,0:0:0:0:
448,192,84734,1,0,0:0:0:0:
320,192,84734,1,0,0:0:0:0:
64,192,84734,1,0,0:0:0:0:
192,192,84734,1,0,0:0:0:0:
320,192,84819,1,0,0:0:0:0:
64,192,84819,1,0,0:0:0:0:
192,192,84819,1,0,0:0:0:0:
448,192,84819,1,0,0:0:0:0:
192,192,84904,1,0,0:0:0:0:
448,192,84904,1,0,0:0:0:0:
64,192,84904,1,0,0:0:0:0:
320,192,84904,1,0,0:0:0:0:
448,192,84989,1,0,0:0:0:0:
192,192,84989,1,0,0:0:0:0:
320,192,84989,1,0,0:0:0:0:
64,192,84989,1,0,0:0:0:0:
448,192,85073,1,0,0:0:0:0:
192,192,85073,1,0,0:0:0:0:
320,192,85073,1,0,0:0:0:0:
64,192,85073,1,0,0:0:0:0:
192,192,85158,1,0,0:0:0:0:
64,192,85158,1,0,0:0:0:0:
448,192,85158,1,0,0:0:0:0:
320,192,85158,1,0,0:0:0:0:
64,192,85243,1,0,0:0:0:0:
192,192,85243,1,0,0:0:0:0:
448,192,85243,1,0,0:0:0:0:
320,192,85243,1,0,0:0:0:0:
192,192,85328,1,0,0:0:0:0:
448,192,85328,1,0,0:0:0:0:
320,192,85328,1,0,0:0:0:0:
64,192,85328,1,0,0:0:0:0:
64,192,85412,1,0,0:0:0:0:
320,192,85412,1,0,0:0:0:0:
192,192,85412,1,0,0:0:0:0:
448,192,85412,1,0,0:0:0:0:
320,192,85497,1,0,0:0:0:0:
64,192,85497,1,0,0:0:0:0:
448,192,85497,1,0,0:0:0:0:
192,192,85497,1,0,0:0:0:0:
320,192,85582,1,0,0:0:0:0:
64,192,85582,1,0,0:0:0:0:
448,192,85582,1,0,0:0:0:0:
192,192,85582,1,0,0:0:0:0:
448,192,85666,1,0,0:0:0:0:
320,192,85666,1,0,0:0:0:0:
192,192,85666,1,0,0:0:0:0:
64,192,85666,1,0,0:0:0:0:
448,192,85751,1,0,0:0:0:0:
320,192,85751,1,0,0:0:0:0:
64,192,85751,1,0,0:0:0:0:
192,192,85751,1,0,0:0:0:0:
448,192,85836,1,0,0:0:0:0:
64,192,86005,1,0,0:0:0:0:
192,192,86005,1,0,0:0:0:0:
320,192,86175,1,0,0:0:0:0:
448,192,86344,1,0,0:0:0:0:
320,192,86344,1,0,0:0:0:0:
192,192,86514,1,0,0:0:0:0:
64,192,86514,1,0,0:0:0:0:
448,192,86683,1,0,0:0:0:0:
192,192,86683,1,0,0:0:0:0:
320,192,86853,1,0,0:0:0:0:
448,192,86853,1,0,0:0:0:0:
192,192,87022,1,0,0:0:0:0:
64,192,87022,1,0,0:0:0:0:
448,192,87192,1,0,0:0:0:0:
64,192,87192,1,0,0:0:0:0:
320,192,87361,1,0,0:0:0:0:
448,192,87361,1,0,0:0:0:0:
192,192,87531,1,0,0:0:0:0:
64,192,87531,1,0,0:0:0:0:
320,192,87616,1,0,0:0:0:0:
448,192,87700,1,0,0:0:0:0:
192,192,87700,1,0,0:0:0:0:
320,192,87870,1,0,0:0:0:0:
448,192,87870,1,0,0:0:0:0:
64,192,88039,128,0,88633:0:0:0:0:
192,192,88039,128,0,88548:0:0:0:0:
320,192,88039,128,0,88633:0:0:0:0:
