osu file format v14

[General]
AudioFilename: Maware.mp3
AudioLeadIn: 0
PreviewTime: 114216
Countdown: 0
SampleSet: None
StackLeniency: 0.7
Mode: 3
LetterboxInBreaks: 0
SpecialStyle: 0
WidescreenStoryboard: 1

[Editor]
DistanceSpacing: 0.8
BeatDivisor: 16
GridSize: 4
TimelineZoom: 2.5

[Metadata]
Title:4k Vibro Pack 3
TitleUnicode:4k Vibro Pack 3
Artist:Various Artists
ArtistUnicode:Various Artists
Creator:Staravia
Version:Maware! Setsugetsuka
Source:
Tags:mapset jackhammer vibration
BeatmapID:1216207
BeatmapSetID:572754

[Difficulty]
HPDrainRate:8
CircleSize:4
OverallDifficulty:0
ApproachRate:5
SliderMultiplier:1.4
SliderTickRate:1

[Events]
//Background and Video events
0,0,"bg.jpg",0,0
//Break Periods
//Storyboard Layer 0 (Background)
//Storyboard Layer 1 (Fail)
//Storyboard Layer 2 (Pass)
//Storyboard Layer 3 (Foreground)
//Storyboard Sound Samples

[TimingPoints]
276,333.333333333333,4,3,0,40,1,0
53275,-10,4,3,0,40,0,0
53317,-100,4,3,0,40,0,0
53609,-100,4,3,0,40,0,1
63942,-10,4,3,0,40,0,0
63984,-100,4,3,0,40,0,0
64275,-100,4,3,0,40,0,1
74609,-100,4,3,0,40,0,0
114942,-100,4,3,0,40,0,1
117442,-100,4,3,0,40,0,0
120275,-100,4,3,0,40,0,1
122775,-100,4,3,0,40,0,0

[HitObjects]
448,192,276,5,0,0:0:0:0:
192,192,276,1,0,0:0:0:0:
64,192,276,1,0,0:0:0:0:
320,192,442,1,0,0:0:0:0:
192,192,442,1,0,0:0:0:0:
192,192,609,1,0,0:0:0:0:
64,192,609,1,0,0:0:0:0:
320,192,692,1,0,0:0:0:0:
448,192,692,1,0,0:0:0:0:
192,192,775,1,0,0:0:0:0:
64,192,775,1,0,0:0:0:0:
448,192,942,1,0,0:0:0:0:
64,192,942,1,0,0:0:0:0:
192,192,1109,1,0,0:0:0:0:
320,192,1109,1,0,0:0:0:0:
320,192,1275,1,0,0:0:0:0:
448,192,1275,1,0,0:0:0:0:
192,192,1359,1,0,0:0:0:0:
64,192,1359,1,0,0:0:0:0:
448,192,1442,1,0,0:0:0:0:
320,192,1442,1,0,0:0:0:0:
320,192,1609,1,0,0:0:0:0:
192,192,1609,1,0,0:0:0:0:
320,192,1775,1,0,0:0:0:0:
64,192,1775,1,0,0:0:0:0:
192,192,1942,1,0,0:0:0:0:
64,192,1942,1,0,0:0:0:0:
320,192,2025,1,0,0:0:0:0:
448,192,2025,1,0,0:0:0:0:
192,192,2109,1,0,0:0:0:0:
64,192,2109,1,0,0:0:0:0:
320,192,2275,1,0,0:0:0:0:
192,192,2275,1,0,0:0:0:0:
320,192,2442,1,0,0:0:0:0:
448,192,2442,1,0,0:0:0:0:
192,192,2525,1,0,0:0:0:0:
64,192,2525,1,0,0:0:0:0:
320,192,2609,1,0,0:0:0:0:
448,192,2609,1,0,0:0:0:0:
192,192,2775,1,0,0:0:0:0:
64,192,2775,1,0,0:0:0:0:
320,192,2859,1,0,0:0:0:0:
448,192,2859,1,0,0:0:0:0:
192,192,2942,1,0,0:0:0:0:
64,192,2942,1,0,0:0:0:0:
320,192,3109,1,0,0:0:0:0:
192,192,3109,1,0,0:0:0:0:
192,192,3275,1,0,0:0:0:0:
64,192,3275,1,0,0:0:0:0:
320,192,3359,1,0,0:0:0:0:
448,192,3359,1,0,0:0:0:0:
192,192,3442,1,0,0:0:0:0:
64,192,3442,1,0,0:0:0:0:
448,192,3609,1,0,0:0:0:0:
64,192,3609,1,0,0:0:0:0:
192,192,3775,1,0,0:0:0:0:
320,192,3775,1,0,0:0:0:0:
320,192,3942,1,0,0:0:0:0:
448,192,3942,1,0,0:0:0:0:
192,192,4025,1,0,0:0:0:0:
64,192,4025,1,0,0:0:0:0:
448,192,4109,1,0,0:0:0:0:
320,192,4109,1,0,0:0:0:0:
320,192,4275,1,0,0:0:0:0:
192,192,4275,1,0,0:0:0:0:
64,192,4442,1,0,0:0:0:0:
192,192,4442,1,0,0:0:0:0:
320,192,4609,1,0,0:0:0:0:
448,192,4609,1,0,0:0:0:0:
192,192,4692,1,0,0:0:0:0:
64,192,4692,1,0,0:0:0:0:
320,192,4775,1,0,0:0:0:0:
448,192,4775,1,0,0:0:0:0:
64,192,4942,1,0,0:0:0:0:
320,192,4942,1,0,0:0:0:0:
448,192,5109,1,0,0:0:0:0:
320,192,5109,1,0,0:0:0:0:
192,192,5192,1,0,0:0:0:0:
64,192,5192,1,0,0:0:0:0:
448,192,5275,1,0,0:0:0:0:
320,192,5275,1,0,0:0:0:0:
64,192,5442,1,0,0:0:0:0:
192,192,5442,1,0,0:0:0:0:
320,192,5525,1,0,0:0:0:0:
448,192,5525,1,0,0:0:0:0:
192,192,5609,1,0,0:0:0:0:
64,192,5609,1,0,0:0:0:0:
320,192,5775,1,0,0:0:0:0:
192,192,5775,1,0,0:0:0:0:
192,192,5942,1,0,0:0:0:0:
64,192,5942,1,0,0:0:0:0:
320,192,6025,1,0,0:0:0:0:
448,192,6025,1,0,0:0:0:0:
192,192,6109,1,0,0:0:0:0:
64,192,6109,1,0,0:0:0:0:
448,192,6275,1,0,0:0:0:0:
64,192,6275,1,0,0:0:0:0:
192,192,6442,1,0,0:0:0:0:
320,192,6442,1,0,0:0:0:0:
320,192,6609,1,0,0:0:0:0:
448,192,6609,1,0,0:0:0:0:
192,192,6692,1,0,0:0:0:0:
64,192,6692,1,0,0:0:0:0:
448,192,6775,1,0,0:0:0:0:
320,192,6775,1,0,0:0:0:0:
320,192,6942,1,0,0:0:0:0:
192,192,6942,1,0,0:0:0:0:
320,192,7109,1,0,0:0:0:0:
64,192,7109,1,0,0:0:0:0:
192,192,7275,1,0,0:0:0:0:
64,192,7275,1,0,0:0:0:0:
320,192,7359,1,0,0:0:0:0:
448,192,7359,1,0,0:0:0:0:
192,192,7442,1,0,0:0:0:0:
64,192,7442,1,0,0:0:0:0:
320,192,7609,1,0,0:0:0:0:
192,192,7609,1,0,0:0:0:0:
320,192,7775,1,0,0:0:0:0:
448,192,7775,1,0,0:0:0:0:
192,192,7859,1,0,0:0:0:0:
64,192,7859,1,0,0:0:0:0:
320,192,7942,1,0,0:0:0:0:
448,192,7942,1,0,0:0:0:0:
192,192,8109,1,0,0:0:0:0:
64,192,8109,1,0,0:0:0:0:
320,192,8192,1,0,0:0:0:0:
448,192,8192,1,0,0:0:0:0:
192,192,8275,1,0,0:0:0:0:
64,192,8275,1,0,0:0:0:0:
320,192,8442,1,0,0:0:0:0:
192,192,8442,1,0,0:0:0:0:
192,192,8609,1,0,0:0:0:0:
64,192,8609,1,0,0:0:0:0:
320,192,8692,1,0,0:0:0:0:
448,192,8692,1,0,0:0:0:0:
192,192,8775,1,0,0:0:0:0:
64,192,8775,1,0,0:0:0:0:
448,192,8942,1,0,0:0:0:0:
64,192,8942,1,0,0:0:0:0:
192,192,9109,1,0,0:0:0:0:
320,192,9109,1,0,0:0:0:0:
320,192,9275,1,0,0:0:0:0:
448,192,9275,1,0,0:0:0:0:
192,192,9359,1,0,0:0:0:0:
64,192,9359,1,0,0:0:0:0:
448,192,9442,1,0,0:0:0:0:
320,192,9442,1,0,0:0:0:0:
320,192,9609,1,0,0:0:0:0:
192,192,9609,1,0,0:0:0:0:
64,192,9609,1,0,0:0:0:0:
192,192,9942,1,0,0:0:0:0:
320,192,9942,1,0,0:0:0:0:
448,192,9942,1,0,0:0:0:0:
320,192,10275,1,0,0:0:0:0:
192,192,10275,1,0,0:0:0:0:
64,192,10275,1,0,0:0:0:0:
64,192,10609,1,0,0:0:0:0:
320,192,10609,1,0,0:0:0:0:
448,192,10609,1,0,0:0:0:0:
448,192,10942,5,0,0:0:0:0:
192,192,10942,1,0,0:0:0:0:
64,192,10942,1,0,0:0:0:0:
320,192,11109,1,0,0:0:0:0:
192,192,11109,1,0,0:0:0:0:
192,192,11275,1,0,0:0:0:0:
64,192,11275,1,0,0:0:0:0:
320,192,11359,1,0,0:0:0:0:
448,192,11359,1,0,0:0:0:0:
192,192,11442,1,0,0:0:0:0:
64,192,11442,1,0,0:0:0:0:
448,192,11609,1,0,0:0:0:0:
64,192,11609,1,0,0:0:0:0:
192,192,11775,1,0,0:0:0:0:
320,192,11775,1,0,0:0:0:0:
320,192,11942,1,0,0:0:0:0:
448,192,11942,1,0,0:0:0:0:
192,192,12025,1,0,0:0:0:0:
64,192,12025,1,0,0:0:0:0:
448,192,12109,1,0,0:0:0:0:
320,192,12109,1,0,0:0:0:0:
320,192,12275,1,0,0:0:0:0:
192,192,12275,1,0,0:0:0:0:
320,192,12442,1,0,0:0:0:0:
64,192,12442,1,0,0:0:0:0:
192,192,12609,1,0,0:0:0:0:
64,192,12609,1,0,0:0:0:0:
320,192,12692,1,0,0:0:0:0:
448,192,12692,1,0,0:0:0:0:
192,192,12775,1,0,0:0:0:0:
64,192,12775,1,0,0:0:0:0:
320,192,12942,1,0,0:0:0:0:
192,192,12942,1,0,0:0:0:0:
320,192,13109,1,0,0:0:0:0:
448,192,13109,1,0,0:0:0:0:
192,192,13192,1,0,0:0:0:0:
64,192,13192,1,0,0:0:0:0:
320,192,13275,1,0,0:0:0:0:
448,192,13275,1,0,0:0:0:0:
192,192,13442,1,0,0:0:0:0:
64,192,13442,1,0,0:0:0:0:
320,192,13525,1,0,0:0:0:0:
448,192,13525,1,0,0:0:0:0:
192,192,13609,1,0,0:0:0:0:
64,192,13609,1,0,0:0:0:0:
320,192,13775,1,0,0:0:0:0:
192,192,13775,1,0,0:0:0:0:
192,192,13942,1,0,0:0:0:0:
64,192,13942,1,0,0:0:0:0:
320,192,14025,1,0,0:0:0:0:
448,192,14025,1,0,0:0:0:0:
192,192,14109,1,0,0:0:0:0:
64,192,14109,1,0,0:0:0:0:
448,192,14275,1,0,0:0:0:0:
64,192,14275,1,0,0:0:0:0:
192,192,14442,1,0,0:0:0:0:
320,192,14442,1,0,0:0:0:0:
320,192,14609,1,0,0:0:0:0:
448,192,14609,1,0,0:0:0:0:
192,192,14692,1,0,0:0:0:0:
64,192,14692,1,0,0:0:0:0:
448,192,14775,1,0,0:0:0:0:
320,192,14775,1,0,0:0:0:0:
320,192,14942,1,0,0:0:0:0:
192,192,14942,1,0,0:0:0:0:
64,192,15109,1,0,0:0:0:0:
192,192,15109,1,0,0:0:0:0:
320,192,15275,1,0,0:0:0:0:
448,192,15275,1,0,0:0:0:0:
192,192,15359,1,0,0:0:0:0:
64,192,15359,1,0,0:0:0:0:
320,192,15442,1,0,0:0:0:0:
448,192,15442,1,0,0:0:0:0:
64,192,15609,1,0,0:0:0:0:
320,192,15609,1,0,0:0:0:0:
448,192,15775,1,0,0:0:0:0:
320,192,15775,1,0,0:0:0:0:
192,192,15859,1,0,0:0:0:0:
64,192,15859,1,0,0:0:0:0:
448,192,15942,1,0,0:0:0:0:
320,192,15942,1,0,0:0:0:0:
64,192,16109,1,0,0:0:0:0:
192,192,16109,1,0,0:0:0:0:
320,192,16192,1,0,0:0:0:0:
448,192,16192,1,0,0:0:0:0:
192,192,16275,1,0,0:0:0:0:
64,192,16275,1,0,0:0:0:0:
320,192,16442,1,0,0:0:0:0:
192,192,16442,1,0,0:0:0:0:
192,192,16609,1,0,0:0:0:0:
64,192,16609,1,0,0:0:0:0:
320,192,16692,1,0,0:0:0:0:
448,192,16692,1,0,0:0:0:0:
192,192,16775,1,0,0:0:0:0:
64,192,16775,1,0,0:0:0:0:
448,192,16942,1,0,0:0:0:0:
64,192,16942,1,0,0:0:0:0:
192,192,17109,1,0,0:0:0:0:
320,192,17109,1,0,0:0:0:0:
320,192,17275,1,0,0:0:0:0:
448,192,17275,1,0,0:0:0:0:
192,192,17359,1,0,0:0:0:0:
64,192,17359,1,0,0:0:0:0:
448,192,17442,1,0,0:0:0:0:
320,192,17442,1,0,0:0:0:0:
320,192,17609,1,0,0:0:0:0:
192,192,17609,1,0,0:0:0:0:
320,192,17775,1,0,0:0:0:0:
64,192,17775,1,0,0:0:0:0:
192,192,17942,1,0,0:0:0:0:
64,192,17942,1,0,0:0:0:0:
320,192,18025,1,0,0:0:0:0:
448,192,18025,1,0,0:0:0:0:
192,192,18109,1,0,0:0:0:0:
64,192,18109,1,0,0:0:0:0:
320,192,18275,1,0,0:0:0:0:
192,192,18275,1,0,0:0:0:0:
320,192,18442,1,0,0:0:0:0:
448,192,18442,1,0,0:0:0:0:
192,192,18525,1,0,0:0:0:0:
64,192,18525,1,0,0:0:0:0:
320,192,18609,1,0,0:0:0:0:
448,192,18609,1,0,0:0:0:0:
192,192,18775,1,0,0:0:0:0:
64,192,18775,1,0,0:0:0:0:
320,192,18859,1,0,0:0:0:0:
448,192,18859,1,0,0:0:0:0:
192,192,18942,1,0,0:0:0:0:
64,192,18942,1,0,0:0:0:0:
320,192,19109,1,0,0:0:0:0:
192,192,19109,1,0,0:0:0:0:
192,192,19275,1,0,0:0:0:0:
64,192,19275,1,0,0:0:0:0:
320,192,19359,1,0,0:0:0:0:
448,192,19359,1,0,0:0:0:0:
192,192,19442,1,0,0:0:0:0:
64,192,19442,1,0,0:0:0:0:
448,192,19609,1,0,0:0:0:0:
64,192,19609,1,0,0:0:0:0:
192,192,19775,1,0,0:0:0:0:
320,192,19775,1,0,0:0:0:0:
320,192,19942,1,0,0:0:0:0:
448,192,19942,1,0,0:0:0:0:
192,192,20025,1,0,0:0:0:0:
64,192,20025,1,0,0:0:0:0:
448,192,20109,1,0,0:0:0:0:
320,192,20109,1,0,0:0:0:0:
192,192,20275,1,0,0:0:0:0:
64,192,20275,1,0,0:0:0:0:
192,192,20359,1,0,0:0:0:0:
64,192,20359,1,0,0:0:0:0:
192,192,20442,1,0,0:0:0:0:
64,192,20442,1,0,0:0:0:0:
64,192,20525,1,0,0:0:0:0:
192,192,20525,1,0,0:0:0:0:
64,192,20609,1,0,0:0:0:0:
192,192,20609,1,0,0:0:0:0:
192,192,20692,1,0,0:0:0:0:
64,192,20692,1,0,0:0:0:0:
64,192,20775,1,0,0:0:0:0:
192,192,20775,1,0,0:0:0:0:
192,192,20859,1,0,0:0:0:0:
64,192,20859,1,0,0:0:0:0:
192,192,20942,1,0,0:0:0:0:
64,192,20942,1,0,0:0:0:0:
448,192,20942,1,0,0:0:0:0:
320,192,20942,128,0,21525:0:0:0:0:
64,192,21609,1,0,0:0:0:0:
192,192,21609,1,0,0:0:0:0:
320,192,21609,1,0,0:0:0:0:
448,192,21609,1,0,0:0:0:0:
320,192,21775,1,0,0:0:0:0:
448,192,21775,1,0,0:0:0:0:
64,192,21859,1,0,0:0:0:0:
192,192,21859,1,0,0:0:0:0:
320,192,21942,1,0,0:0:0:0:
192,192,22025,1,0,0:0:0:0:
64,192,22025,1,0,0:0:0:0:
320,192,22109,1,0,0:0:0:0:
448,192,22109,1,0,0:0:0:0:
192,192,22192,1,0,0:0:0:0:
320,192,22275,1,0,0:0:0:0:
448,192,22275,1,0,0:0:0:0:
192,192,22359,1,0,0:0:0:0:
64,192,22359,1,0,0:0:0:0:
320,192,22442,1,0,0:0:0:0:
192,192,22525,1,0,0:0:0:0:
64,192,22525,1,0,0:0:0:0:
320,192,22609,1,0,0:0:0:0:
448,192,22609,1,0,0:0:0:0:
192,192,22692,1,0,0:0:0:0:
320,192,22775,1,0,0:0:0:0:
448,192,22775,1,0,0:0:0:0:
192,192,22859,1,0,0:0:0:0:
64,192,22859,1,0,0:0:0:0:
448,192,22942,1,0,0:0:0:0:
192,192,23025,1,0,0:0:0:0:
64,192,23025,1,0,0:0:0:0:
320,192,23109,1,0,0:0:0:0:
448,192,23109,1,0,0:0:0:0:
64,192,23192,1,0,0:0:0:0:
320,192,23275,1,0,0:0:0:0:
448,192,23275,1,0,0:0:0:0:
192,192,23359,1,0,0:0:0:0:
64,192,23359,1,0,0:0:0:0:
448,192,23442,1,0,0:0:0:0:
192,192,23525,1,0,0:0:0:0:
64,192,23525,1,0,0:0:0:0:
320,192,23609,1,0,0:0:0:0:
448,192,23609,1,0,0:0:0:0:
320,192,23859,1,0,0:0:0:0:
192,192,23859,1,0,0:0:0:0:
192,192,24109,1,0,0:0:0:0:
64,192,24109,1,0,0:0:0:0:
320,192,24275,1,0,0:0:0:0:
448,192,24275,1,0,0:0:0:0:
64,192,24442,1,0,0:0:0:0:
192,192,24442,1,0,0:0:0:0:
192,192,24609,1,0,0:0:0:0:
320,192,24609,1,0,0:0:0:0:
192,192,24775,1,0,0:0:0:0:
64,192,24775,1,0,0:0:0:0:
320,192,24942,128,0,25109:0:0:0:0:
448,192,24942,128,0,25109:0:0:0:0:
320,192,25192,1,0,0:0:0:0:
448,192,25192,1,0,0:0:0:0:
320,192,25442,1,0,0:0:0:0:
192,192,25442,1,0,0:0:0:0:
448,192,25609,1,0,0:0:0:0:
64,192,25609,1,0,0:0:0:0:
192,192,25775,1,0,0:0:0:0:
64,192,25775,1,0,0:0:0:0:
192,192,25942,1,0,0:0:0:0:
320,192,25942,1,0,0:0:0:0:
192,192,26109,1,0,0:0:0:0:
64,192,26109,1,0,0:0:0:0:
320,192,26275,1,0,0:0:0:0:
448,192,26275,1,0,0:0:0:0:
64,192,26275,1,0,0:0:0:0:
448,192,26442,1,0,0:0:0:0:
320,192,26609,1,0,0:0:0:0:
192,192,26609,1,0,0:0:0:0:
64,192,26609,1,0,0:0:0:0:
192,192,26775,1,0,0:0:0:0:
64,192,26942,1,0,0:0:0:0:
192,192,26942,1,0,0:0:0:0:
320,192,26942,1,0,0:0:0:0:
448,192,26942,1,0,0:0:0:0:
320,192,27109,1,0,0:0:0:0:
448,192,27109,1,0,0:0:0:0:
64,192,27192,1,0,0:0:0:0:
192,192,27192,1,0,0:0:0:0:
320,192,27275,1,0,0:0:0:0:
192,192,27359,1,0,0:0:0:0:
64,192,27359,1,0,0:0:0:0:
320,192,27442,1,0,0:0:0:0:
448,192,27442,1,0,0:0:0:0:
192,192,27525,1,0,0:0:0:0:
320,192,27609,1,0,0:0:0:0:
448,192,27609,1,0,0:0:0:0:
192,192,27692,1,0,0:0:0:0:
64,192,27692,1,0,0:0:0:0:
320,192,27775,1,0,0:0:0:0:
192,192,27859,1,0,0:0:0:0:
64,192,27859,1,0,0:0:0:0:
320,192,27942,1,0,0:0:0:0:
448,192,27942,1,0,0:0:0:0:
192,192,28025,1,0,0:0:0:0:
320,192,28109,1,0,0:0:0:0:
448,192,28109,1,0,0:0:0:0:
192,192,28192,1,0,0:0:0:0:
64,192,28192,1,0,0:0:0:0:
448,192,28275,1,0,0:0:0:0:
192,192,28359,1,0,0:0:0:0:
64,192,28359,1,0,0:0:0:0:
320,192,28442,1,0,0:0:0:0:
448,192,28442,1,0,0:0:0:0:
64,192,28525,1,0,0:0:0:0:
320,192,28609,1,0,0:0:0:0:
448,192,28609,1,0,0:0:0:0:
192,192,28692,1,0,0:0:0:0:
64,192,28692,1,0,0:0:0:0:
448,192,28775,1,0,0:0:0:0:
192,192,28859,1,0,0:0:0:0:
64,192,28859,1,0,0:0:0:0:
320,192,28942,1,0,0:0:0:0:
448,192,28942,1,0,0:0:0:0:
320,192,29192,1,0,0:0:0:0:
192,192,29192,1,0,0:0:0:0:
192,192,29442,1,0,0:0:0:0:
64,192,29442,1,0,0:0:0:0:
320,192,29609,1,0,0:0:0:0:
448,192,29609,1,0,0:0:0:0:
64,192,29775,1,0,0:0:0:0:
192,192,29775,1,0,0:0:0:0:
192,192,29942,1,0,0:0:0:0:
320,192,29942,1,0,0:0:0:0:
192,192,30109,1,0,0:0:0:0:
64,192,30109,1,0,0:0:0:0:
320,192,30275,128,0,30442:0:0:0:0:
448,192,30275,128,0,30442:0:0:0:0:
320,192,30525,1,0,0:0:0:0:
448,192,30525,1,0,0:0:0:0:
320,192,30775,1,0,0:0:0:0:
192,192,30775,1,0,0:0:0:0:
448,192,30942,1,0,0:0:0:0:
64,192,30942,1,0,0:0:0:0:
192,192,31109,1,0,0:0:0:0:
64,192,31109,1,0,0:0:0:0:
192,192,31275,1,0,0:0:0:0:
320,192,31275,1,0,0:0:0:0:
320,192,31609,1,0,0:0:0:0:
448,192,31609,1,0,0:0:0:0:
64,192,31609,1,0,0:0:0:0:
448,192,31775,1,0,0:0:0:0:
320,192,31942,1,0,0:0:0:0:
192,192,31942,1,0,0:0:0:0:
64,192,31942,1,0,0:0:0:0:
320,192,32109,1,0,0:0:0:0:
192,192,32275,1,0,0:0:0:0:
64,192,32275,1,0,0:0:0:0:
448,192,32275,1,0,0:0:0:0:
192,192,32609,1,0,0:0:0:0:
320,192,32609,1,0,0:0:0:0:
448,192,32609,1,0,0:0:0:0:
64,192,32775,1,0,0:0:0:0:
320,192,32859,1,0,0:0:0:0:
192,192,32942,1,0,0:0:0:0:
64,192,32942,1,0,0:0:0:0:
320,192,32942,1,0,0:0:0:0:
448,192,33275,1,0,0:0:0:0:
320,192,33275,1,0,0:0:0:0:
64,192,33275,1,0,0:0:0:0:
192,192,33442,1,0,0:0:0:0:
320,192,33525,1,0,0:0:0:0:
320,192,33609,1,0,0:0:0:0:
192,192,33609,1,0,0:0:0:0:
448,192,33609,1,0,0:0:0:0:
64,192,33609,1,0,0:0:0:0:
448,192,33775,1,0,0:0:0:0:
320,192,33942,1,0,0:0:0:0:
192,192,33942,1,0,0:0:0:0:
64,192,33942,1,0,0:0:0:0:
320,192,34109,1,0,0:0:0:0:
448,192,34275,1,0,0:0:0:0:
192,192,34275,1,0,0:0:0:0:
64,192,34275,1,0,0:0:0:0:
320,192,34442,1,0,0:0:0:0:
192,192,34525,1,0,0:0:0:0:
448,192,34609,1,0,0:0:0:0:
64,192,34609,1,0,0:0:0:0:
320,192,34609,1,0,0:0:0:0:
320,192,34775,1,0,0:0:0:0:
448,192,34942,1,0,0:0:0:0:
64,192,34942,1,0,0:0:0:0:
192,192,34942,1,0,0:0:0:0:
320,192,34942,1,0,0:0:0:0:
192,192,35109,1,0,0:0:0:0:
320,192,35275,1,0,0:0:0:0:
448,192,35275,1,0,0:0:0:0:
64,192,35275,1,0,0:0:0:0:
320,192,35442,1,0,0:0:0:0:
448,192,35609,1,0,0:0:0:0:
320,192,35609,1,0,0:0:0:0:
192,192,35609,1,0,0:0:0:0:
64,192,35609,1,0,0:0:0:0:
64,192,35775,1,0,0:0:0:0:
320,192,35942,1,0,0:0:0:0:
192,192,35942,1,0,0:0:0:0:
448,192,35942,1,0,0:0:0:0:
320,192,36109,1,0,0:0:0:0:
192,192,36275,1,0,0:0:0:0:
64,192,36275,1,0,0:0:0:0:
320,192,36275,1,0,0:0:0:0:
448,192,36275,1,0,0:0:0:0:
192,192,36442,1,0,0:0:0:0:
64,192,36609,1,0,0:0:0:0:
192,192,36609,1,0,0:0:0:0:
320,192,36609,1,0,0:0:0:0:
448,192,36609,1,0,0:0:0:0:
320,192,36775,1,0,0:0:0:0:
448,192,36942,1,0,0:0:0:0:
320,192,36942,1,0,0:0:0:0:
192,192,36942,1,0,0:0:0:0:
64,192,36942,1,0,0:0:0:0:
64,192,37275,1,0,0:0:0:0:
192,192,37275,1,0,0:0:0:0:
320,192,37275,1,0,0:0:0:0:
448,192,37275,1,0,0:0:0:0:
448,192,37609,1,0,0:0:0:0:
320,192,37609,1,0,0:0:0:0:
192,192,37609,1,0,0:0:0:0:
64,192,37609,1,0,0:0:0:0:
192,192,37942,1,0,0:0:0:0:
320,192,37942,1,0,0:0:0:0:
448,192,37942,1,0,0:0:0:0:
64,192,38109,1,0,0:0:0:0:
320,192,38192,1,0,0:0:0:0:
448,192,38275,1,0,0:0:0:0:
320,192,38275,1,0,0:0:0:0:
64,192,38275,1,0,0:0:0:0:
192,192,38609,1,0,0:0:0:0:
64,192,38609,1,0,0:0:0:0:
320,192,38609,1,0,0:0:0:0:
448,192,38775,1,0,0:0:0:0:
320,192,38859,1,0,0:0:0:0:
64,192,38942,1,0,0:0:0:0:
192,192,38942,1,0,0:0:0:0:
448,192,38942,1,0,0:0:0:0:
320,192,38942,1,0,0:0:0:0:
192,192,39109,1,0,0:0:0:0:
64,192,39275,1,0,0:0:0:0:
192,192,39275,1,0,0:0:0:0:
320,192,39275,1,0,0:0:0:0:
320,192,39442,1,0,0:0:0:0:
448,192,39609,1,0,0:0:0:0:
320,192,39609,1,0,0:0:0:0:
192,192,39609,1,0,0:0:0:0:
64,192,39609,1,0,0:0:0:0:
448,192,39859,1,0,0:0:0:0:
320,192,39859,1,0,0:0:0:0:
192,192,39859,1,0,0:0:0:0:
64,192,39859,1,0,0:0:0:0:
64,192,40109,1,0,0:0:0:0:
192,192,40109,1,0,0:0:0:0:
320,192,40109,1,0,0:0:0:0:
448,192,40109,1,0,0:0:0:0:
448,192,40275,1,0,0:0:0:0:
320,192,40275,1,0,0:0:0:0:
192,192,40275,1,0,0:0:0:0:
64,192,40275,1,0,0:0:0:0:
448,192,40609,1,0,0:0:0:0:
64,192,40609,1,0,0:0:0:0:
192,192,40609,1,0,0:0:0:0:
448,192,40942,1,0,0:0:0:0:
320,192,40942,1,0,0:0:0:0:
192,192,40942,1,0,0:0:0:0:
64,192,40942,1,0,0:0:0:0:
192,192,41275,1,0,0:0:0:0:
320,192,41275,1,0,0:0:0:0:
448,192,41275,1,0,0:0:0:0:
192,192,41609,1,0,0:0:0:0:
64,192,41609,1,0,0:0:0:0:
320,192,41609,1,0,0:0:0:0:
448,192,41609,1,0,0:0:0:0:
448,192,41942,1,0,0:0:0:0:
320,192,41942,1,0,0:0:0:0:
192,192,41942,1,0,0:0:0:0:
64,192,41942,1,0,0:0:0:0:
64,192,42275,1,0,0:0:0:0:
192,192,42275,1,0,0:0:0:0:
320,192,42275,1,0,0:0:0:0:
448,192,42275,1,0,0:0:0:0:
64,192,42442,1,0,0:0:0:0:
192,192,42525,1,0,0:0:0:0:
320,192,42609,1,0,0:0:0:0:
64,192,42609,1,0,0:0:0:0:
448,192,42692,1,0,0:0:0:0:
320,192,42775,1,0,0:0:0:0:
192,192,42859,1,0,0:0:0:0:
64,192,42942,1,0,0:0:0:0:
320,192,42942,1,0,0:0:0:0:
448,192,42942,1,0,0:0:0:0:
320,192,43109,1,0,0:0:0:0:
448,192,43109,1,0,0:0:0:0:
64,192,43192,1,0,0:0:0:0:
192,192,43192,1,0,0:0:0:0:
320,192,43275,1,0,0:0:0:0:
192,192,43359,1,0,0:0:0:0:
64,192,43359,1,0,0:0:0:0:
320,192,43442,1,0,0:0:0:0:
448,192,43442,1,0,0:0:0:0:
192,192,43525,1,0,0:0:0:0:
320,192,43609,1,0,0:0:0:0:
448,192,43609,1,0,0:0:0:0:
192,192,43692,1,0,0:0:0:0:
64,192,43692,1,0,0:0:0:0:
320,192,43775,1,0,0:0:0:0:
192,192,43859,1,0,0:0:0:0:
64,192,43859,1,0,0:0:0:0:
320,192,43942,1,0,0:0:0:0:
448,192,43942,1,0,0:0:0:0:
192,192,44025,1,0,0:0:0:0:
320,192,44109,1,0,0:0:0:0:
448,192,44109,1,0,0:0:0:0:
192,192,44192,1,0,0:0:0:0:
64,192,44192,1,0,0:0:0:0:
448,192,44275,1,0,0:0:0:0:
192,192,44359,1,0,0:0:0:0:
64,192,44359,1,0,0:0:0:0:
320,192,44442,1,0,0:0:0:0:
448,192,44442,1,0,0:0:0:0:
64,192,44525,1,0,0:0:0:0:
320,192,44609,1,0,0:0:0:0:
448,192,44609,1,0,0:0:0:0:
192,192,44692,1,0,0:0:0:0:
64,192,44692,1,0,0:0:0:0:
448,192,44775,1,0,0:0:0:0:
192,192,44859,1,0,0:0:0:0:
64,192,44859,1,0,0:0:0:0:
320,192,44942,1,0,0:0:0:0:
448,192,44942,1,0,0:0:0:0:
320,192,45192,1,0,0:0:0:0:
192,192,45192,1,0,0:0:0:0:
192,192,45442,1,0,0:0:0:0:
64,192,45442,1,0,0:0:0:0:
320,192,45609,1,0,0:0:0:0:
448,192,45609,1,0,0:0:0:0:
192,192,45692,1,0,0:0:0:0:
320,192,45775,1,0,0:0:0:0:
448,192,45775,1,0,0:0:0:0:
64,192,45859,1,0,0:0:0:0:
192,192,45859,1,0,0:0:0:0:
320,192,45942,1,0,0:0:0:0:
192,192,46025,1,0,0:0:0:0:
64,192,46025,1,0,0:0:0:0:
320,192,46109,1,0,0:0:0:0:
448,192,46109,1,0,0:0:0:0:
192,192,46192,1,0,0:0:0:0:
320,192,46275,1,0,0:0:0:0:
448,192,46275,1,0,0:0:0:0:
192,192,46359,1,0,0:0:0:0:
64,192,46359,1,0,0:0:0:0:
320,192,46442,1,0,0:0:0:0:
192,192,46525,1,0,0:0:0:0:
64,192,46525,1,0,0:0:0:0:
320,192,46609,1,0,0:0:0:0:
448,192,46609,1,0,0:0:0:0:
192,192,46692,1,0,0:0:0:0:
320,192,46775,1,0,0:0:0:0:
448,192,46775,1,0,0:0:0:0:
192,192,46859,1,0,0:0:0:0:
64,192,46859,1,0,0:0:0:0:
448,192,46942,1,0,0:0:0:0:
192,192,47025,1,0,0:0:0:0:
64,192,47025,1,0,0:0:0:0:
320,192,47109,1,0,0:0:0:0:
448,192,47109,1,0,0:0:0:0:
64,192,47192,1,0,0:0:0:0:
320,192,47275,1,0,0:0:0:0:
448,192,47275,1,0,0:0:0:0:
192,192,47359,1,0,0:0:0:0:
64,192,47359,1,0,0:0:0:0:
448,192,47442,1,0,0:0:0:0:
192,192,47525,1,0,0:0:0:0:
64,192,47525,1,0,0:0:0:0:
320,192,47609,1,0,0:0:0:0:
448,192,47609,1,0,0:0:0:0:
320,192,47859,1,0,0:0:0:0:
192,192,47859,1,0,0:0:0:0:
192,192,48109,1,0,0:0:0:0:
64,192,48109,1,0,0:0:0:0:
320,192,48275,1,0,0:0:0:0:
448,192,48275,1,0,0:0:0:0:
64,192,48359,1,0,0:0:0:0:
448,192,48442,1,0,0:0:0:0:
320,192,48442,1,0,0:0:0:0:
192,192,48525,1,0,0:0:0:0:
64,192,48525,1,0,0:0:0:0:
320,192,48609,1,0,0:0:0:0:
64,192,48692,1,0,0:0:0:0:
192,192,48692,1,0,0:0:0:0:
448,192,48775,1,0,0:0:0:0:
320,192,48775,1,0,0:0:0:0:
192,192,48859,1,0,0:0:0:0:
448,192,48942,1,0,0:0:0:0:
320,192,48942,1,0,0:0:0:0:
64,192,49025,1,0,0:0:0:0:
192,192,49025,1,0,0:0:0:0:
320,192,49109,1,0,0:0:0:0:
64,192,49192,1,0,0:0:0:0:
192,192,49192,1,0,0:0:0:0:
448,192,49275,1,0,0:0:0:0:
320,192,49275,1,0,0:0:0:0:
192,192,49359,1,0,0:0:0:0:
448,192,49442,1,0,0:0:0:0:
320,192,49442,1,0,0:0:0:0:
64,192,49525,1,0,0:0:0:0:
192,192,49525,1,0,0:0:0:0:
448,192,49609,1,0,0:0:0:0:
64,192,49692,1,0,0:0:0:0:
192,192,49692,1,0,0:0:0:0:
448,192,49775,1,0,0:0:0:0:
320,192,49775,1,0,0:0:0:0:
64,192,49859,1,0,0:0:0:0:
448,192,49942,1,0,0:0:0:0:
320,192,49942,1,0,0:0:0:0:
64,192,50025,1,0,0:0:0:0:
192,192,50025,1,0,0:0:0:0:
448,192,50109,1,0,0:0:0:0:
64,192,50192,1,0,0:0:0:0:
192,192,50192,1,0,0:0:0:0:
448,192,50275,1,0,0:0:0:0:
320,192,50275,1,0,0:0:0:0:
192,192,50442,1,0,0:0:0:0:
64,192,50442,1,0,0:0:0:0:
320,192,50525,1,0,0:0:0:0:
448,192,50525,1,0,0:0:0:0:
192,192,50609,1,0,0:0:0:0:
320,192,50775,1,0,0:0:0:0:
448,192,50775,1,0,0:0:0:0:
192,192,50942,1,0,0:0:0:0:
64,192,50942,1,0,0:0:0:0:
64,192,51025,1,0,0:0:0:0:
192,192,51025,1,0,0:0:0:0:
192,192,51109,1,0,0:0:0:0:
64,192,51109,1,0,0:0:0:0:
64,192,51192,1,0,0:0:0:0:
192,192,51192,1,0,0:0:0:0:
192,192,51275,1,0,0:0:0:0:
64,192,51275,1,0,0:0:0:0:
192,192,51359,1,0,0:0:0:0:
64,192,51359,1,0,0:0:0:0:
192,192,51442,1,0,0:0:0:0:
64,192,51442,1,0,0:0:0:0:
192,192,51525,1,0,0:0:0:0:
64,192,51525,1,0,0:0:0:0:
192,192,51609,1,0,0:0:0:0:
64,192,51609,1,0,0:0:0:0:
64,192,51692,1,0,0:0:0:0:
192,192,51692,1,0,0:0:0:0:
64,192,51775,1,0,0:0:0:0:
192,192,51775,1,0,0:0:0:0:
64,192,51859,1,0,0:0:0:0:
192,192,51859,1,0,0:0:0:0:
64,192,51942,1,0,0:0:0:0:
192,192,51942,1,0,0:0:0:0:
64,192,52025,1,0,0:0:0:0:
192,192,52025,1,0,0:0:0:0:
192,192,52109,1,0,0:0:0:0:
64,192,52109,1,0,0:0:0:0:
192,192,52192,1,0,0:0:0:0:
64,192,52192,1,0,0:0:0:0:
64,192,52275,1,0,0:0:0:0:
192,192,52275,1,0,0:0:0:0:
448,192,52275,1,0,0:0:0:0:
320,192,52609,5,0,0:0:0:0:
192,192,52609,1,0,0:0:0:0:
64,192,52942,1,0,0:0:0:0:
448,192,52942,1,0,0:0:0:0:
320,192,52942,1,0,0:0:0:0:
448,192,53275,1,0,0:0:0:0:
192,192,53275,1,0,0:0:0:0:
64,192,53275,1,0,0:0:0:0:
320,192,53275,1,0,0:0:0:0:
64,192,53609,128,0,53650:0:0:0:0:
448,192,53609,1,0,0:0:0:0:
192,192,53630,128,0,53671:0:0:0:0:
320,192,53650,128,0,53692:0:0:0:0:
448,192,53671,128,0,53713:0:0:0:0:
64,192,53692,128,0,53734:0:0:0:0:
192,192,53713,128,0,53755:0:0:0:0:
320,192,53734,128,0,53775:0:0:0:0:
448,192,53755,128,0,53796:0:0:0:0:
64,192,53775,128,0,53817:0:0:0:0:
192,192,53796,128,0,53838:0:0:0:0:
320,192,53817,128,0,53859:0:0:0:0:
448,192,53838,128,0,53880:0:0:0:0:
64,192,53859,128,0,53900:0:0:0:0:
192,192,53880,128,0,53921:0:0:0:0:
320,192,53900,128,0,53942:0:0:0:0:
448,192,53921,128,0,53963:0:0:0:0:
64,192,53942,128,0,53984:0:0:0:0:
192,192,53963,128,0,54005:0:0:0:0:
320,192,53984,128,0,54025:0:0:0:0:
448,192,54005,128,0,54046:0:0:0:0:
64,192,54025,128,0,54067:0:0:0:0:
192,192,54046,128,0,54088:0:0:0:0:
320,192,54067,128,0,54109:0:0:0:0:
448,192,54088,128,0,54130:0:0:0:0:
64,192,54109,128,0,54150:0:0:0:0:
192,192,54130,128,0,54171:0:0:0:0:
320,192,54150,128,0,54192:0:0:0:0:
448,192,54171,128,0,54213:0:0:0:0:
64,192,54192,128,0,54234:0:0:0:0:
192,192,54213,128,0,54255:0:0:0:0:
320,192,54234,128,0,54275:0:0:0:0:
448,192,54255,128,0,54296:0:0:0:0:
64,192,54275,128,0,54317:0:0:0:0:
192,192,54296,128,0,54338:0:0:0:0:
320,192,54317,128,0,54359:0:0:0:0:
448,192,54338,128,0,54380:0:0:0:0:
64,192,54359,128,0,54400:0:0:0:0:
192,192,54380,128,0,54421:0:0:0:0:
320,192,54400,128,0,54442:0:0:0:0:
448,192,54421,128,0,54463:0:0:0:0:
64,192,54442,128,0,54484:0:0:0:0:
192,192,54463,128,0,54505:0:0:0:0:
320,192,54484,128,0,54525:0:0:0:0:
448,192,54505,128,0,54546:0:0:0:0:
64,192,54525,128,0,54567:0:0:0:0:
192,192,54546,128,0,54588:0:0:0:0:
320,192,54567,128,0,54609:0:0:0:0:
448,192,54588,128,0,54630:0:0:0:0:
64,192,54609,128,0,54650:0:0:0:0:
192,192,54630,128,0,54671:0:0:0:0:
320,192,54650,128,0,54692:0:0:0:0:
448,192,54671,128,0,54713:0:0:0:0:
64,192,54692,128,0,54734:0:0:0:0:
192,192,54713,128,0,54755:0:0:0:0:
320,192,54734,128,0,54775:0:0:0:0:
448,192,54755,128,0,54796:0:0:0:0:
64,192,54775,128,0,54817:0:0:0:0:
192,192,54796,128,0,54838:0:0:0:0:
320,192,54817,128,0,54859:0:0:0:0:
448,192,54838,128,0,54880:0:0:0:0:
64,192,54859,128,0,54900:0:0:0:0:
192,192,54880,128,0,54921:0:0:0:0:
320,192,54900,128,0,54942:0:0:0:0:
448,192,54921,128,0,54963:0:0:0:0:
64,192,54942,128,0,54984:0:0:0:0:
192,192,54963,128,0,55005:0:0:0:0:
320,192,54984,128,0,55025:0:0:0:0:
448,192,55005,128,0,55046:0:0:0:0:
64,192,55025,128,0,55067:0:0:0:0:
192,192,55046,128,0,55088:0:0:0:0:
320,192,55067,128,0,55109:0:0:0:0:
448,192,55088,128,0,55130:0:0:0:0:
64,192,55109,128,0,55150:0:0:0:0:
192,192,55130,128,0,55171:0:0:0:0:
320,192,55150,128,0,55192:0:0:0:0:
448,192,55171,128,0,55213:0:0:0:0:
64,192,55192,128,0,55234:0:0:0:0:
192,192,55213,128,0,55255:0:0:0:0:
320,192,55234,128,0,55275:0:0:0:0:
448,192,55255,128,0,55296:0:0:0:0:
64,192,55275,128,0,55317:0:0:0:0:
192,192,55296,128,0,55338:0:0:0:0:
320,192,55317,128,0,55359:0:0:0:0:
448,192,55338,128,0,55380:0:0:0:0:
64,192,55359,128,0,55400:0:0:0:0:
192,192,55380,128,0,55421:0:0:0:0:
320,192,55400,128,0,55442:0:0:0:0:
448,192,55421,128,0,55463:0:0:0:0:
64,192,55442,128,0,55484:0:0:0:0:
192,192,55463,128,0,55505:0:0:0:0:
320,192,55484,128,0,55525:0:0:0:0:
448,192,55505,128,0,55546:0:0:0:0:
64,192,55525,128,0,55567:0:0:0:0:
192,192,55546,128,0,55588:0:0:0:0:
320,192,55567,128,0,55609:0:0:0:0:
448,192,55588,128,0,55630:0:0:0:0:
64,192,55609,128,0,55650:0:0:0:0:
192,192,55630,128,0,55671:0:0:0:0:
320,192,55650,128,0,55692:0:0:0:0:
448,192,55671,128,0,55713:0:0:0:0:
64,192,55692,128,0,55734:0:0:0:0:
192,192,55713,128,0,55755:0:0:0:0:
320,192,55734,128,0,55775:0:0:0:0:
448,192,55755,128,0,55796:0:0:0:0:
64,192,55775,128,0,55817:0:0:0:0:
192,192,55796,128,0,55838:0:0:0:0:
320,192,55817,128,0,55859:0:0:0:0:
448,192,55838,128,0,55880:0:0:0:0:
64,192,55859,128,0,55900:0:0:0:0:
192,192,55880,128,0,55921:0:0:0:0:
320,192,55900,128,0,55942:0:0:0:0:
448,192,55921,128,0,55963:0:0:0:0:
64,192,55942,128,0,55984:0:0:0:0:
192,192,55963,128,0,56005:0:0:0:0:
320,192,55984,128,0,56025:0:0:0:0:
448,192,56005,128,0,56046:0:0:0:0:
64,192,56025,128,0,56067:0:0:0:0:
192,192,56046,128,0,56088:0:0:0:0:
320,192,56067,128,0,56109:0:0:0:0:
448,192,56088,128,0,56130:0:0:0:0:
64,192,56109,128,0,56150:0:0:0:0:
192,192,56130,128,0,56171:0:0:0:0:
320,192,56150,128,0,56192:0:0:0:0:
448,192,56171,128,0,56213:0:0:0:0:
64,192,56192,128,0,56234:0:0:0:0:
192,192,56213,128,0,56255:0:0:0:0:
320,192,56234,128,0,56275:0:0:0:0:
448,192,56255,128,0,56296:0:0:0:0:
192,192,56275,128,0,56317:0:0:0:0:
64,192,56296,128,0,56338:0:0:0:0:
448,192,56317,128,0,56359:0:0:0:0:
320,192,56338,128,0,56380:0:0:0:0:
192,192,56359,128,0,56400:0:0:0:0:
64,192,56380,128,0,56421:0:0:0:0:
448,192,56400,128,0,56442:0:0:0:0:
320,192,56421,128,0,56463:0:0:0:0:
192,192,56442,128,0,56484:0:0:0:0:
64,192,56463,128,0,56505:0:0:0:0:
448,192,56484,128,0,56525:0:0:0:0:
320,192,56505,128,0,56546:0:0:0:0:
192,192,56525,128,0,56567:0:0:0:0:
64,192,56546,128,0,56588:0:0:0:0:
448,192,56567,128,0,56609:0:0:0:0:
320,192,56588,128,0,56630:0:0:0:0:
192,192,56609,128,0,56650:0:0:0:0:
64,192,56630,128,0,56671:0:0:0:0:
448,192,56650,128,0,56692:0:0:0:0:
320,192,56671,128,0,56713:0:0:0:0:
192,192,56692,128,0,56734:0:0:0:0:
64,192,56713,128,0,56755:0:0:0:0:
448,192,56734,128,0,56775:0:0:0:0:
320,192,56755,128,0,56796:0:0:0:0:
192,192,56775,128,0,56817:0:0:0:0:
64,192,56796,128,0,56838:0:0:0:0:
448,192,56817,128,0,56859:0:0:0:0:
320,192,56838,128,0,56880:0:0:0:0:
192,192,56859,128,0,56900:0:0:0:0:
64,192,56880,128,0,56921:0:0:0:0:
448,192,56900,128,0,56942:0:0:0:0:
320,192,56921,128,0,56963:0:0:0:0:
192,192,56942,128,0,56984:0:0:0:0:
64,192,56963,128,0,57005:0:0:0:0:
448,192,56984,128,0,57025:0:0:0:0:
320,192,57005,128,0,57046:0:0:0:0:
192,192,57025,128,0,57067:0:0:0:0:
64,192,57046,128,0,57088:0:0:0:0:
448,192,57067,128,0,57109:0:0:0:0:
320,192,57088,128,0,57130:0:0:0:0:
192,192,57109,128,0,57150:0:0:0:0:
64,192,57130,128,0,57171:0:0:0:0:
448,192,57150,128,0,57192:0:0:0:0:
320,192,57171,128,0,57213:0:0:0:0:
192,192,57192,128,0,57234:0:0:0:0:
64,192,57213,128,0,57255:0:0:0:0:
448,192,57234,128,0,57275:0:0:0:0:
320,192,57255,128,0,57296:0:0:0:0:
192,192,57275,128,0,57317:0:0:0:0:
64,192,57296,128,0,57338:0:0:0:0:
448,192,57317,128,0,57359:0:0:0:0:
320,192,57338,128,0,57380:0:0:0:0:
192,192,57359,128,0,57400:0:0:0:0:
64,192,57380,128,0,57421:0:0:0:0:
448,192,57400,128,0,57442:0:0:0:0:
320,192,57421,128,0,57463:0:0:0:0:
192,192,57442,128,0,57484:0:0:0:0:
64,192,57463,128,0,57505:0:0:0:0:
448,192,57484,128,0,57525:0:0:0:0:
320,192,57505,128,0,57546:0:0:0:0:
192,192,57525,128,0,57567:0:0:0:0:
64,192,57546,128,0,57588:0:0:0:0:
448,192,57567,128,0,57609:0:0:0:0:
320,192,57588,128,0,57630:0:0:0:0:
192,192,57609,128,0,57650:0:0:0:0:
64,192,57630,128,0,57671:0:0:0:0:
448,192,57650,128,0,57692:0:0:0:0:
320,192,57671,128,0,57713:0:0:0:0:
192,192,57692,128,0,57734:0:0:0:0:
64,192,57713,128,0,57755:0:0:0:0:
448,192,57734,128,0,57775:0:0:0:0:
320,192,57755,128,0,57796:0:0:0:0:
192,192,57775,128,0,57817:0:0:0:0:
64,192,57796,128,0,57838:0:0:0:0:
448,192,57817,128,0,57859:0:0:0:0:
320,192,57838,128,0,57880:0:0:0:0:
192,192,57859,128,0,57900:0:0:0:0:
64,192,57880,128,0,57921:0:0:0:0:
448,192,57900,128,0,57942:0:0:0:0:
320,192,57921,128,0,57963:0:0:0:0:
192,192,57942,128,0,57984:0:0:0:0:
64,192,57963,128,0,58005:0:0:0:0:
448,192,57984,128,0,58025:0:0:0:0:
320,192,58005,128,0,58046:0:0:0:0:
192,192,58025,128,0,58067:0:0:0:0:
64,192,58046,128,0,58088:0:0:0:0:
448,192,58067,128,0,58109:0:0:0:0:
320,192,58088,128,0,58130:0:0:0:0:
192,192,58109,128,0,58150:0:0:0:0:
64,192,58130,128,0,58171:0:0:0:0:
448,192,58150,128,0,58192:0:0:0:0:
320,192,58171,128,0,58213:0:0:0:0:
192,192,58192,128,0,58234:0:0:0:0:
64,192,58213,128,0,58255:0:0:0:0:
448,192,58234,128,0,58275:0:0:0:0:
320,192,58255,128,0,58296:0:0:0:0:
192,192,58275,128,0,58317:0:0:0:0:
64,192,58296,128,0,58338:0:0:0:0:
448,192,58317,128,0,58359:0:0:0:0:
320,192,58338,128,0,58380:0:0:0:0:
192,192,58359,128,0,58400:0:0:0:0:
64,192,58380,128,0,58421:0:0:0:0:
448,192,58400,128,0,58442:0:0:0:0:
320,192,58421,128,0,58463:0:0:0:0:
192,192,58442,128,0,58484:0:0:0:0:
64,192,58463,128,0,58505:0:0:0:0:
448,192,58484,128,0,58525:0:0:0:0:
320,192,58505,128,0,58546:0:0:0:0:
192,192,58525,128,0,58567:0:0:0:0:
64,192,58546,128,0,58588:0:0:0:0:
448,192,58567,128,0,58609:0:0:0:0:
320,192,58588,128,0,58630:0:0:0:0:
192,192,58609,128,0,58650:0:0:0:0:
64,192,58630,128,0,58671:0:0:0:0:
448,192,58650,128,0,58692:0:0:0:0:
320,192,58671,128,0,58713:0:0:0:0:
192,192,58692,128,0,58734:0:0:0:0:
64,192,58713,128,0,58755:0:0:0:0:
448,192,58734,128,0,58775:0:0:0:0:
320,192,58755,128,0,58796:0:0:0:0:
192,192,58775,128,0,58817:0:0:0:0:
64,192,58796,128,0,58838:0:0:0:0:
448,192,58817,128,0,58859:0:0:0:0:
320,192,58838,128,0,58880:0:0:0:0:
192,192,58859,128,0,58900:0:0:0:0:
64,192,58880,128,0,58921:0:0:0:0:
448,192,58900,128,0,58942:0:0:0:0:
320,192,58921,128,0,58963:0:0:0:0:
64,192,58942,128,0,58984:0:0:0:0:
192,192,58963,128,0,59005:0:0:0:0:
320,192,58984,128,0,59025:0:0:0:0:
448,192,59005,128,0,59046:0:0:0:0:
64,192,59025,128,0,59067:0:0:0:0:
192,192,59046,128,0,59088:0:0:0:0:
320,192,59067,128,0,59109:0:0:0:0:
448,192,59088,128,0,59130:0:0:0:0:
64,192,59109,128,0,59150:0:0:0:0:
192,192,59130,128,0,59171:0:0:0:0:
320,192,59150,128,0,59192:0:0:0:0:
448,192,59171,128,0,59213:0:0:0:0:
64,192,59192,128,0,59234:0:0:0:0:
192,192,59213,128,0,59255:0:0:0:0:
320,192,59234,128,0,59275:0:0:0:0:
448,192,59255,128,0,59296:0:0:0:0:
64,192,59275,128,0,59317:0:0:0:0:
192,192,59296,128,0,59338:0:0:0:0:
320,192,59317,128,0,59359:0:0:0:0:
448,192,59338,128,0,59380:0:0:0:0:
64,192,59359,128,0,59400:0:0:0:0:
192,192,59380,128,0,59421:0:0:0:0:
320,192,59400,128,0,59442:0:0:0:0:
448,192,59421,128,0,59463:0:0:0:0:
64,192,59442,128,0,59484:0:0:0:0:
192,192,59463,128,0,59505:0:0:0:0:
320,192,59484,128,0,59525:0:0:0:0:
448,192,59505,128,0,59546:0:0:0:0:
64,192,59525,128,0,59567:0:0:0:0:
192,192,59546,128,0,59588:0:0:0:0:
320,192,59567,128,0,59609:0:0:0:0:
448,192,59588,128,0,59630:0:0:0:0:
64,192,59609,128,0,59650:0:0:0:0:
192,192,59630,128,0,59671:0:0:0:0:
320,192,59650,128,0,59692:0:0:0:0:
448,192,59671,128,0,59713:0:0:0:0:
64,192,59692,128,0,59734:0:0:0:0:
192,192,59713,128,0,59755:0:0:0:0:
320,192,59734,128,0,59775:0:0:0:0:
448,192,59755,128,0,59796:0:0:0:0:
64,192,59775,128,0,59817:0:0:0:0:
192,192,59796,128,0,59838:0:0:0:0:
320,192,59817,128,0,59859:0:0:0:0:
448,192,59838,128,0,59880:0:0:0:0:
64,192,59859,128,0,59900:0:0:0:0:
192,192,59880,128,0,59921:0:0:0:0:
320,192,59900,128,0,59942:0:0:0:0:
448,192,59921,128,0,59963:0:0:0:0:
64,192,59942,128,0,59984:0:0:0:0:
192,192,59963,128,0,60005:0:0:0:0:
320,192,59984,128,0,60025:0:0:0:0:
448,192,60005,128,0,60046:0:0:0:0:
64,192,60025,128,0,60067:0:0:0:0:
192,192,60046,128,0,60088:0:0:0:0:
320,192,60067,128,0,60109:0:0:0:0:
448,192,60088,128,0,60130:0:0:0:0:
64,192,60109,128,0,60150:0:0:0:0:
192,192,60130,128,0,60171:0:0:0:0:
320,192,60150,128,0,60192:0:0:0:0:
448,192,60171,128,0,60213:0:0:0:0:
64,192,60192,128,0,60234:0:0:0:0:
192,192,60213,128,0,60255:0:0:0:0:
320,192,60234,128,0,60275:0:0:0:0:
448,192,60255,128,0,60296:0:0:0:0:
64,192,60275,128,0,60317:0:0:0:0:
192,192,60296,128,0,60338:0:0:0:0:
320,192,60317,128,0,60359:0:0:0:0:
448,192,60338,128,0,60380:0:0:0:0:
64,192,60359,128,0,60400:0:0:0:0:
192,192,60380,128,0,60421:0:0:0:0:
320,192,60400,128,0,60442:0:0:0:0:
448,192,60421,128,0,60463:0:0:0:0:
64,192,60442,128,0,60484:0:0:0:0:
192,192,60463,128,0,60505:0:0:0:0:
320,192,60484,128,0,60525:0:0:0:0:
448,192,60505,128,0,60546:0:0:0:0:
64,192,60525,128,0,60567:0:0:0:0:
192,192,60546,128,0,60588:0:0:0:0:
320,192,60567,128,0,60609:0:0:0:0:
448,192,60588,128,0,60630:0:0:0:0:
64,192,60609,128,0,60650:0:0:0:0:
192,192,60630,128,0,60671:0:0:0:0:
320,192,60650,128,0,60692:0:0:0:0:
448,192,60671,128,0,60713:0:0:0:0:
64,192,60692,128,0,60734:0:0:0:0:
192,192,60713,128,0,60755:0:0:0:0:
320,192,60734,128,0,60775:0:0:0:0:
448,192,60755,128,0,60796:0:0:0:0:
64,192,60775,128,0,60817:0:0:0:0:
192,192,60796,128,0,60838:0:0:0:0:
320,192,60817,128,0,60859:0:0:0:0:
448,192,60838,128,0,60880:0:0:0:0:
64,192,60859,128,0,60900:0:0:0:0:
192,192,60880,128,0,60921:0:0:0:0:
320,192,60900,128,0,60942:0:0:0:0:
448,192,60921,128,0,60963:0:0:0:0:
64,192,60942,128,0,60984:0:0:0:0:
192,192,60963,128,0,61005:0:0:0:0:
320,192,60984,128,0,61025:0:0:0:0:
448,192,61005,128,0,61046:0:0:0:0:
64,192,61025,128,0,61067:0:0:0:0:
192,192,61046,128,0,61088:0:0:0:0:
320,192,61067,128,0,61109:0:0:0:0:
448,192,61088,128,0,61130:0:0:0:0:
64,192,61109,128,0,61150:0:0:0:0:
192,192,61130,128,0,61171:0:0:0:0:
320,192,61150,128,0,61192:0:0:0:0:
448,192,61171,128,0,61213:0:0:0:0:
64,192,61192,128,0,61234:0:0:0:0:
192,192,61213,128,0,61255:0:0:0:0:
320,192,61234,128,0,61275:0:0:0:0:
448,192,61255,128,0,61296:0:0:0:0:
64,192,61275,128,0,61317:0:0:0:0:
192,192,61296,128,0,61338:0:0:0:0:
320,192,61317,128,0,61359:0:0:0:0:
448,192,61338,128,0,61380:0:0:0:0:
64,192,61359,128,0,61400:0:0:0:0:
192,192,61380,128,0,61421:0:0:0:0:
320,192,61400,128,0,61442:0:0:0:0:
448,192,61421,128,0,61463:0:0:0:0:
64,192,61442,128,0,61484:0:0:0:0:
192,192,61463,128,0,61505:0:0:0:0:
320,192,61484,128,0,61525:0:0:0:0:
448,192,61505,128,0,61546:0:0:0:0:
64,192,61525,128,0,61567:0:0:0:0:
192,192,61546,128,0,61588:0:0:0:0:
448,192,61567,128,0,61609:0:0:0:0:
320,192,61588,128,0,61630:0:0:0:0:
192,192,61609,128,0,61650:0:0:0:0:
64,192,61630,128,0,61671:0:0:0:0:
448,192,61650,128,0,61692:0:0:0:0:
320,192,61671,128,0,61713:0:0:0:0:
192,192,61692,128,0,61734:0:0:0:0:
64,192,61713,128,0,61755:0:0:0:0:
448,192,61734,128,0,61775:0:0:0:0:
320,192,61755,128,0,61796:0:0:0:0:
192,192,61775,128,0,61817:0:0:0:0:
64,192,61796,128,0,61838:0:0:0:0:
448,192,61817,128,0,61859:0:0:0:0:
320,192,61838,128,0,61880:0:0:0:0:
192,192,61859,128,0,61900:0:0:0:0:
64,192,61880,128,0,61921:0:0:0:0:
448,192,61900,128,0,61942:0:0:0:0:
320,192,61921,128,0,61963:0:0:0:0:
192,192,61942,128,0,61984:0:0:0:0:
64,192,61963,128,0,62005:0:0:0:0:
448,192,61984,128,0,62025:0:0:0:0:
320,192,62005,128,0,62046:0:0:0:0:
192,192,62025,128,0,62067:0:0:0:0:
64,192,62046,128,0,62088:0:0:0:0:
448,192,62067,128,0,62109:0:0:0:0:
320,192,62088,128,0,62130:0:0:0:0:
192,192,62109,128,0,62150:0:0:0:0:
64,192,62130,128,0,62171:0:0:0:0:
448,192,62150,128,0,62192:0:0:0:0:
320,192,62171,128,0,62213:0:0:0:0:
192,192,62192,128,0,62234:0:0:0:0:
64,192,62213,128,0,62255:0:0:0:0:
448,192,62234,128,0,62275:0:0:0:0:
320,192,62255,128,0,62296:0:0:0:0:
192,192,62275,128,0,62317:0:0:0:0:
64,192,62296,128,0,62338:0:0:0:0:
448,192,62317,128,0,62359:0:0:0:0:
320,192,62338,128,0,62380:0:0:0:0:
192,192,62359,128,0,62400:0:0:0:0:
64,192,62380,128,0,62421:0:0:0:0:
448,192,62400,128,0,62442:0:0:0:0:
320,192,62421,128,0,62463:0:0:0:0:
192,192,62442,128,0,62484:0:0:0:0:
64,192,62463,128,0,62505:0:0:0:0:
448,192,62484,128,0,62525:0:0:0:0:
320,192,62505,128,0,62546:0:0:0:0:
192,192,62525,128,0,62567:0:0:0:0:
64,192,62546,128,0,62588:0:0:0:0:
448,192,62567,128,0,62609:0:0:0:0:
320,192,62588,128,0,62630:0:0:0:0:
192,192,62609,128,0,62650:0:0:0:0:
64,192,62630,128,0,62671:0:0:0:0:
448,192,62650,128,0,62692:0:0:0:0:
320,192,62671,128,0,62713:0:0:0:0:
192,192,62692,128,0,62734:0:0:0:0:
64,192,62713,128,0,62755:0:0:0:0:
448,192,62734,128,0,62775:0:0:0:0:
320,192,62755,128,0,62796:0:0:0:0:
192,192,62775,128,0,62817:0:0:0:0:
64,192,62796,128,0,62838:0:0:0:0:
448,192,62817,128,0,62859:0:0:0:0:
320,192,62838,128,0,62880:0:0:0:0:
192,192,62859,128,0,62900:0:0:0:0:
64,192,62880,128,0,62921:0:0:0:0:
448,192,62900,128,0,62942:0:0:0:0:
320,192,62921,128,0,62963:0:0:0:0:
192,192,62942,128,0,62984:0:0:0:0:
64,192,62942,128,0,62984:0:0:0:0:
448,192,62984,128,0,63025:0:0:0:0:
320,192,62984,128,0,63025:0:0:0:0:
192,192,63025,128,0,63067:0:0:0:0:
64,192,63025,128,0,63067:0:0:0:0:
448,192,63067,128,0,63109:0:0:0:0:
320,192,63067,128,0,63109:0:0:0:0:
64,192,63109,128,0,63150:0:0:0:0:
192,192,63109,128,0,63150:0:0:0:0:
320,192,63150,128,0,63192:0:0:0:0:
448,192,63150,128,0,63192:0:0:0:0:
192,192,63192,128,0,63234:0:0:0:0:
64,192,63192,128,0,63234:0:0:0:0:
448,192,63234,128,0,63275:0:0:0:0:
320,192,63234,128,0,63275:0:0:0:0:
64,192,63275,128,0,63317:0:0:0:0:
192,192,63275,128,0,63317:0:0:0:0:
320,192,63317,128,0,63359:0:0:0:0:
448,192,63317,128,0,63359:0:0:0:0:
192,192,63359,128,0,63400:0:0:0:0:
64,192,63359,128,0,63400:0:0:0:0:
448,192,63400,128,0,63442:0:0:0:0:
320,192,63400,128,0,63442:0:0:0:0:
64,192,63442,128,0,63484:0:0:0:0:
192,192,63442,128,0,63484:0:0:0:0:
320,192,63484,128,0,63525:0:0:0:0:
448,192,63484,128,0,63525:0:0:0:0:
192,192,63525,128,0,63567:0:0:0:0:
64,192,63525,128,0,63567:0:0:0:0:
448,192,63567,128,0,63609:0:0:0:0:
320,192,63567,128,0,63609:0:0:0:0:
64,192,63609,128,0,63650:0:0:0:0:
192,192,63609,128,0,63650:0:0:0:0:
320,192,63650,128,0,63692:0:0:0:0:
448,192,63650,128,0,63692:0:0:0:0:
192,192,63692,128,0,63734:0:0:0:0:
64,192,63692,128,0,63734:0:0:0:0:
448,192,63734,128,0,63775:0:0:0:0:
320,192,63734,128,0,63775:0:0:0:0:
64,192,63775,128,0,63817:0:0:0:0:
192,192,63775,128,0,63817:0:0:0:0:
320,192,63817,128,0,63859:0:0:0:0:
448,192,63817,128,0,63859:0:0:0:0:
192,192,63859,128,0,63900:0:0:0:0:
64,192,63859,128,0,63900:0:0:0:0:
448,192,63942,5,0,0:0:0:0:
320,192,63942,1,0,0:0:0:0:
192,192,63942,1,0,0:0:0:0:
64,192,63942,1,0,0:0:0:0:
64,192,64275,128,0,64317:0:0:0:0:
448,192,64275,128,0,64317:0:0:0:0:
192,192,64296,128,0,64338:0:0:0:0:
320,192,64317,128,0,64359:0:0:0:0:
448,192,64338,128,0,64380:0:0:0:0:
64,192,64359,128,0,64400:0:0:0:0:
192,192,64380,128,0,64421:0:0:0:0:
320,192,64400,128,0,64442:0:0:0:0:
448,192,64421,128,0,64463:0:0:0:0:
64,192,64442,128,0,64484:0:0:0:0:
192,192,64463,128,0,64505:0:0:0:0:
320,192,64484,128,0,64525:0:0:0:0:
448,192,64505,128,0,64546:0:0:0:0:
64,192,64525,128,0,64567:0:0:0:0:
192,192,64546,128,0,64588:0:0:0:0:
320,192,64567,128,0,64609:0:0:0:0:
448,192,64588,128,0,64630:0:0:0:0:
64,192,64609,128,0,64650:0:0:0:0:
192,192,64630,128,0,64671:0:0:0:0:
320,192,64650,128,0,64692:0:0:0:0:
448,192,64671,128,0,64713:0:0:0:0:
64,192,64692,128,0,64734:0:0:0:0:
192,192,64713,128,0,64755:0:0:0:0:
320,192,64734,128,0,64775:0:0:0:0:
448,192,64755,128,0,64796:0:0:0:0:
64,192,64775,128,0,64817:0:0:0:0:
192,192,64796,128,0,64838:0:0:0:0:
320,192,64817,128,0,64859:0:0:0:0:
448,192,64838,128,0,64880:0:0:0:0:
64,192,64859,128,0,64900:0:0:0:0:
192,192,64880,128,0,64921:0:0:0:0:
320,192,64900,128,0,64942:0:0:0:0:
448,192,64921,128,0,64963:0:0:0:0:
64,192,64942,128,0,64984:0:0:0:0:
192,192,64963,128,0,65005:0:0:0:0:
320,192,64984,128,0,65025:0:0:0:0:
448,192,65005,128,0,65046:0:0:0:0:
64,192,65025,128,0,65067:0:0:0:0:
192,192,65046,128,0,65088:0:0:0:0:
320,192,65067,128,0,65109:0:0:0:0:
448,192,65088,128,0,65130:0:0:0:0:
64,192,65109,128,0,65150:0:0:0:0:
192,192,65130,128,0,65171:0:0:0:0:
320,192,65150,128,0,65192:0:0:0:0:
448,192,65171,128,0,65213:0:0:0:0:
64,192,65192,128,0,65234:0:0:0:0:
192,192,65213,128,0,65255:0:0:0:0:
320,192,65234,128,0,65275:0:0:0:0:
448,192,65255,128,0,65296:0:0:0:0:
64,192,65275,128,0,65317:0:0:0:0:
192,192,65296,128,0,65338:0:0:0:0:
320,192,65317,128,0,65359:0:0:0:0:
448,192,65338,128,0,65380:0:0:0:0:
64,192,65359,128,0,65400:0:0:0:0:
192,192,65380,128,0,65421:0:0:0:0:
320,192,65400,128,0,65442:0:0:0:0:
448,192,65421,128,0,65463:0:0:0:0:
64,192,65442,128,0,65484:0:0:0:0:
192,192,65463,128,0,65505:0:0:0:0:
320,192,65484,128,0,65525:0:0:0:0:
448,192,65505,128,0,65546:0:0:0:0:
64,192,65525,128,0,65567:0:0:0:0:
192,192,65546,128,0,65588:0:0:0:0:
320,192,65567,128,0,65609:0:0:0:0:
448,192,65588,128,0,65630:0:0:0:0:
64,192,65609,128,0,65650:0:0:0:0:
192,192,65630,128,0,65671:0:0:0:0:
320,192,65650,128,0,65692:0:0:0:0:
448,192,65671,128,0,65713:0:0:0:0:
64,192,65692,128,0,65734:0:0:0:0:
192,192,65713,128,0,65755:0:0:0:0:
320,192,65734,128,0,65775:0:0:0:0:
448,192,65755,128,0,65796:0:0:0:0:
64,192,65775,128,0,65817:0:0:0:0:
192,192,65796,128,0,65838:0:0:0:0:
320,192,65817,128,0,65859:0:0:0:0:
448,192,65838,128,0,65880:0:0:0:0:
64,192,65859,128,0,65900:0:0:0:0:
192,192,65880,128,0,65921:0:0:0:0:
320,192,65900,128,0,65942:0:0:0:0:
448,192,65921,128,0,65963:0:0:0:0:
64,192,65942,128,0,65984:0:0:0:0:
192,192,65963,128,0,66005:0:0:0:0:
320,192,65984,128,0,66025:0:0:0:0:
448,192,66005,128,0,66046:0:0:0:0:
64,192,66025,128,0,66067:0:0:0:0:
192,192,66046,128,0,66088:0:0:0:0:
320,192,66067,128,0,66109:0:0:0:0:
448,192,66088,128,0,66130:0:0:0:0:
64,192,66109,128,0,66150:0:0:0:0:
192,192,66130,128,0,66171:0:0:0:0:
320,192,66150,128,0,66192:0:0:0:0:
448,192,66171,128,0,66213:0:0:0:0:
64,192,66192,128,0,66234:0:0:0:0:
192,192,66213,128,0,66255:0:0:0:0:
320,192,66234,128,0,66275:0:0:0:0:
448,192,66255,128,0,66296:0:0:0:0:
64,192,66275,128,0,66317:0:0:0:0:
192,192,66296,128,0,66338:0:0:0:0:
320,192,66317,128,0,66359:0:0:0:0:
448,192,66338,128,0,66380:0:0:0:0:
64,192,66359,128,0,66400:0:0:0:0:
192,192,66380,128,0,66421:0:0:0:0:
320,192,66400,128,0,66442:0:0:0:0:
448,192,66421,128,0,66463:0:0:0:0:
64,192,66442,128,0,66484:0:0:0:0:
192,192,66463,128,0,66505:0:0:0:0:
320,192,66484,128,0,66525:0:0:0:0:
448,192,66505,128,0,66546:0:0:0:0:
64,192,66525,128,0,66567:0:0:0:0:
192,192,66546,128,0,66588:0:0:0:0:
320,192,66567,128,0,66609:0:0:0:0:
448,192,66588,128,0,66630:0:0:0:0:
64,192,66609,128,0,66650:0:0:0:0:
192,192,66630,128,0,66671:0:0:0:0:
320,192,66650,128,0,66692:0:0:0:0:
448,192,66671,128,0,66713:0:0:0:0:
64,192,66692,128,0,66734:0:0:0:0:
192,192,66713,128,0,66755:0:0:0:0:
320,192,66734,128,0,66775:0:0:0:0:
448,192,66755,128,0,66796:0:0:0:0:
64,192,66775,128,0,66817:0:0:0:0:
192,192,66796,128,0,66838:0:0:0:0:
320,192,66817,128,0,66859:0:0:0:0:
448,192,66838,128,0,66880:0:0:0:0:
64,192,66859,128,0,66900:0:0:0:0:
192,192,66880,128,0,66921:0:0:0:0:
320,192,66900,128,0,66942:0:0:0:0:
448,192,66921,128,0,66963:0:0:0:0:
192,192,66942,128,0,66984:0:0:0:0:
64,192,66963,128,0,67005:0:0:0:0:
448,192,66984,128,0,67025:0:0:0:0:
320,192,67005,128,0,67046:0:0:0:0:
192,192,67025,128,0,67067:0:0:0:0:
64,192,67046,128,0,67088:0:0:0:0:
448,192,67067,128,0,67109:0:0:0:0:
320,192,67088,128,0,67130:0:0:0:0:
192,192,67109,128,0,67150:0:0:0:0:
64,192,67130,128,0,67171:0:0:0:0:
448,192,67150,128,0,67192:0:0:0:0:
320,192,67171,128,0,67213:0:0:0:0:
192,192,67192,128,0,67234:0:0:0:0:
64,192,67213,128,0,67255:0:0:0:0:
448,192,67234,128,0,67275:0:0:0:0:
320,192,67255,128,0,67296:0:0:0:0:
192,192,67275,128,0,67317:0:0:0:0:
64,192,67296,128,0,67338:0:0:0:0:
448,192,67317,128,0,67359:0:0:0:0:
320,192,67338,128,0,67380:0:0:0:0:
192,192,67359,128,0,67400:0:0:0:0:
64,192,67380,128,0,67421:0:0:0:0:
448,192,67400,128,0,67442:0:0:0:0:
320,192,67421,128,0,67463:0:0:0:0:
192,192,67442,128,0,67484:0:0:0:0:
64,192,67463,128,0,67505:0:0:0:0:
448,192,67484,128,0,67525:0:0:0:0:
320,192,67505,128,0,67546:0:0:0:0:
192,192,67525,128,0,67567:0:0:0:0:
64,192,67546,128,0,67588:0:0:0:0:
448,192,67567,128,0,67609:0:0:0:0:
320,192,67588,128,0,67630:0:0:0:0:
192,192,67609,128,0,67650:0:0:0:0:
64,192,67630,128,0,67671:0:0:0:0:
448,192,67650,128,0,67692:0:0:0:0:
320,192,67671,128,0,67713:0:0:0:0:
192,192,67692,128,0,67734:0:0:0:0:
64,192,67713,128,0,67755:0:0:0:0:
448,192,67734,128,0,67775:0:0:0:0:
320,192,67755,128,0,67796:0:0:0:0:
192,192,67775,128,0,67817:0:0:0:0:
64,192,67796,128,0,67838:0:0:0:0:
448,192,67817,128,0,67859:0:0:0:0:
320,192,67838,128,0,67880:0:0:0:0:
192,192,67859,128,0,67900:0:0:0:0:
64,192,67880,128,0,67921:0:0:0:0:
448,192,67900,128,0,67942:0:0:0:0:
320,192,67921,128,0,67963:0:0:0:0:
192,192,67942,128,0,67984:0:0:0:0:
64,192,67963,128,0,68005:0:0:0:0:
448,192,67984,128,0,68025:0:0:0:0:
320,192,68005,128,0,68046:0:0:0:0:
192,192,68025,128,0,68067:0:0:0:0:
64,192,68046,128,0,68088:0:0:0:0:
448,192,68067,128,0,68109:0:0:0:0:
320,192,68088,128,0,68130:0:0:0:0:
192,192,68109,128,0,68150:0:0:0:0:
64,192,68130,128,0,68171:0:0:0:0:
448,192,68150,128,0,68192:0:0:0:0:
320,192,68171,128,0,68213:0:0:0:0:
192,192,68192,128,0,68234:0:0:0:0:
64,192,68213,128,0,68255:0:0:0:0:
448,192,68234,128,0,68275:0:0:0:0:
320,192,68255,128,0,68296:0:0:0:0:
192,192,68275,128,0,68317:0:0:0:0:
64,192,68296,128,0,68338:0:0:0:0:
448,192,68317,128,0,68359:0:0:0:0:
320,192,68338,128,0,68380:0:0:0:0:
192,192,68359,128,0,68400:0:0:0:0:
64,192,68380,128,0,68421:0:0:0:0:
448,192,68400,128,0,68442:0:0:0:0:
320,192,68421,128,0,68463:0:0:0:0:
192,192,68442,128,0,68484:0:0:0:0:
64,192,68463,128,0,68505:0:0:0:0:
448,192,68484,128,0,68525:0:0:0:0:
320,192,68505,128,0,68546:0:0:0:0:
192,192,68525,128,0,68567:0:0:0:0:
64,192,68546,128,0,68588:0:0:0:0:
448,192,68567,128,0,68609:0:0:0:0:
320,192,68588,128,0,68630:0:0:0:0:
192,192,68609,128,0,68650:0:0:0:0:
64,192,68630,128,0,68671:0:0:0:0:
448,192,68650,128,0,68692:0:0:0:0:
320,192,68671,128,0,68713:0:0:0:0:
192,192,68692,128,0,68734:0:0:0:0:
64,192,68713,128,0,68755:0:0:0:0:
448,192,68734,128,0,68775:0:0:0:0:
320,192,68755,128,0,68796:0:0:0:0:
192,192,68775,128,0,68817:0:0:0:0:
64,192,68796,128,0,68838:0:0:0:0:
448,192,68817,128,0,68859:0:0:0:0:
320,192,68838,128,0,68880:0:0:0:0:
192,192,68859,128,0,68900:0:0:0:0:
64,192,68880,128,0,68921:0:0:0:0:
448,192,68900,128,0,68942:0:0:0:0:
320,192,68921,128,0,68963:0:0:0:0:
192,192,68942,128,0,68984:0:0:0:0:
64,192,68963,128,0,69005:0:0:0:0:
448,192,68984,128,0,69025:0:0:0:0:
320,192,69005,128,0,69046:0:0:0:0:
192,192,69025,128,0,69067:0:0:0:0:
64,192,69046,128,0,69088:0:0:0:0:
448,192,69067,128,0,69109:0:0:0:0:
320,192,69088,128,0,69130:0:0:0:0:
192,192,69109,128,0,69150:0:0:0:0:
64,192,69130,128,0,69171:0:0:0:0:
448,192,69150,128,0,69192:0:0:0:0:
320,192,69171,128,0,69213:0:0:0:0:
192,192,69192,128,0,69234:0:0:0:0:
64,192,69213,128,0,69255:0:0:0:0:
448,192,69234,128,0,69275:0:0:0:0:
320,192,69255,128,0,69296:0:0:0:0:
192,192,69275,128,0,69317:0:0:0:0:
64,192,69296,128,0,69338:0:0:0:0:
448,192,69317,128,0,69359:0:0:0:0:
320,192,69338,128,0,69380:0:0:0:0:
192,192,69359,128,0,69400:0:0:0:0:
64,192,69380,128,0,69421:0:0:0:0:
448,192,69400,128,0,69442:0:0:0:0:
320,192,69421,128,0,69463:0:0:0:0:
192,192,69442,128,0,69484:0:0:0:0:
64,192,69463,128,0,69505:0:0:0:0:
448,192,69484,128,0,69525:0:0:0:0:
320,192,69505,128,0,69546:0:0:0:0:
192,192,69525,128,0,69567:0:0:0:0:
64,192,69546,128,0,69588:0:0:0:0:
448,192,69567,128,0,69609:0:0:0:0:
320,192,69588,128,0,69630:0:0:0:0:
64,192,69609,128,0,69650:0:0:0:0:
192,192,69630,128,0,69671:0:0:0:0:
320,192,69650,128,0,69692:0:0:0:0:
448,192,69671,128,0,69713:0:0:0:0:
64,192,69692,128,0,69734:0:0:0:0:
192,192,69713,128,0,69755:0:0:0:0:
320,192,69734,128,0,69775:0:0:0:0:
448,192,69755,128,0,69796:0:0:0:0:
64,192,69775,128,0,69817:0:0:0:0:
192,192,69796,128,0,69838:0:0:0:0:
320,192,69817,128,0,69859:0:0:0:0:
448,192,69838,128,0,69880:0:0:0:0:
64,192,69859,128,0,69900:0:0:0:0:
192,192,69880,128,0,69921:0:0:0:0:
320,192,69900,128,0,69942:0:0:0:0:
448,192,69921,128,0,69963:0:0:0:0:
64,192,69942,128,0,69984:0:0:0:0:
192,192,69963,128,0,70005:0:0:0:0:
320,192,69984,128,0,70025:0:0:0:0:
448,192,70005,128,0,70046:0:0:0:0:
64,192,70025,128,0,70067:0:0:0:0:
192,192,70046,128,0,70088:0:0:0:0:
320,192,70067,128,0,70109:0:0:0:0:
448,192,70088,128,0,70130:0:0:0:0:
64,192,70109,128,0,70150:0:0:0:0:
192,192,70130,128,0,70171:0:0:0:0:
320,192,70150,128,0,70192:0:0:0:0:
448,192,70171,128,0,70213:0:0:0:0:
64,192,70192,128,0,70234:0:0:0:0:
192,192,70213,128,0,70255:0:0:0:0:
320,192,70234,128,0,70275:0:0:0:0:
448,192,70255,128,0,70296:0:0:0:0:
64,192,70275,128,0,70317:0:0:0:0:
192,192,70296,128,0,70338:0:0:0:0:
320,192,70317,128,0,70359:0:0:0:0:
448,192,70338,128,0,70380:0:0:0:0:
64,192,70359,128,0,70400:0:0:0:0:
192,192,70380,128,0,70421:0:0:0:0:
320,192,70400,128,0,70442:0:0:0:0:
448,192,70421,128,0,70463:0:0:0:0:
64,192,70442,128,0,70484:0:0:0:0:
192,192,70463,128,0,70505:0:0:0:0:
320,192,70484,128,0,70525:0:0:0:0:
448,192,70505,128,0,70546:0:0:0:0:
64,192,70525,128,0,70567:0:0:0:0:
192,192,70546,128,0,70588:0:0:0:0:
320,192,70567,128,0,70609:0:0:0:0:
448,192,70588,128,0,70630:0:0:0:0:
64,192,70609,128,0,70650:0:0:0:0:
192,192,70630,128,0,70671:0:0:0:0:
320,192,70650,128,0,70692:0:0:0:0:
448,192,70671,128,0,70713:0:0:0:0:
64,192,70692,128,0,70734:0:0:0:0:
192,192,70713,128,0,70755:0:0:0:0:
320,192,70734,128,0,70775:0:0:0:0:
448,192,70755,128,0,70796:0:0:0:0:
64,192,70775,128,0,70817:0:0:0:0:
192,192,70796,128,0,70838:0:0:0:0:
320,192,70817,128,0,70859:0:0:0:0:
448,192,70838,128,0,70880:0:0:0:0:
64,192,70859,128,0,70900:0:0:0:0:
192,192,70880,128,0,70921:0:0:0:0:
320,192,70900,128,0,70942:0:0:0:0:
448,192,70921,128,0,70963:0:0:0:0:
64,192,70942,128,0,70984:0:0:0:0:
192,192,70963,128,0,71005:0:0:0:0:
320,192,70984,128,0,71025:0:0:0:0:
448,192,71005,128,0,71046:0:0:0:0:
64,192,71025,128,0,71067:0:0:0:0:
192,192,71046,128,0,71088:0:0:0:0:
320,192,71067,128,0,71109:0:0:0:0:
448,192,71088,128,0,71130:0:0:0:0:
64,192,71109,128,0,71150:0:0:0:0:
192,192,71130,128,0,71171:0:0:0:0:
320,192,71150,128,0,71192:0:0:0:0:
448,192,71171,128,0,71213:0:0:0:0:
64,192,71192,128,0,71234:0:0:0:0:
192,192,71213,128,0,71255:0:0:0:0:
320,192,71234,128,0,71275:0:0:0:0:
448,192,71255,128,0,71296:0:0:0:0:
64,192,71275,128,0,71317:0:0:0:0:
192,192,71296,128,0,71338:0:0:0:0:
320,192,71317,128,0,71359:0:0:0:0:
448,192,71338,128,0,71380:0:0:0:0:
64,192,71359,128,0,71400:0:0:0:0:
192,192,71380,128,0,71421:0:0:0:0:
320,192,71400,128,0,71442:0:0:0:0:
448,192,71421,128,0,71463:0:0:0:0:
64,192,71442,128,0,71484:0:0:0:0:
192,192,71463,128,0,71505:0:0:0:0:
320,192,71484,128,0,71525:0:0:0:0:
448,192,71505,128,0,71546:0:0:0:0:
64,192,71525,128,0,71567:0:0:0:0:
192,192,71546,128,0,71588:0:0:0:0:
320,192,71567,128,0,71609:0:0:0:0:
448,192,71588,128,0,71630:0:0:0:0:
64,192,71609,128,0,71650:0:0:0:0:
192,192,71630,128,0,71671:0:0:0:0:
320,192,71650,128,0,71692:0:0:0:0:
448,192,71671,128,0,71713:0:0:0:0:
64,192,71692,128,0,71734:0:0:0:0:
192,192,71713,128,0,71755:0:0:0:0:
320,192,71734,128,0,71775:0:0:0:0:
448,192,71755,128,0,71796:0:0:0:0:
64,192,71775,128,0,71817:0:0:0:0:
192,192,71796,128,0,71838:0:0:0:0:
320,192,71817,128,0,71859:0:0:0:0:
448,192,71838,128,0,71880:0:0:0:0:
64,192,71859,128,0,71900:0:0:0:0:
192,192,71880,128,0,71921:0:0:0:0:
320,192,71900,128,0,71942:0:0:0:0:
448,192,71921,128,0,71963:0:0:0:0:
64,192,71942,128,0,71984:0:0:0:0:
192,192,71963,128,0,72005:0:0:0:0:
320,192,71984,128,0,72025:0:0:0:0:
448,192,72005,128,0,72046:0:0:0:0:
64,192,72025,128,0,72067:0:0:0:0:
192,192,72046,128,0,72088:0:0:0:0:
320,192,72067,128,0,72109:0:0:0:0:
448,192,72088,128,0,72130:0:0:0:0:
64,192,72109,128,0,72150:0:0:0:0:
192,192,72130,128,0,72171:0:0:0:0:
320,192,72150,128,0,72192:0:0:0:0:
448,192,72171,128,0,72213:0:0:0:0:
64,192,72192,128,0,72234:0:0:0:0:
192,192,72213,128,0,72255:0:0:0:0:
448,192,72234,128,0,72275:0:0:0:0:
320,192,72255,128,0,72296:0:0:0:0:
192,192,72275,128,0,72317:0:0:0:0:
64,192,72296,128,0,72338:0:0:0:0:
448,192,72317,128,0,72359:0:0:0:0:
320,192,72338,128,0,72380:0:0:0:0:
192,192,72359,128,0,72400:0:0:0:0:
64,192,72380,128,0,72421:0:0:0:0:
448,192,72400,128,0,72442:0:0:0:0:
320,192,72421,128,0,72463:0:0:0:0:
192,192,72442,128,0,72484:0:0:0:0:
64,192,72463,128,0,72505:0:0:0:0:
448,192,72484,128,0,72525:0:0:0:0:
320,192,72505,128,0,72546:0:0:0:0:
192,192,72525,128,0,72567:0:0:0:0:
64,192,72546,128,0,72588:0:0:0:0:
448,192,72567,128,0,72609:0:0:0:0:
320,192,72588,128,0,72630:0:0:0:0:
192,192,72609,128,0,72650:0:0:0:0:
64,192,72630,128,0,72671:0:0:0:0:
448,192,72650,128,0,72692:0:0:0:0:
320,192,72671,128,0,72713:0:0:0:0:
192,192,72692,128,0,72734:0:0:0:0:
64,192,72713,128,0,72755:0:0:0:0:
448,192,72734,128,0,72775:0:0:0:0:
320,192,72755,128,0,72796:0:0:0:0:
192,192,72775,128,0,72817:0:0:0:0:
64,192,72796,128,0,72838:0:0:0:0:
448,192,72817,128,0,72859:0:0:0:0:
320,192,72838,128,0,72880:0:0:0:0:
192,192,72859,128,0,72900:0:0:0:0:
64,192,72880,128,0,72921:0:0:0:0:
448,192,72900,128,0,72942:0:0:0:0:
320,192,72921,128,0,72963:0:0:0:0:
192,192,72942,128,0,72984:0:0:0:0:
64,192,72963,128,0,73005:0:0:0:0:
448,192,72984,128,0,73025:0:0:0:0:
320,192,73005,128,0,73046:0:0:0:0:
192,192,73025,128,0,73067:0:0:0:0:
64,192,73046,128,0,73088:0:0:0:0:
448,192,73067,128,0,73109:0:0:0:0:
320,192,73088,128,0,73130:0:0:0:0:
192,192,73109,128,0,73150:0:0:0:0:
64,192,73130,128,0,73171:0:0:0:0:
448,192,73150,128,0,73192:0:0:0:0:
320,192,73171,128,0,73213:0:0:0:0:
192,192,73192,128,0,73234:0:0:0:0:
64,192,73213,128,0,73255:0:0:0:0:
448,192,73234,128,0,73275:0:0:0:0:
320,192,73255,128,0,73296:0:0:0:0:
192,192,73275,128,0,73317:0:0:0:0:
64,192,73296,128,0,73338:0:0:0:0:
448,192,73317,128,0,73359:0:0:0:0:
320,192,73338,128,0,73380:0:0:0:0:
192,192,73359,128,0,73400:0:0:0:0:
64,192,73380,128,0,73421:0:0:0:0:
448,192,73400,128,0,73442:0:0:0:0:
320,192,73421,128,0,73463:0:0:0:0:
192,192,73442,128,0,73484:0:0:0:0:
64,192,73463,128,0,73505:0:0:0:0:
448,192,73484,128,0,73525:0:0:0:0:
320,192,73505,128,0,73546:0:0:0:0:
192,192,73525,128,0,73567:0:0:0:0:
64,192,73546,128,0,73588:0:0:0:0:
448,192,73567,128,0,73609:0:0:0:0:
320,192,73588,128,0,73630:0:0:0:0:
64,192,73609,1,0,0:0:0:0:
192,192,73609,1,0,0:0:0:0:
320,192,73650,1,0,0:0:0:0:
448,192,73650,1,0,0:0:0:0:
192,192,73692,1,0,0:0:0:0:
64,192,73692,1,0,0:0:0:0:
320,192,73734,1,0,0:0:0:0:
448,192,73734,1,0,0:0:0:0:
192,192,73775,1,0,0:0:0:0:
64,192,73775,1,0,0:0:0:0:
448,192,73817,1,0,0:0:0:0:
320,192,73859,1,0,0:0:0:0:
192,192,73859,1,0,0:0:0:0:
64,192,73859,1,0,0:0:0:0:
448,192,73942,1,0,0:0:0:0:
320,192,73942,1,0,0:0:0:0:
64,192,73942,1,0,0:0:0:0:
192,192,73942,1,0,0:0:0:0:
448,192,74025,1,0,0:0:0:0:
320,192,74025,1,0,0:0:0:0:
192,192,74025,1,0,0:0:0:0:
64,192,74025,1,0,0:0:0:0:
448,192,74109,1,0,0:0:0:0:
64,192,74109,1,0,0:0:0:0:
320,192,74109,1,0,0:0:0:0:
192,192,74109,1,0,0:0:0:0:
448,192,74192,1,0,0:0:0:0:
64,192,74192,1,0,0:0:0:0:
192,192,74192,1,0,0:0:0:0:
320,192,74192,1,0,0:0:0:0:
320,192,74275,1,0,0:0:0:0:
192,192,74275,1,0,0:0:0:0:
448,192,74275,1,0,0:0:0:0:
64,192,74275,1,0,0:0:0:0:
192,192,74359,1,0,0:0:0:0:
320,192,74359,1,0,0:0:0:0:
448,192,74359,1,0,0:0:0:0:
64,192,74359,1,0,0:0:0:0:
448,192,74442,1,0,0:0:0:0:
64,192,74442,1,0,0:0:0:0:
320,192,74442,1,0,0:0:0:0:
192,192,74442,1,0,0:0:0:0:
448,192,74525,1,0,0:0:0:0:
64,192,74525,1,0,0:0:0:0:
192,192,74525,1,0,0:0:0:0:
320,192,74525,1,0,0:0:0:0:
64,192,74609,1,0,0:0:0:0:
192,192,74609,1,0,0:0:0:0:
320,192,74609,1,0,0:0:0:0:
448,192,74609,1,0,0:0:0:0:
448,192,74942,1,0,0:0:0:0:
192,192,74942,1,0,0:0:0:0:
64,192,74942,1,0,0:0:0:0:
320,192,75025,1,0,0:0:0:0:
192,192,75109,1,0,0:0:0:0:
448,192,75109,1,0,0:0:0:0:
64,192,75192,1,0,0:0:0:0:
448,192,75275,1,0,0:0:0:0:
320,192,75275,1,0,0:0:0:0:
192,192,75359,1,0,0:0:0:0:
64,192,75359,1,0,0:0:0:0:
448,192,75442,1,0,0:0:0:0:
320,192,75442,1,0,0:0:0:0:
192,192,75525,1,0,0:0:0:0:
64,192,75525,1,0,0:0:0:0:
320,192,75609,1,0,0:0:0:0:
448,192,75692,1,0,0:0:0:0:
320,192,75775,1,0,0:0:0:0:
192,192,75775,1,0,0:0:0:0:
64,192,75859,1,0,0:0:0:0:
448,192,75859,1,0,0:0:0:0:
192,192,75942,1,0,0:0:0:0:
320,192,76025,1,0,0:0:0:0:
448,192,76025,1,0,0:0:0:0:
192,192,76109,1,0,0:0:0:0:
64,192,76109,1,0,0:0:0:0:
448,192,76192,1,0,0:0:0:0:
192,192,76275,1,0,0:0:0:0:
320,192,76275,1,0,0:0:0:0:
64,192,76359,1,0,0:0:0:0:
320,192,76442,1,0,0:0:0:0:
448,192,76442,1,0,0:0:0:0:
192,192,76525,1,0,0:0:0:0:
64,192,76609,1,0,0:0:0:0:
448,192,76609,1,0,0:0:0:0:
320,192,76692,1,0,0:0:0:0:
192,192,76692,1,0,0:0:0:0:
64,192,76775,1,0,0:0:0:0:
320,192,76859,1,0,0:0:0:0:
448,192,76859,1,0,0:0:0:0:
192,192,76942,1,0,0:0:0:0:
64,192,76942,1,0,0:0:0:0:
448,192,77025,1,0,0:0:0:0:
320,192,77025,1,0,0:0:0:0:
64,192,77109,1,0,0:0:0:0:
192,192,77192,1,0,0:0:0:0:
320,192,77192,1,0,0:0:0:0:
448,192,77275,1,0,0:0:0:0:
64,192,77275,1,0,0:0:0:0:
320,192,77359,1,0,0:0:0:0:
192,192,77442,1,0,0:0:0:0:
64,192,77442,1,0,0:0:0:0:
320,192,77525,1,0,0:0:0:0:
448,192,77609,1,0,0:0:0:0:
64,192,77692,1,0,0:0:0:0:
320,192,77775,1,0,0:0:0:0:
448,192,77775,1,0,0:0:0:0:
192,192,77859,1,0,0:0:0:0:
64,192,77859,1,0,0:0:0:0:
320,192,77942,1,0,0:0:0:0:
448,192,77942,1,0,0:0:0:0:
192,192,78025,1,0,0:0:0:0:
64,192,78109,1,0,0:0:0:0:
320,192,78109,1,0,0:0:0:0:
448,192,78192,1,0,0:0:0:0:
192,192,78192,1,0,0:0:0:0:
320,192,78275,1,0,0:0:0:0:
448,192,78359,1,0,0:0:0:0:
64,192,78359,1,0,0:0:0:0:
320,192,78442,1,0,0:0:0:0:
192,192,78442,1,0,0:0:0:0:
64,192,78525,1,0,0:0:0:0:
448,192,78525,1,0,0:0:0:0:
320,192,78609,1,0,0:0:0:0:
192,192,78692,1,0,0:0:0:0:
64,192,78692,1,0,0:0:0:0:
448,192,78775,1,0,0:0:0:0:
320,192,78859,1,0,0:0:0:0:
192,192,78859,1,0,0:0:0:0:
448,192,78942,1,0,0:0:0:0:
64,192,78942,1,0,0:0:0:0:
320,192,79025,1,0,0:0:0:0:
192,192,79109,1,0,0:0:0:0:
64,192,79109,1,0,0:0:0:0:
320,192,79192,1,0,0:0:0:0:
448,192,79275,1,0,0:0:0:0:
192,192,79275,1,0,0:0:0:0:
64,192,79359,1,0,0:0:0:0:
320,192,79442,1,0,0:0:0:0:
448,192,79442,1,0,0:0:0:0:
64,192,79525,1,0,0:0:0:0:
192,192,79609,1,0,0:0:0:0:
448,192,79609,1,0,0:0:0:0:
320,192,79609,1,0,0:0:0:0:
64,192,79692,1,0,0:0:0:0:
448,192,79775,1,0,0:0:0:0:
64,192,79859,1,0,0:0:0:0:
192,192,79859,1,0,0:0:0:0:
320,192,79859,1,0,0:0:0:0:
448,192,79942,1,0,0:0:0:0:
192,192,80025,1,0,0:0:0:0:
320,192,80109,1,0,0:0:0:0:
448,192,80109,1,0,0:0:0:0:
64,192,80109,1,0,0:0:0:0:
192,192,80275,1,0,0:0:0:0:
320,192,80359,1,0,0:0:0:0:
192,192,80442,1,0,0:0:0:0:
64,192,80442,1,0,0:0:0:0:
448,192,80525,1,0,0:0:0:0:
320,192,80609,1,0,0:0:0:0:
192,192,80609,1,0,0:0:0:0:
64,192,80692,1,0,0:0:0:0:
448,192,80775,1,0,0:0:0:0:
320,192,80775,1,0,0:0:0:0:
192,192,80859,1,0,0:0:0:0:
320,192,80942,1,0,0:0:0:0:
64,192,80942,1,0,0:0:0:0:
448,192,81025,1,0,0:0:0:0:
192,192,81109,1,0,0:0:0:0:
64,192,81109,1,0,0:0:0:0:
448,192,81192,1,0,0:0:0:0:
320,192,81275,1,0,0:0:0:0:
192,192,81275,1,0,0:0:0:0:
64,192,81359,1,0,0:0:0:0:
448,192,81442,1,0,0:0:0:0:
192,192,81525,1,0,0:0:0:0:
64,192,81525,1,0,0:0:0:0:
448,192,81609,1,0,0:0:0:0:
320,192,81609,1,0,0:0:0:0:
64,192,81692,1,0,0:0:0:0:
320,192,81775,1,0,0:0:0:0:
448,192,81775,1,0,0:0:0:0:
192,192,81859,1,0,0:0:0:0:
64,192,81859,1,0,0:0:0:0:
448,192,81942,1,0,0:0:0:0:
320,192,82025,1,0,0:0:0:0:
192,192,82025,1,0,0:0:0:0:
64,192,82109,1,0,0:0:0:0:
448,192,82109,1,0,0:0:0:0:
192,192,82192,1,0,0:0:0:0:
320,192,82275,1,0,0:0:0:0:
64,192,82275,1,0,0:0:0:0:
448,192,82359,1,0,0:0:0:0:
320,192,82442,1,0,0:0:0:0:
192,192,82442,1,0,0:0:0:0:
64,192,82525,1,0,0:0:0:0:
448,192,82525,1,0,0:0:0:0:
320,192,82609,1,0,0:0:0:0:
192,192,82609,1,0,0:0:0:0:
64,192,82692,1,0,0:0:0:0:
320,192,82775,1,0,0:0:0:0:
448,192,82775,1,0,0:0:0:0:
192,192,82859,1,0,0:0:0:0:
64,192,82942,1,0,0:0:0:0:
320,192,82942,1,0,0:0:0:0:
448,192,83025,1,0,0:0:0:0:
320,192,83109,1,0,0:0:0:0:
192,192,83192,1,0,0:0:0:0:
64,192,83192,1,0,0:0:0:0:
320,192,83275,1,0,0:0:0:0:
448,192,83359,1,0,0:0:0:0:
192,192,83442,1,0,0:0:0:0:
320,192,83442,1,0,0:0:0:0:
64,192,83525,1,0,0:0:0:0:
448,192,83525,1,0,0:0:0:0:
192,192,83609,1,0,0:0:0:0:
320,192,83609,1,0,0:0:0:0:
64,192,83692,1,0,0:0:0:0:
448,192,83775,1,0,0:0:0:0:
320,192,83775,1,0,0:0:0:0:
192,192,83859,1,0,0:0:0:0:
64,192,83942,1,0,0:0:0:0:
320,192,83942,1,0,0:0:0:0:
448,192,84025,1,0,0:0:0:0:
192,192,84109,1,0,0:0:0:0:
320,192,84109,1,0,0:0:0:0:
64,192,84192,1,0,0:0:0:0:
192,192,84275,1,0,0:0:0:0:
320,192,84275,1,0,0:0:0:0:
448,192,84275,1,0,0:0:0:0:
448,192,84442,1,0,0:0:0:0:
320,192,84609,1,0,0:0:0:0:
192,192,84609,1,0,0:0:0:0:
64,192,84609,1,0,0:0:0:0:
192,192,84775,1,0,0:0:0:0:
64,192,84942,1,0,0:0:0:0:
320,192,84942,1,0,0:0:0:0:
448,192,84942,1,0,0:0:0:0:
448,192,85275,1,0,0:0:0:0:
320,192,85275,1,0,0:0:0:0:
192,192,85275,1,0,0:0:0:0:
64,192,85275,1,0,0:0:0:0:
64,192,85609,1,0,0:0:0:0:
448,192,85609,1,0,0:0:0:0:
320,192,85692,1,0,0:0:0:0:
192,192,85692,1,0,0:0:0:0:
64,192,85775,1,0,0:0:0:0:
448,192,85859,1,0,0:0:0:0:
320,192,85859,1,0,0:0:0:0:
192,192,85942,1,0,0:0:0:0:
64,192,85942,1,0,0:0:0:0:
448,192,86025,1,0,0:0:0:0:
192,192,86109,1,0,0:0:0:0:
64,192,86109,1,0,0:0:0:0:
448,192,86192,1,0,0:0:0:0:
320,192,86192,1,0,0:0:0:0:
192,192,86275,1,0,0:0:0:0:
64,192,86275,1,0,0:0:0:0:
320,192,86359,1,0,0:0:0:0:
448,192,86359,1,0,0:0:0:0:
192,192,86442,1,0,0:0:0:0:
64,192,86442,1,0,0:0:0:0:
448,192,86525,1,0,0:0:0:0:
320,192,86609,1,0,0:0:0:0:
192,192,86609,1,0,0:0:0:0:
64,192,86692,1,0,0:0:0:0:
320,192,86775,1,0,0:0:0:0:
448,192,86775,1,0,0:0:0:0:
192,192,86775,1,0,0:0:0:0:
448,192,86942,1,0,0:0:0:0:
192,192,86942,1,0,0:0:0:0:
64,192,86942,1,0,0:0:0:0:
320,192,87109,1,0,0:0:0:0:
192,192,87109,1,0,0:0:0:0:
192,192,87275,1,0,0:0:0:0:
64,192,87275,1,0,0:0:0:0:
320,192,87359,1,0,0:0:0:0:
448,192,87359,1,0,0:0:0:0:
192,192,87442,1,0,0:0:0:0:
64,192,87442,1,0,0:0:0:0:
448,192,87609,1,0,0:0:0:0:
64,192,87609,1,0,0:0:0:0:
192,192,87775,1,0,0:0:0:0:
320,192,87775,1,0,0:0:0:0:
320,192,87942,1,0,0:0:0:0:
448,192,87942,1,0,0:0:0:0:
192,192,88025,1,0,0:0:0:0:
64,192,88025,1,0,0:0:0:0:
448,192,88109,1,0,0:0:0:0:
320,192,88109,1,0,0:0:0:0:
320,192,88275,1,0,0:0:0:0:
192,192,88275,1,0,0:0:0:0:
320,192,88442,1,0,0:0:0:0:
64,192,88442,1,0,0:0:0:0:
192,192,88609,1,0,0:0:0:0:
64,192,88609,1,0,0:0:0:0:
320,192,88692,1,0,0:0:0:0:
448,192,88692,1,0,0:0:0:0:
192,192,88775,1,0,0:0:0:0:
64,192,88775,1,0,0:0:0:0:
320,192,88942,1,0,0:0:0:0:
192,192,88942,1,0,0:0:0:0:
320,192,89109,1,0,0:0:0:0:
448,192,89109,1,0,0:0:0:0:
192,192,89192,1,0,0:0:0:0:
64,192,89192,1,0,0:0:0:0:
320,192,89275,1,0,0:0:0:0:
448,192,89275,1,0,0:0:0:0:
192,192,89442,1,0,0:0:0:0:
64,192,89442,1,0,0:0:0:0:
320,192,89525,1,0,0:0:0:0:
448,192,89525,1,0,0:0:0:0:
192,192,89609,1,0,0:0:0:0:
64,192,89609,1,0,0:0:0:0:
320,192,89775,1,0,0:0:0:0:
192,192,89775,1,0,0:0:0:0:
192,192,89942,1,0,0:0:0:0:
64,192,89942,1,0,0:0:0:0:
320,192,90025,1,0,0:0:0:0:
448,192,90025,1,0,0:0:0:0:
192,192,90109,1,0,0:0:0:0:
64,192,90109,1,0,0:0:0:0:
448,192,90275,1,0,0:0:0:0:
64,192,90275,1,0,0:0:0:0:
192,192,90442,1,0,0:0:0:0:
320,192,90442,1,0,0:0:0:0:
320,192,90609,1,0,0:0:0:0:
448,192,90609,1,0,0:0:0:0:
192,192,90692,1,0,0:0:0:0:
64,192,90692,1,0,0:0:0:0:
448,192,90775,1,0,0:0:0:0:
320,192,90775,1,0,0:0:0:0:
320,192,90942,1,0,0:0:0:0:
192,192,90942,1,0,0:0:0:0:
64,192,90942,1,0,0:0:0:0:
192,192,91109,1,0,0:0:0:0:
320,192,91275,1,0,0:0:0:0:
448,192,91275,1,0,0:0:0:0:
64,192,91275,1,0,0:0:0:0:
320,192,91442,1,0,0:0:0:0:
64,192,91609,1,0,0:0:0:0:
192,192,91609,1,0,0:0:0:0:
448,192,91609,1,0,0:0:0:0:
192,192,91775,1,0,0:0:0:0:
448,192,91942,1,0,0:0:0:0:
320,192,91942,1,0,0:0:0:0:
192,192,91942,1,0,0:0:0:0:
64,192,91942,1,0,0:0:0:0:
64,192,92275,1,0,0:0:0:0:
192,192,92275,1,0,0:0:0:0:
448,192,92275,1,0,0:0:0:0:
320,192,92359,1,0,0:0:0:0:
192,192,92442,1,0,0:0:0:0:
64,192,92442,1,0,0:0:0:0:
320,192,92525,1,0,0:0:0:0:
448,192,92525,1,0,0:0:0:0:
192,192,92609,1,0,0:0:0:0:
64,192,92609,1,0,0:0:0:0:
448,192,92692,1,0,0:0:0:0:
320,192,92775,1,0,0:0:0:0:
192,192,92775,1,0,0:0:0:0:
64,192,92859,1,0,0:0:0:0:
448,192,92859,1,0,0:0:0:0:
320,192,92942,1,0,0:0:0:0:
192,192,92942,1,0,0:0:0:0:
64,192,93025,1,0,0:0:0:0:
320,192,93109,1,0,0:0:0:0:
448,192,93109,1,0,0:0:0:0:
192,192,93192,1,0,0:0:0:0:
64,192,93192,1,0,0:0:0:0:
320,192,93275,1,0,0:0:0:0:
448,192,93275,1,0,0:0:0:0:
192,192,93359,1,0,0:0:0:0:
64,192,93359,1,0,0:0:0:0:
320,192,93442,1,0,0:0:0:0:
448,192,93525,1,0,0:0:0:0:
192,192,93609,1,0,0:0:0:0:
320,192,93609,1,0,0:0:0:0:
448,192,93692,1,0,0:0:0:0:
64,192,93692,1,0,0:0:0:0:
192,192,93775,1,0,0:0:0:0:
448,192,93859,1,0,0:0:0:0:
320,192,93859,1,0,0:0:0:0:
192,192,93942,1,0,0:0:0:0:
64,192,93942,1,0,0:0:0:0:
320,192,94025,1,0,0:0:0:0:
192,192,94109,1,0,0:0:0:0:
448,192,94109,1,0,0:0:0:0:
64,192,94192,1,0,0:0:0:0:
448,192,94275,1,0,0:0:0:0:
320,192,94359,1,0,0:0:0:0:
192,192,94359,1,0,0:0:0:0:
64,192,94442,1,0,0:0:0:0:
448,192,94442,1,0,0:0:0:0:
192,192,94525,1,0,0:0:0:0:
320,192,94609,1,0,0:0:0:0:
448,192,94609,1,0,0:0:0:0:
192,192,94692,1,0,0:0:0:0:
64,192,94775,1,0,0:0:0:0:
320,192,94775,1,0,0:0:0:0:
448,192,94859,1,0,0:0:0:0:
320,192,94942,1,0,0:0:0:0:
192,192,94942,1,0,0:0:0:0:
64,192,95025,1,0,0:0:0:0:
192,192,95109,1,0,0:0:0:0:
448,192,95109,1,0,0:0:0:0:
320,192,95192,1,0,0:0:0:0:
192,192,95275,1,0,0:0:0:0:
64,192,95275,1,0,0:0:0:0:
320,192,95359,1,0,0:0:0:0:
448,192,95359,1,0,0:0:0:0:
64,192,95442,1,0,0:0:0:0:
320,192,95525,1,0,0:0:0:0:
448,192,95525,1,0,0:0:0:0:
64,192,95609,1,0,0:0:0:0:
192,192,95609,1,0,0:0:0:0:
320,192,95692,1,0,0:0:0:0:
192,192,95775,1,0,0:0:0:0:
448,192,95775,1,0,0:0:0:0:
64,192,95859,1,0,0:0:0:0:
320,192,95942,1,0,0:0:0:0:
448,192,95942,1,0,0:0:0:0:
192,192,96025,1,0,0:0:0:0:
64,192,96025,1,0,0:0:0:0:
448,192,96109,1,0,0:0:0:0:
192,192,96192,1,0,0:0:0:0:
320,192,96275,1,0,0:0:0:0:
64,192,96275,1,0,0:0:0:0:
448,192,96359,1,0,0:0:0:0:
320,192,96442,1,0,0:0:0:0:
192,192,96442,1,0,0:0:0:0:
64,192,96525,1,0,0:0:0:0:
320,192,96609,1,0,0:0:0:0:
448,192,96609,1,0,0:0:0:0:
192,192,96692,1,0,0:0:0:0:
64,192,96692,1,0,0:0:0:0:
320,192,96775,1,0,0:0:0:0:
448,192,96775,1,0,0:0:0:0:
64,192,96859,1,0,0:0:0:0:
192,192,96942,1,0,0:0:0:0:
320,192,96942,1,0,0:0:0:0:
448,192,96942,1,0,0:0:0:0:
64,192,97025,1,0,0:0:0:0:
448,192,97109,1,0,0:0:0:0:
320,192,97192,1,0,0:0:0:0:
192,192,97192,1,0,0:0:0:0:
64,192,97192,1,0,0:0:0:0:
448,192,97275,1,0,0:0:0:0:
192,192,97359,1,0,0:0:0:0:
320,192,97442,1,0,0:0:0:0:
448,192,97442,1,0,0:0:0:0:
64,192,97442,1,0,0:0:0:0:
192,192,97609,1,0,0:0:0:0:
320,192,97692,1,0,0:0:0:0:
448,192,97775,1,0,0:0:0:0:
64,192,97775,1,0,0:0:0:0:
192,192,97859,1,0,0:0:0:0:
320,192,97859,1,0,0:0:0:0:
448,192,97942,1,0,0:0:0:0:
320,192,98025,1,0,0:0:0:0:
64,192,98025,1,0,0:0:0:0:
192,192,98109,1,0,0:0:0:0:
320,192,98192,1,0,0:0:0:0:
448,192,98192,1,0,0:0:0:0:
192,192,98275,1,0,0:0:0:0:
64,192,98275,1,0,0:0:0:0:
448,192,98359,1,0,0:0:0:0:
192,192,98442,1,0,0:0:0:0:
320,192,98442,1,0,0:0:0:0:
448,192,98525,1,0,0:0:0:0:
192,192,98609,1,0,0:0:0:0:
64,192,98609,1,0,0:0:0:0:
320,192,98692,1,0,0:0:0:0:
448,192,98692,1,0,0:0:0:0:
64,192,98775,1,0,0:0:0:0:
192,192,98859,1,0,0:0:0:0:
320,192,98859,1,0,0:0:0:0:
448,192,98942,1,0,0:0:0:0:
64,192,98942,1,0,0:0:0:0:
320,192,99025,1,0,0:0:0:0:
192,192,99109,1,0,0:0:0:0:
64,192,99109,1,0,0:0:0:0:
320,192,99192,1,0,0:0:0:0:
448,192,99192,1,0,0:0:0:0:
192,192,99275,1,0,0:0:0:0:
64,192,99275,1,0,0:0:0:0:
320,192,99359,1,0,0:0:0:0:
448,192,99359,1,0,0:0:0:0:
192,192,99442,1,0,0:0:0:0:
64,192,99442,1,0,0:0:0:0:
448,192,99525,1,0,0:0:0:0:
320,192,99609,1,0,0:0:0:0:
192,192,99609,1,0,0:0:0:0:
64,192,99692,1,0,0:0:0:0:
448,192,99692,1,0,0:0:0:0:
192,192,99775,1,0,0:0:0:0:
320,192,99859,1,0,0:0:0:0:
448,192,99859,1,0,0:0:0:0:
64,192,99942,1,0,0:0:0:0:
192,192,99942,1,0,0:0:0:0:
320,192,100025,1,0,0:0:0:0:
448,192,100109,1,0,0:0:0:0:
64,192,100109,1,0,0:0:0:0:
192,192,100192,1,0,0:0:0:0:
320,192,100192,1,0,0:0:0:0:
64,192,100275,1,0,0:0:0:0:
448,192,100275,1,0,0:0:0:0:
320,192,100359,1,0,0:0:0:0:
192,192,100442,1,0,0:0:0:0:
64,192,100525,1,0,0:0:0:0:
448,192,100525,1,0,0:0:0:0:
320,192,100609,1,0,0:0:0:0:
192,192,100692,1,0,0:0:0:0:
320,192,100775,1,0,0:0:0:0:
448,192,100775,1,0,0:0:0:0:
64,192,100859,1,0,0:0:0:0:
192,192,100942,1,0,0:0:0:0:
448,192,100942,1,0,0:0:0:0:
320,192,101025,1,0,0:0:0:0:
192,192,101109,1,0,0:0:0:0:
64,192,101109,1,0,0:0:0:0:
448,192,101192,1,0,0:0:0:0:
320,192,101275,1,0,0:0:0:0:
64,192,101275,1,0,0:0:0:0:
192,192,101359,1,0,0:0:0:0:
320,192,101442,1,0,0:0:0:0:
448,192,101442,1,0,0:0:0:0:
64,192,101525,1,0,0:0:0:0:
192,192,101609,1,0,0:0:0:0:
448,192,101609,1,0,0:0:0:0:
320,192,101609,1,0,0:0:0:0:
320,192,101775,1,0,0:0:0:0:
192,192,101942,1,0,0:0:0:0:
64,192,101942,1,0,0:0:0:0:
448,192,101942,1,0,0:0:0:0:
192,192,102109,1,0,0:0:0:0:
64,192,102275,1,0,0:0:0:0:
320,192,102275,1,0,0:0:0:0:
448,192,102275,1,0,0:0:0:0:
64,192,102609,1,0,0:0:0:0:
192,192,102609,1,0,0:0:0:0:
320,192,102609,1,0,0:0:0:0:
448,192,102609,1,0,0:0:0:0:
320,192,102942,1,0,0:0:0:0:
448,192,102942,1,0,0:0:0:0:
192,192,103025,1,0,0:0:0:0:
64,192,103025,1,0,0:0:0:0:
448,192,103109,1,0,0:0:0:0:
192,192,103192,1,0,0:0:0:0:
64,192,103192,1,0,0:0:0:0:
320,192,103275,1,0,0:0:0:0:
448,192,103275,1,0,0:0:0:0:
192,192,103359,1,0,0:0:0:0:
448,192,103442,1,0,0:0:0:0:
64,192,103442,1,0,0:0:0:0:
320,192,103525,1,0,0:0:0:0:
192,192,103609,1,0,0:0:0:0:
448,192,103609,1,0,0:0:0:0:
320,192,103692,1,0,0:0:0:0:
64,192,103692,1,0,0:0:0:0:
448,192,103775,1,0,0:0:0:0:
192,192,103775,1,0,0:0:0:0:
320,192,103859,1,0,0:0:0:0:
64,192,103859,1,0,0:0:0:0:
192,192,103942,1,0,0:0:0:0:
448,192,103942,1,0,0:0:0:0:
320,192,104109,1,0,0:0:0:0:
192,192,104109,1,0,0:0:0:0:
64,192,104275,1,0,0:0:0:0:
192,192,104275,1,0,0:0:0:0:
448,192,104275,1,0,0:0:0:0:
320,192,104359,1,0,0:0:0:0:
192,192,104442,1,0,0:0:0:0:
64,192,104525,1,0,0:0:0:0:
448,192,104609,1,0,0:0:0:0:
320,192,104609,1,0,0:0:0:0:
192,192,104692,1,0,0:0:0:0:
320,192,104775,1,0,0:0:0:0:
448,192,104859,1,0,0:0:0:0:
192,192,104942,1,0,0:0:0:0:
64,192,104942,1,0,0:0:0:0:
320,192,105025,1,0,0:0:0:0:
192,192,105109,1,0,0:0:0:0:
64,192,105192,1,0,0:0:0:0:
192,192,105275,1,0,0:0:0:0:
448,192,105275,1,0,0:0:0:0:
320,192,105359,1,0,0:0:0:0:
448,192,105442,1,0,0:0:0:0:
192,192,105525,1,0,0:0:0:0:
64,192,105609,1,0,0:0:0:0:
320,192,105609,1,0,0:0:0:0:
448,192,105692,1,0,0:0:0:0:
64,192,105775,1,0,0:0:0:0:
192,192,105859,1,0,0:0:0:0:
320,192,105942,1,0,0:0:0:0:
64,192,105942,1,0,0:0:0:0:
448,192,106025,1,0,0:0:0:0:
192,192,106109,1,0,0:0:0:0:
320,192,106192,1,0,0:0:0:0:
192,192,106275,1,0,0:0:0:0:
64,192,106275,1,0,0:0:0:0:
448,192,106359,1,0,0:0:0:0:
320,192,106442,1,0,0:0:0:0:
192,192,106525,1,0,0:0:0:0:
320,192,106609,1,0,0:0:0:0:
448,192,106609,1,0,0:0:0:0:
64,192,106692,1,0,0:0:0:0:
192,192,106775,1,0,0:0:0:0:
320,192,106859,1,0,0:0:0:0:
448,192,106942,1,0,0:0:0:0:
64,192,106942,1,0,0:0:0:0:
192,192,107025,1,0,0:0:0:0:
448,192,107109,1,0,0:0:0:0:
320,192,107192,1,0,0:0:0:0:
192,192,107275,1,0,0:0:0:0:
64,192,107275,1,0,0:0:0:0:
448,192,107359,1,0,0:0:0:0:
320,192,107442,1,0,0:0:0:0:
64,192,107525,1,0,0:0:0:0:
192,192,107609,1,0,0:0:0:0:
448,192,107609,1,0,0:0:0:0:
320,192,107692,1,0,0:0:0:0:
192,192,107775,1,0,0:0:0:0:
64,192,107859,1,0,0:0:0:0:
448,192,107942,1,0,0:0:0:0:
192,192,107942,1,0,0:0:0:0:
320,192,108025,1,0,0:0:0:0:
64,192,108109,1,0,0:0:0:0:
448,192,108109,1,0,0:0:0:0:
320,192,108192,1,0,0:0:0:0:
192,192,108192,1,0,0:0:0:0:
64,192,108275,1,0,0:0:0:0:
448,192,108275,1,0,0:0:0:0:
192,192,108359,1,0,0:0:0:0:
320,192,108442,1,0,0:0:0:0:
448,192,108525,1,0,0:0:0:0:
320,192,108609,1,0,0:0:0:0:
64,192,108609,1,0,0:0:0:0:
192,192,108692,1,0,0:0:0:0:
448,192,108775,1,0,0:0:0:0:
320,192,108859,1,0,0:0:0:0:
192,192,108942,1,0,0:0:0:0:
64,192,108942,1,0,0:0:0:0:
448,192,109025,1,0,0:0:0:0:
320,192,109109,1,0,0:0:0:0:
64,192,109192,1,0,0:0:0:0:
192,192,109275,1,0,0:0:0:0:
448,192,109275,1,0,0:0:0:0:
320,192,109275,1,0,0:0:0:0:
320,192,109442,1,0,0:0:0:0:
64,192,109609,1,0,0:0:0:0:
448,192,109609,1,0,0:0:0:0:
320,192,109692,1,0,0:0:0:0:
192,192,109775,1,0,0:0:0:0:
64,192,109859,1,0,0:0:0:0:
448,192,109942,1,0,0:0:0:0:
320,192,109942,1,0,0:0:0:0:
64,192,110025,1,0,0:0:0:0:
192,192,110109,1,0,0:0:0:0:
320,192,110192,1,0,0:0:0:0:
448,192,110275,1,0,0:0:0:0:
64,192,110275,1,0,0:0:0:0:
192,192,110359,1,0,0:0:0:0:
320,192,110442,1,0,0:0:0:0:
448,192,110525,1,0,0:0:0:0:
192,192,110609,1,0,0:0:0:0:
64,192,110609,1,0,0:0:0:0:
448,192,110692,1,0,0:0:0:0:
320,192,110775,1,0,0:0:0:0:
192,192,110859,1,0,0:0:0:0:
320,192,110942,1,0,0:0:0:0:
448,192,110942,1,0,0:0:0:0:
64,192,111025,1,0,0:0:0:0:
192,192,111109,1,0,0:0:0:0:
320,192,111192,1,0,0:0:0:0:
448,192,111275,1,0,0:0:0:0:
192,192,111275,1,0,0:0:0:0:
64,192,111359,1,0,0:0:0:0:
320,192,111442,1,0,0:0:0:0:
448,192,111442,1,0,0:0:0:0:
192,192,111525,1,0,0:0:0:0:
64,192,111609,1,0,0:0:0:0:
320,192,111609,1,0,0:0:0:0:
448,192,111692,1,0,0:0:0:0:
192,192,111775,1,0,0:0:0:0:
64,192,111859,1,0,0:0:0:0:
448,192,111942,1,0,0:0:0:0:
192,192,111942,1,0,0:0:0:0:
320,192,112025,1,0,0:0:0:0:
64,192,112109,1,0,0:0:0:0:
320,192,112192,1,0,0:0:0:0:
192,192,112275,1,0,0:0:0:0:
64,192,112275,1,0,0:0:0:0:
448,192,112359,1,0,0:0:0:0:
320,192,112442,1,0,0:0:0:0:
192,192,112525,1,0,0:0:0:0:
64,192,112609,1,0,0:0:0:0:
448,192,112609,1,0,0:0:0:0:
320,192,112692,1,0,0:0:0:0:
192,192,112775,1,0,0:0:0:0:
64,192,112859,1,0,0:0:0:0:
320,192,112942,1,0,0:0:0:0:
448,192,112942,1,0,0:0:0:0:
192,192,113025,1,0,0:0:0:0:
320,192,113109,1,0,0:0:0:0:
448,192,113192,1,0,0:0:0:0:
64,192,113275,1,0,0:0:0:0:
320,192,113275,1,0,0:0:0:0:
192,192,113359,1,0,0:0:0:0:
448,192,113442,1,0,0:0:0:0:
320,192,113525,1,0,0:0:0:0:
64,192,113609,1,0,0:0:0:0:
192,192,113609,1,0,0:0:0:0:
448,192,113609,1,0,0:0:0:0:
320,192,114275,128,0,114942:0:0:0:0:
64,192,114942,128,0,114984:0:0:0:0:
448,192,114942,128,0,114984:0:0:0:0:
192,192,114963,128,0,115005:0:0:0:0:
320,192,114984,128,0,115025:0:0:0:0:
448,192,115005,128,0,115046:0:0:0:0:
64,192,115025,128,0,115067:0:0:0:0:
192,192,115046,128,0,115088:0:0:0:0:
320,192,115067,128,0,115109:0:0:0:0:
448,192,115088,128,0,115130:0:0:0:0:
64,192,115109,128,0,115150:0:0:0:0:
192,192,115130,128,0,115171:0:0:0:0:
320,192,115150,128,0,115192:0:0:0:0:
448,192,115171,128,0,115213:0:0:0:0:
64,192,115192,128,0,115234:0:0:0:0:
192,192,115213,128,0,115255:0:0:0:0:
320,192,115234,128,0,115275:0:0:0:0:
448,192,115255,128,0,115296:0:0:0:0:
64,192,115275,128,0,115317:0:0:0:0:
192,192,115296,128,0,115338:0:0:0:0:
320,192,115317,128,0,115359:0:0:0:0:
448,192,115338,128,0,115380:0:0:0:0:
64,192,115359,128,0,115400:0:0:0:0:
192,192,115380,128,0,115421:0:0:0:0:
320,192,115400,128,0,115442:0:0:0:0:
448,192,115421,128,0,115463:0:0:0:0:
64,192,115442,128,0,115484:0:0:0:0:
192,192,115463,128,0,115505:0:0:0:0:
320,192,115484,128,0,115525:0:0:0:0:
448,192,115505,128,0,115546:0:0:0:0:
64,192,115525,128,0,115567:0:0:0:0:
192,192,115546,128,0,115588:0:0:0:0:
320,192,115567,128,0,115609:0:0:0:0:
448,192,115588,128,0,115630:0:0:0:0:
64,192,115609,128,0,115650:0:0:0:0:
192,192,115630,128,0,115671:0:0:0:0:
320,192,115650,128,0,115692:0:0:0:0:
448,192,115671,128,0,115713:0:0:0:0:
64,192,115692,128,0,115734:0:0:0:0:
192,192,115713,128,0,115755:0:0:0:0:
320,192,115734,128,0,115775:0:0:0:0:
448,192,115755,128,0,115796:0:0:0:0:
64,192,115775,128,0,115817:0:0:0:0:
192,192,115796,128,0,115838:0:0:0:0:
320,192,115817,128,0,115859:0:0:0:0:
448,192,115838,128,0,115880:0:0:0:0:
64,192,115859,128,0,115900:0:0:0:0:
192,192,115880,128,0,115921:0:0:0:0:
320,192,115900,128,0,115942:0:0:0:0:
448,192,115921,128,0,115963:0:0:0:0:
64,192,115942,128,0,115984:0:0:0:0:
192,192,115963,128,0,116005:0:0:0:0:
320,192,115984,128,0,116025:0:0:0:0:
448,192,116005,128,0,116046:0:0:0:0:
64,192,116025,128,0,116067:0:0:0:0:
192,192,116046,128,0,116088:0:0:0:0:
320,192,116067,128,0,116109:0:0:0:0:
448,192,116088,128,0,116130:0:0:0:0:
64,192,116109,128,0,116150:0:0:0:0:
192,192,116130,128,0,116171:0:0:0:0:
320,192,116150,128,0,116192:0:0:0:0:
448,192,116171,128,0,116213:0:0:0:0:
64,192,116192,128,0,116234:0:0:0:0:
192,192,116213,128,0,116255:0:0:0:0:
320,192,116234,128,0,116275:0:0:0:0:
448,192,116255,128,0,116296:0:0:0:0:
64,192,116275,128,0,116317:0:0:0:0:
192,192,116296,128,0,116338:0:0:0:0:
320,192,116317,128,0,116359:0:0:0:0:
448,192,116338,128,0,116380:0:0:0:0:
64,192,116359,128,0,116400:0:0:0:0:
192,192,116380,128,0,116421:0:0:0:0:
320,192,116400,128,0,116442:0:0:0:0:
448,192,116421,128,0,116463:0:0:0:0:
64,192,116442,128,0,116484:0:0:0:0:
192,192,116463,128,0,116505:0:0:0:0:
320,192,116484,128,0,116525:0:0:0:0:
448,192,116505,128,0,116546:0:0:0:0:
64,192,116525,128,0,116567:0:0:0:0:
192,192,116546,128,0,116588:0:0:0:0:
320,192,116567,128,0,116609:0:0:0:0:
448,192,116588,128,0,116630:0:0:0:0:
64,192,116609,128,0,116650:0:0:0:0:
192,192,116630,128,0,116671:0:0:0:0:
320,192,116650,128,0,116692:0:0:0:0:
448,192,116671,128,0,116713:0:0:0:0:
64,192,116692,128,0,116734:0:0:0:0:
192,192,116713,128,0,116755:0:0:0:0:
320,192,116734,128,0,116775:0:0:0:0:
448,192,116755,128,0,116796:0:0:0:0:
64,192,116775,128,0,116817:0:0:0:0:
192,192,116796,128,0,116838:0:0:0:0:
320,192,116817,128,0,116859:0:0:0:0:
448,192,116838,128,0,116880:0:0:0:0:
64,192,116859,128,0,116900:0:0:0:0:
192,192,116880,128,0,116921:0:0:0:0:
320,192,116900,128,0,116942:0:0:0:0:
448,192,116921,128,0,116963:0:0:0:0:
64,192,116942,128,0,116984:0:0:0:0:
192,192,116963,128,0,117005:0:0:0:0:
320,192,116984,128,0,117025:0:0:0:0:
448,192,117005,128,0,117046:0:0:0:0:
64,192,117025,128,0,117067:0:0:0:0:
192,192,117046,128,0,117088:0:0:0:0:
320,192,117067,128,0,117109:0:0:0:0:
448,192,117088,128,0,117130:0:0:0:0:
64,192,117109,128,0,117150:0:0:0:0:
192,192,117130,128,0,117171:0:0:0:0:
320,192,117150,128,0,117192:0:0:0:0:
448,192,117171,128,0,117213:0:0:0:0:
64,192,117192,128,0,117234:0:0:0:0:
192,192,117213,128,0,117255:0:0:0:0:
320,192,117234,128,0,117275:0:0:0:0:
448,192,117255,128,0,117296:0:0:0:0:
64,192,117275,128,0,117317:0:0:0:0:
192,192,117296,128,0,117338:0:0:0:0:
320,192,117317,128,0,117359:0:0:0:0:
448,192,117338,128,0,117380:0:0:0:0:
64,192,117359,128,0,117400:0:0:0:0:
192,192,117380,128,0,117421:0:0:0:0:
320,192,117400,128,0,117442:0:0:0:0:
448,192,117421,128,0,117463:0:0:0:0:
64,192,117442,1,0,0:0:0:0:
192,192,117775,1,0,0:0:0:0:
64,192,117775,1,0,0:0:0:0:
64,192,117942,1,0,0:0:0:0:
320,192,117942,1,0,0:0:0:0:
320,192,118109,1,0,0:0:0:0:
448,192,118109,1,0,0:0:0:0:
192,192,118275,1,0,0:0:0:0:
320,192,118275,1,0,0:0:0:0:
192,192,118525,1,0,0:0:0:0:
448,192,118525,1,0,0:0:0:0:
320,192,118775,1,0,0:0:0:0:
64,192,118775,1,0,0:0:0:0:
192,192,118942,1,0,0:0:0:0:
64,192,118942,1,0,0:0:0:0:
320,192,119109,1,0,0:0:0:0:
192,192,119109,1,0,0:0:0:0:
320,192,119275,1,0,0:0:0:0:
448,192,119275,1,0,0:0:0:0:
192,192,119442,1,0,0:0:0:0:
64,192,119442,1,0,0:0:0:0:
192,192,119609,1,0,0:0:0:0:
448,192,119609,1,0,0:0:0:0:
320,192,119609,1,0,0:0:0:0:
320,192,119942,1,0,0:0:0:0:
64,192,119942,1,0,0:0:0:0:
192,192,119942,1,0,0:0:0:0:
64,192,120275,128,0,120317:0:0:0:0:
448,192,120275,128,0,120317:0:0:0:0:
320,192,120296,128,0,120338:0:0:0:0:
192,192,120317,128,0,120359:0:0:0:0:
64,192,120338,128,0,120380:0:0:0:0:
448,192,120359,128,0,120400:0:0:0:0:
320,192,120380,128,0,120421:0:0:0:0:
192,192,120400,128,0,120442:0:0:0:0:
64,192,120421,128,0,120463:0:0:0:0:
448,192,120442,128,0,120484:0:0:0:0:
320,192,120463,128,0,120505:0:0:0:0:
192,192,120484,128,0,120525:0:0:0:0:
64,192,120505,128,0,120546:0:0:0:0:
448,192,120525,128,0,120567:0:0:0:0:
320,192,120546,128,0,120588:0:0:0:0:
192,192,120567,128,0,120609:0:0:0:0:
64,192,120588,128,0,120630:0:0:0:0:
448,192,120609,128,0,120650:0:0:0:0:
320,192,120630,128,0,120671:0:0:0:0:
192,192,120650,128,0,120692:0:0:0:0:
64,192,120671,128,0,120713:0:0:0:0:
448,192,120692,128,0,120734:0:0:0:0:
320,192,120713,128,0,120755:0:0:0:0:
192,192,120734,128,0,120775:0:0:0:0:
64,192,120755,128,0,120796:0:0:0:0:
448,192,120775,128,0,120817:0:0:0:0:
320,192,120796,128,0,120838:0:0:0:0:
192,192,120817,128,0,120859:0:0:0:0:
64,192,120838,128,0,120880:0:0:0:0:
448,192,120859,128,0,120900:0:0:0:0:
320,192,120880,128,0,120921:0:0:0:0:
192,192,120900,128,0,120942:0:0:0:0:
64,192,120921,128,0,120963:0:0:0:0:
448,192,120942,128,0,120984:0:0:0:0:
320,192,120963,128,0,121005:0:0:0:0:
192,192,120984,128,0,121025:0:0:0:0:
64,192,121005,128,0,121046:0:0:0:0:
448,192,121025,128,0,121067:0:0:0:0:
320,192,121046,128,0,121088:0:0:0:0:
192,192,121067,128,0,121109:0:0:0:0:
64,192,121088,128,0,121130:0:0:0:0:
448,192,121109,128,0,121150:0:0:0:0:
320,192,121130,128,0,121171:0:0:0:0:
192,192,121150,128,0,121192:0:0:0:0:
64,192,121171,128,0,121213:0:0:0:0:
448,192,121192,128,0,121234:0:0:0:0:
320,192,121213,128,0,121255:0:0:0:0:
192,192,121234,128,0,121275:0:0:0:0:
64,192,121255,128,0,121296:0:0:0:0:
448,192,121275,128,0,121317:0:0:0:0:
320,192,121296,128,0,121338:0:0:0:0:
192,192,121317,128,0,121359:0:0:0:0:
64,192,121338,128,0,121380:0:0:0:0:
448,192,121359,128,0,121400:0:0:0:0:
320,192,121380,128,0,121421:0:0:0:0:
192,192,121400,128,0,121442:0:0:0:0:
64,192,121421,128,0,121463:0:0:0:0:
448,192,121442,128,0,121484:0:0:0:0:
320,192,121463,128,0,121505:0:0:0:0:
192,192,121484,128,0,121525:0:0:0:0:
64,192,121505,128,0,121546:0:0:0:0:
448,192,121525,128,0,121567:0:0:0:0:
320,192,121546,128,0,121588:0:0:0:0:
192,192,121567,128,0,121609:0:0:0:0:
64,192,121588,128,0,121630:0:0:0:0:
448,192,121609,128,0,121650:0:0:0:0:
320,192,121630,128,0,121671:0:0:0:0:
192,192,121650,128,0,121692:0:0:0:0:
64,192,121671,128,0,121713:0:0:0:0:
448,192,121692,128,0,121734:0:0:0:0:
320,192,121713,128,0,121755:0:0:0:0:
192,192,121734,128,0,121775:0:0:0:0:
64,192,121755,128,0,121796:0:0:0:0:
448,192,121775,128,0,121817:0:0:0:0:
320,192,121796,128,0,121838:0:0:0:0:
192,192,121817,128,0,121859:0:0:0:0:
64,192,121838,128,0,121880:0:0:0:0:
448,192,121859,128,0,121900:0:0:0:0:
320,192,121880,128,0,121921:0:0:0:0:
192,192,121900,128,0,121942:0:0:0:0:
64,192,121921,128,0,121963:0:0:0:0:
448,192,121942,128,0,121984:0:0:0:0:
320,192,121963,128,0,122005:0:0:0:0:
192,192,121984,128,0,122025:0:0:0:0:
64,192,122005,128,0,122046:0:0:0:0:
448,192,122025,128,0,122067:0:0:0:0:
320,192,122046,128,0,122088:0:0:0:0:
192,192,122067,128,0,122109:0:0:0:0:
64,192,122088,128,0,122130:0:0:0:0:
448,192,122109,128,0,122150:0:0:0:0:
320,192,122130,128,0,122171:0:0:0:0:
192,192,122150,128,0,122192:0:0:0:0:
64,192,122171,128,0,122213:0:0:0:0:
448,192,122192,128,0,122234:0:0:0:0:
320,192,122213,128,0,122255:0:0:0:0:
192,192,122234,128,0,122275:0:0:0:0:
64,192,122255,128,0,122296:0:0:0:0:
448,192,122275,128,0,122317:0:0:0:0:
320,192,122296,128,0,122338:0:0:0:0:
192,192,122317,128,0,122359:0:0:0:0:
64,192,122338,128,0,122380:0:0:0:0:
448,192,122359,128,0,122400:0:0:0:0:
320,192,122380,128,0,122421:0:0:0:0:
192,192,122400,128,0,122442:0:0:0:0:
64,192,122421,128,0,122463:0:0:0:0:
448,192,122442,128,0,122484:0:0:0:0:
320,192,122463,128,0,122505:0:0:0:0:
192,192,122484,128,0,122525:0:0:0:0:
64,192,122505,128,0,122546:0:0:0:0:
448,192,122525,128,0,122567:0:0:0:0:
320,192,122546,128,0,122588:0:0:0:0:
192,192,122567,128,0,122609:0:0:0:0:
64,192,122588,128,0,122630:0:0:0:0:
448,192,122609,128,0,122650:0:0:0:0:
320,192,122630,128,0,122671:0:0:0:0:
192,192,122650,128,0,122692:0:0:0:0:
64,192,122671,128,0,122713:0:0:0:0:
448,192,122692,128,0,122734:0:0:0:0:
320,192,122713,128,0,122755:0:0:0:0:
192,192,122734,128,0,122775:0:0:0:0:
64,192,122755,128,0,122796:0:0:0:0:
448,192,122775,1,0,0:0:0:0:
320,192,123109,1,0,0:0:0:0:
448,192,123109,1,0,0:0:0:0:
192,192,123275,1,0,0:0:0:0:
64,192,123275,1,0,0:0:0:0:
320,192,123442,1,0,0:0:0:0:
64,192,123442,1,0,0:0:0:0:
320,192,123609,1,0,0:0:0:0:
448,192,123609,1,0,0:0:0:0:
192,192,123859,1,0,0:0:0:0:
320,192,123859,1,0,0:0:0:0:
192,192,124109,1,0,0:0:0:0:
64,192,124109,1,0,0:0:0:0:
320,192,124275,1,0,0:0:0:0:
448,192,124275,1,0,0:0:0:0:
64,192,124359,1,0,0:0:0:0:
192,192,124442,1,0,0:0:0:0:
448,192,124442,1,0,0:0:0:0:
320,192,124525,1,0,0:0:0:0:
448,192,124609,1,0,0:0:0:0:
64,192,124609,1,0,0:0:0:0:
192,192,124692,1,0,0:0:0:0:
320,192,124775,1,0,0:0:0:0:
64,192,124775,1,0,0:0:0:0:
448,192,124859,1,0,0:0:0:0:
192,192,124942,1,0,0:0:0:0:
64,192,124942,1,0,0:0:0:0:
448,192,125025,1,0,0:0:0:0:
320,192,125109,1,0,0:0:0:0:
192,192,125192,1,0,0:0:0:0:
64,192,125275,1,0,0:0:0:0:
448,192,125275,1,0,0:0:0:0:
320,192,125359,1,0,0:0:0:0:
192,192,125442,1,0,0:0:0:0:
64,192,125525,1,0,0:0:0:0:
320,192,125609,1,0,0:0:0:0:
448,192,125609,1,0,0:0:0:0:
448,192,125775,1,0,0:0:0:0:
192,192,125942,1,0,0:0:0:0:
64,192,125942,1,0,0:0:0:0:
320,192,126109,1,0,0:0:0:0:
192,192,126109,1,0,0:0:0:0:
64,192,126192,1,0,0:0:0:0:
448,192,126192,1,0,0:0:0:0:
192,192,126275,1,0,0:0:0:0:
320,192,126275,1,0,0:0:0:0:
448,192,126442,1,0,0:0:0:0:
192,192,126609,1,0,0:0:0:0:
64,192,126609,1,0,0:0:0:0:
320,192,126775,1,0,0:0:0:0:
448,192,126775,1,0,0:0:0:0:
192,192,126859,1,0,0:0:0:0:
64,192,126859,1,0,0:0:0:0:
320,192,126942,1,0,0:0:0:0:
448,192,126942,1,0,0:0:0:0:
192,192,127109,1,0,0:0:0:0:
320,192,127109,1,0,0:0:0:0:
192,192,127275,1,0,0:0:0:0:
64,192,127275,1,0,0:0:0:0:
320,192,127442,1,0,0:0:0:0:
448,192,127442,1,0,0:0:0:0:
192,192,127609,1,0,0:0:0:0:
320,192,127609,1,0,0:0:0:0:
192,192,127775,1,0,0:0:0:0:
64,192,127775,1,0,0:0:0:0:
320,192,127859,1,0,0:0:0:0:
448,192,127859,1,0,0:0:0:0:
192,192,127942,1,0,0:0:0:0:
64,192,127942,1,0,0:0:0:0:
448,192,128109,1,0,0:0:0:0:
320,192,128109,1,0,0:0:0:0:
64,192,128275,1,0,0:0:0:0:
448,192,128442,1,0,0:0:0:0:
192,192,128442,1,0,0:0:0:0:
192,192,128609,1,0,0:0:0:0:
64,192,128609,1,0,0:0:0:0:
320,192,128775,1,0,0:0:0:0:
448,192,128775,1,0,0:0:0:0:
448,192,128942,1,0,0:0:0:0:
64,192,128942,1,0,0:0:0:0:
192,192,129109,1,0,0:0:0:0:
320,192,129192,1,0,0:0:0:0:
448,192,129192,1,0,0:0:0:0:
64,192,129275,1,0,0:0:0:0:
320,192,129442,1,0,0:0:0:0:
192,192,129442,1,0,0:0:0:0:
448,192,129609,1,0,0:0:0:0:
64,192,129609,1,0,0:0:0:0:
192,192,129775,1,0,0:0:0:0:
64,192,129775,1,0,0:0:0:0:
320,192,129942,1,0,0:0:0:0:
448,192,129942,1,0,0:0:0:0:
320,192,130109,1,0,0:0:0:0:
192,192,130275,1,0,0:0:0:0:
64,192,130275,1,0,0:0:0:0:
64,192,130442,1,0,0:0:0:0:
192,192,130609,1,0,0:0:0:0:
448,192,130609,1,0,0:0:0:0:
448,192,130775,1,0,0:0:0:0:
320,192,130942,1,0,0:0:0:0:
192,192,130942,1,0,0:0:0:0:
64,192,130942,1,0,0:0:0:0:
192,192,131109,1,0,0:0:0:0:
320,192,131275,1,0,0:0:0:0:
448,192,131275,1,0,0:0:0:0:
64,192,131442,1,0,0:0:0:0:
192,192,131442,1,0,0:0:0:0:
320,192,131525,1,0,0:0:0:0:
448,192,131525,1,0,0:0:0:0:
192,192,131609,1,0,0:0:0:0:
64,192,131609,1,0,0:0:0:0:
320,192,131775,1,0,0:0:0:0:
192,192,131942,1,0,0:0:0:0:
448,192,131942,1,0,0:0:0:0:
64,192,132109,1,0,0:0:0:0:
192,192,132109,1,0,0:0:0:0:
192,192,132275,1,0,0:0:0:0:
320,192,132275,1,0,0:0:0:0:
64,192,132442,1,0,0:0:0:0:
192,192,132442,1,0,0:0:0:0:
448,192,132609,1,0,0:0:0:0:
320,192,132609,1,0,0:0:0:0:
448,192,132775,1,0,0:0:0:0:
320,192,132942,1,0,0:0:0:0:
192,192,132942,1,0,0:0:0:0:
64,192,132942,1,0,0:0:0:0:
192,192,133192,1,0,0:0:0:0:
64,192,133192,1,0,0:0:0:0:
448,192,133192,1,0,0:0:0:0:
64,192,133442,1,0,0:0:0:0:
320,192,133442,1,0,0:0:0:0:
448,192,133442,1,0,0:0:0:0:
192,192,133609,1,0,0:0:0:0:
320,192,133775,1,0,0:0:0:0:
448,192,133775,1,0,0:0:0:0:
192,192,133942,1,0,0:0:0:0:
64,192,133942,1,0,0:0:0:0:
448,192,134109,1,0,0:0:0:0:
64,192,134109,1,0,0:0:0:0:
192,192,134275,1,0,0:0:0:0:
320,192,134275,1,0,0:0:0:0:
320,192,134442,1,0,0:0:0:0:
192,192,134525,1,0,0:0:0:0:
64,192,134525,1,0,0:0:0:0:
448,192,134609,1,0,0:0:0:0:
192,192,134775,1,0,0:0:0:0:
320,192,134775,1,0,0:0:0:0:
448,192,134942,1,0,0:0:0:0:
320,192,134942,1,0,0:0:0:0:
448,192,134998,1,0,0:0:0:0:
320,192,134998,1,0,0:0:0:0:
320,192,135053,1,0,0:0:0:0:
448,192,135053,1,0,0:0:0:0:
320,192,135109,1,0,0:0:0:0:
448,192,135109,1,0,0:0:0:0:
320,192,135192,1,0,0:0:0:0:
448,192,135192,1,0,0:0:0:0:
448,192,135275,1,0,0:0:0:0:
320,192,135275,1,0,0:0:0:0:
192,192,135359,1,0,0:0:0:0:
64,192,135359,1,0,0:0:0:0:
64,192,135442,1,0,0:0:0:0:
192,192,135442,1,0,0:0:0:0:
192,192,135525,1,0,0:0:0:0:
64,192,135525,1,0,0:0:0:0:
192,192,135609,1,0,0:0:0:0:
64,192,135609,1,0,0:0:0:0:
64,192,135692,1,0,0:0:0:0:
192,192,135692,1,0,0:0:0:0:
192,192,135775,1,0,0:0:0:0:
64,192,135775,1,0,0:0:0:0:
64,192,135859,1,0,0:0:0:0:
192,192,135859,1,0,0:0:0:0:
64,192,135942,1,0,0:0:0:0:
192,192,135942,1,0,0:0:0:0:
448,192,135942,1,0,0:0:0:0:
320,192,135942,128,0,136192:0:0:0:0:
192,192,136275,1,0,0:0:0:0:
320,192,136275,1,0,0:0:0:0:
448,192,136275,1,0,0:0:0:0:
