osu file format v14

[General]
AudioFilename: koko.mp3
AudioLeadIn: 0
PreviewTime: 56624
Countdown: 0
SampleSet: None
StackLeniency: 0.7
Mode: 3
LetterboxInBreaks: 0
SpecialStyle: 0
WidescreenStoryboard: 1

[Editor]
DistanceSpacing: 0.8
BeatDivisor: 4
GridSize: 4
TimelineZoom: 2

[Metadata]
Title:4k Vibro Pack 3
TitleUnicode:4k Vibro Pack 3
Artist:Various Artists
ArtistUnicode:Various Artists
Creator:Staravia
Version:Kokonatsu wa vibro no katachi
Source:
Tags:mapset jackhammer vibration
BeatmapID:1213520
BeatmapSetID:572754

[Difficulty]
HPDrainRate:6
CircleSize:4
OverallDifficulty:6
ApproachRate:5
SliderMultiplier:1.3
SliderTickRate:1

[Events]
//Background and Video events
0,0,"bgkoko.png",0,0
//Break Periods
//Storyboard Layer 0 (Background)
//Storyboard Layer 1 (Fail)
//Storyboard Layer 2 (Pass)
//Storyboard Layer 3 (Foreground)
//Storyboard Sound Samples

[TimingPoints]
630,277.777777777778,4,2,0,20,1,0
13963,-105.263157894737,4,2,0,20,0,0
14241,-111.111111111111,4,2,0,20,0,0
14518,-117.647058823529,4,2,0,20,0,0
14796,-125,4,2,0,20,0,0
15074,-133.333333333333,4,2,0,20,0,0
15352,-142.857142857143,4,2,0,20,0,0
15630,-166.666666666667,4,2,0,20,0,0
16741,-100,4,2,0,20,0,0
18982,277.777777777778,4,2,0,20,1,0
56759,-100,4,2,0,20,0,1
61204,-100,4,2,0,20,0,0
65648,-100,4,2,0,20,0,1
69954,-100,4,2,0,20,0,0

[HitObjects]
320,192,630,5,0,0:0:0:0:
320,192,907,1,0,0:0:0:0:
192,192,1185,1,0,0:0:0:0:
64,192,1185,1,0,0:0:0:0:
448,192,1463,1,0,0:0:0:0:
64,192,1741,1,0,0:0:0:0:
192,192,2018,1,0,0:0:0:0:
320,192,2296,1,0,0:0:0:0:
64,192,2296,1,0,0:0:0:0:
192,192,2574,1,0,0:0:0:0:
448,192,2713,1,0,0:0:0:0:
320,192,3130,1,0,0:0:0:0:
192,192,3407,1,0,0:0:0:0:
448,192,3407,1,0,0:0:0:0:
64,192,3685,1,0,0:0:0:0:
320,192,3963,1,0,0:0:0:0:
192,192,4241,1,0,0:0:0:0:
64,192,4518,1,0,0:0:0:0:
448,192,4518,1,0,0:0:0:0:
320,192,4796,1,0,0:0:0:0:
192,192,5074,1,0,0:0:0:0:
320,192,5074,1,0,0:0:0:0:
192,192,5352,1,0,0:0:0:0:
320,192,5352,1,0,0:0:0:0:
320,192,5630,1,0,0:0:0:0:
448,192,5630,1,0,0:0:0:0:
64,192,5907,1,0,0:0:0:0:
192,192,6185,1,0,0:0:0:0:
448,192,6463,1,0,0:0:0:0:
64,192,6741,1,0,0:0:0:0:
192,192,6741,1,0,0:0:0:0:
448,192,7018,1,0,0:0:0:0:
320,192,7157,1,0,0:0:0:0:
192,192,7574,1,0,0:0:0:0:
320,192,7852,1,0,0:0:0:0:
448,192,7852,1,0,0:0:0:0:
64,192,8130,1,0,0:0:0:0:
192,192,8407,1,0,0:0:0:0:
320,192,8407,1,0,0:0:0:0:
448,192,8685,1,0,0:0:0:0:
192,192,8963,1,0,0:0:0:0:
64,192,8963,1,0,0:0:0:0:
320,192,9241,1,0,0:0:0:0:
192,192,9518,1,0,0:0:0:0:
320,192,9518,1,0,0:0:0:0:
192,192,9796,1,0,0:0:0:0:
320,192,9796,1,0,0:0:0:0:
64,192,10074,1,0,0:0:0:0:
192,192,10074,1,0,0:0:0:0:
448,192,10074,1,0,0:0:0:0:
320,192,10352,1,0,0:0:0:0:
192,192,10630,1,0,0:0:0:0:
64,192,10630,1,0,0:0:0:0:
448,192,10630,1,0,0:0:0:0:
320,192,10907,1,0,0:0:0:0:
192,192,10907,1,0,0:0:0:0:
320,192,11185,1,0,0:0:0:0:
448,192,11185,1,0,0:0:0:0:
64,192,11185,1,0,0:0:0:0:
192,192,11463,1,0,0:0:0:0:
320,192,11463,1,0,0:0:0:0:
192,192,11741,1,0,0:0:0:0:
64,192,11741,1,0,0:0:0:0:
448,192,11741,1,0,0:0:0:0:
320,192,12018,1,0,0:0:0:0:
448,192,12018,1,0,0:0:0:0:
320,192,12296,1,0,0:0:0:0:
192,192,12296,1,0,0:0:0:0:
64,192,12296,1,0,0:0:0:0:
64,192,12574,1,0,0:0:0:0:
448,192,12574,1,0,0:0:0:0:
192,192,12852,1,0,0:0:0:0:
320,192,12852,1,0,0:0:0:0:
448,192,12852,1,0,0:0:0:0:
64,192,13130,1,0,0:0:0:0:
192,192,13130,1,0,0:0:0:0:
448,192,13338,1,0,0:0:0:0:
320,192,13338,1,0,0:0:0:0:
192,192,13407,128,0,15630:0:0:0:0:
64,192,16741,5,0,0:0:0:0:
192,192,16741,1,0,0:0:0:0:
320,192,16741,1,0,0:0:0:0:
448,192,16741,1,0,0:0:0:0:
448,192,16810,1,0,0:0:0:0:
320,192,16810,1,0,0:0:0:0:
192,192,16810,1,0,0:0:0:0:
64,192,16810,1,0,0:0:0:0:
64,192,16880,1,0,0:0:0:0:
192,192,16880,1,0,0:0:0:0:
320,192,16880,1,0,0:0:0:0:
448,192,16880,1,0,0:0:0:0:
448,192,16949,1,0,0:0:0:0:
320,192,16949,1,0,0:0:0:0:
192,192,16949,1,0,0:0:0:0:
64,192,16949,1,0,0:0:0:0:
64,192,17018,1,0,0:0:0:0:
192,192,17018,1,0,0:0:0:0:
320,192,17018,1,0,0:0:0:0:
448,192,17018,1,0,0:0:0:0:
192,192,17296,1,0,0:0:0:0:
320,192,17296,1,0,0:0:0:0:
64,192,17296,1,0,0:0:0:0:
448,192,17296,1,0,0:0:0:0:
448,192,17366,1,0,0:0:0:0:
320,192,17366,1,0,0:0:0:0:
192,192,17366,1,0,0:0:0:0:
64,192,17366,1,0,0:0:0:0:
320,192,17435,1,0,0:0:0:0:
64,192,17435,1,0,0:0:0:0:
192,192,17435,1,0,0:0:0:0:
448,192,17435,1,0,0:0:0:0:
192,192,17505,1,0,0:0:0:0:
64,192,17505,1,0,0:0:0:0:
320,192,17505,1,0,0:0:0:0:
448,192,17505,1,0,0:0:0:0:
320,192,17574,1,0,0:0:0:0:
64,192,17574,1,0,0:0:0:0:
448,192,17574,1,0,0:0:0:0:
192,192,17574,1,0,0:0:0:0:
64,192,17852,1,0,0:0:0:0:
192,192,17852,1,0,0:0:0:0:
320,192,17852,1,0,0:0:0:0:
448,192,17991,1,0,0:0:0:0:
320,192,17991,1,0,0:0:0:0:
64,192,17991,1,0,0:0:0:0:
192,192,18130,1,0,0:0:0:0:
64,192,18130,1,0,0:0:0:0:
320,192,18199,1,0,0:0:0:0:
448,192,18199,1,0,0:0:0:0:
192,192,18338,1,0,0:0:0:0:
64,192,18338,1,0,0:0:0:0:
448,192,18338,1,0,0:0:0:0:
448,192,18685,1,0,0:0:0:0:
320,192,18824,1,0,0:0:0:0:
192,192,18982,1,0,0:0:0:0:
64,192,18982,1,0,0:0:0:0:
448,192,18982,1,0,0:0:0:0:
64,192,19120,1,0,0:0:0:0:
192,192,19259,1,0,0:0:0:0:
320,192,19259,1,0,0:0:0:0:
448,192,19259,1,0,0:0:0:0:
192,192,19398,1,0,0:0:0:0:
64,192,19398,1,0,0:0:0:0:
64,192,19537,1,0,0:0:0:0:
448,192,19537,1,0,0:0:0:0:
192,192,19676,1,0,0:0:0:0:
320,192,19745,1,0,0:0:0:0:
448,192,19745,1,0,0:0:0:0:
64,192,19815,1,0,0:0:0:0:
192,192,19815,1,0,0:0:0:0:
320,192,19954,1,0,0:0:0:0:
192,192,19954,1,0,0:0:0:0:
320,192,20093,1,0,0:0:0:0:
448,192,20093,1,0,0:0:0:0:
192,192,20232,1,0,0:0:0:0:
64,192,20232,1,0,0:0:0:0:
64,192,20370,1,0,0:0:0:0:
192,192,20370,1,0,0:0:0:0:
448,192,20440,1,0,0:0:0:0:
320,192,20440,1,0,0:0:0:0:
192,192,20579,128,0,20857:0:0:0:0:
448,192,20579,1,0,0:0:0:0:
320,192,20787,1,0,0:0:0:0:
192,192,20926,1,0,0:0:0:0:
320,192,20926,1,0,0:0:0:0:
64,192,20926,1,0,0:0:0:0:
448,192,21065,1,0,0:0:0:0:
64,192,21065,1,0,0:0:0:0:
320,192,21204,1,0,0:0:0:0:
448,192,21204,1,0,0:0:0:0:
64,192,21343,1,0,0:0:0:0:
192,192,21482,1,0,0:0:0:0:
320,192,21482,1,0,0:0:0:0:
448,192,21482,1,0,0:0:0:0:
64,192,21620,1,0,0:0:0:0:
192,192,21620,1,0,0:0:0:0:
320,192,21759,1,0,0:0:0:0:
448,192,21759,1,0,0:0:0:0:
64,192,21898,1,0,0:0:0:0:
320,192,21968,1,0,0:0:0:0:
448,192,21968,1,0,0:0:0:0:
192,192,22037,1,0,0:0:0:0:
64,192,22037,1,0,0:0:0:0:
320,192,22176,1,0,0:0:0:0:
192,192,22176,1,0,0:0:0:0:
320,192,22315,1,0,0:0:0:0:
448,192,22315,1,0,0:0:0:0:
64,192,22315,1,0,0:0:0:0:
192,192,22454,1,0,0:0:0:0:
448,192,22454,1,0,0:0:0:0:
320,192,22593,1,0,0:0:0:0:
64,192,22593,1,0,0:0:0:0:
192,192,22732,1,0,0:0:0:0:
448,192,22732,1,0,0:0:0:0:
192,192,22870,1,0,0:0:0:0:
448,192,22870,1,0,0:0:0:0:
320,192,23009,1,0,0:0:0:0:
192,192,23009,1,0,0:0:0:0:
64,192,23148,1,0,0:0:0:0:
448,192,23148,1,0,0:0:0:0:
192,192,23287,1,0,0:0:0:0:
64,192,23287,1,0,0:0:0:0:
320,192,23426,1,0,0:0:0:0:
448,192,23426,1,0,0:0:0:0:
64,192,23565,1,0,0:0:0:0:
192,192,23704,1,0,0:0:0:0:
320,192,23704,1,0,0:0:0:0:
448,192,23704,1,0,0:0:0:0:
64,192,23843,1,0,0:0:0:0:
448,192,23843,1,0,0:0:0:0:
192,192,23982,1,0,0:0:0:0:
64,192,23982,1,0,0:0:0:0:
448,192,24120,1,0,0:0:0:0:
320,192,24190,1,0,0:0:0:0:
192,192,24190,1,0,0:0:0:0:
448,192,24259,1,0,0:0:0:0:
64,192,24259,1,0,0:0:0:0:
192,192,24398,1,0,0:0:0:0:
64,192,24398,1,0,0:0:0:0:
320,192,24537,1,0,0:0:0:0:
448,192,24537,1,0,0:0:0:0:
64,192,24583,1,0,0:0:0:0:
192,192,24583,1,0,0:0:0:0:
320,192,24676,1,0,0:0:0:0:
448,192,24676,1,0,0:0:0:0:
192,192,24815,1,0,0:0:0:0:
320,192,24815,1,0,0:0:0:0:
448,192,24884,1,0,0:0:0:0:
64,192,24884,1,0,0:0:0:0:
192,192,25023,1,0,0:0:0:0:
320,192,25023,128,0,25301:0:0:0:0:
192,192,25370,1,0,0:0:0:0:
320,192,25370,1,0,0:0:0:0:
448,192,25370,1,0,0:0:0:0:
64,192,25509,1,0,0:0:0:0:
192,192,25509,1,0,0:0:0:0:
320,192,25648,1,0,0:0:0:0:
448,192,25648,1,0,0:0:0:0:
64,192,25648,1,0,0:0:0:0:
320,192,25926,1,0,0:0:0:0:
192,192,26204,1,0,0:0:0:0:
64,192,26204,1,0,0:0:0:0:
448,192,26204,1,0,0:0:0:0:
192,192,26412,1,0,0:0:0:0:
320,192,26620,1,0,0:0:0:0:
448,192,26620,1,0,0:0:0:0:
64,192,26620,1,0,0:0:0:0:
192,192,26898,1,0,0:0:0:0:
320,192,26898,1,0,0:0:0:0:
448,192,26898,1,0,0:0:0:0:
192,192,27037,1,0,0:0:0:0:
64,192,27037,1,0,0:0:0:0:
320,192,27037,1,0,0:0:0:0:
320,192,27176,1,0,0:0:0:0:
448,192,27176,1,0,0:0:0:0:
64,192,27176,1,0,0:0:0:0:
192,192,27315,1,0,0:0:0:0:
320,192,27315,1,0,0:0:0:0:
448,192,27315,1,0,0:0:0:0:
64,192,27593,1,0,0:0:0:0:
448,192,27593,1,0,0:0:0:0:
320,192,27870,128,0,28704:0:0:0:0:
64,192,28287,1,0,0:0:0:0:
192,192,28426,1,0,0:0:0:0:
448,192,28565,1,0,0:0:0:0:
64,192,28704,1,0,0:0:0:0:
192,192,28704,1,0,0:0:0:0:
64,192,28843,1,0,0:0:0:0:
448,192,28982,1,0,0:0:0:0:
320,192,28982,1,0,0:0:0:0:
192,192,28982,1,0,0:0:0:0:
320,192,29120,1,0,0:0:0:0:
64,192,29259,1,0,0:0:0:0:
192,192,29259,1,0,0:0:0:0:
64,192,29398,1,0,0:0:0:0:
448,192,29398,1,0,0:0:0:0:
320,192,29398,1,0,0:0:0:0:
192,192,29537,1,0,0:0:0:0:
320,192,29537,1,0,0:0:0:0:
192,192,29676,1,0,0:0:0:0:
64,192,29676,1,0,0:0:0:0:
320,192,29815,1,0,0:0:0:0:
448,192,29815,1,0,0:0:0:0:
448,192,29954,1,0,0:0:0:0:
64,192,29954,1,0,0:0:0:0:
192,192,30093,1,0,0:0:0:0:
64,192,30093,1,0,0:0:0:0:
192,192,30232,1,0,0:0:0:0:
320,192,30370,1,0,0:0:0:0:
448,192,30370,1,0,0:0:0:0:
320,192,30509,1,0,0:0:0:0:
448,192,30648,1,0,0:0:0:0:
64,192,30648,1,0,0:0:0:0:
64,192,30787,1,0,0:0:0:0:
192,192,30926,1,0,0:0:0:0:
448,192,30926,1,0,0:0:0:0:
192,192,31065,1,0,0:0:0:0:
64,192,31065,1,0,0:0:0:0:
320,192,31065,128,0,31273:0:0:0:0:
320,192,31343,1,0,0:0:0:0:
448,192,31343,1,0,0:0:0:0:
64,192,31343,1,0,0:0:0:0:
192,192,31482,1,0,0:0:0:0:
320,192,31482,1,0,0:0:0:0:
448,192,31482,1,0,0:0:0:0:
192,192,31620,1,0,0:0:0:0:
64,192,31620,1,0,0:0:0:0:
448,192,31620,1,0,0:0:0:0:
320,192,31898,1,0,0:0:0:0:
448,192,31898,1,0,0:0:0:0:
192,192,31968,1,0,0:0:0:0:
320,192,32037,1,0,0:0:0:0:
192,192,32107,1,0,0:0:0:0:
320,192,32176,1,0,0:0:0:0:
192,192,32245,1,0,0:0:0:0:
320,192,32315,1,0,0:0:0:0:
64,192,32315,1,0,0:0:0:0:
448,192,32315,1,0,0:0:0:0:
64,192,32454,1,0,0:0:0:0:
192,192,32593,1,0,0:0:0:0:
320,192,32593,1,0,0:0:0:0:
320,192,32732,1,0,0:0:0:0:
64,192,32732,1,0,0:0:0:0:
448,192,32870,1,0,0:0:0:0:
64,192,32870,1,0,0:0:0:0:
320,192,33009,1,0,0:0:0:0:
448,192,33009,1,0,0:0:0:0:
192,192,33148,1,0,0:0:0:0:
64,192,33148,1,0,0:0:0:0:
320,192,33148,1,0,0:0:0:0:
448,192,33287,1,0,0:0:0:0:
192,192,33287,1,0,0:0:0:0:
64,192,33426,1,0,0:0:0:0:
320,192,33565,1,0,0:0:0:0:
192,192,33704,1,0,0:0:0:0:
64,192,33704,1,0,0:0:0:0:
192,192,33843,1,0,0:0:0:0:
320,192,33843,1,0,0:0:0:0:
448,192,33982,1,0,0:0:0:0:
64,192,34120,1,0,0:0:0:0:
192,192,34120,1,0,0:0:0:0:
320,192,34259,1,0,0:0:0:0:
448,192,34259,1,0,0:0:0:0:
64,192,34398,1,0,0:0:0:0:
320,192,34398,1,0,0:0:0:0:
64,192,34537,1,0,0:0:0:0:
192,192,34676,1,0,0:0:0:0:
320,192,34676,1,0,0:0:0:0:
320,192,34815,1,0,0:0:0:0:
64,192,34954,1,0,0:0:0:0:
448,192,34954,1,0,0:0:0:0:
64,192,35093,1,0,0:0:0:0:
320,192,35232,1,0,0:0:0:0:
448,192,35232,1,0,0:0:0:0:
320,192,35370,1,0,0:0:0:0:
64,192,35370,1,0,0:0:0:0:
192,192,35509,1,0,0:0:0:0:
64,192,35509,1,0,0:0:0:0:
448,192,35509,1,0,0:0:0:0:
320,192,35648,1,0,0:0:0:0:
192,192,35648,1,0,0:0:0:0:
448,192,35648,1,0,0:0:0:0:
64,192,35787,1,0,0:0:0:0:
192,192,35787,1,0,0:0:0:0:
448,192,35926,1,0,0:0:0:0:
64,192,35926,1,0,0:0:0:0:
320,192,35926,1,0,0:0:0:0:
320,192,36065,1,0,0:0:0:0:
192,192,36065,1,0,0:0:0:0:
448,192,36065,1,0,0:0:0:0:
192,192,36343,1,0,0:0:0:0:
320,192,36343,1,0,0:0:0:0:
64,192,36343,1,0,0:0:0:0:
320,192,36412,1,0,0:0:0:0:
192,192,36412,1,0,0:0:0:0:
64,192,36412,1,0,0:0:0:0:
192,192,36482,1,0,0:0:0:0:
320,192,36482,1,0,0:0:0:0:
64,192,36482,1,0,0:0:0:0:
320,192,36551,1,0,0:0:0:0:
192,192,36551,1,0,0:0:0:0:
64,192,36551,1,0,0:0:0:0:
192,192,36620,1,0,0:0:0:0:
320,192,36620,1,0,0:0:0:0:
64,192,36620,1,0,0:0:0:0:
320,192,36690,1,0,0:0:0:0:
192,192,36690,1,0,0:0:0:0:
64,192,36690,1,0,0:0:0:0:
192,192,36759,1,0,0:0:0:0:
64,192,36759,1,0,0:0:0:0:
320,192,36759,1,0,0:0:0:0:
448,192,36829,1,0,0:0:0:0:
320,192,36898,1,0,0:0:0:0:
192,192,36968,1,0,0:0:0:0:
64,192,37037,1,0,0:0:0:0:
448,192,37107,1,0,0:0:0:0:
320,192,37176,1,0,0:0:0:0:
64,192,37245,1,0,0:0:0:0:
192,192,37315,1,0,0:0:0:0:
320,192,37384,1,0,0:0:0:0:
448,192,37454,1,0,0:0:0:0:
192,192,37523,1,0,0:0:0:0:
64,192,37593,1,0,0:0:0:0:
320,192,37662,1,0,0:0:0:0:
192,192,37732,1,0,0:0:0:0:
64,192,37801,1,0,0:0:0:0:
320,192,37870,1,0,0:0:0:0:
64,192,37940,1,0,0:0:0:0:
192,192,38009,1,0,0:0:0:0:
320,192,38079,1,0,0:0:0:0:
64,192,38148,1,0,0:0:0:0:
448,192,38218,1,0,0:0:0:0:
320,192,38287,1,0,0:0:0:0:
192,192,38357,1,0,0:0:0:0:
448,192,38426,1,0,0:0:0:0:
64,192,38495,1,0,0:0:0:0:
192,192,38565,1,0,0:0:0:0:
320,192,38634,1,0,0:0:0:0:
64,192,38704,1,0,0:0:0:0:
448,192,38773,1,0,0:0:0:0:
320,192,38843,1,0,0:0:0:0:
192,192,38912,1,0,0:0:0:0:
64,192,38982,1,0,0:0:0:0:
448,192,39051,1,0,0:0:0:0:
320,192,39120,1,0,0:0:0:0:
64,192,39190,1,0,0:0:0:0:
192,192,39259,1,0,0:0:0:0:
320,192,39329,1,0,0:0:0:0:
64,192,39398,1,0,0:0:0:0:
448,192,39468,1,0,0:0:0:0:
320,192,39537,1,0,0:0:0:0:
192,192,39607,1,0,0:0:0:0:
64,192,39676,1,0,0:0:0:0:
448,192,39745,1,0,0:0:0:0:
320,192,39815,1,0,0:0:0:0:
64,192,39884,1,0,0:0:0:0:
448,192,39954,1,0,0:0:0:0:
192,192,39954,1,0,0:0:0:0:
320,192,39954,128,0,40162:0:0:0:0:
320,192,40232,1,0,0:0:0:0:
448,192,40232,1,0,0:0:0:0:
64,192,40232,1,0,0:0:0:0:
192,192,40370,1,0,0:0:0:0:
64,192,40370,1,0,0:0:0:0:
320,192,40370,1,0,0:0:0:0:
192,192,40509,1,0,0:0:0:0:
64,192,40509,1,0,0:0:0:0:
448,192,40509,128,0,40718:0:0:0:0:
320,192,40787,1,0,0:0:0:0:
448,192,40787,1,0,0:0:0:0:
64,192,40787,1,0,0:0:0:0:
192,192,40926,1,0,0:0:0:0:
320,192,40926,1,0,0:0:0:0:
192,192,41065,1,0,0:0:0:0:
64,192,41065,1,0,0:0:0:0:
320,192,41204,1,0,0:0:0:0:
448,192,41204,1,0,0:0:0:0:
64,192,41273,1,0,0:0:0:0:
192,192,41343,1,0,0:0:0:0:
320,192,41412,1,0,0:0:0:0:
448,192,41482,1,0,0:0:0:0:
64,192,41551,1,0,0:0:0:0:
320,192,41620,1,0,0:0:0:0:
192,192,41690,1,0,0:0:0:0:
448,192,41759,1,0,0:0:0:0:
320,192,41829,1,0,0:0:0:0:
192,192,41898,1,0,0:0:0:0:
64,192,41968,1,0,0:0:0:0:
448,192,42037,1,0,0:0:0:0:
192,192,42107,1,0,0:0:0:0:
320,192,42176,1,0,0:0:0:0:
448,192,42245,1,0,0:0:0:0:
64,192,42315,1,0,0:0:0:0:
192,192,42384,1,0,0:0:0:0:
448,192,42454,1,0,0:0:0:0:
320,192,42523,1,0,0:0:0:0:
192,192,42593,1,0,0:0:0:0:
448,192,42662,1,0,0:0:0:0:
64,192,42732,1,0,0:0:0:0:
192,192,42801,1,0,0:0:0:0:
448,192,42870,1,0,0:0:0:0:
320,192,42940,1,0,0:0:0:0:
192,192,43009,1,0,0:0:0:0:
64,192,43079,1,0,0:0:0:0:
448,192,43148,1,0,0:0:0:0:
320,192,43218,1,0,0:0:0:0:
192,192,43287,1,0,0:0:0:0:
64,192,43357,1,0,0:0:0:0:
320,192,43426,1,0,0:0:0:0:
64,192,43495,1,0,0:0:0:0:
192,192,43565,1,0,0:0:0:0:
320,192,43634,1,0,0:0:0:0:
64,192,43704,1,0,0:0:0:0:
320,192,43773,1,0,0:0:0:0:
192,192,43843,1,0,0:0:0:0:
64,192,43912,1,0,0:0:0:0:
448,192,43982,1,0,0:0:0:0:
192,192,44051,1,0,0:0:0:0:
320,192,44120,1,0,0:0:0:0:
448,192,44190,1,0,0:0:0:0:
64,192,44259,1,0,0:0:0:0:
320,192,44329,1,0,0:0:0:0:
192,192,44398,1,0,0:0:0:0:
64,192,44468,1,0,0:0:0:0:
320,192,44537,1,0,0:0:0:0:
448,192,44537,1,0,0:0:0:0:
192,192,44537,1,0,0:0:0:0:
320,192,44676,1,0,0:0:0:0:
448,192,44676,1,0,0:0:0:0:
64,192,44676,1,0,0:0:0:0:
192,192,44815,1,0,0:0:0:0:
64,192,44815,1,0,0:0:0:0:
448,192,44815,1,0,0:0:0:0:
320,192,44954,1,0,0:0:0:0:
192,192,44954,1,0,0:0:0:0:
64,192,44954,1,0,0:0:0:0:
320,192,45232,1,0,0:0:0:0:
192,192,45370,1,0,0:0:0:0:
320,192,45648,1,0,0:0:0:0:
448,192,45648,1,0,0:0:0:0:
64,192,45648,1,0,0:0:0:0:
320,192,45787,1,0,0:0:0:0:
448,192,45787,1,0,0:0:0:0:
192,192,45926,1,0,0:0:0:0:
320,192,45926,1,0,0:0:0:0:
448,192,45926,1,0,0:0:0:0:
320,192,46065,1,0,0:0:0:0:
192,192,46065,1,0,0:0:0:0:
64,192,46065,1,0,0:0:0:0:
448,192,46204,1,0,0:0:0:0:
192,192,46204,1,0,0:0:0:0:
64,192,46204,1,0,0:0:0:0:
64,192,46343,1,0,0:0:0:0:
192,192,46412,1,0,0:0:0:0:
320,192,46482,1,0,0:0:0:0:
448,192,46551,1,0,0:0:0:0:
320,192,46620,1,0,0:0:0:0:
192,192,46620,1,0,0:0:0:0:
64,192,46620,1,0,0:0:0:0:
320,192,46898,1,0,0:0:0:0:
448,192,46898,1,0,0:0:0:0:
64,192,46898,1,0,0:0:0:0:
192,192,47037,1,0,0:0:0:0:
320,192,47037,1,0,0:0:0:0:
448,192,47037,1,0,0:0:0:0:
192,192,47176,1,0,0:0:0:0:
64,192,47176,1,0,0:0:0:0:
320,192,47176,1,0,0:0:0:0:
448,192,47315,1,0,0:0:0:0:
192,192,47315,1,0,0:0:0:0:
64,192,47315,1,0,0:0:0:0:
320,192,47593,1,0,0:0:0:0:
192,192,47593,1,0,0:0:0:0:
64,192,47870,1,0,0:0:0:0:
320,192,47870,1,0,0:0:0:0:
448,192,47870,1,0,0:0:0:0:
448,192,48009,1,0,0:0:0:0:
320,192,48148,1,0,0:0:0:0:
192,192,48148,1,0,0:0:0:0:
320,192,48287,1,0,0:0:0:0:
64,192,48287,1,0,0:0:0:0:
192,192,48426,1,0,0:0:0:0:
448,192,48426,1,0,0:0:0:0:
320,192,48565,1,0,0:0:0:0:
192,192,48565,1,0,0:0:0:0:
64,192,48704,1,0,0:0:0:0:
320,192,48843,1,0,0:0:0:0:
448,192,48843,1,0,0:0:0:0:
448,192,48982,1,0,0:0:0:0:
192,192,49120,1,0,0:0:0:0:
64,192,49120,1,0,0:0:0:0:
64,192,49259,1,0,0:0:0:0:
192,192,49398,1,0,0:0:0:0:
320,192,49398,1,0,0:0:0:0:
320,192,49537,1,0,0:0:0:0:
192,192,49676,1,0,0:0:0:0:
448,192,49676,1,0,0:0:0:0:
64,192,49676,1,0,0:0:0:0:
64,192,49815,1,0,0:0:0:0:
192,192,49815,1,0,0:0:0:0:
320,192,49815,1,0,0:0:0:0:
320,192,50093,1,0,0:0:0:0:
448,192,50093,1,0,0:0:0:0:
64,192,50093,1,0,0:0:0:0:
192,192,50370,1,0,0:0:0:0:
320,192,50370,1,0,0:0:0:0:
448,192,50370,1,0,0:0:0:0:
448,192,50509,1,0,0:0:0:0:
64,192,50509,1,0,0:0:0:0:
192,192,50648,1,0,0:0:0:0:
64,192,50648,1,0,0:0:0:0:
320,192,50648,1,0,0:0:0:0:
320,192,50857,1,0,0:0:0:0:
448,192,50857,1,0,0:0:0:0:
192,192,51065,1,0,0:0:0:0:
64,192,51065,1,0,0:0:0:0:
448,192,51065,1,0,0:0:0:0:
192,192,51343,1,0,0:0:0:0:
320,192,51343,1,0,0:0:0:0:
192,192,51482,1,0,0:0:0:0:
64,192,51482,1,0,0:0:0:0:
448,192,51482,1,0,0:0:0:0:
320,192,51620,1,0,0:0:0:0:
64,192,51620,1,0,0:0:0:0:
192,192,51759,1,0,0:0:0:0:
320,192,51759,1,0,0:0:0:0:
448,192,51759,1,0,0:0:0:0:
64,192,51898,1,0,0:0:0:0:
320,192,51968,1,0,0:0:0:0:
448,192,51968,1,0,0:0:0:0:
192,192,52037,1,0,0:0:0:0:
64,192,52037,1,0,0:0:0:0:
320,192,52176,1,0,0:0:0:0:
192,192,52315,1,0,0:0:0:0:
64,192,52315,1,0,0:0:0:0:
448,192,52315,1,0,0:0:0:0:
448,192,52384,1,0,0:0:0:0:
192,192,52384,1,0,0:0:0:0:
64,192,52384,1,0,0:0:0:0:
64,192,52454,1,0,0:0:0:0:
192,192,52454,1,0,0:0:0:0:
448,192,52454,1,0,0:0:0:0:
192,192,52732,1,0,0:0:0:0:
64,192,52732,1,0,0:0:0:0:
448,192,52732,1,0,0:0:0:0:
448,192,52801,1,0,0:0:0:0:
192,192,52801,1,0,0:0:0:0:
64,192,52801,1,0,0:0:0:0:
64,192,52870,1,0,0:0:0:0:
192,192,52870,1,0,0:0:0:0:
448,192,52870,1,0,0:0:0:0:
448,192,53148,1,0,0:0:0:0:
192,192,53148,1,0,0:0:0:0:
64,192,53148,1,0,0:0:0:0:
64,192,53218,1,0,0:0:0:0:
192,192,53218,1,0,0:0:0:0:
448,192,53218,1,0,0:0:0:0:
448,192,53287,1,0,0:0:0:0:
192,192,53287,1,0,0:0:0:0:
64,192,53287,1,0,0:0:0:0:
320,192,53565,1,0,0:0:0:0:
192,192,53565,1,0,0:0:0:0:
448,192,53565,1,0,0:0:0:0:
192,192,53634,1,0,0:0:0:0:
320,192,53634,1,0,0:0:0:0:
448,192,53634,1,0,0:0:0:0:
320,192,53704,1,0,0:0:0:0:
192,192,53704,1,0,0:0:0:0:
448,192,53704,1,0,0:0:0:0:
320,192,53982,1,0,0:0:0:0:
448,192,53982,1,0,0:0:0:0:
64,192,53982,1,0,0:0:0:0:
448,192,54120,1,0,0:0:0:0:
192,192,54190,1,0,0:0:0:0:
64,192,54190,1,0,0:0:0:0:
320,192,54259,1,0,0:0:0:0:
448,192,54259,1,0,0:0:0:0:
192,192,54398,1,0,0:0:0:0:
320,192,54398,1,0,0:0:0:0:
192,192,54537,1,0,0:0:0:0:
64,192,54537,1,0,0:0:0:0:
448,192,54537,1,0,0:0:0:0:
320,192,54676,1,0,0:0:0:0:
64,192,54815,1,0,0:0:0:0:
448,192,54815,1,0,0:0:0:0:
64,192,54954,1,0,0:0:0:0:
192,192,55093,1,0,0:0:0:0:
320,192,55093,1,0,0:0:0:0:
448,192,55232,1,0,0:0:0:0:
192,192,55370,1,0,0:0:0:0:
64,192,55370,1,0,0:0:0:0:
320,192,55509,1,0,0:0:0:0:
448,192,55509,1,0,0:0:0:0:
64,192,55509,1,0,0:0:0:0:
64,192,55787,1,0,0:0:0:0:
192,192,55926,1,0,0:0:0:0:
320,192,56065,1,0,0:0:0:0:
448,192,56204,1,0,0:0:0:0:
64,192,56343,1,0,0:0:0:0:
192,192,56482,1,0,0:0:0:0:
320,192,56620,1,0,0:0:0:0:
192,192,56759,5,0,0:0:0:0:
320,192,56759,1,0,0:0:0:0:
448,192,56759,1,0,0:0:0:0:
64,192,56759,1,0,0:0:0:0:
64,192,56829,1,0,0:0:0:0:
192,192,56829,1,0,0:0:0:0:
320,192,56829,1,0,0:0:0:0:
448,192,56829,1,0,0:0:0:0:
448,192,56898,1,0,0:0:0:0:
320,192,56898,1,0,0:0:0:0:
192,192,56898,1,0,0:0:0:0:
64,192,56898,1,0,0:0:0:0:
64,192,56968,1,0,0:0:0:0:
192,192,56968,1,0,0:0:0:0:
320,192,56968,1,0,0:0:0:0:
448,192,56968,1,0,0:0:0:0:
448,192,57037,1,0,0:0:0:0:
320,192,57037,1,0,0:0:0:0:
192,192,57037,1,0,0:0:0:0:
64,192,57037,1,0,0:0:0:0:
448,192,57107,1,0,0:0:0:0:
64,192,57107,1,0,0:0:0:0:
192,192,57107,1,0,0:0:0:0:
320,192,57107,1,0,0:0:0:0:
320,192,57176,1,0,0:0:0:0:
448,192,57176,1,0,0:0:0:0:
64,192,57176,1,0,0:0:0:0:
192,192,57176,1,0,0:0:0:0:
192,192,57245,1,0,0:0:0:0:
64,192,57245,1,0,0:0:0:0:
448,192,57245,1,0,0:0:0:0:
320,192,57245,1,0,0:0:0:0:
320,192,57315,1,0,0:0:0:0:
448,192,57315,1,0,0:0:0:0:
64,192,57315,1,0,0:0:0:0:
192,192,57315,1,0,0:0:0:0:
192,192,57384,1,0,0:0:0:0:
64,192,57384,1,0,0:0:0:0:
448,192,57384,1,0,0:0:0:0:
320,192,57384,1,0,0:0:0:0:
192,192,57454,1,0,0:0:0:0:
320,192,57454,1,0,0:0:0:0:
448,192,57454,1,0,0:0:0:0:
64,192,57454,1,0,0:0:0:0:
64,192,57523,1,0,0:0:0:0:
192,192,57523,1,0,0:0:0:0:
320,192,57523,1,0,0:0:0:0:
448,192,57523,1,0,0:0:0:0:
448,192,57593,1,0,0:0:0:0:
320,192,57593,1,0,0:0:0:0:
192,192,57593,1,0,0:0:0:0:
64,192,57593,1,0,0:0:0:0:
64,192,57662,1,0,0:0:0:0:
192,192,57662,1,0,0:0:0:0:
320,192,57662,1,0,0:0:0:0:
448,192,57662,1,0,0:0:0:0:
448,192,57732,1,0,0:0:0:0:
320,192,57732,1,0,0:0:0:0:
192,192,57732,1,0,0:0:0:0:
64,192,57732,1,0,0:0:0:0:
448,192,57801,1,0,0:0:0:0:
64,192,57801,1,0,0:0:0:0:
192,192,57801,1,0,0:0:0:0:
320,192,57801,1,0,0:0:0:0:
320,192,57870,1,0,0:0:0:0:
448,192,57870,1,0,0:0:0:0:
64,192,57870,1,0,0:0:0:0:
192,192,57870,1,0,0:0:0:0:
192,192,57940,1,0,0:0:0:0:
64,192,57940,1,0,0:0:0:0:
448,192,57940,1,0,0:0:0:0:
320,192,57940,1,0,0:0:0:0:
320,192,58009,1,0,0:0:0:0:
448,192,58009,1,0,0:0:0:0:
64,192,58009,1,0,0:0:0:0:
192,192,58009,1,0,0:0:0:0:
192,192,58079,1,0,0:0:0:0:
64,192,58079,1,0,0:0:0:0:
448,192,58079,1,0,0:0:0:0:
320,192,58079,1,0,0:0:0:0:
192,192,58148,1,0,0:0:0:0:
320,192,58148,1,0,0:0:0:0:
448,192,58148,1,0,0:0:0:0:
64,192,58148,1,0,0:0:0:0:
64,192,58218,1,0,0:0:0:0:
192,192,58218,1,0,0:0:0:0:
320,192,58218,1,0,0:0:0:0:
448,192,58218,1,0,0:0:0:0:
448,192,58287,1,0,0:0:0:0:
320,192,58287,1,0,0:0:0:0:
192,192,58287,1,0,0:0:0:0:
64,192,58287,1,0,0:0:0:0:
64,192,58357,1,0,0:0:0:0:
192,192,58357,1,0,0:0:0:0:
320,192,58357,1,0,0:0:0:0:
448,192,58357,1,0,0:0:0:0:
320,192,58426,1,0,0:0:0:0:
64,192,58426,1,0,0:0:0:0:
192,192,58426,1,0,0:0:0:0:
192,192,58565,1,0,0:0:0:0:
320,192,58565,1,0,0:0:0:0:
448,192,58565,1,0,0:0:0:0:
448,192,58704,1,0,0:0:0:0:
192,192,58704,1,0,0:0:0:0:
64,192,58704,1,0,0:0:0:0:
448,192,58843,1,0,0:0:0:0:
64,192,58843,1,0,0:0:0:0:
320,192,58843,1,0,0:0:0:0:
448,192,58982,1,0,0:0:0:0:
64,192,58982,1,0,0:0:0:0:
192,192,58982,1,0,0:0:0:0:
320,192,58982,1,0,0:0:0:0:
320,192,59051,1,0,0:0:0:0:
448,192,59051,1,0,0:0:0:0:
64,192,59051,1,0,0:0:0:0:
192,192,59051,1,0,0:0:0:0:
192,192,59120,1,0,0:0:0:0:
64,192,59120,1,0,0:0:0:0:
448,192,59120,1,0,0:0:0:0:
320,192,59120,1,0,0:0:0:0:
320,192,59190,1,0,0:0:0:0:
448,192,59190,1,0,0:0:0:0:
64,192,59190,1,0,0:0:0:0:
192,192,59190,1,0,0:0:0:0:
192,192,59259,1,0,0:0:0:0:
64,192,59259,1,0,0:0:0:0:
448,192,59259,1,0,0:0:0:0:
320,192,59259,1,0,0:0:0:0:
192,192,59329,1,0,0:0:0:0:
320,192,59329,1,0,0:0:0:0:
448,192,59329,1,0,0:0:0:0:
64,192,59329,1,0,0:0:0:0:
64,192,59398,1,0,0:0:0:0:
192,192,59398,1,0,0:0:0:0:
320,192,59398,1,0,0:0:0:0:
448,192,59398,1,0,0:0:0:0:
448,192,59468,1,0,0:0:0:0:
320,192,59468,1,0,0:0:0:0:
192,192,59468,1,0,0:0:0:0:
64,192,59468,1,0,0:0:0:0:
64,192,59537,1,0,0:0:0:0:
192,192,59537,1,0,0:0:0:0:
320,192,59537,1,0,0:0:0:0:
448,192,59537,1,0,0:0:0:0:
448,192,59607,1,0,0:0:0:0:
320,192,59607,1,0,0:0:0:0:
192,192,59607,1,0,0:0:0:0:
64,192,59607,1,0,0:0:0:0:
448,192,59676,1,0,0:0:0:0:
64,192,59676,1,0,0:0:0:0:
192,192,59676,1,0,0:0:0:0:
320,192,59676,1,0,0:0:0:0:
320,192,59745,1,0,0:0:0:0:
448,192,59745,1,0,0:0:0:0:
64,192,59745,1,0,0:0:0:0:
192,192,59745,1,0,0:0:0:0:
192,192,59815,1,0,0:0:0:0:
64,192,59815,1,0,0:0:0:0:
448,192,59815,1,0,0:0:0:0:
320,192,59815,1,0,0:0:0:0:
320,192,59884,1,0,0:0:0:0:
448,192,59884,1,0,0:0:0:0:
64,192,59884,1,0,0:0:0:0:
192,192,59884,1,0,0:0:0:0:
192,192,59954,1,0,0:0:0:0:
64,192,59954,1,0,0:0:0:0:
448,192,59954,1,0,0:0:0:0:
320,192,59954,1,0,0:0:0:0:
192,192,60023,1,0,0:0:0:0:
320,192,60023,1,0,0:0:0:0:
448,192,60023,1,0,0:0:0:0:
64,192,60023,1,0,0:0:0:0:
64,192,60093,1,0,0:0:0:0:
192,192,60093,1,0,0:0:0:0:
320,192,60093,1,0,0:0:0:0:
448,192,60093,1,0,0:0:0:0:
448,192,60162,1,0,0:0:0:0:
320,192,60162,1,0,0:0:0:0:
192,192,60162,1,0,0:0:0:0:
64,192,60162,1,0,0:0:0:0:
64,192,60232,1,0,0:0:0:0:
192,192,60232,1,0,0:0:0:0:
320,192,60232,1,0,0:0:0:0:
448,192,60232,1,0,0:0:0:0:
448,192,60301,1,0,0:0:0:0:
320,192,60301,1,0,0:0:0:0:
192,192,60301,1,0,0:0:0:0:
64,192,60301,1,0,0:0:0:0:
448,192,60370,1,0,0:0:0:0:
64,192,60370,1,0,0:0:0:0:
192,192,60370,1,0,0:0:0:0:
320,192,60370,1,0,0:0:0:0:
320,192,60440,1,0,0:0:0:0:
448,192,60440,1,0,0:0:0:0:
64,192,60440,1,0,0:0:0:0:
192,192,60440,1,0,0:0:0:0:
192,192,60509,1,0,0:0:0:0:
64,192,60509,1,0,0:0:0:0:
448,192,60509,1,0,0:0:0:0:
320,192,60509,1,0,0:0:0:0:
64,192,60579,1,0,0:0:0:0:
192,192,60579,1,0,0:0:0:0:
320,192,60579,1,0,0:0:0:0:
448,192,60579,1,0,0:0:0:0:
192,192,60648,1,0,0:0:0:0:
64,192,60648,1,0,0:0:0:0:
448,192,60648,1,0,0:0:0:0:
448,192,60787,1,0,0:0:0:0:
320,192,60787,1,0,0:0:0:0:
64,192,60787,1,0,0:0:0:0:
192,192,60926,1,0,0:0:0:0:
64,192,60926,1,0,0:0:0:0:
320,192,60926,1,0,0:0:0:0:
192,192,61065,1,0,0:0:0:0:
320,192,61065,1,0,0:0:0:0:
448,192,61065,1,0,0:0:0:0:
448,192,61204,1,0,0:0:0:0:
64,192,61204,1,0,0:0:0:0:
448,192,61482,1,0,0:0:0:0:
320,192,61482,1,0,0:0:0:0:
192,192,61759,1,0,0:0:0:0:
64,192,61759,1,0,0:0:0:0:
320,192,61898,1,0,0:0:0:0:
448,192,61898,1,0,0:0:0:0:
64,192,62037,1,0,0:0:0:0:
192,192,62176,1,0,0:0:0:0:
320,192,62176,1,0,0:0:0:0:
448,192,62176,1,0,0:0:0:0:
448,192,62315,1,0,0:0:0:0:
192,192,62454,1,0,0:0:0:0:
64,192,62454,1,0,0:0:0:0:
192,192,62593,1,0,0:0:0:0:
320,192,62593,1,0,0:0:0:0:
320,192,62732,1,0,0:0:0:0:
448,192,62732,1,0,0:0:0:0:
64,192,62732,1,0,0:0:0:0:
448,192,62870,1,0,0:0:0:0:
192,192,63009,1,0,0:0:0:0:
64,192,63009,1,0,0:0:0:0:
320,192,63148,1,0,0:0:0:0:
192,192,63148,1,0,0:0:0:0:
64,192,63287,1,0,0:0:0:0:
320,192,63426,1,0,0:0:0:0:
448,192,63426,1,0,0:0:0:0:
192,192,63565,1,0,0:0:0:0:
64,192,63704,1,0,0:0:0:0:
320,192,63843,1,0,0:0:0:0:
448,192,63843,1,0,0:0:0:0:
192,192,63982,1,0,0:0:0:0:
320,192,63982,1,0,0:0:0:0:
64,192,64120,1,0,0:0:0:0:
320,192,64190,1,0,0:0:0:0:
448,192,64190,1,0,0:0:0:0:
192,192,64259,1,0,0:0:0:0:
64,192,64259,1,0,0:0:0:0:
192,192,64398,1,0,0:0:0:0:
320,192,64398,1,0,0:0:0:0:
320,192,64537,1,0,0:0:0:0:
448,192,64537,1,0,0:0:0:0:
64,192,64537,1,0,0:0:0:0:
192,192,64815,1,0,0:0:0:0:
320,192,64815,1,0,0:0:0:0:
448,192,64815,1,0,0:0:0:0:
64,192,65093,1,0,0:0:0:0:
192,192,65093,1,0,0:0:0:0:
320,192,65093,1,0,0:0:0:0:
192,192,65370,128,0,65579:0:0:0:0:
448,192,65648,1,0,0:0:0:0:
64,192,65648,1,0,0:0:0:0:
192,192,65648,1,0,0:0:0:0:
320,192,65648,1,0,0:0:0:0:
320,192,65718,1,0,0:0:0:0:
448,192,65718,1,0,0:0:0:0:
64,192,65718,1,0,0:0:0:0:
192,192,65718,1,0,0:0:0:0:
192,192,65787,1,0,0:0:0:0:
64,192,65787,1,0,0:0:0:0:
448,192,65787,1,0,0:0:0:0:
320,192,65787,1,0,0:0:0:0:
320,192,65857,1,0,0:0:0:0:
448,192,65857,1,0,0:0:0:0:
64,192,65857,1,0,0:0:0:0:
192,192,65857,1,0,0:0:0:0:
192,192,65926,1,0,0:0:0:0:
64,192,65926,1,0,0:0:0:0:
448,192,65926,1,0,0:0:0:0:
320,192,65926,1,0,0:0:0:0:
192,192,65995,1,0,0:0:0:0:
320,192,65995,1,0,0:0:0:0:
448,192,65995,1,0,0:0:0:0:
64,192,65995,1,0,0:0:0:0:
64,192,66065,1,0,0:0:0:0:
192,192,66065,1,0,0:0:0:0:
320,192,66065,1,0,0:0:0:0:
448,192,66065,1,0,0:0:0:0:
448,192,66134,1,0,0:0:0:0:
320,192,66134,1,0,0:0:0:0:
192,192,66134,1,0,0:0:0:0:
64,192,66134,1,0,0:0:0:0:
64,192,66204,1,0,0:0:0:0:
192,192,66204,1,0,0:0:0:0:
320,192,66204,1,0,0:0:0:0:
448,192,66204,1,0,0:0:0:0:
448,192,66273,1,0,0:0:0:0:
320,192,66273,1,0,0:0:0:0:
192,192,66273,1,0,0:0:0:0:
64,192,66273,1,0,0:0:0:0:
448,192,66343,1,0,0:0:0:0:
64,192,66343,1,0,0:0:0:0:
192,192,66343,1,0,0:0:0:0:
320,192,66343,1,0,0:0:0:0:
320,192,66412,1,0,0:0:0:0:
448,192,66412,1,0,0:0:0:0:
64,192,66412,1,0,0:0:0:0:
192,192,66412,1,0,0:0:0:0:
192,192,66482,1,0,0:0:0:0:
64,192,66482,1,0,0:0:0:0:
448,192,66482,1,0,0:0:0:0:
320,192,66482,1,0,0:0:0:0:
320,192,66551,1,0,0:0:0:0:
448,192,66551,1,0,0:0:0:0:
64,192,66551,1,0,0:0:0:0:
192,192,66551,1,0,0:0:0:0:
192,192,66620,1,0,0:0:0:0:
64,192,66620,1,0,0:0:0:0:
448,192,66620,1,0,0:0:0:0:
320,192,66620,1,0,0:0:0:0:
192,192,66690,1,0,0:0:0:0:
320,192,66690,1,0,0:0:0:0:
448,192,66690,1,0,0:0:0:0:
64,192,66690,1,0,0:0:0:0:
64,192,66759,1,0,0:0:0:0:
192,192,66759,1,0,0:0:0:0:
320,192,66759,1,0,0:0:0:0:
448,192,66759,1,0,0:0:0:0:
448,192,66829,1,0,0:0:0:0:
320,192,66829,1,0,0:0:0:0:
192,192,66829,1,0,0:0:0:0:
64,192,66829,1,0,0:0:0:0:
64,192,66898,1,0,0:0:0:0:
192,192,66898,1,0,0:0:0:0:
320,192,66898,1,0,0:0:0:0:
448,192,66898,1,0,0:0:0:0:
448,192,66968,1,0,0:0:0:0:
320,192,66968,1,0,0:0:0:0:
192,192,66968,1,0,0:0:0:0:
64,192,66968,1,0,0:0:0:0:
448,192,67037,1,0,0:0:0:0:
64,192,67037,1,0,0:0:0:0:
192,192,67037,1,0,0:0:0:0:
320,192,67037,1,0,0:0:0:0:
320,192,67107,1,0,0:0:0:0:
448,192,67107,1,0,0:0:0:0:
64,192,67107,1,0,0:0:0:0:
192,192,67107,1,0,0:0:0:0:
192,192,67176,1,0,0:0:0:0:
64,192,67176,1,0,0:0:0:0:
448,192,67176,1,0,0:0:0:0:
320,192,67176,1,0,0:0:0:0:
64,192,67315,1,0,0:0:0:0:
320,192,67315,1,0,0:0:0:0:
448,192,67315,1,0,0:0:0:0:
192,192,67315,1,0,0:0:0:0:
320,192,67454,1,0,0:0:0:0:
192,192,67454,1,0,0:0:0:0:
64,192,67454,1,0,0:0:0:0:
448,192,67454,1,0,0:0:0:0:
320,192,67593,1,0,0:0:0:0:
192,192,67593,1,0,0:0:0:0:
448,192,67593,1,0,0:0:0:0:
64,192,67593,1,0,0:0:0:0:
64,192,67732,1,0,0:0:0:0:
192,192,67732,1,0,0:0:0:0:
448,192,67732,1,0,0:0:0:0:
320,192,67732,1,0,0:0:0:0:
192,192,67870,1,0,0:0:0:0:
320,192,67870,1,0,0:0:0:0:
448,192,67870,1,0,0:0:0:0:
64,192,67870,1,0,0:0:0:0:
64,192,67940,1,0,0:0:0:0:
192,192,67940,1,0,0:0:0:0:
320,192,67940,1,0,0:0:0:0:
448,192,67940,1,0,0:0:0:0:
448,192,68009,1,0,0:0:0:0:
320,192,68009,1,0,0:0:0:0:
192,192,68009,1,0,0:0:0:0:
64,192,68009,1,0,0:0:0:0:
64,192,68079,1,0,0:0:0:0:
192,192,68079,1,0,0:0:0:0:
320,192,68079,1,0,0:0:0:0:
448,192,68079,1,0,0:0:0:0:
448,192,68148,1,0,0:0:0:0:
320,192,68148,1,0,0:0:0:0:
192,192,68148,1,0,0:0:0:0:
64,192,68148,1,0,0:0:0:0:
448,192,68218,1,0,0:0:0:0:
64,192,68218,1,0,0:0:0:0:
192,192,68218,1,0,0:0:0:0:
320,192,68218,1,0,0:0:0:0:
320,192,68287,1,0,0:0:0:0:
448,192,68287,1,0,0:0:0:0:
64,192,68287,1,0,0:0:0:0:
192,192,68287,1,0,0:0:0:0:
192,192,68357,1,0,0:0:0:0:
64,192,68357,1,0,0:0:0:0:
448,192,68357,1,0,0:0:0:0:
320,192,68357,1,0,0:0:0:0:
320,192,68426,1,0,0:0:0:0:
448,192,68426,1,0,0:0:0:0:
64,192,68426,1,0,0:0:0:0:
192,192,68426,1,0,0:0:0:0:
192,192,68495,1,0,0:0:0:0:
64,192,68495,1,0,0:0:0:0:
448,192,68495,1,0,0:0:0:0:
320,192,68495,1,0,0:0:0:0:
192,192,68565,1,0,0:0:0:0:
320,192,68565,1,0,0:0:0:0:
448,192,68565,1,0,0:0:0:0:
64,192,68565,1,0,0:0:0:0:
64,192,68634,1,0,0:0:0:0:
192,192,68634,1,0,0:0:0:0:
320,192,68634,1,0,0:0:0:0:
448,192,68634,1,0,0:0:0:0:
448,192,68704,1,0,0:0:0:0:
320,192,68704,1,0,0:0:0:0:
192,192,68704,1,0,0:0:0:0:
64,192,68704,1,0,0:0:0:0:
64,192,68773,1,0,0:0:0:0:
192,192,68773,1,0,0:0:0:0:
320,192,68773,1,0,0:0:0:0:
448,192,68773,1,0,0:0:0:0:
448,192,68843,1,0,0:0:0:0:
320,192,68843,1,0,0:0:0:0:
192,192,68843,1,0,0:0:0:0:
64,192,68843,1,0,0:0:0:0:
448,192,68912,1,0,0:0:0:0:
64,192,68912,1,0,0:0:0:0:
192,192,68912,1,0,0:0:0:0:
320,192,68912,1,0,0:0:0:0:
320,192,68982,1,0,0:0:0:0:
448,192,68982,1,0,0:0:0:0:
64,192,68982,1,0,0:0:0:0:
192,192,68982,1,0,0:0:0:0:
192,192,69051,1,0,0:0:0:0:
64,192,69051,1,0,0:0:0:0:
448,192,69051,1,0,0:0:0:0:
320,192,69051,1,0,0:0:0:0:
320,192,69120,1,0,0:0:0:0:
448,192,69120,1,0,0:0:0:0:
64,192,69120,1,0,0:0:0:0:
192,192,69120,1,0,0:0:0:0:
192,192,69190,1,0,0:0:0:0:
64,192,69190,1,0,0:0:0:0:
448,192,69190,1,0,0:0:0:0:
320,192,69190,1,0,0:0:0:0:
192,192,69259,1,0,0:0:0:0:
320,192,69259,1,0,0:0:0:0:
448,192,69259,1,0,0:0:0:0:
64,192,69259,1,0,0:0:0:0:
64,192,69329,1,0,0:0:0:0:
192,192,69329,1,0,0:0:0:0:
320,192,69329,1,0,0:0:0:0:
448,192,69329,1,0,0:0:0:0:
448,192,69398,1,0,0:0:0:0:
320,192,69398,1,0,0:0:0:0:
192,192,69398,1,0,0:0:0:0:
64,192,69398,1,0,0:0:0:0:
448,192,69537,1,0,0:0:0:0:
320,192,69537,1,0,0:0:0:0:
64,192,69537,1,0,0:0:0:0:
192,192,69537,1,0,0:0:0:0:
320,192,69676,1,0,0:0:0:0:
448,192,69676,1,0,0:0:0:0:
192,192,69676,1,0,0:0:0:0:
64,192,69676,1,0,0:0:0:0:
448,192,69815,1,0,0:0:0:0:
192,192,69815,1,0,0:0:0:0:
64,192,69815,1,0,0:0:0:0:
320,192,69815,1,0,0:0:0:0:
192,192,69954,1,0,0:0:0:0:
64,192,69954,1,0,0:0:0:0:
320,192,69954,1,0,0:0:0:0:
448,192,69954,1,0,0:0:0:0:
64,192,70370,1,0,0:0:0:0:
192,192,70370,1,0,0:0:0:0:
448,192,70370,1,0,0:0:0:0:
320,192,70370,1,0,0:0:0:0:
448,192,70440,1,0,0:0:0:0:
320,192,70440,1,0,0:0:0:0:
192,192,70440,1,0,0:0:0:0:
64,192,70440,1,0,0:0:0:0:
64,192,70509,1,0,0:0:0:0:
192,192,70509,1,0,0:0:0:0:
320,192,70509,1,0,0:0:0:0:
448,192,70509,1,0,0:0:0:0:
448,192,70926,1,0,0:0:0:0:
320,192,70926,1,0,0:0:0:0:
192,192,70926,1,0,0:0:0:0:
64,192,70926,1,0,0:0:0:0:
64,192,70995,1,0,0:0:0:0:
192,192,70995,1,0,0:0:0:0:
320,192,70995,1,0,0:0:0:0:
448,192,70995,1,0,0:0:0:0:
448,192,71065,1,0,0:0:0:0:
320,192,71065,1,0,0:0:0:0:
192,192,71065,1,0,0:0:0:0:
64,192,71065,1,0,0:0:0:0:
448,192,71343,1,0,0:0:0:0:
320,192,71343,1,0,0:0:0:0:
192,192,71343,1,0,0:0:0:0:
64,192,71343,1,0,0:0:0:0:
448,192,71482,1,0,0:0:0:0:
320,192,71482,1,0,0:0:0:0:
192,192,71482,1,0,0:0:0:0:
64,192,71482,1,0,0:0:0:0:
64,192,71551,1,0,0:0:0:0:
192,192,71551,1,0,0:0:0:0:
320,192,71551,1,0,0:0:0:0:
448,192,71551,1,0,0:0:0:0:
448,192,71620,1,0,0:0:0:0:
320,192,71620,1,0,0:0:0:0:
64,192,71620,1,0,0:0:0:0:
192,192,71620,1,0,0:0:0:0:
64,192,71690,1,0,0:0:0:0:
192,192,71690,1,0,0:0:0:0:
320,192,71690,1,0,0:0:0:0:
448,192,71690,1,0,0:0:0:0:
448,192,71759,1,0,0:0:0:0:
320,192,71759,1,0,0:0:0:0:
192,192,71759,1,0,0:0:0:0:
64,192,71759,1,0,0:0:0:0:
192,192,72037,1,0,0:0:0:0:
320,192,72037,1,0,0:0:0:0:
448,192,72037,1,0,0:0:0:0:
448,192,72176,1,0,0:0:0:0:
64,192,72176,1,0,0:0:0:0:
320,192,72315,1,0,0:0:0:0:
192,192,72315,1,0,0:0:0:0:
64,192,72315,1,0,0:0:0:0:
192,192,72454,1,0,0:0:0:0:
320,192,72523,1,0,0:0:0:0:
448,192,72523,1,0,0:0:0:0:
192,192,72593,1,0,0:0:0:0:
64,192,72593,1,0,0:0:0:0:
64,192,72732,1,0,0:0:0:0:
448,192,72732,1,0,0:0:0:0:
192,192,72870,1,0,0:0:0:0:
320,192,72870,1,0,0:0:0:0:
448,192,72870,1,0,0:0:0:0:
320,192,73009,1,0,0:0:0:0:
192,192,73079,1,0,0:0:0:0:
64,192,73079,1,0,0:0:0:0:
448,192,73148,1,0,0:0:0:0:
320,192,73148,1,0,0:0:0:0:
64,192,73287,1,0,0:0:0:0:
192,192,73287,1,0,0:0:0:0:
320,192,73426,1,0,0:0:0:0:
448,192,73426,1,0,0:0:0:0:
64,192,73426,1,0,0:0:0:0:
192,192,73704,1,0,0:0:0:0:
64,192,73704,1,0,0:0:0:0:
320,192,73704,1,0,0:0:0:0:
448,192,73982,1,0,0:0:0:0:
320,192,73982,1,0,0:0:0:0:
192,192,73982,1,0,0:0:0:0:
64,192,74259,1,0,0:0:0:0:
192,192,74259,1,0,0:0:0:0:
320,192,74259,1,0,0:0:0:0:
448,192,74259,1,0,0:0:0:0:
