osu file format v14

[General]
AudioFilename: kai09.mp3
AudioLeadIn: 0
PreviewTime: 58461
Countdown: 1
SampleSet: None
StackLeniency: 0.7
Mode: 3
LetterboxInBreaks: 0
SpecialStyle: 0
WidescreenStoryboard: 0

[Editor]
DistanceSpacing: 0.8
BeatDivisor: 4
GridSize: 8
TimelineZoom: 2.1

[Metadata]
Title:4k Vibro Pack 3
TitleUnicode:4k Vibro Pack 3
Artist:Various Artists
ArtistUnicode:Various Artists
Creator:Staravia
Version:Kai (Crazy Vibro) 0.9x
Source:
Tags:mapset jackhammer vibration
BeatmapID:1216206
BeatmapSetID:572754

[Difficulty]
HPDrainRate:4
CircleSize:4
OverallDifficulty:4
ApproachRate:5
SliderMultiplier:1.4
SliderTickRate:1

[Events]
//Background and Video events
0,0,"AEsVPzO6Hkk.jpg",0,0
//Break Periods
//Storyboard Layer 0 (Background)
//Storyboard Layer 1 (Fail)
//Storyboard Layer 2 (Pass)
//Storyboard Layer 3 (Foreground)
//Storyboard Sound Samples

[TimingPoints]
275,303.030303030303,4,3,0,30,1,0
58456,-100,4,3,0,30,0,1
77850,-66.6666666666667,4,3,0,30,0,0
77888,-200,4,3,0,30,0,0
78077,-100,4,3,0,30,0,1
99062,-100,4,3,0,30,0,0

[HitObjects]
64,192,275,5,0,0:0:0:0:
192,192,275,1,0,0:0:0:0:
448,192,275,1,0,0:0:0:0:
320,192,426,1,0,0:0:0:0:
192,192,578,1,0,0:0:0:0:
448,192,578,1,0,0:0:0:0:
64,192,729,1,0,0:0:0:0:
448,192,729,1,0,0:0:0:0:
64,192,881,1,0,0:0:0:0:
192,192,1032,1,0,0:0:0:0:
320,192,1184,1,0,0:0:0:0:
448,192,1184,1,0,0:0:0:0:
64,192,1335,1,0,0:0:0:0:
192,192,1487,1,0,0:0:0:0:
64,192,1638,1,0,0:0:0:0:
448,192,1638,1,0,0:0:0:0:
448,192,1790,1,0,0:0:0:0:
320,192,1941,1,0,0:0:0:0:
192,192,2093,1,0,0:0:0:0:
64,192,2093,1,0,0:0:0:0:
64,192,2244,1,0,0:0:0:0:
192,192,2396,1,0,0:0:0:0:
448,192,2396,1,0,0:0:0:0:
320,192,2547,1,0,0:0:0:0:
448,192,2699,1,0,0:0:0:0:
64,192,2699,1,0,0:0:0:0:
192,192,2850,1,0,0:0:0:0:
448,192,3002,1,0,0:0:0:0:
320,192,3002,1,0,0:0:0:0:
448,192,3153,1,0,0:0:0:0:
192,192,3153,1,0,0:0:0:0:
64,192,3305,1,0,0:0:0:0:
320,192,3456,1,0,0:0:0:0:
448,192,3608,1,0,0:0:0:0:
64,192,3608,1,0,0:0:0:0:
192,192,3759,1,0,0:0:0:0:
320,192,3911,1,0,0:0:0:0:
448,192,3911,1,0,0:0:0:0:
192,192,4062,1,0,0:0:0:0:
64,192,4062,1,0,0:0:0:0:
448,192,4214,1,0,0:0:0:0:
320,192,4365,1,0,0:0:0:0:
64,192,4517,1,0,0:0:0:0:
192,192,4517,1,0,0:0:0:0:
64,192,4668,1,0,0:0:0:0:
320,192,4820,1,0,0:0:0:0:
192,192,4820,1,0,0:0:0:0:
320,192,4971,1,0,0:0:0:0:
448,192,5123,1,0,0:0:0:0:
192,192,5123,1,0,0:0:0:0:
64,192,5123,1,0,0:0:0:0:
64,192,5274,1,0,0:0:0:0:
448,192,5426,1,0,0:0:0:0:
320,192,5426,1,0,0:0:0:0:
320,192,5578,1,0,0:0:0:0:
192,192,5578,1,0,0:0:0:0:
64,192,5729,1,0,0:0:0:0:
448,192,5881,1,0,0:0:0:0:
320,192,6032,1,0,0:0:0:0:
192,192,6032,1,0,0:0:0:0:
64,192,6184,1,0,0:0:0:0:
192,192,6335,1,0,0:0:0:0:
64,192,6335,1,0,0:0:0:0:
320,192,6487,1,0,0:0:0:0:
448,192,6487,1,0,0:0:0:0:
64,192,6638,1,0,0:0:0:0:
192,192,6790,1,0,0:0:0:0:
448,192,6941,1,0,0:0:0:0:
192,192,6941,1,0,0:0:0:0:
320,192,7093,1,0,0:0:0:0:
192,192,7244,1,0,0:0:0:0:
64,192,7396,1,0,0:0:0:0:
192,192,7547,1,0,0:0:0:0:
64,192,7547,1,0,0:0:0:0:
448,192,7699,1,0,0:0:0:0:
320,192,7850,1,0,0:0:0:0:
192,192,7850,1,0,0:0:0:0:
192,192,8002,1,0,0:0:0:0:
448,192,8002,1,0,0:0:0:0:
64,192,8153,1,0,0:0:0:0:
192,192,8305,1,0,0:0:0:0:
320,192,8305,1,0,0:0:0:0:
320,192,8456,1,0,0:0:0:0:
192,192,8608,1,0,0:0:0:0:
64,192,8608,1,0,0:0:0:0:
448,192,8608,1,0,0:0:0:0:
64,192,8759,1,0,0:0:0:0:
192,192,8911,1,0,0:0:0:0:
320,192,8911,1,0,0:0:0:0:
448,192,8911,1,0,0:0:0:0:
192,192,9062,1,0,0:0:0:0:
320,192,9214,1,0,0:0:0:0:
448,192,9214,1,0,0:0:0:0:
64,192,9214,1,0,0:0:0:0:
448,192,9365,1,0,0:0:0:0:
192,192,9517,1,0,0:0:0:0:
320,192,9517,1,0,0:0:0:0:
192,192,9668,1,0,0:0:0:0:
64,192,9668,1,0,0:0:0:0:
448,192,9668,1,0,0:0:0:0:
192,192,9820,1,0,0:0:0:0:
320,192,9820,1,0,0:0:0:0:
320,192,9971,1,0,0:0:0:0:
448,192,9971,1,0,0:0:0:0:
64,192,9971,1,0,0:0:0:0:
192,192,10047,1,0,0:0:0:0:
320,192,10123,1,0,0:0:0:0:
448,192,10199,1,0,0:0:0:0:
192,192,10275,1,0,0:0:0:0:
64,192,10275,1,0,0:0:0:0:
448,192,10350,1,0,0:0:0:0:
320,192,10426,1,0,0:0:0:0:
192,192,10502,1,0,0:0:0:0:
320,192,10578,1,0,0:0:0:0:
448,192,10578,1,0,0:0:0:0:
64,192,10653,1,0,0:0:0:0:
192,192,10729,1,0,0:0:0:0:
320,192,10805,1,0,0:0:0:0:
192,192,10881,1,0,0:0:0:0:
64,192,10881,1,0,0:0:0:0:
448,192,10956,1,0,0:0:0:0:
320,192,11032,1,0,0:0:0:0:
192,192,11032,1,0,0:0:0:0:
64,192,11108,1,0,0:0:0:0:
448,192,11108,1,0,0:0:0:0:
192,192,11184,1,0,0:0:0:0:
320,192,11259,1,0,0:0:0:0:
448,192,11335,1,0,0:0:0:0:
64,192,11335,1,0,0:0:0:0:
320,192,11411,1,0,0:0:0:0:
192,192,11487,1,0,0:0:0:0:
64,192,11562,1,0,0:0:0:0:
320,192,11638,1,0,0:0:0:0:
448,192,11638,1,0,0:0:0:0:
64,192,11714,1,0,0:0:0:0:
192,192,11790,1,0,0:0:0:0:
320,192,11790,1,0,0:0:0:0:
448,192,11865,1,0,0:0:0:0:
64,192,11941,1,0,0:0:0:0:
320,192,12017,1,0,0:0:0:0:
64,192,12093,1,0,0:0:0:0:
192,192,12093,1,0,0:0:0:0:
448,192,12168,1,0,0:0:0:0:
320,192,12244,1,0,0:0:0:0:
192,192,12320,1,0,0:0:0:0:
320,192,12396,1,0,0:0:0:0:
448,192,12396,1,0,0:0:0:0:
64,192,12471,1,0,0:0:0:0:
192,192,12547,1,0,0:0:0:0:
320,192,12623,1,0,0:0:0:0:
448,192,12699,1,0,0:0:0:0:
64,192,12699,1,0,0:0:0:0:
192,192,12775,1,0,0:0:0:0:
320,192,12850,1,0,0:0:0:0:
448,192,12926,1,0,0:0:0:0:
192,192,13002,1,0,0:0:0:0:
64,192,13002,1,0,0:0:0:0:
320,192,13078,1,0,0:0:0:0:
192,192,13153,1,0,0:0:0:0:
64,192,13229,1,0,0:0:0:0:
320,192,13305,1,0,0:0:0:0:
448,192,13305,1,0,0:0:0:0:
64,192,13381,1,0,0:0:0:0:
192,192,13456,1,0,0:0:0:0:
320,192,13456,1,0,0:0:0:0:
448,192,13532,1,0,0:0:0:0:
64,192,13608,1,0,0:0:0:0:
192,192,13684,1,0,0:0:0:0:
320,192,13759,1,0,0:0:0:0:
448,192,13759,1,0,0:0:0:0:
64,192,13835,1,0,0:0:0:0:
448,192,13911,1,0,0:0:0:0:
320,192,13987,1,0,0:0:0:0:
192,192,14062,1,0,0:0:0:0:
64,192,14062,1,0,0:0:0:0:
448,192,14138,1,0,0:0:0:0:
320,192,14214,1,0,0:0:0:0:
192,192,14214,1,0,0:0:0:0:
64,192,14290,1,0,0:0:0:0:
448,192,14365,1,0,0:0:0:0:
320,192,14441,1,0,0:0:0:0:
64,192,14517,1,0,0:0:0:0:
192,192,14517,1,0,0:0:0:0:
448,192,14593,1,0,0:0:0:0:
320,192,14668,1,0,0:0:0:0:
64,192,14744,1,0,0:0:0:0:
192,192,14820,1,0,0:0:0:0:
448,192,14820,1,0,0:0:0:0:
320,192,14896,1,0,0:0:0:0:
448,192,14971,1,0,0:0:0:0:
192,192,15047,1,0,0:0:0:0:
64,192,15123,1,0,0:0:0:0:
320,192,15123,1,0,0:0:0:0:
448,192,15199,1,0,0:0:0:0:
192,192,15275,1,0,0:0:0:0:
64,192,15350,1,0,0:0:0:0:
320,192,15426,1,0,0:0:0:0:
448,192,15426,1,0,0:0:0:0:
64,192,15502,1,0,0:0:0:0:
192,192,15578,1,0,0:0:0:0:
320,192,15653,1,0,0:0:0:0:
448,192,15729,1,0,0:0:0:0:
64,192,15729,1,0,0:0:0:0:
192,192,15805,1,0,0:0:0:0:
320,192,15881,1,0,0:0:0:0:
64,192,15881,1,0,0:0:0:0:
448,192,15956,1,0,0:0:0:0:
192,192,16032,1,0,0:0:0:0:
320,192,16108,1,0,0:0:0:0:
192,192,16184,1,0,0:0:0:0:
64,192,16184,1,0,0:0:0:0:
448,192,16259,1,0,0:0:0:0:
320,192,16335,1,0,0:0:0:0:
192,192,16411,1,0,0:0:0:0:
448,192,16487,1,0,0:0:0:0:
64,192,16487,1,0,0:0:0:0:
192,192,16562,1,0,0:0:0:0:
320,192,16638,1,0,0:0:0:0:
448,192,16638,1,0,0:0:0:0:
64,192,16714,1,0,0:0:0:0:
192,192,16790,1,0,0:0:0:0:
320,192,16865,1,0,0:0:0:0:
448,192,16941,1,0,0:0:0:0:
192,192,17017,1,0,0:0:0:0:
320,192,17093,1,0,0:0:0:0:
64,192,17168,1,0,0:0:0:0:
320,192,17244,1,0,0:0:0:0:
448,192,17244,1,0,0:0:0:0:
192,192,17320,1,0,0:0:0:0:
320,192,17396,1,0,0:0:0:0:
192,192,17471,1,0,0:0:0:0:
320,192,17547,1,0,0:0:0:0:
64,192,17547,1,0,0:0:0:0:
448,192,17623,1,0,0:0:0:0:
192,192,17699,1,0,0:0:0:0:
320,192,17774,1,0,0:0:0:0:
448,192,17850,1,0,0:0:0:0:
64,192,17850,1,0,0:0:0:0:
192,192,17926,1,0,0:0:0:0:
320,192,18002,1,0,0:0:0:0:
448,192,18078,1,0,0:0:0:0:
192,192,18153,1,0,0:0:0:0:
64,192,18153,1,0,0:0:0:0:
448,192,18229,1,0,0:0:0:0:
320,192,18305,1,0,0:0:0:0:
192,192,18305,1,0,0:0:0:0:
64,192,18381,1,0,0:0:0:0:
320,192,18456,1,0,0:0:0:0:
448,192,18456,1,0,0:0:0:0:
192,192,18532,1,0,0:0:0:0:
64,192,18608,1,0,0:0:0:0:
448,192,18608,1,0,0:0:0:0:
320,192,18684,1,0,0:0:0:0:
192,192,18759,1,0,0:0:0:0:
64,192,18759,1,0,0:0:0:0:
448,192,18835,1,0,0:0:0:0:
320,192,18911,1,0,0:0:0:0:
192,192,18911,1,0,0:0:0:0:
64,192,18987,1,0,0:0:0:0:
320,192,19062,1,0,0:0:0:0:
448,192,19062,1,0,0:0:0:0:
192,192,19138,1,0,0:0:0:0:
64,192,19214,1,0,0:0:0:0:
320,192,19214,1,0,0:0:0:0:
448,192,19290,1,0,0:0:0:0:
192,192,19365,1,0,0:0:0:0:
64,192,19365,1,0,0:0:0:0:
448,192,19441,1,0,0:0:0:0:
320,192,19517,1,0,0:0:0:0:
192,192,19517,1,0,0:0:0:0:
64,192,19593,1,0,0:0:0:0:
192,192,19668,1,0,0:0:0:0:
448,192,19668,1,0,0:0:0:0:
320,192,19668,1,0,0:0:0:0:
448,192,19820,1,0,0:0:0:0:
320,192,19971,1,0,0:0:0:0:
192,192,19971,1,0,0:0:0:0:
64,192,20123,1,0,0:0:0:0:
320,192,20123,1,0,0:0:0:0:
448,192,20274,1,0,0:0:0:0:
192,192,20274,1,0,0:0:0:0:
448,192,20426,1,0,0:0:0:0:
192,192,20578,1,0,0:0:0:0:
64,192,20578,1,0,0:0:0:0:
64,192,20729,1,0,0:0:0:0:
448,192,20729,1,0,0:0:0:0:
192,192,20881,1,0,0:0:0:0:
320,192,20881,1,0,0:0:0:0:
320,192,21032,1,0,0:0:0:0:
192,192,21184,1,0,0:0:0:0:
64,192,21184,1,0,0:0:0:0:
448,192,21335,1,0,0:0:0:0:
320,192,21335,1,0,0:0:0:0:
448,192,21487,1,0,0:0:0:0:
64,192,21487,1,0,0:0:0:0:
192,192,21638,1,0,0:0:0:0:
320,192,21638,1,0,0:0:0:0:
192,192,21790,1,0,0:0:0:0:
64,192,21790,1,0,0:0:0:0:
320,192,21941,1,0,0:0:0:0:
448,192,21941,1,0,0:0:0:0:
448,192,22093,1,0,0:0:0:0:
192,192,22093,1,0,0:0:0:0:
192,192,22244,1,0,0:0:0:0:
64,192,22396,1,0,0:0:0:0:
320,192,22396,1,0,0:0:0:0:
64,192,22547,1,0,0:0:0:0:
320,192,22699,1,0,0:0:0:0:
448,192,22699,1,0,0:0:0:0:
192,192,22850,1,0,0:0:0:0:
448,192,22850,1,0,0:0:0:0:
192,192,23002,1,0,0:0:0:0:
64,192,23002,1,0,0:0:0:0:
320,192,23153,1,0,0:0:0:0:
64,192,23153,1,0,0:0:0:0:
448,192,23305,1,0,0:0:0:0:
320,192,23456,1,0,0:0:0:0:
192,192,23456,1,0,0:0:0:0:
64,192,23456,1,0,0:0:0:0:
448,192,23608,1,0,0:0:0:0:
320,192,23608,1,0,0:0:0:0:
192,192,23759,1,0,0:0:0:0:
64,192,23759,1,0,0:0:0:0:
448,192,23759,1,0,0:0:0:0:
192,192,23911,1,0,0:0:0:0:
448,192,24062,1,0,0:0:0:0:
64,192,24062,1,0,0:0:0:0:
320,192,24062,128,0,24441:0:0:0:0:
192,192,24214,1,0,0:0:0:0:
64,192,24365,1,0,0:0:0:0:
192,192,24517,1,0,0:0:0:0:
320,192,24517,1,0,0:0:0:0:
448,192,24517,1,0,0:0:0:0:
448,192,24668,1,0,0:0:0:0:
192,192,24820,1,0,0:0:0:0:
64,192,24820,1,0,0:0:0:0:
320,192,24971,1,0,0:0:0:0:
192,192,24971,1,0,0:0:0:0:
448,192,25123,1,0,0:0:0:0:
64,192,25123,1,0,0:0:0:0:
320,192,25274,1,0,0:0:0:0:
192,192,25426,1,0,0:0:0:0:
320,192,25426,1,0,0:0:0:0:
192,192,25578,1,0,0:0:0:0:
64,192,25578,1,0,0:0:0:0:
320,192,25729,1,0,0:0:0:0:
448,192,25729,1,0,0:0:0:0:
448,192,25881,1,0,0:0:0:0:
192,192,26032,1,0,0:0:0:0:
320,192,26032,1,0,0:0:0:0:
64,192,26184,1,0,0:0:0:0:
320,192,26184,1,0,0:0:0:0:
192,192,26335,1,0,0:0:0:0:
320,192,26487,1,0,0:0:0:0:
448,192,26487,1,0,0:0:0:0:
64,192,26638,1,0,0:0:0:0:
192,192,26638,1,0,0:0:0:0:
64,192,26790,1,0,0:0:0:0:
448,192,26790,1,0,0:0:0:0:
320,192,26941,1,0,0:0:0:0:
448,192,26941,1,0,0:0:0:0:
320,192,27093,1,0,0:0:0:0:
64,192,27093,1,0,0:0:0:0:
192,192,27244,1,0,0:0:0:0:
64,192,27244,1,0,0:0:0:0:
320,192,27396,1,0,0:0:0:0:
448,192,27396,1,0,0:0:0:0:
192,192,27547,1,0,0:0:0:0:
320,192,27547,1,0,0:0:0:0:
64,192,27547,1,0,0:0:0:0:
64,192,27699,1,0,0:0:0:0:
448,192,27699,1,0,0:0:0:0:
192,192,27850,1,0,0:0:0:0:
320,192,27850,1,0,0:0:0:0:
448,192,28002,1,0,0:0:0:0:
192,192,28002,1,0,0:0:0:0:
64,192,28002,1,0,0:0:0:0:
320,192,28153,1,0,0:0:0:0:
448,192,28305,1,0,0:0:0:0:
64,192,28305,1,0,0:0:0:0:
320,192,28305,1,0,0:0:0:0:
192,192,28456,1,0,0:0:0:0:
320,192,28608,1,0,0:0:0:0:
64,192,28608,1,0,0:0:0:0:
192,192,28608,1,0,0:0:0:0:
448,192,28759,1,0,0:0:0:0:
448,192,28911,1,0,0:0:0:0:
192,192,28911,1,0,0:0:0:0:
320,192,28911,1,0,0:0:0:0:
64,192,29062,1,0,0:0:0:0:
192,192,29062,1,0,0:0:0:0:
192,192,29214,1,0,0:0:0:0:
64,192,29214,1,0,0:0:0:0:
320,192,29365,1,0,0:0:0:0:
448,192,29365,1,0,0:0:0:0:
192,192,29365,1,0,0:0:0:0:
320,192,29517,1,0,0:0:0:0:
448,192,29517,1,0,0:0:0:0:
448,192,29668,1,0,0:0:0:0:
64,192,29668,1,0,0:0:0:0:
320,192,29820,1,0,0:0:0:0:
192,192,29820,1,0,0:0:0:0:
320,192,29971,1,0,0:0:0:0:
192,192,29971,1,0,0:0:0:0:
64,192,30123,1,0,0:0:0:0:
320,192,30123,1,0,0:0:0:0:
192,192,30274,1,0,0:0:0:0:
64,192,30274,1,0,0:0:0:0:
320,192,30426,1,0,0:0:0:0:
448,192,30426,1,0,0:0:0:0:
192,192,30426,1,0,0:0:0:0:
448,192,30578,1,0,0:0:0:0:
192,192,30729,1,0,0:0:0:0:
64,192,30729,1,0,0:0:0:0:
320,192,30881,1,0,0:0:0:0:
448,192,30881,1,0,0:0:0:0:
320,192,31032,1,0,0:0:0:0:
192,192,31032,1,0,0:0:0:0:
64,192,31184,1,0,0:0:0:0:
64,192,31335,1,0,0:0:0:0:
192,192,31335,1,0,0:0:0:0:
320,192,31487,1,0,0:0:0:0:
448,192,31487,1,0,0:0:0:0:
320,192,31638,1,0,0:0:0:0:
192,192,31638,1,0,0:0:0:0:
448,192,31790,1,0,0:0:0:0:
64,192,31790,1,0,0:0:0:0:
64,192,31941,1,0,0:0:0:0:
320,192,31941,1,0,0:0:0:0:
192,192,32093,1,0,0:0:0:0:
448,192,32093,1,0,0:0:0:0:
448,192,32244,1,0,0:0:0:0:
320,192,32244,1,0,0:0:0:0:
192,192,32396,1,0,0:0:0:0:
64,192,32396,1,0,0:0:0:0:
320,192,32547,1,0,0:0:0:0:
64,192,32547,1,0,0:0:0:0:
448,192,32699,1,0,0:0:0:0:
192,192,32699,1,0,0:0:0:0:
320,192,32850,1,0,0:0:0:0:
448,192,32850,1,0,0:0:0:0:
64,192,32850,1,0,0:0:0:0:
192,192,33002,1,0,0:0:0:0:
320,192,33153,1,0,0:0:0:0:
448,192,33153,1,0,0:0:0:0:
192,192,33305,1,0,0:0:0:0:
64,192,33305,1,0,0:0:0:0:
320,192,33456,1,0,0:0:0:0:
448,192,33456,1,0,0:0:0:0:
64,192,33456,1,0,0:0:0:0:
192,192,33608,1,0,0:0:0:0:
320,192,33608,1,0,0:0:0:0:
320,192,33759,1,0,0:0:0:0:
192,192,33759,1,0,0:0:0:0:
192,192,33911,1,0,0:0:0:0:
448,192,33911,1,0,0:0:0:0:
192,192,34062,1,0,0:0:0:0:
448,192,34062,1,0,0:0:0:0:
320,192,34214,1,0,0:0:0:0:
64,192,34214,128,0,34668:0:0:0:0:
192,192,34233,1,0,0:0:0:0:
320,192,34517,1,0,0:0:0:0:
192,192,34517,1,0,0:0:0:0:
320,192,34668,1,0,0:0:0:0:
448,192,34668,1,0,0:0:0:0:
192,192,34820,1,0,0:0:0:0:
192,192,34971,1,0,0:0:0:0:
320,192,34971,1,0,0:0:0:0:
64,192,35123,1,0,0:0:0:0:
448,192,35123,1,0,0:0:0:0:
64,192,35274,1,0,0:0:0:0:
320,192,35426,1,0,0:0:0:0:
192,192,35426,1,0,0:0:0:0:
448,192,35578,1,0,0:0:0:0:
192,192,35729,1,0,0:0:0:0:
64,192,35729,1,0,0:0:0:0:
192,192,35881,1,0,0:0:0:0:
320,192,35881,1,0,0:0:0:0:
64,192,36032,1,0,0:0:0:0:
448,192,36032,1,0,0:0:0:0:
64,192,36184,1,0,0:0:0:0:
448,192,36184,1,0,0:0:0:0:
320,192,36335,1,0,0:0:0:0:
448,192,36335,1,0,0:0:0:0:
192,192,36487,1,0,0:0:0:0:
64,192,36487,1,0,0:0:0:0:
192,192,36638,1,0,0:0:0:0:
64,192,36638,1,0,0:0:0:0:
64,192,36790,1,0,0:0:0:0:
320,192,36790,1,0,0:0:0:0:
448,192,36941,1,0,0:0:0:0:
320,192,37093,1,0,0:0:0:0:
448,192,37093,1,0,0:0:0:0:
320,192,37244,1,0,0:0:0:0:
192,192,37244,1,0,0:0:0:0:
320,192,37396,1,0,0:0:0:0:
64,192,37396,1,0,0:0:0:0:
320,192,37547,1,0,0:0:0:0:
448,192,37547,1,0,0:0:0:0:
192,192,37699,1,0,0:0:0:0:
64,192,37699,1,0,0:0:0:0:
448,192,37699,1,0,0:0:0:0:
64,192,37850,1,0,0:0:0:0:
192,192,38002,1,0,0:0:0:0:
320,192,38002,1,0,0:0:0:0:
448,192,38002,1,0,0:0:0:0:
320,192,38153,1,0,0:0:0:0:
192,192,38305,1,0,0:0:0:0:
64,192,38305,1,0,0:0:0:0:
448,192,38305,1,0,0:0:0:0:
64,192,38456,1,0,0:0:0:0:
192,192,38608,1,0,0:0:0:0:
320,192,38608,1,0,0:0:0:0:
448,192,38608,1,0,0:0:0:0:
448,192,38759,1,0,0:0:0:0:
320,192,38759,1,0,0:0:0:0:
192,192,38759,1,0,0:0:0:0:
448,192,38911,1,0,0:0:0:0:
64,192,38911,1,0,0:0:0:0:
64,192,39062,1,0,0:0:0:0:
320,192,39062,1,0,0:0:0:0:
192,192,39062,128,0,39668:0:0:0:0:
448,192,39214,1,0,0:0:0:0:
448,192,39365,1,0,0:0:0:0:
320,192,39517,1,0,0:0:0:0:
64,192,39668,1,0,0:0:0:0:
448,192,39668,128,0,39971:0:0:0:0:
192,192,39820,1,0,0:0:0:0:
320,192,39971,128,0,40274:0:0:0:0:
64,192,39971,1,0,0:0:0:0:
192,192,40123,1,0,0:0:0:0:
448,192,40274,1,0,0:0:0:0:
64,192,40274,128,0,40729:0:0:0:0:
320,192,40426,1,0,0:0:0:0:
192,192,40578,1,0,0:0:0:0:
448,192,40729,128,0,41184:0:0:0:0:
320,192,40729,1,0,0:0:0:0:
192,192,40881,1,0,0:0:0:0:
64,192,41032,1,0,0:0:0:0:
320,192,41184,128,0,41487:0:0:0:0:
192,192,41184,1,0,0:0:0:0:
64,192,41335,1,0,0:0:0:0:
192,192,41487,128,0,41790:0:0:0:0:
64,192,41487,1,0,0:0:0:0:
448,192,41638,1,0,0:0:0:0:
320,192,41790,1,0,0:0:0:0:
64,192,41790,1,0,0:0:0:0:
64,192,41941,1,0,0:0:0:0:
192,192,42093,1,0,0:0:0:0:
448,192,42244,1,0,0:0:0:0:
192,192,42396,1,0,0:0:0:0:
320,192,42396,128,0,42699:0:0:0:0:
64,192,42547,1,0,0:0:0:0:
448,192,42699,128,0,43002:0:0:0:0:
192,192,42699,1,0,0:0:0:0:
192,192,42850,1,0,0:0:0:0:
64,192,43002,128,0,43305:0:0:0:0:
320,192,43002,1,0,0:0:0:0:
320,192,43153,1,0,0:0:0:0:
448,192,43305,1,0,0:0:0:0:
192,192,43305,128,0,43608:0:0:0:0:
320,192,43456,1,0,0:0:0:0:
64,192,43608,1,0,0:0:0:0:
448,192,43608,128,0,44214:0:0:0:0:
64,192,43759,1,0,0:0:0:0:
192,192,43911,1,0,0:0:0:0:
192,192,44062,1,0,0:0:0:0:
64,192,44214,1,0,0:0:0:0:
320,192,44214,128,0,44517:0:0:0:0:
64,192,44365,1,0,0:0:0:0:
448,192,44517,1,0,0:0:0:0:
192,192,44517,1,0,0:0:0:0:
448,192,44668,1,0,0:0:0:0:
320,192,44820,1,0,0:0:0:0:
64,192,44820,1,0,0:0:0:0:
320,192,44971,1,0,0:0:0:0:
192,192,44971,1,0,0:0:0:0:
448,192,45123,1,0,0:0:0:0:
64,192,45123,1,0,0:0:0:0:
192,192,45274,1,0,0:0:0:0:
320,192,45426,1,0,0:0:0:0:
448,192,45426,1,0,0:0:0:0:
320,192,45578,1,0,0:0:0:0:
192,192,45578,1,0,0:0:0:0:
192,192,45729,1,0,0:0:0:0:
64,192,45729,1,0,0:0:0:0:
448,192,45881,1,0,0:0:0:0:
192,192,46032,1,0,0:0:0:0:
64,192,46032,1,0,0:0:0:0:
192,192,46184,1,0,0:0:0:0:
320,192,46184,1,0,0:0:0:0:
448,192,46335,1,0,0:0:0:0:
320,192,46335,1,0,0:0:0:0:
64,192,46335,1,0,0:0:0:0:
192,192,46487,1,0,0:0:0:0:
320,192,46487,1,0,0:0:0:0:
64,192,46638,1,0,0:0:0:0:
192,192,46638,1,0,0:0:0:0:
448,192,46790,1,0,0:0:0:0:
320,192,46790,1,0,0:0:0:0:
64,192,46941,1,0,0:0:0:0:
192,192,47093,1,0,0:0:0:0:
64,192,47093,1,0,0:0:0:0:
448,192,47244,1,0,0:0:0:0:
192,192,47244,1,0,0:0:0:0:
320,192,47396,1,0,0:0:0:0:
448,192,47396,1,0,0:0:0:0:
320,192,47547,1,0,0:0:0:0:
192,192,47547,1,0,0:0:0:0:
64,192,47547,1,0,0:0:0:0:
320,192,47699,1,0,0:0:0:0:
192,192,47699,1,0,0:0:0:0:
64,192,47699,1,0,0:0:0:0:
448,192,47850,5,0,0:0:0:0:
320,192,48002,1,0,0:0:0:0:
64,192,48002,1,0,0:0:0:0:
192,192,48153,1,0,0:0:0:0:
320,192,48153,1,0,0:0:0:0:
448,192,48153,1,0,0:0:0:0:
192,192,48305,1,0,0:0:0:0:
320,192,48305,1,0,0:0:0:0:
448,192,48305,1,0,0:0:0:0:
64,192,48456,1,0,0:0:0:0:
448,192,48608,1,0,0:0:0:0:
192,192,48759,1,0,0:0:0:0:
64,192,48759,1,0,0:0:0:0:
320,192,48759,1,0,0:0:0:0:
448,192,48759,1,0,0:0:0:0:
64,192,48911,1,0,0:0:0:0:
320,192,49062,128,0,49365:0:0:0:0:
192,192,49062,1,0,0:0:0:0:
192,192,49214,1,0,0:0:0:0:
64,192,49365,128,0,49668:0:0:0:0:
448,192,49365,1,0,0:0:0:0:
320,192,49517,1,0,0:0:0:0:
448,192,49668,128,0,49971:0:0:0:0:
192,192,49668,1,0,0:0:0:0:
64,192,49820,1,0,0:0:0:0:
64,192,49971,1,0,0:0:0:0:
320,192,49971,128,0,50274:0:0:0:0:
192,192,50123,1,0,0:0:0:0:
64,192,50274,128,0,50578:0:0:0:0:
448,192,50274,1,0,0:0:0:0:
320,192,50426,1,0,0:0:0:0:
192,192,50578,128,0,50881:0:0:0:0:
448,192,50578,1,0,0:0:0:0:
448,192,50729,1,0,0:0:0:0:
320,192,50881,128,0,51184:0:0:0:0:
64,192,50881,1,0,0:0:0:0:
192,192,51032,1,0,0:0:0:0:
448,192,51184,1,0,0:0:0:0:
64,192,51184,128,0,51638:0:0:0:0:
320,192,51335,1,0,0:0:0:0:
192,192,51487,1,0,0:0:0:0:
320,192,51638,1,0,0:0:0:0:
448,192,51638,128,0,52093:0:0:0:0:
64,192,51790,1,0,0:0:0:0:
192,192,51941,1,0,0:0:0:0:
64,192,52093,1,0,0:0:0:0:
320,192,52093,128,0,52396:0:0:0:0:
192,192,52244,1,0,0:0:0:0:
448,192,52396,1,0,0:0:0:0:
64,192,52396,128,0,52699:0:0:0:0:
320,192,52547,1,0,0:0:0:0:
192,192,52699,1,0,0:0:0:0:
448,192,52699,128,0,53002:0:0:0:0:
320,192,52850,1,0,0:0:0:0:
64,192,53002,1,0,0:0:0:0:
192,192,53002,128,0,53305:0:0:0:0:
448,192,53153,1,0,0:0:0:0:
64,192,53305,1,0,0:0:0:0:
320,192,53305,128,0,53608:0:0:0:0:
192,192,53456,1,0,0:0:0:0:
448,192,53608,1,0,0:0:0:0:
64,192,53608,128,0,53911:0:0:0:0:
320,192,53759,1,0,0:0:0:0:
192,192,53911,1,0,0:0:0:0:
448,192,53911,128,0,54214:0:0:0:0:
192,192,54062,1,0,0:0:0:0:
320,192,54214,128,0,54517:0:0:0:0:
64,192,54214,1,0,0:0:0:0:
192,192,54365,1,0,0:0:0:0:
64,192,54517,128,0,54668:0:0:0:0:
448,192,54517,1,0,0:0:0:0:
192,192,54668,128,0,54971:0:0:0:0:
448,192,54820,1,0,0:0:0:0:
320,192,54971,128,0,55274:0:0:0:0:
64,192,54971,1,0,0:0:0:0:
192,192,55123,1,0,0:0:0:0:
448,192,55274,128,0,55426:0:0:0:0:
64,192,55274,1,0,0:0:0:0:
320,192,55426,1,0,0:0:0:0:
192,192,55426,128,0,55729:0:0:0:0:
64,192,55578,1,0,0:0:0:0:
448,192,55729,128,0,56032:0:0:0:0:
320,192,55729,1,0,0:0:0:0:
192,192,55881,1,0,0:0:0:0:
320,192,56032,5,0,0:0:0:0:
192,192,56032,1,0,0:0:0:0:
64,192,56032,128,0,56941:0:0:0:0:
448,192,56184,1,0,0:0:0:0:
192,192,56335,1,0,0:0:0:0:
320,192,56487,1,0,0:0:0:0:
448,192,56487,1,0,0:0:0:0:
192,192,56638,1,0,0:0:0:0:
320,192,56790,1,0,0:0:0:0:
448,192,56790,1,0,0:0:0:0:
192,192,56941,128,0,57244:0:0:0:0:
320,192,57093,1,0,0:0:0:0:
448,192,57093,1,0,0:0:0:0:
448,192,57244,128,0,57850:0:0:0:0:
192,192,57396,1,0,0:0:0:0:
64,192,57396,1,0,0:0:0:0:
320,192,57547,1,0,0:0:0:0:
192,192,57699,1,0,0:0:0:0:
64,192,57699,1,0,0:0:0:0:
320,192,57850,1,0,0:0:0:0:
64,192,57850,1,0,0:0:0:0:
64,192,58456,1,0,0:0:0:0:
192,192,58456,1,0,0:0:0:0:
320,192,58456,1,0,0:0:0:0:
448,192,58456,1,0,0:0:0:0:
320,192,58532,1,0,0:0:0:0:
448,192,58532,1,0,0:0:0:0:
448,192,58608,1,0,0:0:0:0:
320,192,58608,1,0,0:0:0:0:
320,192,58684,1,0,0:0:0:0:
448,192,58684,1,0,0:0:0:0:
192,192,58759,1,0,0:0:0:0:
320,192,58759,1,0,0:0:0:0:
448,192,58759,1,0,0:0:0:0:
448,192,58835,1,0,0:0:0:0:
320,192,58835,1,0,0:0:0:0:
320,192,58911,1,0,0:0:0:0:
448,192,58911,1,0,0:0:0:0:
448,192,58987,1,0,0:0:0:0:
320,192,58987,1,0,0:0:0:0:
320,192,59062,1,0,0:0:0:0:
64,192,59062,1,0,0:0:0:0:
320,192,59138,1,0,0:0:0:0:
320,192,59214,1,0,0:0:0:0:
320,192,59290,1,0,0:0:0:0:
320,192,59365,1,0,0:0:0:0:
192,192,59365,1,0,0:0:0:0:
320,192,59441,1,0,0:0:0:0:
64,192,59517,1,0,0:0:0:0:
192,192,59517,1,0,0:0:0:0:
320,192,59517,1,0,0:0:0:0:
64,192,59593,1,0,0:0:0:0:
64,192,59668,1,0,0:0:0:0:
448,192,59668,1,0,0:0:0:0:
64,192,59744,1,0,0:0:0:0:
64,192,59820,1,0,0:0:0:0:
320,192,59820,1,0,0:0:0:0:
64,192,59896,1,0,0:0:0:0:
64,192,59971,1,0,0:0:0:0:
448,192,59971,1,0,0:0:0:0:
64,192,60047,1,0,0:0:0:0:
64,192,60123,1,0,0:0:0:0:
64,192,60199,1,0,0:0:0:0:
320,192,60274,1,0,0:0:0:0:
64,192,60274,1,0,0:0:0:0:
192,192,60274,1,0,0:0:0:0:
192,192,60350,1,0,0:0:0:0:
192,192,60426,1,0,0:0:0:0:
192,192,60502,1,0,0:0:0:0:
448,192,60578,1,0,0:0:0:0:
192,192,60578,1,0,0:0:0:0:
192,192,60653,1,0,0:0:0:0:
320,192,60729,1,0,0:0:0:0:
192,192,60729,1,0,0:0:0:0:
192,192,60805,1,0,0:0:0:0:
320,192,60881,1,0,0:0:0:0:
448,192,60881,1,0,0:0:0:0:
192,192,60881,1,0,0:0:0:0:
320,192,60956,1,0,0:0:0:0:
448,192,60956,1,0,0:0:0:0:
448,192,61032,1,0,0:0:0:0:
320,192,61032,1,0,0:0:0:0:
64,192,61032,1,0,0:0:0:0:
320,192,61108,1,0,0:0:0:0:
448,192,61108,1,0,0:0:0:0:
448,192,61184,1,0,0:0:0:0:
320,192,61184,1,0,0:0:0:0:
192,192,61184,1,0,0:0:0:0:
320,192,61259,1,0,0:0:0:0:
448,192,61259,1,0,0:0:0:0:
448,192,61335,1,0,0:0:0:0:
320,192,61335,1,0,0:0:0:0:
64,192,61335,1,0,0:0:0:0:
320,192,61411,1,0,0:0:0:0:
448,192,61411,1,0,0:0:0:0:
448,192,61487,1,0,0:0:0:0:
320,192,61487,1,0,0:0:0:0:
64,192,61487,1,0,0:0:0:0:
320,192,61562,1,0,0:0:0:0:
448,192,61562,1,0,0:0:0:0:
192,192,61638,1,0,0:0:0:0:
448,192,61638,1,0,0:0:0:0:
320,192,61638,1,0,0:0:0:0:
320,192,61714,1,0,0:0:0:0:
448,192,61714,1,0,0:0:0:0:
64,192,61790,1,0,0:0:0:0:
192,192,61790,1,0,0:0:0:0:
448,192,61790,1,0,0:0:0:0:
320,192,61790,1,0,0:0:0:0:
320,192,61865,1,0,0:0:0:0:
448,192,61865,1,0,0:0:0:0:
64,192,61941,1,0,0:0:0:0:
448,192,61941,1,0,0:0:0:0:
320,192,61941,1,0,0:0:0:0:
320,192,62017,1,0,0:0:0:0:
448,192,62017,1,0,0:0:0:0:
192,192,62093,1,0,0:0:0:0:
64,192,62093,1,0,0:0:0:0:
320,192,62093,1,0,0:0:0:0:
448,192,62093,1,0,0:0:0:0:
192,192,62168,1,0,0:0:0:0:
64,192,62168,1,0,0:0:0:0:
448,192,62244,1,0,0:0:0:0:
64,192,62244,1,0,0:0:0:0:
192,192,62244,1,0,0:0:0:0:
192,192,62320,1,0,0:0:0:0:
64,192,62320,1,0,0:0:0:0:
320,192,62396,1,0,0:0:0:0:
64,192,62396,1,0,0:0:0:0:
192,192,62396,1,0,0:0:0:0:
192,192,62471,1,0,0:0:0:0:
64,192,62471,1,0,0:0:0:0:
64,192,62547,1,0,0:0:0:0:
192,192,62547,1,0,0:0:0:0:
64,192,62623,1,0,0:0:0:0:
192,192,62623,1,0,0:0:0:0:
192,192,62699,1,0,0:0:0:0:
64,192,62699,1,0,0:0:0:0:
448,192,62699,1,0,0:0:0:0:
320,192,62699,1,0,0:0:0:0:
192,192,62774,1,0,0:0:0:0:
64,192,62774,1,0,0:0:0:0:
64,192,62850,1,0,0:0:0:0:
192,192,62850,1,0,0:0:0:0:
192,192,62926,1,0,0:0:0:0:
64,192,62926,1,0,0:0:0:0:
448,192,63002,1,0,0:0:0:0:
64,192,63002,1,0,0:0:0:0:
192,192,63002,1,0,0:0:0:0:
192,192,63078,1,0,0:0:0:0:
64,192,63078,1,0,0:0:0:0:
320,192,63153,1,0,0:0:0:0:
64,192,63153,1,0,0:0:0:0:
192,192,63153,1,0,0:0:0:0:
192,192,63229,1,0,0:0:0:0:
64,192,63229,1,0,0:0:0:0:
64,192,63305,1,0,0:0:0:0:
192,192,63305,1,0,0:0:0:0:
320,192,63305,1,0,0:0:0:0:
448,192,63305,1,0,0:0:0:0:
448,192,63381,1,0,0:0:0:0:
320,192,63381,1,0,0:0:0:0:
320,192,63456,1,0,0:0:0:0:
448,192,63456,1,0,0:0:0:0:
448,192,63532,1,0,0:0:0:0:
320,192,63532,1,0,0:0:0:0:
320,192,63608,1,0,0:0:0:0:
448,192,63608,1,0,0:0:0:0:
320,192,63684,1,0,0:0:0:0:
448,192,63684,1,0,0:0:0:0:
448,192,63759,1,0,0:0:0:0:
320,192,63759,1,0,0:0:0:0:
64,192,63759,1,0,0:0:0:0:
192,192,63759,1,0,0:0:0:0:
64,192,63835,1,0,0:0:0:0:
64,192,63911,1,0,0:0:0:0:
64,192,63987,1,0,0:0:0:0:
64,192,64062,1,0,0:0:0:0:
448,192,64062,1,0,0:0:0:0:
64,192,64138,1,0,0:0:0:0:
64,192,64214,1,0,0:0:0:0:
192,192,64214,1,0,0:0:0:0:
320,192,64214,1,0,0:0:0:0:
320,192,64290,1,0,0:0:0:0:
192,192,64290,1,0,0:0:0:0:
192,192,64365,1,0,0:0:0:0:
320,192,64365,1,0,0:0:0:0:
320,192,64441,1,0,0:0:0:0:
192,192,64441,1,0,0:0:0:0:
192,192,64517,1,0,0:0:0:0:
320,192,64517,1,0,0:0:0:0:
448,192,64517,1,0,0:0:0:0:
448,192,64593,1,0,0:0:0:0:
192,192,64593,1,0,0:0:0:0:
448,192,64668,1,0,0:0:0:0:
192,192,64668,1,0,0:0:0:0:
448,192,64744,1,0,0:0:0:0:
192,192,64744,1,0,0:0:0:0:
448,192,64820,1,0,0:0:0:0:
64,192,64820,1,0,0:0:0:0:
192,192,64820,1,0,0:0:0:0:
448,192,64896,1,0,0:0:0:0:
320,192,64971,1,0,0:0:0:0:
448,192,64971,1,0,0:0:0:0:
320,192,65047,1,0,0:0:0:0:
320,192,65123,1,0,0:0:0:0:
320,192,65199,1,0,0:0:0:0:
64,192,65274,1,0,0:0:0:0:
320,192,65274,1,0,0:0:0:0:
320,192,65350,1,0,0:0:0:0:
192,192,65426,1,0,0:0:0:0:
64,192,65426,1,0,0:0:0:0:
320,192,65426,1,0,0:0:0:0:
320,192,65502,1,0,0:0:0:0:
320,192,65578,1,0,0:0:0:0:
320,192,65653,1,0,0:0:0:0:
64,192,65729,1,0,0:0:0:0:
192,192,65729,1,0,0:0:0:0:
320,192,65729,1,0,0:0:0:0:
448,192,65729,1,0,0:0:0:0:
192,192,65805,1,0,0:0:0:0:
64,192,65805,1,0,0:0:0:0:
192,192,65881,1,0,0:0:0:0:
64,192,65881,1,0,0:0:0:0:
320,192,65881,1,0,0:0:0:0:
192,192,65956,1,0,0:0:0:0:
64,192,65956,1,0,0:0:0:0:
192,192,66032,1,0,0:0:0:0:
64,192,66032,1,0,0:0:0:0:
448,192,66032,1,0,0:0:0:0:
192,192,66108,1,0,0:0:0:0:
64,192,66108,1,0,0:0:0:0:
192,192,66184,1,0,0:0:0:0:
64,192,66184,1,0,0:0:0:0:
448,192,66184,1,0,0:0:0:0:
192,192,66259,1,0,0:0:0:0:
64,192,66259,1,0,0:0:0:0:
320,192,66335,1,0,0:0:0:0:
192,192,66335,1,0,0:0:0:0:
64,192,66335,1,0,0:0:0:0:
64,192,66411,1,0,0:0:0:0:
192,192,66411,1,0,0:0:0:0:
320,192,66487,1,0,0:0:0:0:
192,192,66487,1,0,0:0:0:0:
64,192,66487,1,0,0:0:0:0:
64,192,66562,1,0,0:0:0:0:
192,192,66562,1,0,0:0:0:0:
192,192,66638,1,0,0:0:0:0:
64,192,66638,1,0,0:0:0:0:
448,192,66638,1,0,0:0:0:0:
320,192,66638,1,0,0:0:0:0:
448,192,66790,1,0,0:0:0:0:
320,192,66790,1,0,0:0:0:0:
192,192,66790,1,0,0:0:0:0:
320,192,66941,1,0,0:0:0:0:
64,192,66941,1,0,0:0:0:0:
192,192,67093,1,0,0:0:0:0:
448,192,67093,1,0,0:0:0:0:
64,192,67093,1,0,0:0:0:0:
320,192,67244,1,0,0:0:0:0:
448,192,67244,1,0,0:0:0:0:
448,192,67320,1,0,0:0:0:0:
320,192,67320,1,0,0:0:0:0:
320,192,67396,1,0,0:0:0:0:
448,192,67396,1,0,0:0:0:0:
64,192,67396,1,0,0:0:0:0:
448,192,67471,1,0,0:0:0:0:
320,192,67471,1,0,0:0:0:0:
320,192,67547,1,0,0:0:0:0:
448,192,67547,1,0,0:0:0:0:
192,192,67547,1,0,0:0:0:0:
64,192,67547,1,0,0:0:0:0:
192,192,67699,1,0,0:0:0:0:
320,192,67699,1,0,0:0:0:0:
448,192,67850,1,0,0:0:0:0:
320,192,67850,1,0,0:0:0:0:
64,192,67850,1,0,0:0:0:0:
192,192,68002,1,0,0:0:0:0:
320,192,68002,1,0,0:0:0:0:
192,192,68153,1,0,0:0:0:0:
64,192,68153,1,0,0:0:0:0:
448,192,68153,1,0,0:0:0:0:
192,192,68229,1,0,0:0:0:0:
64,192,68229,1,0,0:0:0:0:
64,192,68305,1,0,0:0:0:0:
192,192,68305,1,0,0:0:0:0:
192,192,68381,1,0,0:0:0:0:
64,192,68381,1,0,0:0:0:0:
64,192,68456,1,0,0:0:0:0:
192,192,68456,1,0,0:0:0:0:
320,192,68456,1,0,0:0:0:0:
192,192,68532,1,0,0:0:0:0:
64,192,68532,1,0,0:0:0:0:
64,192,68608,1,0,0:0:0:0:
192,192,68608,1,0,0:0:0:0:
448,192,68608,1,0,0:0:0:0:
192,192,68684,1,0,0:0:0:0:
64,192,68684,1,0,0:0:0:0:
64,192,68759,1,0,0:0:0:0:
192,192,68759,1,0,0:0:0:0:
448,192,68759,1,0,0:0:0:0:
320,192,68759,1,0,0:0:0:0:
192,192,68835,1,0,0:0:0:0:
64,192,68835,1,0,0:0:0:0:
64,192,68911,1,0,0:0:0:0:
192,192,68911,1,0,0:0:0:0:
192,192,68987,1,0,0:0:0:0:
64,192,68987,1,0,0:0:0:0:
64,192,69062,1,0,0:0:0:0:
192,192,69062,1,0,0:0:0:0:
448,192,69062,1,0,0:0:0:0:
192,192,69138,1,0,0:0:0:0:
64,192,69138,1,0,0:0:0:0:
64,192,69214,1,0,0:0:0:0:
192,192,69214,1,0,0:0:0:0:
320,192,69214,1,0,0:0:0:0:
192,192,69290,1,0,0:0:0:0:
64,192,69290,1,0,0:0:0:0:
64,192,69365,1,0,0:0:0:0:
192,192,69365,1,0,0:0:0:0:
448,192,69365,1,0,0:0:0:0:
320,192,69365,1,0,0:0:0:0:
448,192,69441,1,0,0:0:0:0:
448,192,69517,1,0,0:0:0:0:
192,192,69517,1,0,0:0:0:0:
448,192,69593,1,0,0:0:0:0:
448,192,69668,1,0,0:0:0:0:
64,192,69668,1,0,0:0:0:0:
448,192,69744,1,0,0:0:0:0:
448,192,69820,1,0,0:0:0:0:
64,192,69820,1,0,0:0:0:0:
448,192,69896,1,0,0:0:0:0:
448,192,69971,1,0,0:0:0:0:
320,192,69971,1,0,0:0:0:0:
448,192,70047,1,0,0:0:0:0:
448,192,70123,1,0,0:0:0:0:
448,192,70199,1,0,0:0:0:0:
448,192,70275,1,0,0:0:0:0:
64,192,70275,1,0,0:0:0:0:
192,192,70275,1,0,0:0:0:0:
448,192,70350,1,0,0:0:0:0:
448,192,70426,1,0,0:0:0:0:
320,192,70426,1,0,0:0:0:0:
448,192,70502,1,0,0:0:0:0:
448,192,70578,1,0,0:0:0:0:
192,192,70578,1,0,0:0:0:0:
64,192,70578,1,0,0:0:0:0:
64,192,70653,1,0,0:0:0:0:
192,192,70653,1,0,0:0:0:0:
192,192,70729,1,0,0:0:0:0:
64,192,70729,1,0,0:0:0:0:
320,192,70729,1,0,0:0:0:0:
64,192,70805,1,0,0:0:0:0:
192,192,70805,1,0,0:0:0:0:
64,192,70881,1,0,0:0:0:0:
448,192,70881,1,0,0:0:0:0:
192,192,70881,1,0,0:0:0:0:
320,192,70881,1,0,0:0:0:0:
64,192,70956,1,0,0:0:0:0:
192,192,70956,1,0,0:0:0:0:
192,192,71032,1,0,0:0:0:0:
64,192,71032,1,0,0:0:0:0:
64,192,71108,1,0,0:0:0:0:
192,192,71108,1,0,0:0:0:0:
192,192,71184,1,0,0:0:0:0:
64,192,71184,1,0,0:0:0:0:
448,192,71184,1,0,0:0:0:0:
192,192,71259,1,0,0:0:0:0:
64,192,71259,1,0,0:0:0:0:
64,192,71335,1,0,0:0:0:0:
192,192,71335,1,0,0:0:0:0:
320,192,71335,1,0,0:0:0:0:
192,192,71411,1,0,0:0:0:0:
64,192,71411,1,0,0:0:0:0:
64,192,71487,1,0,0:0:0:0:
192,192,71487,1,0,0:0:0:0:
448,192,71487,1,0,0:0:0:0:
192,192,71562,1,0,0:0:0:0:
64,192,71562,1,0,0:0:0:0:
64,192,71638,1,0,0:0:0:0:
192,192,71638,1,0,0:0:0:0:
448,192,71638,1,0,0:0:0:0:
320,192,71638,1,0,0:0:0:0:
320,192,71714,1,0,0:0:0:0:
320,192,71790,1,0,0:0:0:0:
192,192,71790,1,0,0:0:0:0:
320,192,71865,1,0,0:0:0:0:
320,192,71941,1,0,0:0:0:0:
320,192,72017,1,0,0:0:0:0:
320,192,72093,1,0,0:0:0:0:
64,192,72093,1,0,0:0:0:0:
320,192,72168,1,0,0:0:0:0:
320,192,72244,1,0,0:0:0:0:
320,192,72320,1,0,0:0:0:0:
192,192,72396,1,0,0:0:0:0:
320,192,72396,1,0,0:0:0:0:
448,192,72396,1,0,0:0:0:0:
448,192,72471,1,0,0:0:0:0:
448,192,72547,1,0,0:0:0:0:
448,192,72623,1,0,0:0:0:0:
448,192,72699,1,0,0:0:0:0:
64,192,72699,1,0,0:0:0:0:
448,192,72774,1,0,0:0:0:0:
448,192,72850,1,0,0:0:0:0:
192,192,72850,1,0,0:0:0:0:
448,192,72926,1,0,0:0:0:0:
448,192,73002,1,0,0:0:0:0:
192,192,73002,1,0,0:0:0:0:
64,192,73002,1,0,0:0:0:0:
192,192,73078,1,0,0:0:0:0:
64,192,73078,1,0,0:0:0:0:
64,192,73153,1,0,0:0:0:0:
192,192,73153,1,0,0:0:0:0:
192,192,73229,1,0,0:0:0:0:
64,192,73229,1,0,0:0:0:0:
64,192,73305,1,0,0:0:0:0:
192,192,73305,1,0,0:0:0:0:
192,192,73381,1,0,0:0:0:0:
64,192,73381,1,0,0:0:0:0:
192,192,73456,1,0,0:0:0:0:
64,192,73456,1,0,0:0:0:0:
320,192,73456,1,0,0:0:0:0:
320,192,73532,1,0,0:0:0:0:
320,192,73608,1,0,0:0:0:0:
320,192,73684,1,0,0:0:0:0:
320,192,73759,1,0,0:0:0:0:
64,192,73759,1,0,0:0:0:0:
320,192,73835,1,0,0:0:0:0:
320,192,73911,1,0,0:0:0:0:
448,192,73911,1,0,0:0:0:0:
64,192,73911,1,0,0:0:0:0:
192,192,73911,1,0,0:0:0:0:
192,192,73987,1,0,0:0:0:0:
192,192,74062,1,0,0:0:0:0:
192,192,74138,1,0,0:0:0:0:
192,192,74214,1,0,0:0:0:0:
192,192,74290,1,0,0:0:0:0:
192,192,74365,1,0,0:0:0:0:
320,192,74365,1,0,0:0:0:0:
192,192,74441,1,0,0:0:0:0:
192,192,74517,1,0,0:0:0:0:
192,192,74593,1,0,0:0:0:0:
448,192,74668,1,0,0:0:0:0:
192,192,74668,1,0,0:0:0:0:
192,192,74744,1,0,0:0:0:0:
320,192,74820,1,0,0:0:0:0:
192,192,74820,1,0,0:0:0:0:
64,192,74820,1,0,0:0:0:0:
320,192,74896,1,0,0:0:0:0:
320,192,74971,1,0,0:0:0:0:
320,192,75047,1,0,0:0:0:0:
320,192,75123,1,0,0:0:0:0:
448,192,75123,1,0,0:0:0:0:
192,192,75123,1,0,0:0:0:0:
448,192,75199,1,0,0:0:0:0:
448,192,75274,1,0,0:0:0:0:
448,192,75350,1,0,0:0:0:0:
448,192,75426,1,0,0:0:0:0:
320,192,75426,1,0,0:0:0:0:
192,192,75426,1,0,0:0:0:0:
64,192,75426,1,0,0:0:0:0:
192,192,75502,1,0,0:0:0:0:
192,192,75578,1,0,0:0:0:0:
320,192,75578,1,0,0:0:0:0:
192,192,75653,1,0,0:0:0:0:
192,192,75729,1,0,0:0:0:0:
448,192,75729,1,0,0:0:0:0:
192,192,75805,1,0,0:0:0:0:
192,192,75881,1,0,0:0:0:0:
448,192,75881,1,0,0:0:0:0:
192,192,75956,1,0,0:0:0:0:
192,192,76032,1,0,0:0:0:0:
320,192,76032,1,0,0:0:0:0:
192,192,76108,1,0,0:0:0:0:
192,192,76184,1,0,0:0:0:0:
320,192,76184,1,0,0:0:0:0:
192,192,76259,1,0,0:0:0:0:
448,192,76335,1,0,0:0:0:0:
192,192,76335,1,0,0:0:0:0:
448,192,76487,1,0,0:0:0:0:
64,192,76487,1,0,0:0:0:0:
320,192,76487,1,0,0:0:0:0:
192,192,76638,1,0,0:0:0:0:
64,192,76638,1,0,0:0:0:0:
192,192,76714,1,0,0:0:0:0:
64,192,76714,1,0,0:0:0:0:
64,192,76790,1,0,0:0:0:0:
192,192,76790,1,0,0:0:0:0:
320,192,76790,1,0,0:0:0:0:
192,192,76865,1,0,0:0:0:0:
64,192,76865,1,0,0:0:0:0:
64,192,76941,1,0,0:0:0:0:
192,192,76941,1,0,0:0:0:0:
448,192,76941,1,0,0:0:0:0:
320,192,76941,1,0,0:0:0:0:
320,192,77093,1,0,0:0:0:0:
192,192,77093,1,0,0:0:0:0:
192,192,77244,1,0,0:0:0:0:
64,192,77244,1,0,0:0:0:0:
448,192,77244,1,0,0:0:0:0:
320,192,77396,1,0,0:0:0:0:
448,192,77396,1,0,0:0:0:0:
192,192,77547,1,0,0:0:0:0:
320,192,77547,1,0,0:0:0:0:
64,192,77547,1,0,0:0:0:0:
448,192,77699,1,0,0:0:0:0:
64,192,77699,1,0,0:0:0:0:
320,192,77850,128,0,78078:0:0:0:0:
64,192,78153,1,0,0:0:0:0:
192,192,78153,1,0,0:0:0:0:
320,192,78153,1,0,0:0:0:0:
448,192,78153,1,0,0:0:0:0:
192,192,78229,1,0,0:0:0:0:
64,192,78229,1,0,0:0:0:0:
192,192,78305,1,0,0:0:0:0:
64,192,78305,1,0,0:0:0:0:
448,192,78305,1,0,0:0:0:0:
64,192,78381,1,0,0:0:0:0:
192,192,78381,1,0,0:0:0:0:
192,192,78456,1,0,0:0:0:0:
64,192,78456,1,0,0:0:0:0:
320,192,78456,1,0,0:0:0:0:
192,192,78532,1,0,0:0:0:0:
64,192,78532,1,0,0:0:0:0:
64,192,78608,1,0,0:0:0:0:
192,192,78608,1,0,0:0:0:0:
192,192,78684,1,0,0:0:0:0:
64,192,78684,1,0,0:0:0:0:
64,192,78759,1,0,0:0:0:0:
192,192,78759,1,0,0:0:0:0:
448,192,78759,1,0,0:0:0:0:
64,192,78835,1,0,0:0:0:0:
192,192,78835,1,0,0:0:0:0:
448,192,78911,1,0,0:0:0:0:
192,192,78911,1,0,0:0:0:0:
64,192,78911,1,0,0:0:0:0:
64,192,78987,1,0,0:0:0:0:
192,192,78987,1,0,0:0:0:0:
320,192,79062,1,0,0:0:0:0:
192,192,79062,1,0,0:0:0:0:
64,192,79062,1,0,0:0:0:0:
320,192,79138,1,0,0:0:0:0:
320,192,79214,1,0,0:0:0:0:
64,192,79214,1,0,0:0:0:0:
320,192,79290,1,0,0:0:0:0:
320,192,79365,1,0,0:0:0:0:
192,192,79365,1,0,0:0:0:0:
320,192,79441,1,0,0:0:0:0:
320,192,79517,1,0,0:0:0:0:
320,192,79593,1,0,0:0:0:0:
320,192,79668,1,0,0:0:0:0:
64,192,79668,1,0,0:0:0:0:
192,192,79668,1,0,0:0:0:0:
320,192,79744,1,0,0:0:0:0:
320,192,79820,1,0,0:0:0:0:
320,192,79896,1,0,0:0:0:0:
320,192,79971,1,0,0:0:0:0:
64,192,79971,1,0,0:0:0:0:
320,192,80047,1,0,0:0:0:0:
320,192,80123,1,0,0:0:0:0:
192,192,80123,1,0,0:0:0:0:
320,192,80199,1,0,0:0:0:0:
64,192,80274,1,0,0:0:0:0:
192,192,80274,1,0,0:0:0:0:
320,192,80274,1,0,0:0:0:0:
64,192,80350,1,0,0:0:0:0:
192,192,80350,1,0,0:0:0:0:
64,192,80426,1,0,0:0:0:0:
448,192,80426,1,0,0:0:0:0:
192,192,80426,1,0,0:0:0:0:
64,192,80502,1,0,0:0:0:0:
192,192,80502,1,0,0:0:0:0:
64,192,80578,1,0,0:0:0:0:
320,192,80578,1,0,0:0:0:0:
192,192,80578,1,0,0:0:0:0:
64,192,80653,1,0,0:0:0:0:
192,192,80653,1,0,0:0:0:0:
64,192,80729,1,0,0:0:0:0:
192,192,80729,1,0,0:0:0:0:
64,192,80805,1,0,0:0:0:0:
192,192,80805,1,0,0:0:0:0:
64,192,80881,1,0,0:0:0:0:
448,192,80881,1,0,0:0:0:0:
192,192,80881,1,0,0:0:0:0:
192,192,80956,1,0,0:0:0:0:
192,192,81032,1,0,0:0:0:0:
192,192,81108,1,0,0:0:0:0:
320,192,81184,1,0,0:0:0:0:
192,192,81184,1,0,0:0:0:0:
192,192,81259,1,0,0:0:0:0:
448,192,81335,1,0,0:0:0:0:
192,192,81335,1,0,0:0:0:0:
192,192,81411,1,0,0:0:0:0:
192,192,81487,1,0,0:0:0:0:
320,192,81487,1,0,0:0:0:0:
448,192,81487,1,0,0:0:0:0:
64,192,81487,1,0,0:0:0:0:
320,192,81562,1,0,0:0:0:0:
448,192,81562,1,0,0:0:0:0:
448,192,81638,1,0,0:0:0:0:
320,192,81638,1,0,0:0:0:0:
448,192,81714,1,0,0:0:0:0:
320,192,81714,1,0,0:0:0:0:
320,192,81790,1,0,0:0:0:0:
448,192,81790,1,0,0:0:0:0:
64,192,81790,1,0,0:0:0:0:
448,192,81865,1,0,0:0:0:0:
320,192,81865,1,0,0:0:0:0:
320,192,81941,1,0,0:0:0:0:
448,192,81941,1,0,0:0:0:0:
448,192,82017,1,0,0:0:0:0:
320,192,82017,1,0,0:0:0:0:
192,192,82093,1,0,0:0:0:0:
320,192,82093,1,0,0:0:0:0:
448,192,82093,1,0,0:0:0:0:
448,192,82168,1,0,0:0:0:0:
320,192,82168,1,0,0:0:0:0:
320,192,82244,1,0,0:0:0:0:
448,192,82244,1,0,0:0:0:0:
448,192,82320,1,0,0:0:0:0:
320,192,82320,1,0,0:0:0:0:
64,192,82396,1,0,0:0:0:0:
192,192,82396,1,0,0:0:0:0:
448,192,82396,1,0,0:0:0:0:
320,192,82396,1,0,0:0:0:0:
320,192,82471,1,0,0:0:0:0:
448,192,82471,1,0,0:0:0:0:
320,192,82547,1,0,0:0:0:0:
448,192,82547,1,0,0:0:0:0:
320,192,82623,1,0,0:0:0:0:
448,192,82623,1,0,0:0:0:0:
320,192,82699,1,0,0:0:0:0:
448,192,82699,1,0,0:0:0:0:
64,192,82699,1,0,0:0:0:0:
64,192,82774,1,0,0:0:0:0:
64,192,82850,1,0,0:0:0:0:
64,192,82926,1,0,0:0:0:0:
64,192,83002,1,0,0:0:0:0:
448,192,83002,1,0,0:0:0:0:
64,192,83078,1,0,0:0:0:0:
64,192,83153,1,0,0:0:0:0:
320,192,83153,1,0,0:0:0:0:
448,192,83153,1,0,0:0:0:0:
64,192,83229,1,0,0:0:0:0:
320,192,83229,1,0,0:0:0:0:
64,192,83305,1,0,0:0:0:0:
320,192,83305,1,0,0:0:0:0:
64,192,83381,1,0,0:0:0:0:
320,192,83381,1,0,0:0:0:0:
64,192,83456,1,0,0:0:0:0:
320,192,83456,1,0,0:0:0:0:
64,192,83532,1,0,0:0:0:0:
320,192,83532,1,0,0:0:0:0:
320,192,83608,1,0,0:0:0:0:
448,192,83608,1,0,0:0:0:0:
192,192,83608,1,0,0:0:0:0:
448,192,83684,1,0,0:0:0:0:
448,192,83759,1,0,0:0:0:0:
448,192,83835,1,0,0:0:0:0:
448,192,83911,1,0,0:0:0:0:
192,192,83911,1,0,0:0:0:0:
448,192,83987,1,0,0:0:0:0:
448,192,84062,1,0,0:0:0:0:
320,192,84062,1,0,0:0:0:0:
64,192,84062,1,0,0:0:0:0:
448,192,84138,1,0,0:0:0:0:
320,192,84138,1,0,0:0:0:0:
448,192,84214,1,0,0:0:0:0:
320,192,84214,1,0,0:0:0:0:
448,192,84290,1,0,0:0:0:0:
320,192,84290,1,0,0:0:0:0:
448,192,84365,1,0,0:0:0:0:
320,192,84365,1,0,0:0:0:0:
448,192,84441,1,0,0:0:0:0:
320,192,84441,1,0,0:0:0:0:
192,192,84517,1,0,0:0:0:0:
320,192,84517,1,0,0:0:0:0:
64,192,84517,1,0,0:0:0:0:
192,192,84593,1,0,0:0:0:0:
192,192,84668,1,0,0:0:0:0:
192,192,84744,1,0,0:0:0:0:
192,192,84820,1,0,0:0:0:0:
448,192,84820,1,0,0:0:0:0:
192,192,84896,1,0,0:0:0:0:
448,192,84896,1,0,0:0:0:0:
192,192,84971,1,0,0:0:0:0:
448,192,84971,1,0,0:0:0:0:
192,192,85047,1,0,0:0:0:0:
448,192,85047,1,0,0:0:0:0:
320,192,85123,1,0,0:0:0:0:
192,192,85123,1,0,0:0:0:0:
64,192,85123,1,0,0:0:0:0:
320,192,85199,1,0,0:0:0:0:
320,192,85274,1,0,0:0:0:0:
320,192,85350,1,0,0:0:0:0:
320,192,85426,1,0,0:0:0:0:
320,192,85502,1,0,0:0:0:0:
320,192,85578,1,0,0:0:0:0:
320,192,85653,1,0,0:0:0:0:
192,192,85729,1,0,0:0:0:0:
64,192,85729,1,0,0:0:0:0:
64,192,85881,1,0,0:0:0:0:
448,192,85881,1,0,0:0:0:0:
320,192,86032,1,0,0:0:0:0:
448,192,86032,1,0,0:0:0:0:
192,192,86184,1,0,0:0:0:0:
64,192,86184,1,0,0:0:0:0:
192,192,86259,1,0,0:0:0:0:
192,192,86335,1,0,0:0:0:0:
192,192,86411,1,0,0:0:0:0:
192,192,86487,1,0,0:0:0:0:
448,192,86487,1,0,0:0:0:0:
192,192,86562,1,0,0:0:0:0:
448,192,86562,1,0,0:0:0:0:
192,192,86638,1,0,0:0:0:0:
448,192,86638,1,0,0:0:0:0:
192,192,86714,1,0,0:0:0:0:
448,192,86714,1,0,0:0:0:0:
192,192,86790,1,0,0:0:0:0:
448,192,86790,1,0,0:0:0:0:
320,192,86790,1,0,0:0:0:0:
64,192,86941,1,0,0:0:0:0:
320,192,86941,1,0,0:0:0:0:
192,192,87093,1,0,0:0:0:0:
64,192,87093,1,0,0:0:0:0:
448,192,87093,1,0,0:0:0:0:
192,192,87244,1,0,0:0:0:0:
320,192,87244,1,0,0:0:0:0:
64,192,87396,1,0,0:0:0:0:
448,192,87396,1,0,0:0:0:0:
64,192,87547,1,0,0:0:0:0:
192,192,87547,1,0,0:0:0:0:
320,192,87547,1,0,0:0:0:0:
448,192,87547,1,0,0:0:0:0:
320,192,87623,1,0,0:0:0:0:
448,192,87623,1,0,0:0:0:0:
448,192,87699,1,0,0:0:0:0:
320,192,87699,1,0,0:0:0:0:
320,192,87774,1,0,0:0:0:0:
448,192,87774,1,0,0:0:0:0:
192,192,87850,1,0,0:0:0:0:
320,192,87850,1,0,0:0:0:0:
448,192,87850,1,0,0:0:0:0:
448,192,87926,1,0,0:0:0:0:
320,192,87926,1,0,0:0:0:0:
320,192,88002,1,0,0:0:0:0:
448,192,88002,1,0,0:0:0:0:
448,192,88078,1,0,0:0:0:0:
320,192,88078,1,0,0:0:0:0:
320,192,88153,1,0,0:0:0:0:
64,192,88153,1,0,0:0:0:0:
320,192,88229,1,0,0:0:0:0:
320,192,88305,1,0,0:0:0:0:
320,192,88381,1,0,0:0:0:0:
320,192,88456,1,0,0:0:0:0:
192,192,88456,1,0,0:0:0:0:
320,192,88532,1,0,0:0:0:0:
64,192,88608,1,0,0:0:0:0:
192,192,88608,1,0,0:0:0:0:
320,192,88608,1,0,0:0:0:0:
64,192,88684,1,0,0:0:0:0:
64,192,88759,1,0,0:0:0:0:
448,192,88759,1,0,0:0:0:0:
64,192,88835,1,0,0:0:0:0:
64,192,88911,1,0,0:0:0:0:
320,192,88911,1,0,0:0:0:0:
64,192,88987,1,0,0:0:0:0:
64,192,89062,1,0,0:0:0:0:
448,192,89062,1,0,0:0:0:0:
64,192,89138,1,0,0:0:0:0:
64,192,89214,1,0,0:0:0:0:
64,192,89290,1,0,0:0:0:0:
320,192,89365,1,0,0:0:0:0:
64,192,89365,1,0,0:0:0:0:
192,192,89365,1,0,0:0:0:0:
192,192,89441,1,0,0:0:0:0:
192,192,89517,1,0,0:0:0:0:
192,192,89593,1,0,0:0:0:0:
448,192,89668,1,0,0:0:0:0:
192,192,89668,1,0,0:0:0:0:
192,192,89744,1,0,0:0:0:0:
320,192,89820,1,0,0:0:0:0:
192,192,89820,1,0,0:0:0:0:
192,192,89896,1,0,0:0:0:0:
320,192,89971,1,0,0:0:0:0:
448,192,89971,1,0,0:0:0:0:
192,192,89971,1,0,0:0:0:0:
320,192,90047,1,0,0:0:0:0:
448,192,90047,1,0,0:0:0:0:
448,192,90123,1,0,0:0:0:0:
320,192,90123,1,0,0:0:0:0:
64,192,90123,1,0,0:0:0:0:
320,192,90199,1,0,0:0:0:0:
448,192,90199,1,0,0:0:0:0:
448,192,90274,1,0,0:0:0:0:
320,192,90274,1,0,0:0:0:0:
192,192,90274,1,0,0:0:0:0:
320,192,90350,1,0,0:0:0:0:
448,192,90350,1,0,0:0:0:0:
448,192,90426,1,0,0:0:0:0:
320,192,90426,1,0,0:0:0:0:
320,192,90502,1,0,0:0:0:0:
448,192,90502,1,0,0:0:0:0:
448,192,90578,1,0,0:0:0:0:
320,192,90578,1,0,0:0:0:0:
64,192,90578,1,0,0:0:0:0:
320,192,90653,1,0,0:0:0:0:
448,192,90653,1,0,0:0:0:0:
448,192,90729,1,0,0:0:0:0:
320,192,90729,1,0,0:0:0:0:
320,192,90805,1,0,0:0:0:0:
448,192,90805,1,0,0:0:0:0:
192,192,90881,1,0,0:0:0:0:
448,192,90881,1,0,0:0:0:0:
320,192,90881,1,0,0:0:0:0:
320,192,90956,1,0,0:0:0:0:
448,192,90956,1,0,0:0:0:0:
448,192,91032,1,0,0:0:0:0:
320,192,91032,1,0,0:0:0:0:
64,192,91032,1,0,0:0:0:0:
320,192,91108,1,0,0:0:0:0:
448,192,91108,1,0,0:0:0:0:
192,192,91184,1,0,0:0:0:0:
64,192,91184,1,0,0:0:0:0:
320,192,91184,1,0,0:0:0:0:
448,192,91184,1,0,0:0:0:0:
192,192,91259,1,0,0:0:0:0:
64,192,91259,1,0,0:0:0:0:
448,192,91335,1,0,0:0:0:0:
64,192,91335,1,0,0:0:0:0:
192,192,91335,1,0,0:0:0:0:
192,192,91411,1,0,0:0:0:0:
64,192,91411,1,0,0:0:0:0:
320,192,91487,1,0,0:0:0:0:
64,192,91487,1,0,0:0:0:0:
192,192,91487,1,0,0:0:0:0:
192,192,91562,1,0,0:0:0:0:
64,192,91562,1,0,0:0:0:0:
64,192,91638,1,0,0:0:0:0:
192,192,91638,1,0,0:0:0:0:
64,192,91714,1,0,0:0:0:0:
192,192,91714,1,0,0:0:0:0:
192,192,91790,1,0,0:0:0:0:
64,192,91790,1,0,0:0:0:0:
448,192,91790,1,0,0:0:0:0:
320,192,91790,1,0,0:0:0:0:
192,192,91865,1,0,0:0:0:0:
64,192,91865,1,0,0:0:0:0:
64,192,91941,1,0,0:0:0:0:
192,192,91941,1,0,0:0:0:0:
192,192,92017,1,0,0:0:0:0:
64,192,92017,1,0,0:0:0:0:
448,192,92093,1,0,0:0:0:0:
64,192,92093,1,0,0:0:0:0:
192,192,92093,1,0,0:0:0:0:
192,192,92168,1,0,0:0:0:0:
64,192,92168,1,0,0:0:0:0:
320,192,92244,1,0,0:0:0:0:
64,192,92244,1,0,0:0:0:0:
192,192,92244,1,0,0:0:0:0:
192,192,92320,1,0,0:0:0:0:
64,192,92320,1,0,0:0:0:0:
64,192,92396,1,0,0:0:0:0:
192,192,92396,1,0,0:0:0:0:
320,192,92396,1,0,0:0:0:0:
448,192,92396,1,0,0:0:0:0:
448,192,92471,1,0,0:0:0:0:
320,192,92471,1,0,0:0:0:0:
320,192,92547,1,0,0:0:0:0:
448,192,92547,1,0,0:0:0:0:
448,192,92623,1,0,0:0:0:0:
320,192,92623,1,0,0:0:0:0:
320,192,92699,1,0,0:0:0:0:
448,192,92699,1,0,0:0:0:0:
320,192,92774,1,0,0:0:0:0:
448,192,92774,1,0,0:0:0:0:
448,192,92850,1,0,0:0:0:0:
320,192,92850,1,0,0:0:0:0:
64,192,92850,1,0,0:0:0:0:
192,192,92850,1,0,0:0:0:0:
64,192,92926,1,0,0:0:0:0:
64,192,93002,1,0,0:0:0:0:
64,192,93078,1,0,0:0:0:0:
64,192,93153,1,0,0:0:0:0:
448,192,93153,1,0,0:0:0:0:
64,192,93229,1,0,0:0:0:0:
64,192,93305,1,0,0:0:0:0:
192,192,93305,1,0,0:0:0:0:
320,192,93305,1,0,0:0:0:0:
320,192,93381,1,0,0:0:0:0:
192,192,93381,1,0,0:0:0:0:
192,192,93456,1,0,0:0:0:0:
320,192,93456,1,0,0:0:0:0:
320,192,93532,1,0,0:0:0:0:
192,192,93532,1,0,0:0:0:0:
192,192,93608,1,0,0:0:0:0:
320,192,93608,1,0,0:0:0:0:
448,192,93608,1,0,0:0:0:0:
448,192,93684,1,0,0:0:0:0:
448,192,93759,1,0,0:0:0:0:
448,192,93835,1,0,0:0:0:0:
448,192,93911,1,0,0:0:0:0:
64,192,93911,1,0,0:0:0:0:
448,192,93987,1,0,0:0:0:0:
448,192,94062,1,0,0:0:0:0:
192,192,94062,1,0,0:0:0:0:
448,192,94138,1,0,0:0:0:0:
448,192,94214,1,0,0:0:0:0:
448,192,94290,1,0,0:0:0:0:
448,192,94365,1,0,0:0:0:0:
64,192,94365,1,0,0:0:0:0:
448,192,94441,1,0,0:0:0:0:
448,192,94517,1,0,0:0:0:0:
192,192,94517,1,0,0:0:0:0:
64,192,94517,1,0,0:0:0:0:
448,192,94593,1,0,0:0:0:0:
448,192,94668,1,0,0:0:0:0:
448,192,94744,1,0,0:0:0:0:
64,192,94820,1,0,0:0:0:0:
192,192,94820,1,0,0:0:0:0:
320,192,94820,1,0,0:0:0:0:
448,192,94820,1,0,0:0:0:0:
192,192,94896,1,0,0:0:0:0:
64,192,94896,1,0,0:0:0:0:
192,192,94971,1,0,0:0:0:0:
64,192,94971,1,0,0:0:0:0:
320,192,94971,1,0,0:0:0:0:
192,192,95047,1,0,0:0:0:0:
64,192,95047,1,0,0:0:0:0:
192,192,95123,1,0,0:0:0:0:
64,192,95123,1,0,0:0:0:0:
448,192,95123,1,0,0:0:0:0:
192,192,95199,1,0,0:0:0:0:
64,192,95199,1,0,0:0:0:0:
192,192,95274,1,0,0:0:0:0:
64,192,95274,1,0,0:0:0:0:
448,192,95274,1,0,0:0:0:0:
192,192,95350,1,0,0:0:0:0:
64,192,95350,1,0,0:0:0:0:
320,192,95426,1,0,0:0:0:0:
192,192,95426,1,0,0:0:0:0:
64,192,95426,1,0,0:0:0:0:
64,192,95502,1,0,0:0:0:0:
192,192,95502,1,0,0:0:0:0:
320,192,95578,1,0,0:0:0:0:
192,192,95578,1,0,0:0:0:0:
64,192,95578,1,0,0:0:0:0:
64,192,95653,1,0,0:0:0:0:
192,192,95653,1,0,0:0:0:0:
192,192,95729,1,0,0:0:0:0:
64,192,95729,1,0,0:0:0:0:
448,192,95729,1,0,0:0:0:0:
320,192,95729,1,0,0:0:0:0:
448,192,95881,1,0,0:0:0:0:
320,192,95881,1,0,0:0:0:0:
192,192,95881,1,0,0:0:0:0:
320,192,96032,1,0,0:0:0:0:
64,192,96032,1,0,0:0:0:0:
192,192,96184,1,0,0:0:0:0:
448,192,96184,1,0,0:0:0:0:
64,192,96184,1,0,0:0:0:0:
320,192,96335,1,0,0:0:0:0:
448,192,96335,1,0,0:0:0:0:
448,192,96411,1,0,0:0:0:0:
320,192,96411,1,0,0:0:0:0:
320,192,96487,1,0,0:0:0:0:
448,192,96487,1,0,0:0:0:0:
64,192,96487,1,0,0:0:0:0:
448,192,96562,1,0,0:0:0:0:
320,192,96562,1,0,0:0:0:0:
320,192,96638,1,0,0:0:0:0:
448,192,96638,1,0,0:0:0:0:
192,192,96638,1,0,0:0:0:0:
64,192,96638,1,0,0:0:0:0:
192,192,96790,1,0,0:0:0:0:
320,192,96790,1,0,0:0:0:0:
448,192,96941,1,0,0:0:0:0:
320,192,96941,1,0,0:0:0:0:
64,192,96941,1,0,0:0:0:0:
192,192,97093,1,0,0:0:0:0:
320,192,97093,1,0,0:0:0:0:
192,192,97244,1,0,0:0:0:0:
64,192,97244,1,0,0:0:0:0:
448,192,97244,1,0,0:0:0:0:
192,192,97320,1,0,0:0:0:0:
64,192,97320,1,0,0:0:0:0:
448,192,97320,1,0,0:0:0:0:
192,192,97396,1,0,0:0:0:0:
64,192,97396,1,0,0:0:0:0:
448,192,97396,1,0,0:0:0:0:
192,192,97471,1,0,0:0:0:0:
64,192,97471,1,0,0:0:0:0:
448,192,97471,1,0,0:0:0:0:
64,192,97547,1,0,0:0:0:0:
192,192,97547,1,0,0:0:0:0:
448,192,97547,1,0,0:0:0:0:
192,192,97623,1,0,0:0:0:0:
64,192,97623,1,0,0:0:0:0:
448,192,97623,1,0,0:0:0:0:
64,192,97699,1,0,0:0:0:0:
192,192,97699,1,0,0:0:0:0:
448,192,97699,1,0,0:0:0:0:
192,192,97774,1,0,0:0:0:0:
64,192,97774,1,0,0:0:0:0:
448,192,97774,1,0,0:0:0:0:
64,192,97850,1,0,0:0:0:0:
192,192,97850,1,0,0:0:0:0:
448,192,97850,1,0,0:0:0:0:
192,192,97926,1,0,0:0:0:0:
64,192,97926,1,0,0:0:0:0:
448,192,97926,1,0,0:0:0:0:
64,192,98002,1,0,0:0:0:0:
192,192,98002,1,0,0:0:0:0:
448,192,98002,1,0,0:0:0:0:
192,192,98078,1,0,0:0:0:0:
64,192,98078,1,0,0:0:0:0:
448,192,98078,1,0,0:0:0:0:
64,192,98153,1,0,0:0:0:0:
192,192,98153,1,0,0:0:0:0:
448,192,98153,1,0,0:0:0:0:
448,192,98229,1,0,0:0:0:0:
320,192,98305,1,0,0:0:0:0:
192,192,98305,1,0,0:0:0:0:
448,192,98305,1,0,0:0:0:0:
320,192,98456,1,0,0:0:0:0:
64,192,98456,1,0,0:0:0:0:
192,192,98456,1,0,0:0:0:0:
448,192,98608,1,0,0:0:0:0:
64,192,98608,1,0,0:0:0:0:
448,192,98759,1,0,0:0:0:0:
320,192,98759,1,0,0:0:0:0:
192,192,98759,1,0,0:0:0:0:
320,192,98911,1,0,0:0:0:0:
64,192,98911,1,0,0:0:0:0:
448,192,98911,1,0,0:0:0:0:
