osu file format v14

[General]
AudioFilename: darude.mp3
AudioLeadIn: 0
PreviewTime: -1
Countdown: 1
SampleSet: None
StackLeniency: 0.7
Mode: 3
LetterboxInBreaks: 0
SpecialStyle: 0
WidescreenStoryboard: 0

[Editor]
DistanceSpacing: 0.8
BeatDivisor: 4
GridSize: 8
TimelineZoom: 2

[Metadata]
Title:4k Vibro Pack 3
TitleUnicode:4k Vibro Pack 3
Artist:Various Artists
ArtistUnicode:Various Artists
Creator:Staravia
Version:Darude - Vibrostorm 1.3x
Source:
Tags:mapset jackhammer vibration
BeatmapID:1213518
BeatmapSetID:572754

[Difficulty]
HPDrainRate:7
CircleSize:4
OverallDifficulty:6
ApproachRate:5
SliderMultiplier:1.4
SliderTickRate:1

[Events]
//Background and Video events
0,0,"maxresdefaulta.jpg",0,0
//Break Periods
//Storyboard Layer 0 (Background)
//Storyboard Layer 1 (Fail)
//Storyboard Layer 2 (Pass)
//Storyboard Layer 3 (Foreground)
//Storyboard Sound Samples

[TimingPoints]
12,339.216861339454,4,3,0,50,1,0

[HitObjects]
64,192,1029,5,0,0:0:0:0:
192,192,1029,1,0,0:0:0:0:
320,192,1029,1,0,0:0:0:0:
448,192,1284,1,0,0:0:0:0:
192,192,1538,1,0,0:0:0:0:
64,192,1708,1,0,0:0:0:0:
320,192,1962,1,0,0:0:0:0:
64,192,2216,1,0,0:0:0:0:
192,192,2386,1,0,0:0:0:0:
320,192,2640,1,0,0:0:0:0:
448,192,2895,1,0,0:0:0:0:
320,192,3064,1,0,0:0:0:0:
192,192,3319,1,0,0:0:0:0:
320,192,3573,1,0,0:0:0:0:
64,192,3743,1,0,0:0:0:0:
448,192,3997,1,0,0:0:0:0:
192,192,4252,1,0,0:0:0:0:
320,192,4421,1,0,0:0:0:0:
192,192,4676,1,0,0:0:0:0:
320,192,4930,1,0,0:0:0:0:
448,192,5100,1,0,0:0:0:0:
192,192,5354,1,0,0:0:0:0:
64,192,5609,1,0,0:0:0:0:
192,192,5778,1,0,0:0:0:0:
320,192,6033,1,0,0:0:0:0:
448,192,6287,1,0,0:0:0:0:
320,192,6457,1,0,0:0:0:0:
64,192,6711,1,0,0:0:0:0:
320,192,6965,1,0,0:0:0:0:
192,192,7135,1,0,0:0:0:0:
320,192,7389,1,0,0:0:0:0:
448,192,7644,1,0,0:0:0:0:
64,192,7813,1,0,0:0:0:0:
64,192,8068,1,0,0:0:0:0:
448,192,8322,1,0,0:0:0:0:
320,192,8492,1,0,0:0:0:0:
320,192,8746,1,0,0:0:0:0:
192,192,9001,1,0,0:0:0:0:
64,192,9170,1,0,0:0:0:0:
64,192,9425,1,0,0:0:0:0:
64,192,9679,1,0,0:0:0:0:
64,192,9849,1,0,0:0:0:0:
64,192,10103,1,0,0:0:0:0:
448,192,10358,1,0,0:0:0:0:
192,192,10527,1,0,0:0:0:0:
192,192,10782,1,0,0:0:0:0:
192,192,11036,1,0,0:0:0:0:
192,192,11206,1,0,0:0:0:0:
192,192,11460,1,0,0:0:0:0:
64,192,11545,1,0,0:0:0:0:
320,192,11545,1,0,0:0:0:0:
448,192,11545,1,0,0:0:0:0:
192,192,11714,1,0,0:0:0:0:
448,192,11884,1,0,0:0:0:0:
320,192,11884,1,0,0:0:0:0:
320,192,11969,1,0,0:0:0:0:
448,192,11969,1,0,0:0:0:0:
448,192,12054,1,0,0:0:0:0:
320,192,12054,1,0,0:0:0:0:
320,192,12139,1,0,0:0:0:0:
448,192,12139,1,0,0:0:0:0:
64,192,12139,1,0,0:0:0:0:
448,192,12223,1,0,0:0:0:0:
320,192,12223,1,0,0:0:0:0:
192,192,12393,1,0,0:0:0:0:
320,192,12563,1,0,0:0:0:0:
448,192,12817,1,0,0:0:0:0:
64,192,13071,1,0,0:0:0:0:
448,192,13241,1,0,0:0:0:0:
320,192,13495,1,0,0:0:0:0:
448,192,13750,1,0,0:0:0:0:
192,192,13919,1,0,0:0:0:0:
320,192,14174,1,0,0:0:0:0:
64,192,14259,1,0,0:0:0:0:
192,192,14259,1,0,0:0:0:0:
448,192,14428,1,0,0:0:0:0:
192,192,14598,1,0,0:0:0:0:
64,192,14598,1,0,0:0:0:0:
320,192,14598,1,0,0:0:0:0:
192,192,14683,1,0,0:0:0:0:
64,192,14683,1,0,0:0:0:0:
64,192,14767,1,0,0:0:0:0:
192,192,14767,1,0,0:0:0:0:
192,192,14852,1,0,0:0:0:0:
64,192,14852,1,0,0:0:0:0:
64,192,14937,1,0,0:0:0:0:
192,192,14937,1,0,0:0:0:0:
320,192,15022,1,0,0:0:0:0:
448,192,15107,1,0,0:0:0:0:
192,192,15191,1,0,0:0:0:0:
64,192,15276,1,0,0:0:0:0:
192,192,15361,1,0,0:0:0:0:
320,192,15446,1,0,0:0:0:0:
448,192,15531,1,0,0:0:0:0:
320,192,15615,1,0,0:0:0:0:
192,192,15700,1,0,0:0:0:0:
64,192,15785,1,0,0:0:0:0:
448,192,15870,1,0,0:0:0:0:
320,192,15955,1,0,0:0:0:0:
64,192,16039,1,0,0:0:0:0:
192,192,16124,1,0,0:0:0:0:
320,192,16209,1,0,0:0:0:0:
448,192,16294,1,0,0:0:0:0:
192,192,16379,1,0,0:0:0:0:
64,192,16464,1,0,0:0:0:0:
320,192,16548,1,0,0:0:0:0:
448,192,16633,1,0,0:0:0:0:
192,192,16718,1,0,0:0:0:0:
320,192,16803,1,0,0:0:0:0:
448,192,16888,1,0,0:0:0:0:
192,192,16972,1,0,0:0:0:0:
64,192,17057,1,0,0:0:0:0:
320,192,17142,1,0,0:0:0:0:
448,192,17142,1,0,0:0:0:0:
192,192,17227,1,0,0:0:0:0:
320,192,17312,1,0,0:0:0:0:
448,192,17312,1,0,0:0:0:0:
448,192,17396,1,0,0:0:0:0:
320,192,17396,1,0,0:0:0:0:
320,192,17481,1,0,0:0:0:0:
448,192,17481,1,0,0:0:0:0:
448,192,17566,1,0,0:0:0:0:
320,192,17566,1,0,0:0:0:0:
320,192,17651,1,0,0:0:0:0:
448,192,17651,1,0,0:0:0:0:
64,192,17736,1,0,0:0:0:0:
192,192,17820,1,0,0:0:0:0:
320,192,17905,1,0,0:0:0:0:
448,192,17990,1,0,0:0:0:0:
320,192,17990,1,0,0:0:0:0:
320,192,18075,1,0,0:0:0:0:
448,192,18075,1,0,0:0:0:0:
448,192,18160,1,0,0:0:0:0:
320,192,18160,1,0,0:0:0:0:
320,192,18244,1,0,0:0:0:0:
448,192,18244,1,0,0:0:0:0:
320,192,18329,1,0,0:0:0:0:
448,192,18329,1,0,0:0:0:0:
192,192,18414,1,0,0:0:0:0:
64,192,18499,1,0,0:0:0:0:
448,192,18584,1,0,0:0:0:0:
448,192,18668,1,0,0:0:0:0:
320,192,18668,1,0,0:0:0:0:
320,192,18753,1,0,0:0:0:0:
448,192,18753,1,0,0:0:0:0:
448,192,18838,1,0,0:0:0:0:
320,192,18838,1,0,0:0:0:0:
320,192,18923,1,0,0:0:0:0:
448,192,18923,1,0,0:0:0:0:
320,192,19008,1,0,0:0:0:0:
448,192,19008,1,0,0:0:0:0:
64,192,19092,1,0,0:0:0:0:
192,192,19177,1,0,0:0:0:0:
320,192,19262,1,0,0:0:0:0:
448,192,19347,1,0,0:0:0:0:
320,192,19347,1,0,0:0:0:0:
320,192,19432,1,0,0:0:0:0:
448,192,19432,1,0,0:0:0:0:
448,192,19516,1,0,0:0:0:0:
320,192,19516,1,0,0:0:0:0:
320,192,19601,1,0,0:0:0:0:
448,192,19601,1,0,0:0:0:0:
448,192,19686,1,0,0:0:0:0:
320,192,19686,1,0,0:0:0:0:
192,192,19771,1,0,0:0:0:0:
320,192,19856,1,0,0:0:0:0:
448,192,19940,1,0,0:0:0:0:
320,192,20025,1,0,0:0:0:0:
448,192,20025,1,0,0:0:0:0:
448,192,20110,1,0,0:0:0:0:
320,192,20110,1,0,0:0:0:0:
320,192,20195,1,0,0:0:0:0:
448,192,20195,1,0,0:0:0:0:
448,192,20280,1,0,0:0:0:0:
320,192,20280,1,0,0:0:0:0:
320,192,20365,1,0,0:0:0:0:
448,192,20365,1,0,0:0:0:0:
320,192,20449,1,0,0:0:0:0:
448,192,20449,1,0,0:0:0:0:
448,192,20534,1,0,0:0:0:0:
320,192,20534,1,0,0:0:0:0:
320,192,20619,1,0,0:0:0:0:
448,192,20619,1,0,0:0:0:0:
448,192,20704,1,0,0:0:0:0:
320,192,20704,1,0,0:0:0:0:
320,192,20789,1,0,0:0:0:0:
448,192,20789,1,0,0:0:0:0:
320,192,20873,1,0,0:0:0:0:
448,192,20873,1,0,0:0:0:0:
320,192,20958,1,0,0:0:0:0:
448,192,20958,1,0,0:0:0:0:
320,192,21043,1,0,0:0:0:0:
448,192,21043,1,0,0:0:0:0:
320,192,21128,1,0,0:0:0:0:
448,192,21128,1,0,0:0:0:0:
320,192,21213,1,0,0:0:0:0:
448,192,21213,1,0,0:0:0:0:
320,192,21297,1,0,0:0:0:0:
448,192,21297,1,0,0:0:0:0:
64,192,21382,128,0,21425:0:0:0:0:
320,192,21382,1,0,0:0:0:0:
448,192,21382,1,0,0:0:0:0:
192,192,21403,128,0,21446:0:0:0:0:
320,192,21425,128,0,21467:0:0:0:0:
448,192,21446,128,0,21488:0:0:0:0:
64,192,21467,128,0,21509:0:0:0:0:
192,192,21488,128,0,21531:0:0:0:0:
320,192,21509,128,0,21552:0:0:0:0:
448,192,21531,128,0,21573:0:0:0:0:
64,192,21552,128,0,21594:0:0:0:0:
192,192,21573,128,0,21615:0:0:0:0:
320,192,21594,128,0,21637:0:0:0:0:
448,192,21615,128,0,21658:0:0:0:0:
64,192,21637,128,0,21679:0:0:0:0:
192,192,21658,128,0,21700:0:0:0:0:
320,192,21679,128,0,21721:0:0:0:0:
448,192,21700,128,0,21743:0:0:0:0:
64,192,21721,128,0,21764:0:0:0:0:
192,192,21743,128,0,21785:0:0:0:0:
320,192,21764,128,0,21806:0:0:0:0:
448,192,21785,128,0,21827:0:0:0:0:
64,192,21806,128,0,21849:0:0:0:0:
192,192,21827,128,0,21870:0:0:0:0:
320,192,21849,128,0,21891:0:0:0:0:
448,192,21870,128,0,21912:0:0:0:0:
64,192,21891,128,0,21933:0:0:0:0:
192,192,21912,128,0,21955:0:0:0:0:
320,192,21933,128,0,21976:0:0:0:0:
448,192,21955,128,0,21997:0:0:0:0:
64,192,21976,128,0,22018:0:0:0:0:
192,192,21997,128,0,22039:0:0:0:0:
320,192,22018,128,0,22061:0:0:0:0:
448,192,22039,128,0,22082:0:0:0:0:
64,192,22061,128,0,22103:0:0:0:0:
192,192,22082,128,0,22124:0:0:0:0:
320,192,22103,128,0,22145:0:0:0:0:
448,192,22124,128,0,22167:0:0:0:0:
64,192,22145,128,0,22188:0:0:0:0:
192,192,22167,128,0,22209:0:0:0:0:
320,192,22188,128,0,22230:0:0:0:0:
448,192,22209,128,0,22251:0:0:0:0:
64,192,22230,128,0,22273:0:0:0:0:
192,192,22251,128,0,22294:0:0:0:0:
320,192,22273,128,0,22315:0:0:0:0:
448,192,22294,128,0,22336:0:0:0:0:
64,192,22315,128,0,22357:0:0:0:0:
192,192,22336,128,0,22379:0:0:0:0:
320,192,22357,128,0,22400:0:0:0:0:
448,192,22379,128,0,22421:0:0:0:0:
64,192,22400,128,0,22442:0:0:0:0:
192,192,22421,128,0,22463:0:0:0:0:
320,192,22442,128,0,22485:0:0:0:0:
448,192,22463,128,0,22506:0:0:0:0:
64,192,22485,128,0,22527:0:0:0:0:
192,192,22506,128,0,22548:0:0:0:0:
320,192,22527,128,0,22569:0:0:0:0:
448,192,22548,128,0,22591:0:0:0:0:
64,192,22569,128,0,22612:0:0:0:0:
192,192,22591,128,0,22633:0:0:0:0:
320,192,22612,128,0,22654:0:0:0:0:
448,192,22633,128,0,22675:0:0:0:0:
64,192,22654,128,0,22697:0:0:0:0:
192,192,22675,128,0,22718:0:0:0:0:
320,192,22697,128,0,22739:0:0:0:0:
448,192,22718,128,0,22760:0:0:0:0:
64,192,22739,1,0,0:0:0:0:
192,192,22739,1,0,0:0:0:0:
192,192,22824,1,0,0:0:0:0:
64,192,22824,1,0,0:0:0:0:
64,192,22909,1,0,0:0:0:0:
192,192,22909,1,0,0:0:0:0:
192,192,22993,1,0,0:0:0:0:
64,192,22993,1,0,0:0:0:0:
64,192,23078,1,0,0:0:0:0:
192,192,23078,1,0,0:0:0:0:
192,192,23248,1,0,0:0:0:0:
64,192,23248,1,0,0:0:0:0:
64,192,23333,1,0,0:0:0:0:
192,192,23333,1,0,0:0:0:0:
192,192,23417,1,0,0:0:0:0:
64,192,23417,1,0,0:0:0:0:
64,192,23502,1,0,0:0:0:0:
192,192,23502,1,0,0:0:0:0:
192,192,23587,1,0,0:0:0:0:
64,192,23587,1,0,0:0:0:0:
192,192,23672,1,0,0:0:0:0:
64,192,23672,1,0,0:0:0:0:
192,192,23757,1,0,0:0:0:0:
64,192,23757,1,0,0:0:0:0:
320,192,23926,1,0,0:0:0:0:
448,192,23926,1,0,0:0:0:0:
64,192,23926,1,0,0:0:0:0:
64,192,24011,1,0,0:0:0:0:
320,192,24011,1,0,0:0:0:0:
448,192,24011,1,0,0:0:0:0:
448,192,24096,1,0,0:0:0:0:
320,192,24096,1,0,0:0:0:0:
64,192,24096,1,0,0:0:0:0:
64,192,24181,1,0,0:0:0:0:
320,192,24181,1,0,0:0:0:0:
448,192,24181,1,0,0:0:0:0:
448,192,24266,1,0,0:0:0:0:
320,192,24266,1,0,0:0:0:0:
64,192,24266,1,0,0:0:0:0:
64,192,24350,1,0,0:0:0:0:
320,192,24350,1,0,0:0:0:0:
448,192,24350,1,0,0:0:0:0:
320,192,24435,1,0,0:0:0:0:
448,192,24435,1,0,0:0:0:0:
64,192,24435,1,0,0:0:0:0:
192,192,24605,1,0,0:0:0:0:
320,192,24605,1,0,0:0:0:0:
320,192,24690,1,0,0:0:0:0:
192,192,24690,1,0,0:0:0:0:
192,192,24774,1,0,0:0:0:0:
320,192,24774,1,0,0:0:0:0:
320,192,24859,1,0,0:0:0:0:
192,192,24859,1,0,0:0:0:0:
192,192,24944,1,0,0:0:0:0:
320,192,24944,1,0,0:0:0:0:
320,192,25029,1,0,0:0:0:0:
192,192,25029,1,0,0:0:0:0:
192,192,25114,1,0,0:0:0:0:
320,192,25114,1,0,0:0:0:0:
192,192,25283,1,0,0:0:0:0:
64,192,25283,1,0,0:0:0:0:
64,192,25368,1,0,0:0:0:0:
192,192,25368,1,0,0:0:0:0:
320,192,25453,1,0,0:0:0:0:
448,192,25453,1,0,0:0:0:0:
448,192,25538,1,0,0:0:0:0:
320,192,25538,1,0,0:0:0:0:
320,192,25622,1,0,0:0:0:0:
448,192,25622,1,0,0:0:0:0:
448,192,25707,1,0,0:0:0:0:
320,192,25707,1,0,0:0:0:0:
320,192,25792,1,0,0:0:0:0:
448,192,25792,1,0,0:0:0:0:
320,192,25962,1,0,0:0:0:0:
448,192,25962,1,0,0:0:0:0:
448,192,26046,1,0,0:0:0:0:
320,192,26046,1,0,0:0:0:0:
320,192,26131,1,0,0:0:0:0:
448,192,26131,1,0,0:0:0:0:
448,192,26216,1,0,0:0:0:0:
320,192,26216,1,0,0:0:0:0:
320,192,26301,1,0,0:0:0:0:
448,192,26301,1,0,0:0:0:0:
448,192,26386,1,0,0:0:0:0:
320,192,26386,1,0,0:0:0:0:
320,192,26470,1,0,0:0:0:0:
448,192,26470,1,0,0:0:0:0:
64,192,26640,1,0,0:0:0:0:
192,192,26640,1,0,0:0:0:0:
192,192,26725,1,0,0:0:0:0:
64,192,26725,1,0,0:0:0:0:
448,192,26810,1,0,0:0:0:0:
320,192,26810,1,0,0:0:0:0:
64,192,26810,1,0,0:0:0:0:
320,192,26894,1,0,0:0:0:0:
448,192,26894,1,0,0:0:0:0:
448,192,26979,1,0,0:0:0:0:
320,192,26979,1,0,0:0:0:0:
192,192,26979,1,0,0:0:0:0:
320,192,27064,1,0,0:0:0:0:
448,192,27064,1,0,0:0:0:0:
448,192,27149,1,0,0:0:0:0:
320,192,27149,1,0,0:0:0:0:
320,192,27318,1,0,0:0:0:0:
448,192,27318,1,0,0:0:0:0:
192,192,27318,1,0,0:0:0:0:
448,192,27403,1,0,0:0:0:0:
320,192,27403,1,0,0:0:0:0:
64,192,27488,1,0,0:0:0:0:
320,192,27488,1,0,0:0:0:0:
448,192,27488,1,0,0:0:0:0:
448,192,27573,1,0,0:0:0:0:
320,192,27573,1,0,0:0:0:0:
320,192,27658,1,0,0:0:0:0:
448,192,27658,1,0,0:0:0:0:
448,192,27742,1,0,0:0:0:0:
320,192,27742,1,0,0:0:0:0:
192,192,27742,1,0,0:0:0:0:
320,192,27827,1,0,0:0:0:0:
448,192,27827,1,0,0:0:0:0:
64,192,27827,1,0,0:0:0:0:
192,192,27997,1,0,0:0:0:0:
64,192,27997,1,0,0:0:0:0:
320,192,27997,1,0,0:0:0:0:
192,192,28082,1,0,0:0:0:0:
64,192,28082,1,0,0:0:0:0:
320,192,28166,1,0,0:0:0:0:
192,192,28166,1,0,0:0:0:0:
64,192,28166,1,0,0:0:0:0:
448,192,28166,1,0,0:0:0:0:
448,192,28251,1,0,0:0:0:0:
320,192,28251,1,0,0:0:0:0:
320,192,28336,1,0,0:0:0:0:
448,192,28336,1,0,0:0:0:0:
448,192,28421,1,0,0:0:0:0:
320,192,28421,1,0,0:0:0:0:
320,192,28506,1,0,0:0:0:0:
448,192,28506,1,0,0:0:0:0:
192,192,28675,1,0,0:0:0:0:
64,192,28675,1,0,0:0:0:0:
192,192,28760,1,0,0:0:0:0:
64,192,28760,1,0,0:0:0:0:
64,192,28845,1,0,0:0:0:0:
192,192,28845,1,0,0:0:0:0:
192,192,28930,1,0,0:0:0:0:
64,192,28930,1,0,0:0:0:0:
64,192,29015,1,0,0:0:0:0:
192,192,29015,1,0,0:0:0:0:
64,192,29099,1,0,0:0:0:0:
192,192,29099,1,0,0:0:0:0:
192,192,29184,1,0,0:0:0:0:
64,192,29184,1,0,0:0:0:0:
64,192,29354,1,0,0:0:0:0:
448,192,29354,1,0,0:0:0:0:
320,192,29354,1,0,0:0:0:0:
320,192,29439,1,0,0:0:0:0:
64,192,29439,1,0,0:0:0:0:
448,192,29439,1,0,0:0:0:0:
64,192,29523,1,0,0:0:0:0:
448,192,29523,1,0,0:0:0:0:
320,192,29523,1,0,0:0:0:0:
320,192,29608,1,0,0:0:0:0:
64,192,29608,1,0,0:0:0:0:
448,192,29608,1,0,0:0:0:0:
448,192,29693,1,0,0:0:0:0:
320,192,29693,1,0,0:0:0:0:
64,192,29693,1,0,0:0:0:0:
448,192,29778,1,0,0:0:0:0:
64,192,29778,1,0,0:0:0:0:
320,192,29778,1,0,0:0:0:0:
64,192,29863,1,0,0:0:0:0:
448,192,29863,1,0,0:0:0:0:
320,192,29863,1,0,0:0:0:0:
192,192,30032,1,0,0:0:0:0:
320,192,30032,1,0,0:0:0:0:
192,192,30117,1,0,0:0:0:0:
320,192,30117,1,0,0:0:0:0:
320,192,30202,1,0,0:0:0:0:
192,192,30202,1,0,0:0:0:0:
192,192,30287,1,0,0:0:0:0:
320,192,30287,1,0,0:0:0:0:
320,192,30371,1,0,0:0:0:0:
192,192,30371,1,0,0:0:0:0:
192,192,30456,1,0,0:0:0:0:
320,192,30456,1,0,0:0:0:0:
320,192,30541,1,0,0:0:0:0:
192,192,30541,1,0,0:0:0:0:
320,192,30711,1,0,0:0:0:0:
448,192,30711,1,0,0:0:0:0:
448,192,30795,1,0,0:0:0:0:
320,192,30795,1,0,0:0:0:0:
192,192,30880,1,0,0:0:0:0:
64,192,30880,1,0,0:0:0:0:
64,192,30965,1,0,0:0:0:0:
192,192,30965,1,0,0:0:0:0:
192,192,31050,1,0,0:0:0:0:
64,192,31050,1,0,0:0:0:0:
64,192,31135,1,0,0:0:0:0:
192,192,31135,1,0,0:0:0:0:
192,192,31219,1,0,0:0:0:0:
64,192,31219,1,0,0:0:0:0:
192,192,31389,1,0,0:0:0:0:
64,192,31389,1,0,0:0:0:0:
64,192,31474,1,0,0:0:0:0:
192,192,31474,1,0,0:0:0:0:
192,192,31559,1,0,0:0:0:0:
64,192,31559,1,0,0:0:0:0:
64,192,31643,1,0,0:0:0:0:
192,192,31643,1,0,0:0:0:0:
192,192,31728,1,0,0:0:0:0:
64,192,31728,1,0,0:0:0:0:
64,192,31813,1,0,0:0:0:0:
192,192,31813,1,0,0:0:0:0:
192,192,31898,1,0,0:0:0:0:
64,192,31898,1,0,0:0:0:0:
448,192,32067,1,0,0:0:0:0:
320,192,32067,1,0,0:0:0:0:
320,192,32152,1,0,0:0:0:0:
448,192,32152,1,0,0:0:0:0:
64,192,32237,1,0,0:0:0:0:
192,192,32237,1,0,0:0:0:0:
448,192,32237,1,0,0:0:0:0:
192,192,32322,1,0,0:0:0:0:
64,192,32322,1,0,0:0:0:0:
64,192,32407,1,0,0:0:0:0:
192,192,32407,1,0,0:0:0:0:
320,192,32407,1,0,0:0:0:0:
192,192,32492,1,0,0:0:0:0:
64,192,32492,1,0,0:0:0:0:
64,192,32576,1,0,0:0:0:0:
192,192,32576,1,0,0:0:0:0:
192,192,32746,1,0,0:0:0:0:
64,192,32746,1,0,0:0:0:0:
320,192,32746,1,0,0:0:0:0:
448,192,32746,1,0,0:0:0:0:
64,192,32831,1,0,0:0:0:0:
192,192,32831,1,0,0:0:0:0:
448,192,32916,1,0,0:0:0:0:
192,192,32916,1,0,0:0:0:0:
64,192,32916,1,0,0:0:0:0:
64,192,33000,1,0,0:0:0:0:
192,192,33000,1,0,0:0:0:0:
192,192,33085,1,0,0:0:0:0:
64,192,33085,1,0,0:0:0:0:
64,192,33170,1,0,0:0:0:0:
192,192,33170,1,0,0:0:0:0:
320,192,33170,1,0,0:0:0:0:
192,192,33255,1,0,0:0:0:0:
64,192,33255,1,0,0:0:0:0:
448,192,33255,1,0,0:0:0:0:
320,192,33424,1,0,0:0:0:0:
448,192,33424,1,0,0:0:0:0:
192,192,33424,1,0,0:0:0:0:
320,192,33509,1,0,0:0:0:0:
448,192,33509,1,0,0:0:0:0:
192,192,33594,1,0,0:0:0:0:
320,192,33594,1,0,0:0:0:0:
448,192,33594,1,0,0:0:0:0:
64,192,33594,1,0,0:0:0:0:
64,192,33679,1,0,0:0:0:0:
192,192,33679,1,0,0:0:0:0:
192,192,33764,1,0,0:0:0:0:
64,192,33764,1,0,0:0:0:0:
64,192,33848,1,0,0:0:0:0:
192,192,33848,1,0,0:0:0:0:
192,192,33933,1,0,0:0:0:0:
64,192,33933,1,0,0:0:0:0:
320,192,34103,1,0,0:0:0:0:
448,192,34103,1,0,0:0:0:0:
320,192,34188,1,0,0:0:0:0:
448,192,34188,1,0,0:0:0:0:
448,192,34272,1,0,0:0:0:0:
320,192,34272,1,0,0:0:0:0:
320,192,34357,1,0,0:0:0:0:
448,192,34357,1,0,0:0:0:0:
448,192,34442,1,0,0:0:0:0:
320,192,34442,1,0,0:0:0:0:
448,192,34527,1,0,0:0:0:0:
320,192,34527,1,0,0:0:0:0:
320,192,34612,1,0,0:0:0:0:
448,192,34612,1,0,0:0:0:0:
448,192,34781,1,0,0:0:0:0:
64,192,34781,1,0,0:0:0:0:
192,192,34781,1,0,0:0:0:0:
192,192,34866,1,0,0:0:0:0:
448,192,34866,1,0,0:0:0:0:
64,192,34866,1,0,0:0:0:0:
448,192,34951,1,0,0:0:0:0:
64,192,34951,1,0,0:0:0:0:
192,192,34951,1,0,0:0:0:0:
192,192,35036,1,0,0:0:0:0:
448,192,35036,1,0,0:0:0:0:
64,192,35036,1,0,0:0:0:0:
64,192,35120,1,0,0:0:0:0:
192,192,35120,1,0,0:0:0:0:
448,192,35120,1,0,0:0:0:0:
64,192,35205,1,0,0:0:0:0:
448,192,35205,1,0,0:0:0:0:
192,192,35205,1,0,0:0:0:0:
448,192,35290,1,0,0:0:0:0:
64,192,35290,1,0,0:0:0:0:
192,192,35290,1,0,0:0:0:0:
320,192,35460,1,0,0:0:0:0:
192,192,35460,1,0,0:0:0:0:
320,192,35544,1,0,0:0:0:0:
192,192,35544,1,0,0:0:0:0:
192,192,35629,1,0,0:0:0:0:
320,192,35629,1,0,0:0:0:0:
320,192,35714,1,0,0:0:0:0:
192,192,35714,1,0,0:0:0:0:
192,192,35799,1,0,0:0:0:0:
320,192,35799,1,0,0:0:0:0:
320,192,35884,1,0,0:0:0:0:
192,192,35884,1,0,0:0:0:0:
192,192,35968,1,0,0:0:0:0:
320,192,35968,1,0,0:0:0:0:
192,192,36138,1,0,0:0:0:0:
64,192,36138,1,0,0:0:0:0:
64,192,36223,1,0,0:0:0:0:
192,192,36223,1,0,0:0:0:0:
320,192,36308,1,0,0:0:0:0:
448,192,36308,1,0,0:0:0:0:
448,192,36393,1,0,0:0:0:0:
320,192,36393,1,0,0:0:0:0:
320,192,36477,1,0,0:0:0:0:
448,192,36477,1,0,0:0:0:0:
448,192,36562,1,0,0:0:0:0:
320,192,36562,1,0,0:0:0:0:
320,192,36647,1,0,0:0:0:0:
448,192,36647,1,0,0:0:0:0:
320,192,36817,1,0,0:0:0:0:
448,192,36817,1,0,0:0:0:0:
448,192,36901,1,0,0:0:0:0:
320,192,36901,1,0,0:0:0:0:
320,192,36986,1,0,0:0:0:0:
448,192,36986,1,0,0:0:0:0:
448,192,37071,1,0,0:0:0:0:
320,192,37071,1,0,0:0:0:0:
320,192,37156,1,0,0:0:0:0:
448,192,37156,1,0,0:0:0:0:
448,192,37241,1,0,0:0:0:0:
320,192,37241,1,0,0:0:0:0:
320,192,37325,1,0,0:0:0:0:
448,192,37325,1,0,0:0:0:0:
192,192,37495,1,0,0:0:0:0:
320,192,37495,1,0,0:0:0:0:
320,192,37580,1,0,0:0:0:0:
192,192,37580,1,0,0:0:0:0:
192,192,37665,1,0,0:0:0:0:
64,192,37665,1,0,0:0:0:0:
448,192,37665,1,0,0:0:0:0:
192,192,37749,1,0,0:0:0:0:
64,192,37749,1,0,0:0:0:0:
64,192,37834,1,0,0:0:0:0:
192,192,37834,1,0,0:0:0:0:
320,192,37834,1,0,0:0:0:0:
192,192,37919,1,0,0:0:0:0:
64,192,37919,1,0,0:0:0:0:
64,192,38004,1,0,0:0:0:0:
192,192,38004,1,0,0:0:0:0:
192,192,38173,1,0,0:0:0:0:
64,192,38173,1,0,0:0:0:0:
320,192,38173,1,0,0:0:0:0:
448,192,38173,1,0,0:0:0:0:
64,192,38258,1,0,0:0:0:0:
192,192,38258,1,0,0:0:0:0:
192,192,38343,1,0,0:0:0:0:
64,192,38343,1,0,0:0:0:0:
448,192,38343,1,0,0:0:0:0:
64,192,38428,1,0,0:0:0:0:
192,192,38428,1,0,0:0:0:0:
192,192,38513,1,0,0:0:0:0:
64,192,38513,1,0,0:0:0:0:
64,192,38597,1,0,0:0:0:0:
192,192,38597,1,0,0:0:0:0:
320,192,38597,1,0,0:0:0:0:
192,192,38682,1,0,0:0:0:0:
64,192,38682,1,0,0:0:0:0:
448,192,38682,1,0,0:0:0:0:
192,192,38852,1,0,0:0:0:0:
320,192,38852,1,0,0:0:0:0:
320,192,38937,1,0,0:0:0:0:
192,192,38937,1,0,0:0:0:0:
320,192,39021,1,0,0:0:0:0:
448,192,39021,1,0,0:0:0:0:
64,192,39021,1,0,0:0:0:0:
320,192,39106,1,0,0:0:0:0:
448,192,39106,1,0,0:0:0:0:
448,192,39191,1,0,0:0:0:0:
320,192,39191,1,0,0:0:0:0:
320,192,39276,1,0,0:0:0:0:
448,192,39276,1,0,0:0:0:0:
448,192,39361,1,0,0:0:0:0:
320,192,39361,1,0,0:0:0:0:
320,192,39530,1,0,0:0:0:0:
448,192,39530,1,0,0:0:0:0:
448,192,39615,1,0,0:0:0:0:
320,192,39615,1,0,0:0:0:0:
320,192,39700,1,0,0:0:0:0:
448,192,39700,1,0,0:0:0:0:
448,192,39785,1,0,0:0:0:0:
320,192,39785,1,0,0:0:0:0:
320,192,39869,1,0,0:0:0:0:
448,192,39869,1,0,0:0:0:0:
320,192,39954,1,0,0:0:0:0:
448,192,39954,1,0,0:0:0:0:
320,192,40039,1,0,0:0:0:0:
448,192,40039,1,0,0:0:0:0:
192,192,40209,1,0,0:0:0:0:
64,192,40209,1,0,0:0:0:0:
448,192,40209,1,0,0:0:0:0:
448,192,40294,1,0,0:0:0:0:
192,192,40294,1,0,0:0:0:0:
64,192,40294,1,0,0:0:0:0:
64,192,40378,1,0,0:0:0:0:
192,192,40378,1,0,0:0:0:0:
448,192,40378,1,0,0:0:0:0:
448,192,40463,1,0,0:0:0:0:
192,192,40463,1,0,0:0:0:0:
64,192,40463,1,0,0:0:0:0:
64,192,40548,1,0,0:0:0:0:
192,192,40548,1,0,0:0:0:0:
448,192,40548,1,0,0:0:0:0:
448,192,40633,1,0,0:0:0:0:
192,192,40633,1,0,0:0:0:0:
64,192,40633,1,0,0:0:0:0:
192,192,40718,1,0,0:0:0:0:
64,192,40718,1,0,0:0:0:0:
448,192,40718,1,0,0:0:0:0:
320,192,40887,1,0,0:0:0:0:
192,192,40887,1,0,0:0:0:0:
192,192,40972,1,0,0:0:0:0:
320,192,40972,1,0,0:0:0:0:
320,192,41057,1,0,0:0:0:0:
192,192,41057,1,0,0:0:0:0:
192,192,41142,1,0,0:0:0:0:
320,192,41142,1,0,0:0:0:0:
320,192,41226,1,0,0:0:0:0:
192,192,41226,1,0,0:0:0:0:
192,192,41311,1,0,0:0:0:0:
320,192,41311,1,0,0:0:0:0:
320,192,41396,1,0,0:0:0:0:
192,192,41396,1,0,0:0:0:0:
320,192,41566,1,0,0:0:0:0:
448,192,41566,1,0,0:0:0:0:
448,192,41650,1,0,0:0:0:0:
320,192,41650,1,0,0:0:0:0:
192,192,41735,1,0,0:0:0:0:
64,192,41735,1,0,0:0:0:0:
64,192,41820,1,0,0:0:0:0:
192,192,41820,1,0,0:0:0:0:
192,192,41905,1,0,0:0:0:0:
64,192,41905,1,0,0:0:0:0:
64,192,41990,1,0,0:0:0:0:
192,192,41990,1,0,0:0:0:0:
192,192,42074,1,0,0:0:0:0:
64,192,42074,1,0,0:0:0:0:
192,192,42244,1,0,0:0:0:0:
64,192,42244,1,0,0:0:0:0:
64,192,42329,1,0,0:0:0:0:
192,192,42329,1,0,0:0:0:0:
192,192,42414,1,0,0:0:0:0:
64,192,42414,1,0,0:0:0:0:
64,192,42498,1,0,0:0:0:0:
192,192,42498,1,0,0:0:0:0:
192,192,42583,1,0,0:0:0:0:
64,192,42583,1,0,0:0:0:0:
64,192,42668,1,0,0:0:0:0:
192,192,42668,1,0,0:0:0:0:
192,192,42753,1,0,0:0:0:0:
64,192,42753,1,0,0:0:0:0:
448,192,42922,1,0,0:0:0:0:
320,192,42922,1,0,0:0:0:0:
320,192,43007,1,0,0:0:0:0:
448,192,43007,1,0,0:0:0:0:
64,192,43092,1,0,0:0:0:0:
192,192,43092,1,0,0:0:0:0:
448,192,43092,1,0,0:0:0:0:
192,192,43177,1,0,0:0:0:0:
64,192,43177,1,0,0:0:0:0:
64,192,43262,1,0,0:0:0:0:
192,192,43262,1,0,0:0:0:0:
320,192,43262,1,0,0:0:0:0:
192,192,43346,1,0,0:0:0:0:
64,192,43346,1,0,0:0:0:0:
64,192,43431,1,0,0:0:0:0:
192,192,43431,1,0,0:0:0:0:
192,192,43601,1,0,0:0:0:0:
64,192,43601,1,0,0:0:0:0:
320,192,43601,1,0,0:0:0:0:
64,192,43686,1,0,0:0:0:0:
192,192,43686,1,0,0:0:0:0:
448,192,43770,1,0,0:0:0:0:
192,192,43770,1,0,0:0:0:0:
64,192,43770,1,0,0:0:0:0:
320,192,43770,1,0,0:0:0:0:
64,192,43855,1,0,0:0:0:0:
192,192,43855,1,0,0:0:0:0:
192,192,43940,1,0,0:0:0:0:
64,192,43940,1,0,0:0:0:0:
64,192,44025,1,0,0:0:0:0:
192,192,44025,1,0,0:0:0:0:
448,192,44025,1,0,0:0:0:0:
192,192,44110,1,0,0:0:0:0:
64,192,44110,1,0,0:0:0:0:
320,192,44110,1,0,0:0:0:0:
320,192,44279,1,0,0:0:0:0:
448,192,44279,1,0,0:0:0:0:
192,192,44279,1,0,0:0:0:0:
320,192,44364,1,0,0:0:0:0:
448,192,44364,1,0,0:0:0:0:
192,192,44449,1,0,0:0:0:0:
320,192,44449,1,0,0:0:0:0:
448,192,44449,1,0,0:0:0:0:
64,192,44449,1,0,0:0:0:0:
64,192,44534,1,0,0:0:0:0:
192,192,44534,1,0,0:0:0:0:
192,192,44619,1,0,0:0:0:0:
64,192,44619,1,0,0:0:0:0:
64,192,44703,1,0,0:0:0:0:
192,192,44703,1,0,0:0:0:0:
192,192,44788,1,0,0:0:0:0:
64,192,44788,1,0,0:0:0:0:
64,192,44873,1,0,0:0:0:0:
320,192,44958,1,0,0:0:0:0:
448,192,44958,1,0,0:0:0:0:
320,192,45043,1,0,0:0:0:0:
448,192,45043,1,0,0:0:0:0:
448,192,45127,1,0,0:0:0:0:
320,192,45127,1,0,0:0:0:0:
320,192,45212,1,0,0:0:0:0:
448,192,45212,1,0,0:0:0:0:
448,192,45297,1,0,0:0:0:0:
320,192,45297,1,0,0:0:0:0:
192,192,45382,1,0,0:0:0:0:
320,192,45467,1,0,0:0:0:0:
448,192,45467,1,0,0:0:0:0:
192,192,45551,1,0,0:0:0:0:
448,192,45636,1,0,0:0:0:0:
320,192,45636,1,0,0:0:0:0:
64,192,45636,1,0,0:0:0:0:
448,192,45806,1,0,0:0:0:0:
64,192,45806,1,0,0:0:0:0:
192,192,45806,1,0,0:0:0:0:
192,192,45891,1,0,0:0:0:0:
448,192,45891,1,0,0:0:0:0:
64,192,45891,1,0,0:0:0:0:
64,192,45975,1,0,0:0:0:0:
192,192,45975,1,0,0:0:0:0:
448,192,45975,1,0,0:0:0:0:
64,192,46060,1,0,0:0:0:0:
448,192,46060,1,0,0:0:0:0:
192,192,46060,1,0,0:0:0:0:
448,192,46145,1,0,0:0:0:0:
64,192,46145,1,0,0:0:0:0:
192,192,46145,1,0,0:0:0:0:
64,192,46230,1,0,0:0:0:0:
320,192,46315,1,0,0:0:0:0:
192,192,46315,1,0,0:0:0:0:
320,192,46399,1,0,0:0:0:0:
192,192,46399,1,0,0:0:0:0:
192,192,46484,1,0,0:0:0:0:
320,192,46484,1,0,0:0:0:0:
320,192,46569,1,0,0:0:0:0:
192,192,46569,1,0,0:0:0:0:
192,192,46654,1,0,0:0:0:0:
320,192,46654,1,0,0:0:0:0:
448,192,46739,1,0,0:0:0:0:
192,192,46823,1,0,0:0:0:0:
320,192,46823,1,0,0:0:0:0:
64,192,46823,1,0,0:0:0:0:
320,192,46993,1,0,0:0:0:0:
448,192,46993,1,0,0:0:0:0:
192,192,46993,1,0,0:0:0:0:
64,192,47163,1,0,0:0:0:0:
192,192,47163,1,0,0:0:0:0:
192,192,47247,1,0,0:0:0:0:
64,192,47247,1,0,0:0:0:0:
64,192,47332,1,0,0:0:0:0:
192,192,47332,1,0,0:0:0:0:
448,192,47417,1,0,0:0:0:0:
192,192,47502,1,0,0:0:0:0:
320,192,47502,1,0,0:0:0:0:
64,192,47587,1,0,0:0:0:0:
320,192,47671,1,0,0:0:0:0:
448,192,47671,1,0,0:0:0:0:
448,192,47756,1,0,0:0:0:0:
320,192,47756,1,0,0:0:0:0:
320,192,47841,1,0,0:0:0:0:
448,192,47841,1,0,0:0:0:0:
448,192,47926,1,0,0:0:0:0:
320,192,47926,1,0,0:0:0:0:
320,192,48011,1,0,0:0:0:0:
448,192,48011,1,0,0:0:0:0:
192,192,48095,1,0,0:0:0:0:
320,192,48180,1,0,0:0:0:0:
448,192,48180,1,0,0:0:0:0:
448,192,48265,1,0,0:0:0:0:
64,192,48350,1,0,0:0:0:0:
192,192,48350,1,0,0:0:0:0:
192,192,48435,1,0,0:0:0:0:
64,192,48435,1,0,0:0:0:0:
64,192,48520,1,0,0:0:0:0:
192,192,48520,1,0,0:0:0:0:
192,192,48604,1,0,0:0:0:0:
64,192,48604,1,0,0:0:0:0:
192,192,48689,1,0,0:0:0:0:
64,192,48689,1,0,0:0:0:0:
448,192,48774,1,0,0:0:0:0:
192,192,48859,1,0,0:0:0:0:
64,192,48859,1,0,0:0:0:0:
320,192,48859,1,0,0:0:0:0:
320,192,49028,1,0,0:0:0:0:
448,192,49028,1,0,0:0:0:0:
448,192,49113,1,0,0:0:0:0:
320,192,49113,1,0,0:0:0:0:
320,192,49198,1,0,0:0:0:0:
448,192,49198,1,0,0:0:0:0:
448,192,49283,1,0,0:0:0:0:
320,192,49283,1,0,0:0:0:0:
320,192,49368,1,0,0:0:0:0:
448,192,49368,1,0,0:0:0:0:
64,192,49452,1,0,0:0:0:0:
320,192,49537,1,0,0:0:0:0:
448,192,49537,1,0,0:0:0:0:
192,192,49537,1,0,0:0:0:0:
192,192,49707,1,0,0:0:0:0:
64,192,49707,1,0,0:0:0:0:
320,192,49707,1,0,0:0:0:0:
320,192,49876,1,0,0:0:0:0:
192,192,49876,1,0,0:0:0:0:
64,192,49876,1,0,0:0:0:0:
448,192,49876,1,0,0:0:0:0:
448,192,49961,1,0,0:0:0:0:
320,192,49961,1,0,0:0:0:0:
320,192,50046,1,0,0:0:0:0:
448,192,50046,1,0,0:0:0:0:
192,192,50131,1,0,0:0:0:0:
320,192,50216,1,0,0:0:0:0:
448,192,50216,1,0,0:0:0:0:
448,192,50300,1,0,0:0:0:0:
192,192,50385,1,0,0:0:0:0:
64,192,50385,1,0,0:0:0:0:
192,192,50470,1,0,0:0:0:0:
64,192,50470,1,0,0:0:0:0:
64,192,50555,1,0,0:0:0:0:
192,192,50555,1,0,0:0:0:0:
192,192,50640,1,0,0:0:0:0:
64,192,50640,1,0,0:0:0:0:
64,192,50724,1,0,0:0:0:0:
192,192,50724,1,0,0:0:0:0:
320,192,50809,1,0,0:0:0:0:
192,192,50894,1,0,0:0:0:0:
64,192,50894,1,0,0:0:0:0:
448,192,50979,1,0,0:0:0:0:
64,192,51064,1,0,0:0:0:0:
192,192,51064,1,0,0:0:0:0:
320,192,51064,1,0,0:0:0:0:
448,192,51233,1,0,0:0:0:0:
320,192,51233,1,0,0:0:0:0:
320,192,51318,1,0,0:0:0:0:
448,192,51318,1,0,0:0:0:0:
448,192,51403,1,0,0:0:0:0:
320,192,51403,1,0,0:0:0:0:
192,192,51488,1,0,0:0:0:0:
448,192,51572,1,0,0:0:0:0:
320,192,51572,1,0,0:0:0:0:
64,192,51657,1,0,0:0:0:0:
192,192,51742,1,0,0:0:0:0:
320,192,51742,1,0,0:0:0:0:
192,192,51827,1,0,0:0:0:0:
320,192,51827,1,0,0:0:0:0:
320,192,51912,1,0,0:0:0:0:
192,192,51912,1,0,0:0:0:0:
192,192,51996,1,0,0:0:0:0:
320,192,51996,1,0,0:0:0:0:
320,192,52081,1,0,0:0:0:0:
192,192,52081,1,0,0:0:0:0:
64,192,52166,1,0,0:0:0:0:
320,192,52251,1,0,0:0:0:0:
192,192,52251,1,0,0:0:0:0:
448,192,52251,1,0,0:0:0:0:
320,192,52421,1,0,0:0:0:0:
448,192,52421,1,0,0:0:0:0:
192,192,52590,1,0,0:0:0:0:
64,192,52590,1,0,0:0:0:0:
64,192,52675,1,0,0:0:0:0:
192,192,52675,1,0,0:0:0:0:
192,192,52760,1,0,0:0:0:0:
64,192,52760,1,0,0:0:0:0:
320,192,52760,1,0,0:0:0:0:
448,192,52929,1,0,0:0:0:0:
320,192,52929,1,0,0:0:0:0:
192,192,52929,1,0,0:0:0:0:
192,192,53099,1,0,0:0:0:0:
64,192,53099,1,0,0:0:0:0:
64,192,53184,1,0,0:0:0:0:
192,192,53184,1,0,0:0:0:0:
192,192,53269,1,0,0:0:0:0:
64,192,53269,1,0,0:0:0:0:
64,192,53353,1,0,0:0:0:0:
192,192,53353,1,0,0:0:0:0:
192,192,53438,1,0,0:0:0:0:
64,192,53438,1,0,0:0:0:0:
320,192,53523,1,0,0:0:0:0:
192,192,53608,1,0,0:0:0:0:
64,192,53608,1,0,0:0:0:0:
448,192,53693,1,0,0:0:0:0:
320,192,53777,1,0,0:0:0:0:
192,192,53777,1,0,0:0:0:0:
192,192,53862,1,0,0:0:0:0:
320,192,53862,1,0,0:0:0:0:
320,192,53947,1,0,0:0:0:0:
192,192,53947,1,0,0:0:0:0:
320,192,54032,1,0,0:0:0:0:
192,192,54032,1,0,0:0:0:0:
320,192,54117,1,0,0:0:0:0:
192,192,54117,1,0,0:0:0:0:
320,192,54286,1,0,0:0:0:0:
192,192,54286,1,0,0:0:0:0:
64,192,54286,1,0,0:0:0:0:
320,192,54456,1,0,0:0:0:0:
448,192,54456,1,0,0:0:0:0:
192,192,54456,1,0,0:0:0:0:
320,192,54541,1,0,0:0:0:0:
448,192,54541,1,0,0:0:0:0:
320,192,54625,1,0,0:0:0:0:
448,192,54625,1,0,0:0:0:0:
448,192,54710,1,0,0:0:0:0:
320,192,54710,1,0,0:0:0:0:
320,192,54795,1,0,0:0:0:0:
448,192,54795,1,0,0:0:0:0:
192,192,54880,1,0,0:0:0:0:
320,192,54965,1,0,0:0:0:0:
448,192,54965,1,0,0:0:0:0:
64,192,54965,1,0,0:0:0:0:
320,192,55134,1,0,0:0:0:0:
192,192,55134,1,0,0:0:0:0:
448,192,55134,1,0,0:0:0:0:
320,192,55219,1,0,0:0:0:0:
448,192,55219,1,0,0:0:0:0:
64,192,55304,1,0,0:0:0:0:
320,192,55304,1,0,0:0:0:0:
192,192,55304,1,0,0:0:0:0:
64,192,55389,1,0,0:0:0:0:
192,192,55389,1,0,0:0:0:0:
192,192,55473,1,0,0:0:0:0:
64,192,55473,1,0,0:0:0:0:
320,192,55558,1,0,0:0:0:0:
192,192,55643,1,0,0:0:0:0:
64,192,55643,1,0,0:0:0:0:
64,192,55728,1,0,0:0:0:0:
320,192,55813,1,0,0:0:0:0:
448,192,55813,1,0,0:0:0:0:
320,192,55897,1,0,0:0:0:0:
448,192,55897,1,0,0:0:0:0:
448,192,55982,1,0,0:0:0:0:
320,192,55982,1,0,0:0:0:0:
320,192,56067,1,0,0:0:0:0:
448,192,56067,1,0,0:0:0:0:
448,192,56152,1,0,0:0:0:0:
320,192,56152,1,0,0:0:0:0:
192,192,56237,1,0,0:0:0:0:
320,192,56321,1,0,0:0:0:0:
448,192,56321,1,0,0:0:0:0:
64,192,56406,1,0,0:0:0:0:
448,192,56491,1,0,0:0:0:0:
320,192,56491,1,0,0:0:0:0:
192,192,56491,1,0,0:0:0:0:
448,192,56661,1,0,0:0:0:0:
64,192,56661,1,0,0:0:0:0:
192,192,56661,1,0,0:0:0:0:
192,192,56746,1,0,0:0:0:0:
448,192,56746,1,0,0:0:0:0:
64,192,56746,1,0,0:0:0:0:
64,192,56830,1,0,0:0:0:0:
192,192,56830,1,0,0:0:0:0:
448,192,56830,1,0,0:0:0:0:
320,192,56915,1,0,0:0:0:0:
448,192,57000,1,0,0:0:0:0:
64,192,57000,1,0,0:0:0:0:
192,192,57000,1,0,0:0:0:0:
448,192,57085,1,0,0:0:0:0:
320,192,57170,1,0,0:0:0:0:
192,192,57170,1,0,0:0:0:0:
320,192,57254,1,0,0:0:0:0:
192,192,57254,1,0,0:0:0:0:
192,192,57339,1,0,0:0:0:0:
320,192,57339,1,0,0:0:0:0:
320,192,57424,1,0,0:0:0:0:
192,192,57424,1,0,0:0:0:0:
192,192,57509,1,0,0:0:0:0:
320,192,57509,1,0,0:0:0:0:
448,192,57594,1,0,0:0:0:0:
192,192,57678,1,0,0:0:0:0:
320,192,57678,1,0,0:0:0:0:
64,192,57678,1,0,0:0:0:0:
192,192,57848,1,0,0:0:0:0:
64,192,57848,1,0,0:0:0:0:
320,192,58018,1,0,0:0:0:0:
448,192,58018,1,0,0:0:0:0:
448,192,58102,1,0,0:0:0:0:
320,192,58102,1,0,0:0:0:0:
320,192,58187,1,0,0:0:0:0:
448,192,58187,1,0,0:0:0:0:
64,192,58272,1,0,0:0:0:0:
192,192,58357,1,0,0:0:0:0:
320,192,58357,1,0,0:0:0:0:
448,192,58442,1,0,0:0:0:0:
64,192,58526,1,0,0:0:0:0:
192,192,58526,1,0,0:0:0:0:
192,192,58611,1,0,0:0:0:0:
64,192,58611,1,0,0:0:0:0:
64,192,58696,1,0,0:0:0:0:
192,192,58696,1,0,0:0:0:0:
192,192,58781,1,0,0:0:0:0:
64,192,58781,1,0,0:0:0:0:
64,192,58866,1,0,0:0:0:0:
192,192,58866,1,0,0:0:0:0:
448,192,58950,1,0,0:0:0:0:
320,192,59035,1,0,0:0:0:0:
192,192,59035,1,0,0:0:0:0:
64,192,59120,1,0,0:0:0:0:
320,192,59205,1,0,0:0:0:0:
448,192,59205,1,0,0:0:0:0:
192,192,59290,1,0,0:0:0:0:
320,192,59374,1,0,0:0:0:0:
448,192,59374,1,0,0:0:0:0:
192,192,59374,1,0,0:0:0:0:
448,192,59459,1,0,0:0:0:0:
320,192,59459,1,0,0:0:0:0:
320,192,59544,1,0,0:0:0:0:
64,192,59544,1,0,0:0:0:0:
192,192,59544,1,0,0:0:0:0:
448,192,59629,1,0,0:0:0:0:
64,192,59629,1,0,0:0:0:0:
192,192,59714,1,0,0:0:0:0:
320,192,59714,1,0,0:0:0:0:
448,192,59714,1,0,0:0:0:0:
192,192,59883,1,0,0:0:0:0:
64,192,59883,1,0,0:0:0:0:
320,192,59883,1,0,0:0:0:0:
192,192,59968,1,0,0:0:0:0:
64,192,59968,1,0,0:0:0:0:
192,192,60053,1,0,0:0:0:0:
64,192,60053,1,0,0:0:0:0:
64,192,60138,1,0,0:0:0:0:
192,192,60138,1,0,0:0:0:0:
192,192,60222,1,0,0:0:0:0:
64,192,60222,1,0,0:0:0:0:
320,192,60307,1,0,0:0:0:0:
192,192,60392,1,0,0:0:0:0:
64,192,60392,1,0,0:0:0:0:
448,192,60392,1,0,0:0:0:0:
192,192,60562,1,0,0:0:0:0:
320,192,60562,1,0,0:0:0:0:
448,192,60562,1,0,0:0:0:0:
64,192,60731,1,0,0:0:0:0:
192,192,60731,1,0,0:0:0:0:
320,192,60731,1,0,0:0:0:0:
192,192,60816,1,0,0:0:0:0:
64,192,60816,1,0,0:0:0:0:
320,192,60816,1,0,0:0:0:0:
64,192,60901,1,0,0:0:0:0:
192,192,60901,1,0,0:0:0:0:
320,192,60901,1,0,0:0:0:0:
192,192,61071,1,0,0:0:0:0:
320,192,61071,1,0,0:0:0:0:
448,192,61071,1,0,0:0:0:0:
320,192,61240,1,0,0:0:0:0:
448,192,61240,1,0,0:0:0:0:
64,192,61240,1,0,0:0:0:0:
192,192,61410,1,0,0:0:0:0:
64,192,61410,1,0,0:0:0:0:
320,192,61410,1,0,0:0:0:0:
192,192,61495,1,0,0:0:0:0:
64,192,61495,1,0,0:0:0:0:
320,192,61495,1,0,0:0:0:0:
64,192,61579,1,0,0:0:0:0:
192,192,61579,1,0,0:0:0:0:
320,192,61579,1,0,0:0:0:0:
320,192,61749,1,0,0:0:0:0:
448,192,61749,1,0,0:0:0:0:
192,192,61749,1,0,0:0:0:0:
192,192,61919,1,0,0:0:0:0:
64,192,61919,1,0,0:0:0:0:
448,192,61919,1,0,0:0:0:0:
320,192,62088,1,0,0:0:0:0:
448,192,62088,1,0,0:0:0:0:
64,192,62088,1,0,0:0:0:0:
448,192,62173,1,0,0:0:0:0:
320,192,62173,1,0,0:0:0:0:
64,192,62173,1,0,0:0:0:0:
320,192,62258,1,0,0:0:0:0:
448,192,62258,1,0,0:0:0:0:
64,192,62258,1,0,0:0:0:0:
192,192,62427,1,0,0:0:0:0:
64,192,62427,1,0,0:0:0:0:
320,192,62427,1,0,0:0:0:0:
448,192,62427,1,0,0:0:0:0:
448,192,62597,1,0,0:0:0:0:
320,192,62597,1,0,0:0:0:0:
192,192,62597,1,0,0:0:0:0:
320,192,62767,1,0,0:0:0:0:
192,192,62767,1,0,0:0:0:0:
64,192,62767,1,0,0:0:0:0:
192,192,62851,1,0,0:0:0:0:
320,192,62851,1,0,0:0:0:0:
64,192,62851,1,0,0:0:0:0:
64,192,62936,1,0,0:0:0:0:
320,192,62936,1,0,0:0:0:0:
192,192,62936,1,0,0:0:0:0:
320,192,63106,1,0,0:0:0:0:
448,192,63106,1,0,0:0:0:0:
64,192,63106,1,0,0:0:0:0:
64,192,63275,1,0,0:0:0:0:
192,192,63275,1,0,0:0:0:0:
448,192,63275,1,0,0:0:0:0:
192,192,63445,1,0,0:0:0:0:
320,192,63445,1,0,0:0:0:0:
448,192,63445,1,0,0:0:0:0:
448,192,63530,1,0,0:0:0:0:
320,192,63530,1,0,0:0:0:0:
192,192,63530,1,0,0:0:0:0:
192,192,63615,1,0,0:0:0:0:
320,192,63615,1,0,0:0:0:0:
448,192,63615,1,0,0:0:0:0:
64,192,63615,1,0,0:0:0:0:
320,192,63784,1,0,0:0:0:0:
192,192,63784,1,0,0:0:0:0:
64,192,63784,1,0,0:0:0:0:
64,192,63869,1,0,0:0:0:0:
192,192,63869,1,0,0:0:0:0:
320,192,63869,1,0,0:0:0:0:
448,192,63954,1,0,0:0:0:0:
320,192,63954,1,0,0:0:0:0:
64,192,63954,1,0,0:0:0:0:
192,192,63954,1,0,0:0:0:0:
320,192,64123,1,0,0:0:0:0:
448,192,64123,1,0,0:0:0:0:
448,192,64208,1,0,0:0:0:0:
320,192,64208,1,0,0:0:0:0:
448,192,64293,1,0,0:0:0:0:
320,192,64293,1,0,0:0:0:0:
192,192,64293,1,0,0:0:0:0:
64,192,64463,1,0,0:0:0:0:
192,192,64463,1,0,0:0:0:0:
192,192,64548,1,0,0:0:0:0:
64,192,64548,1,0,0:0:0:0:
64,192,64632,1,0,0:0:0:0:
192,192,64632,1,0,0:0:0:0:
448,192,64632,1,0,0:0:0:0:
192,192,64802,1,0,0:0:0:0:
320,192,64802,1,0,0:0:0:0:
448,192,64802,1,0,0:0:0:0:
448,192,64887,1,0,0:0:0:0:
320,192,64887,1,0,0:0:0:0:
192,192,64887,1,0,0:0:0:0:
192,192,64972,1,0,0:0:0:0:
448,192,64972,1,0,0:0:0:0:
320,192,64972,1,0,0:0:0:0:
64,192,64972,1,0,0:0:0:0:
448,192,65056,1,0,0:0:0:0:
192,192,65056,1,0,0:0:0:0:
320,192,65056,1,0,0:0:0:0:
64,192,65056,1,0,0:0:0:0:
64,192,65141,1,0,0:0:0:0:
192,192,65141,1,0,0:0:0:0:
320,192,65141,1,0,0:0:0:0:
448,192,65141,1,0,0:0:0:0:
320,192,65226,1,0,0:0:0:0:
192,192,65226,1,0,0:0:0:0:
64,192,65226,1,0,0:0:0:0:
448,192,65226,1,0,0:0:0:0:
64,192,65311,1,0,0:0:0:0:
192,192,65311,1,0,0:0:0:0:
320,192,65311,1,0,0:0:0:0:
448,192,65311,1,0,0:0:0:0:
64,192,65396,1,0,0:0:0:0:
192,192,65396,1,0,0:0:0:0:
320,192,65396,1,0,0:0:0:0:
448,192,65396,1,0,0:0:0:0:
192,192,65480,1,0,0:0:0:0:
320,192,65480,1,0,0:0:0:0:
448,192,65480,1,0,0:0:0:0:
64,192,65480,1,0,0:0:0:0:
448,192,65565,1,0,0:0:0:0:
320,192,65565,1,0,0:0:0:0:
192,192,65565,1,0,0:0:0:0:
64,192,65565,1,0,0:0:0:0:
192,192,65650,1,0,0:0:0:0:
320,192,65650,1,0,0:0:0:0:
448,192,65650,1,0,0:0:0:0:
64,192,65650,1,0,0:0:0:0:
448,192,65735,1,0,0:0:0:0:
320,192,65735,1,0,0:0:0:0:
192,192,65735,1,0,0:0:0:0:
64,192,65735,1,0,0:0:0:0:
320,192,65820,1,0,0:0:0:0:
192,192,65820,1,0,0:0:0:0:
64,192,65820,1,0,0:0:0:0:
448,192,65820,1,0,0:0:0:0:
64,192,65904,1,0,0:0:0:0:
320,192,65904,1,0,0:0:0:0:
192,192,65904,1,0,0:0:0:0:
448,192,65904,1,0,0:0:0:0:
320,192,65989,1,0,0:0:0:0:
192,192,65989,1,0,0:0:0:0:
64,192,65989,1,0,0:0:0:0:
448,192,65989,1,0,0:0:0:0:
64,192,66074,1,0,0:0:0:0:
192,192,66074,1,0,0:0:0:0:
320,192,66074,1,0,0:0:0:0:
448,192,66074,1,0,0:0:0:0:
192,192,66159,1,0,0:0:0:0:
320,192,66159,1,0,0:0:0:0:
448,192,66159,1,0,0:0:0:0:
64,192,66159,1,0,0:0:0:0:
