osu file format v14

[General]
AudioFilename: Just Hold on (To All Fighters) void80.mp3
AudioLeadIn: 0
PreviewTime: 70318
Countdown: 0
SampleSet: Soft
StackLeniency: 0.7
Mode: 3
LetterboxInBreaks: 0
SpecialStyle: 0
WidescreenStoryboard: 1

[Editor]
DistanceSpacing: 1
BeatDivisor: 8
GridSize: 16
TimelineZoom: 1.9

[Metadata]
Title:4k Beginner Pack
TitleUnicode:4k Beginner Pack
Artist:Various Artists
ArtistUnicode:Various Artists
Creator:Yupyapyipyep
Version:void - Just Hold on (To All Fighters) [0.8x Rate]
Source:
Tags:
BeatmapID:2896173
BeatmapSetID:668952

[Difficulty]
HPDrainRate:5
CircleSize:4
OverallDifficulty:5
ApproachRate:5
SliderMultiplier:1.4
SliderTickRate:1

[Events]
//Background and Video events
0,0,"just-hold-on-bg.jpg",0,0
//Break Periods
//Storyboard Layer 0 (Background)
//Storyboard Layer 1 (Fail)
//Storyboard Layer 2 (Pass)
//Storyboard Layer 3 (Foreground)
//Storyboard Layer 4 (Overlay)
//Storyboard Sound Samples

[TimingPoints]
170,441.176470588235,4,2,0,100,1,0

[HitObjects]
448,192,170,5,0,0:0:0:0:
320,192,170,1,0,0:0:0:0:
64,192,610,1,0,0:0:0:0:
192,192,831,1,0,0:0:0:0:
320,192,1272,1,0,0:0:0:0:
448,192,1272,128,0,1934:0:0:0:0:
64,192,1934,1,0,0:0:0:0:
448,192,2375,1,0,0:0:0:0:
64,192,2596,1,0,0:0:0:0:
320,192,3038,128,0,3699:0:0:0:0:
448,192,3038,128,0,3699:0:0:0:0:
192,192,3699,1,0,0:0:0:0:
64,192,4140,1,0,0:0:0:0:
192,192,4360,1,0,0:0:0:0:
448,192,4801,128,0,5464:0:0:0:0:
320,192,4801,128,0,5464:0:0:0:0:
64,192,5464,1,0,0:0:0:0:
192,192,5905,1,0,0:0:0:0:
320,192,6125,1,0,0:0:0:0:
64,192,6566,128,0,7229:0:0:0:0:
448,192,7229,1,0,0:0:0:0:
320,192,7229,1,0,0:0:0:0:
192,192,7669,1,0,0:0:0:0:
320,192,7890,1,0,0:0:0:0:
64,192,8331,1,0,0:0:0:0:
448,192,8331,128,0,8992:0:0:0:0:
320,192,8992,1,0,0:0:0:0:
192,192,9434,1,0,0:0:0:0:
64,192,9655,1,0,0:0:0:0:
448,192,10096,128,0,10758:0:0:0:0:
64,192,10758,1,0,0:0:0:0:
320,192,11199,1,0,0:0:0:0:
192,192,11419,1,0,0:0:0:0:
448,192,11860,1,0,0:0:0:0:
64,192,11860,128,0,12522:0:0:0:0:
448,192,12522,1,0,0:0:0:0:
320,192,12964,1,0,0:0:0:0:
64,192,13184,1,0,0:0:0:0:
320,192,13625,128,0,14288:0:0:0:0:
448,192,13625,128,0,14288:0:0:0:0:
64,192,14288,1,0,0:0:0:0:
192,192,14729,1,0,0:0:0:0:
448,192,14949,1,0,0:0:0:0:
64,192,15390,128,0,16051:0:0:0:0:
192,192,15390,128,0,16051:0:0:0:0:
448,192,16051,1,0,0:0:0:0:
64,192,16492,1,0,0:0:0:0:
448,192,16714,1,0,0:0:0:0:
64,192,17155,128,0,17816:0:0:0:0:
192,192,17155,128,0,17816:0:0:0:0:
448,192,17816,1,0,0:0:0:0:
64,192,18258,1,0,0:0:0:0:
448,192,18479,1,0,0:0:0:0:
64,192,18919,128,0,19581:0:0:0:0:
448,192,19581,1,0,0:0:0:0:
320,192,20022,1,0,0:0:0:0:
64,192,20242,1,0,0:0:0:0:
448,192,20684,128,0,21346:0:0:0:0:
320,192,21346,1,0,0:0:0:0:
64,192,21788,1,0,0:0:0:0:
448,192,22008,1,0,0:0:0:0:
448,192,22449,128,0,23110:0:0:0:0:
320,192,23110,1,0,0:0:0:0:
64,192,23551,1,0,0:0:0:0:
448,192,23772,1,0,0:0:0:0:
192,192,24214,128,0,24875:0:0:0:0:
64,192,24214,128,0,24875:0:0:0:0:
448,192,24875,1,0,0:0:0:0:
192,192,25316,1,0,0:0:0:0:
448,192,25538,1,0,0:0:0:0:
64,192,25979,1,0,0:0:0:0:
448,192,25979,1,0,0:0:0:0:
320,192,26640,1,0,0:0:0:0:
448,192,26640,1,0,0:0:0:0:
64,192,27081,1,0,0:0:0:0:
192,192,27301,1,0,0:0:0:0:
448,192,27742,128,0,28405:0:0:0:0:
320,192,27742,128,0,28405:0:0:0:0:
192,192,28405,1,0,0:0:0:0:
64,192,28405,1,0,0:0:0:0:
320,192,28846,1,0,0:0:0:0:
448,192,28846,1,0,0:0:0:0:
64,192,29288,1,0,0:0:0:0:
192,192,29288,1,0,0:0:0:0:
448,192,29729,1,0,0:0:0:0:
192,192,29729,1,0,0:0:0:0:
320,192,30169,1,0,0:0:0:0:
64,192,30169,1,0,0:0:0:0:
64,192,30610,1,0,0:0:0:0:
448,192,30610,1,0,0:0:0:0:
192,192,31051,1,0,0:0:0:0:
320,192,31051,1,0,0:0:0:0:
64,192,31492,1,0,0:0:0:0:
192,192,31492,1,0,0:0:0:0:
320,192,31934,1,0,0:0:0:0:
448,192,31934,1,0,0:0:0:0:
320,192,32375,1,0,0:0:0:0:
192,192,32375,1,0,0:0:0:0:
64,192,32816,1,0,0:0:0:0:
448,192,32816,1,0,0:0:0:0:
320,192,33258,1,0,0:0:0:0:
64,192,33258,1,0,0:0:0:0:
192,192,33699,1,0,0:0:0:0:
448,192,33699,1,0,0:0:0:0:
64,192,34140,1,0,0:0:0:0:
448,192,34140,1,0,0:0:0:0:
64,192,34581,1,0,0:0:0:0:
192,192,34581,1,0,0:0:0:0:
64,192,35022,1,0,0:0:0:0:
320,192,35022,1,0,0:0:0:0:
64,192,35464,1,0,0:0:0:0:
448,192,35464,1,0,0:0:0:0:
192,192,35905,1,0,0:0:0:0:
320,192,35905,1,0,0:0:0:0:
320,192,36346,1,0,0:0:0:0:
448,192,36346,1,0,0:0:0:0:
64,192,36788,1,0,0:0:0:0:
192,192,36788,1,0,0:0:0:0:
192,192,37229,1,0,0:0:0:0:
448,192,37229,1,0,0:0:0:0:
320,192,37669,1,0,0:0:0:0:
64,192,37669,1,0,0:0:0:0:
192,192,38110,1,0,0:0:0:0:
448,192,38110,1,0,0:0:0:0:
64,192,38551,1,0,0:0:0:0:
448,192,38551,1,0,0:0:0:0:
192,192,38992,1,0,0:0:0:0:
320,192,38992,1,0,0:0:0:0:
320,192,39434,1,0,0:0:0:0:
448,192,39434,1,0,0:0:0:0:
64,192,39875,1,0,0:0:0:0:
192,192,39875,1,0,0:0:0:0:
320,192,40316,1,0,0:0:0:0:
448,192,40316,1,0,0:0:0:0:
192,192,40758,1,0,0:0:0:0:
64,192,40758,1,0,0:0:0:0:
64,192,41199,1,0,0:0:0:0:
448,192,41199,1,0,0:0:0:0:
320,192,41640,1,0,0:0:0:0:
64,192,41640,1,0,0:0:0:0:
320,192,42522,1,0,0:0:0:0:
448,192,42522,1,0,0:0:0:0:
320,192,42964,1,0,0:0:0:0:
448,192,42964,1,0,0:0:0:0:
64,192,43405,1,0,0:0:0:0:
192,192,43405,1,0,0:0:0:0:
192,192,43846,1,0,0:0:0:0:
64,192,43846,1,0,0:0:0:0:
192,192,44288,1,0,0:0:0:0:
448,192,44288,1,0,0:0:0:0:
192,192,44729,1,0,0:0:0:0:
448,192,44729,1,0,0:0:0:0:
64,192,45169,1,0,0:0:0:0:
448,192,45169,1,0,0:0:0:0:
448,192,45610,1,0,0:0:0:0:
192,192,45610,1,0,0:0:0:0:
320,192,46051,1,0,0:0:0:0:
64,192,46051,1,0,0:0:0:0:
448,192,46492,1,0,0:0:0:0:
192,192,46492,1,0,0:0:0:0:
64,192,46934,1,0,0:0:0:0:
192,192,46934,1,0,0:0:0:0:
64,192,47375,1,0,0:0:0:0:
448,192,47375,1,0,0:0:0:0:
320,192,47816,1,0,0:0:0:0:
448,192,47816,1,0,0:0:0:0:
192,192,48258,1,0,0:0:0:0:
64,192,48258,1,0,0:0:0:0:
320,192,48699,1,0,0:0:0:0:
448,192,48699,1,0,0:0:0:0:
192,192,49140,1,0,0:0:0:0:
64,192,49140,1,0,0:0:0:0:
192,192,49581,1,0,0:0:0:0:
448,192,49581,1,0,0:0:0:0:
320,192,50022,1,0,0:0:0:0:
448,192,50022,1,0,0:0:0:0:
64,192,50464,1,0,0:0:0:0:
320,192,50464,1,0,0:0:0:0:
192,192,50905,1,0,0:0:0:0:
448,192,50905,1,0,0:0:0:0:
320,192,51346,1,0,0:0:0:0:
64,192,51346,1,0,0:0:0:0:
64,192,51788,1,0,0:0:0:0:
448,192,51788,1,0,0:0:0:0:
320,192,52229,1,0,0:0:0:0:
192,192,52229,1,0,0:0:0:0:
64,192,52669,1,0,0:0:0:0:
448,192,52669,1,0,0:0:0:0:
320,192,53110,1,0,0:0:0:0:
64,192,53110,1,0,0:0:0:0:
192,192,53551,1,0,0:0:0:0:
448,192,53551,1,0,0:0:0:0:
64,192,53992,1,0,0:0:0:0:
448,192,53992,1,0,0:0:0:0:
64,192,54434,1,0,0:0:0:0:
320,192,54434,1,0,0:0:0:0:
192,192,54875,1,0,0:0:0:0:
448,192,54875,1,0,0:0:0:0:
320,192,55316,1,0,0:0:0:0:
192,192,55316,1,0,0:0:0:0:
64,192,55758,1,0,0:0:0:0:
192,192,55758,1,0,0:0:0:0:
64,192,56640,1,0,0:0:0:0:
448,192,56640,1,0,0:0:0:0:
320,192,56860,1,0,0:0:0:0:
192,192,57081,1,0,0:0:0:0:
64,192,57081,1,0,0:0:0:0:
320,192,57301,1,0,0:0:0:0:
64,192,57522,1,0,0:0:0:0:
448,192,57522,1,0,0:0:0:0:
320,192,57742,1,0,0:0:0:0:
192,192,57964,1,0,0:0:0:0:
64,192,57964,1,0,0:0:0:0:
448,192,58184,1,0,0:0:0:0:
320,192,58405,1,0,0:0:0:0:
192,192,58405,1,0,0:0:0:0:
64,192,58625,1,0,0:0:0:0:
192,192,58846,1,0,0:0:0:0:
448,192,58846,1,0,0:0:0:0:
320,192,59066,1,0,0:0:0:0:
64,192,59288,1,0,0:0:0:0:
448,192,59288,1,0,0:0:0:0:
192,192,59508,1,0,0:0:0:0:
320,192,59729,1,0,0:0:0:0:
448,192,59729,1,0,0:0:0:0:
64,192,59949,1,0,0:0:0:0:
192,192,60169,1,0,0:0:0:0:
320,192,60169,1,0,0:0:0:0:
448,192,60390,1,0,0:0:0:0:
192,192,60610,1,0,0:0:0:0:
64,192,60610,1,0,0:0:0:0:
448,192,60831,1,0,0:0:0:0:
320,192,61051,1,0,0:0:0:0:
64,192,61051,1,0,0:0:0:0:
64,192,61272,1,0,0:0:0:0:
320,192,61492,1,0,0:0:0:0:
448,192,61492,1,0,0:0:0:0:
64,192,61714,1,0,0:0:0:0:
320,192,61934,1,0,0:0:0:0:
448,192,61934,1,0,0:0:0:0:
64,192,62155,1,0,0:0:0:0:
192,192,62375,1,0,0:0:0:0:
448,192,62375,1,0,0:0:0:0:
320,192,62596,1,0,0:0:0:0:
192,192,62816,1,0,0:0:0:0:
64,192,62816,1,0,0:0:0:0:
448,192,63038,1,0,0:0:0:0:
320,192,63258,1,0,0:0:0:0:
192,192,63258,1,0,0:0:0:0:
64,192,63479,1,0,0:0:0:0:
192,192,63699,1,0,0:0:0:0:
448,192,63699,1,0,0:0:0:0:
320,192,63919,1,0,0:0:0:0:
192,192,64140,1,0,0:0:0:0:
64,192,64140,1,0,0:0:0:0:
448,192,64360,1,0,0:0:0:0:
320,192,64581,1,0,0:0:0:0:
192,192,64581,1,0,0:0:0:0:
448,192,64801,1,0,0:0:0:0:
192,192,65022,1,0,0:0:0:0:
64,192,65022,1,0,0:0:0:0:
448,192,65242,1,0,0:0:0:0:
320,192,65464,1,0,0:0:0:0:
64,192,65464,1,0,0:0:0:0:
192,192,65684,1,0,0:0:0:0:
64,192,65905,1,0,0:0:0:0:
448,192,65905,1,0,0:0:0:0:
320,192,66125,1,0,0:0:0:0:
192,192,66346,1,0,0:0:0:0:
64,192,66346,1,0,0:0:0:0:
448,192,66566,1,0,0:0:0:0:
64,192,66788,1,0,0:0:0:0:
320,192,66788,1,0,0:0:0:0:
192,192,67008,1,0,0:0:0:0:
320,192,67229,1,0,0:0:0:0:
448,192,67229,1,0,0:0:0:0:
64,192,67449,1,0,0:0:0:0:
320,192,67669,1,0,0:0:0:0:
192,192,67669,1,0,0:0:0:0:
448,192,67890,1,0,0:0:0:0:
64,192,68110,1,0,0:0:0:0:
320,192,68110,1,0,0:0:0:0:
192,192,68331,1,0,0:0:0:0:
320,192,68551,1,0,0:0:0:0:
448,192,68551,1,0,0:0:0:0:
64,192,68772,1,0,0:0:0:0:
320,192,68992,1,0,0:0:0:0:
448,192,68992,1,0,0:0:0:0:
192,192,69214,1,0,0:0:0:0:
64,192,69434,1,0,0:0:0:0:
448,192,69434,1,0,0:0:0:0:
192,192,69655,1,0,0:0:0:0:
320,192,69875,1,0,0:0:0:0:
448,192,69875,1,0,0:0:0:0:
64,192,70096,1,0,0:0:0:0:
192,192,70316,1,0,0:0:0:0:
448,192,70316,1,0,0:0:0:0:
448,192,70758,1,0,0:0:0:0:
64,192,70758,1,0,0:0:0:0:
320,192,70758,1,0,0:0:0:0:
192,192,70979,1,0,0:0:0:0:
64,192,71144,1,0,0:0:0:0:
320,192,71199,1,0,0:0:0:0:
192,192,71419,1,0,0:0:0:0:
320,192,71640,1,0,0:0:0:0:
448,192,71640,1,0,0:0:0:0:
64,192,71860,1,0,0:0:0:0:
320,192,72081,1,0,0:0:0:0:
448,192,72081,1,0,0:0:0:0:
192,192,72301,1,0,0:0:0:0:
320,192,72522,1,0,0:0:0:0:
448,192,72522,1,0,0:0:0:0:
64,192,72522,1,0,0:0:0:0:
448,192,72742,1,0,0:0:0:0:
192,192,72964,1,0,0:0:0:0:
320,192,72964,1,0,0:0:0:0:
64,192,73184,1,0,0:0:0:0:
448,192,73405,1,0,0:0:0:0:
192,192,73405,1,0,0:0:0:0:
320,192,73625,1,0,0:0:0:0:
64,192,73846,1,0,0:0:0:0:
192,192,73846,1,0,0:0:0:0:
448,192,74066,1,0,0:0:0:0:
320,192,74288,1,0,0:0:0:0:
192,192,74288,1,0,0:0:0:0:
64,192,74288,1,0,0:0:0:0:
448,192,74508,1,0,0:0:0:0:
320,192,74729,1,0,0:0:0:0:
192,192,74729,1,0,0:0:0:0:
64,192,74949,1,0,0:0:0:0:
448,192,75169,1,0,0:0:0:0:
320,192,75169,1,0,0:0:0:0:
64,192,75390,1,0,0:0:0:0:
320,192,75610,1,0,0:0:0:0:
448,192,75610,1,0,0:0:0:0:
64,192,75831,1,0,0:0:0:0:
192,192,76051,1,0,0:0:0:0:
320,192,76051,1,0,0:0:0:0:
448,192,76051,1,0,0:0:0:0:
64,192,76272,1,0,0:0:0:0:
192,192,76492,1,0,0:0:0:0:
448,192,76492,1,0,0:0:0:0:
320,192,76714,1,0,0:0:0:0:
64,192,76934,1,0,0:0:0:0:
448,192,76934,1,0,0:0:0:0:
448,192,77155,1,0,0:0:0:0:
320,192,77375,1,0,0:0:0:0:
64,192,77375,1,0,0:0:0:0:
192,192,77596,1,0,0:0:0:0:
448,192,77816,1,0,0:0:0:0:
320,192,77816,1,0,0:0:0:0:
64,192,77816,1,0,0:0:0:0:
192,192,78038,1,0,0:0:0:0:
320,192,78258,1,0,0:0:0:0:
448,192,78258,1,0,0:0:0:0:
64,192,78479,1,0,0:0:0:0:
448,192,78699,1,0,0:0:0:0:
320,192,78699,1,0,0:0:0:0:
192,192,78919,1,0,0:0:0:0:
320,192,79140,1,0,0:0:0:0:
448,192,79140,1,0,0:0:0:0:
64,192,79360,1,0,0:0:0:0:
192,192,79581,1,0,0:0:0:0:
320,192,79581,1,0,0:0:0:0:
448,192,79581,1,0,0:0:0:0:
64,192,79801,1,0,0:0:0:0:
192,192,80022,1,0,0:0:0:0:
448,192,80022,1,0,0:0:0:0:
320,192,80242,1,0,0:0:0:0:
448,192,80464,1,0,0:0:0:0:
64,192,80464,1,0,0:0:0:0:
320,192,80684,1,0,0:0:0:0:
64,192,80905,1,0,0:0:0:0:
192,192,80905,1,0,0:0:0:0:
448,192,81125,1,0,0:0:0:0:
320,192,81346,1,0,0:0:0:0:
192,192,81346,1,0,0:0:0:0:
64,192,81346,1,0,0:0:0:0:
64,192,81566,1,0,0:0:0:0:
192,192,81788,1,0,0:0:0:0:
320,192,81788,1,0,0:0:0:0:
448,192,82008,1,0,0:0:0:0:
64,192,82229,1,0,0:0:0:0:
192,192,82229,1,0,0:0:0:0:
448,192,82449,1,0,0:0:0:0:
64,192,82669,1,0,0:0:0:0:
192,192,82669,1,0,0:0:0:0:
320,192,82890,1,0,0:0:0:0:
64,192,83110,1,0,0:0:0:0:
192,192,83110,1,0,0:0:0:0:
448,192,83110,1,0,0:0:0:0:
320,192,83331,1,0,0:0:0:0:
192,192,83551,1,0,0:0:0:0:
64,192,83551,1,0,0:0:0:0:
448,192,83772,1,0,0:0:0:0:
320,192,83992,1,0,0:0:0:0:
64,192,83992,1,0,0:0:0:0:
192,192,84214,1,0,0:0:0:0:
448,192,84434,1,0,0:0:0:0:
320,192,84434,1,0,0:0:0:0:
64,192,84655,1,0,0:0:0:0:
64,192,84875,1,0,0:0:0:0:
192,192,84875,1,0,0:0:0:0:
320,192,84875,1,0,0:0:0:0:
448,192,84875,1,0,0:0:0:0:
448,192,85096,1,0,0:0:0:0:
320,192,85316,1,0,0:0:0:0:
64,192,85538,1,0,0:0:0:0:
320,192,85758,1,0,0:0:0:0:
64,192,85979,1,0,0:0:0:0:
192,192,86199,1,0,0:0:0:0:
448,192,86419,1,0,0:0:0:0:
320,192,86640,1,0,0:0:0:0:
64,192,86860,1,0,0:0:0:0:
320,192,87081,1,0,0:0:0:0:
192,192,87356,1,0,0:0:0:0:
448,192,87522,1,0,0:0:0:0:
64,192,87742,1,0,0:0:0:0:
320,192,87964,1,0,0:0:0:0:
64,192,88184,1,0,0:0:0:0:
448,192,88405,1,0,0:0:0:0:
64,192,88625,1,0,0:0:0:0:
320,192,88846,1,0,0:0:0:0:
64,192,89066,1,0,0:0:0:0:
192,192,89288,1,0,0:0:0:0:
448,192,89508,1,0,0:0:0:0:
64,192,89729,1,0,0:0:0:0:
320,192,89949,1,0,0:0:0:0:
192,192,90169,1,0,0:0:0:0:
64,192,90390,1,0,0:0:0:0:
448,192,90610,1,0,0:0:0:0:
64,192,90831,1,0,0:0:0:0:
320,192,91051,1,0,0:0:0:0:
192,192,91272,1,0,0:0:0:0:
448,192,91492,1,0,0:0:0:0:
320,192,91714,1,0,0:0:0:0:
192,192,91934,1,0,0:0:0:0:
448,192,92155,1,0,0:0:0:0:
64,192,92375,1,0,0:0:0:0:
192,192,92596,1,0,0:0:0:0:
320,192,92816,1,0,0:0:0:0:
448,192,93038,1,0,0:0:0:0:
64,192,93258,1,0,0:0:0:0:
448,192,93479,1,0,0:0:0:0:
192,192,93699,1,0,0:0:0:0:
320,192,93809,1,0,0:0:0:0:
448,192,93919,1,0,0:0:0:0:
64,192,94030,1,0,0:0:0:0:
192,192,94140,1,0,0:0:0:0:
448,192,94250,1,0,0:0:0:0:
64,192,94360,1,0,0:0:0:0:
320,192,94471,1,0,0:0:0:0:
192,192,94581,1,0,0:0:0:0:
448,192,94691,1,0,0:0:0:0:
64,192,94801,1,0,0:0:0:0:
320,192,95022,1,0,0:0:0:0:
64,192,95242,1,0,0:0:0:0:
448,192,95354,1,0,0:0:0:0:
64,192,95464,1,0,0:0:0:0:
192,192,95574,1,0,0:0:0:0:
320,192,95684,1,0,0:0:0:0:
64,192,95794,1,0,0:0:0:0:
448,192,95905,1,0,0:0:0:0:
320,192,96015,1,0,0:0:0:0:
192,192,96125,1,0,0:0:0:0:
64,192,96235,1,0,0:0:0:0:
448,192,96346,1,0,0:0:0:0:
192,192,96456,1,0,0:0:0:0:
448,192,96566,1,0,0:0:0:0:
64,192,96676,1,0,0:0:0:0:
320,192,96788,1,0,0:0:0:0:
192,192,96898,1,0,0:0:0:0:
64,192,97008,1,0,0:0:0:0:
448,192,97118,1,0,0:0:0:0:
64,192,97229,1,0,0:0:0:0:
192,192,97229,1,0,0:0:0:0:
448,192,97339,1,0,0:0:0:0:
320,192,97449,1,0,0:0:0:0:
64,192,97559,1,0,0:0:0:0:
192,192,97669,1,0,0:0:0:0:
448,192,97669,1,0,0:0:0:0:
320,192,97780,1,0,0:0:0:0:
64,192,97890,1,0,0:0:0:0:
192,192,98000,1,0,0:0:0:0:
320,192,98110,1,0,0:0:0:0:
448,192,98110,1,0,0:0:0:0:
64,192,98221,1,0,0:0:0:0:
192,192,98331,1,0,0:0:0:0:
448,192,98441,1,0,0:0:0:0:
320,192,98551,1,0,0:0:0:0:
64,192,98551,1,0,0:0:0:0:
192,192,98662,1,0,0:0:0:0:
448,192,98772,1,0,0:0:0:0:
320,192,98882,1,0,0:0:0:0:
64,192,98992,1,0,0:0:0:0:
192,192,98992,1,0,0:0:0:0:
448,192,98992,1,0,0:0:0:0:
320,192,99434,1,0,0:0:0:0:
64,192,99655,1,0,0:0:0:0:
448,192,100096,1,0,0:0:0:0:
320,192,100096,1,0,0:0:0:0:
64,192,100758,1,0,0:0:0:0:
448,192,101199,1,0,0:0:0:0:
64,192,101419,1,0,0:0:0:0:
192,192,101860,1,0,0:0:0:0:
448,192,101860,1,0,0:0:0:0:
64,192,102522,1,0,0:0:0:0:
448,192,102964,1,0,0:0:0:0:
320,192,103184,1,0,0:0:0:0:
192,192,103625,1,0,0:0:0:0:
64,192,103625,1,0,0:0:0:0:
448,192,104288,1,0,0:0:0:0:
64,192,104729,1,0,0:0:0:0:
448,192,104949,1,0,0:0:0:0:
192,192,105390,1,0,0:0:0:0:
64,192,105390,1,0,0:0:0:0:
448,192,106051,1,0,0:0:0:0:
64,192,106492,1,0,0:0:0:0:
320,192,106714,1,0,0:0:0:0:
64,192,107155,1,0,0:0:0:0:
448,192,107155,1,0,0:0:0:0:
320,192,107816,1,0,0:0:0:0:
64,192,108258,1,0,0:0:0:0:
320,192,108479,1,0,0:0:0:0:
64,192,108919,1,0,0:0:0:0:
192,192,108919,1,0,0:0:0:0:
448,192,109581,1,0,0:0:0:0:
64,192,110022,1,0,0:0:0:0:
192,192,110242,1,0,0:0:0:0:
448,192,110684,1,0,0:0:0:0:
320,192,110684,1,0,0:0:0:0:
64,192,110684,1,0,0:0:0:0:
64,192,111346,1,0,0:0:0:0:
448,192,111788,1,0,0:0:0:0:
320,192,112008,1,0,0:0:0:0:
64,192,112449,1,0,0:0:0:0:
192,192,112449,1,0,0:0:0:0:
320,192,113110,1,0,0:0:0:0:
448,192,113551,128,0,113992:0:0:0:0:
64,192,113992,128,0,114434:0:0:0:0:
320,192,114434,128,0,116640:0:0:0:0:
448,192,116640,1,0,0:0:0:0:
64,192,116860,1,0,0:0:0:0:
192,192,117081,1,0,0:0:0:0:
320,192,117081,1,0,0:0:0:0:
448,192,117301,1,0,0:0:0:0:
64,192,117301,1,0,0:0:0:0:
320,192,117522,1,0,0:0:0:0:
64,192,117742,1,0,0:0:0:0:
448,192,117742,1,0,0:0:0:0:
192,192,117964,1,0,0:0:0:0:
320,192,118184,1,0,0:0:0:0:
448,192,118405,1,0,0:0:0:0:
64,192,118405,1,0,0:0:0:0:
192,192,118625,1,0,0:0:0:0:
64,192,118846,1,0,0:0:0:0:
448,192,118846,1,0,0:0:0:0:
192,192,119066,1,0,0:0:0:0:
64,192,119288,1,0,0:0:0:0:
320,192,119508,1,0,0:0:0:0:
448,192,119508,1,0,0:0:0:0:
192,192,119729,1,0,0:0:0:0:
448,192,119949,1,0,0:0:0:0:
64,192,120169,1,0,0:0:0:0:
192,192,120169,1,0,0:0:0:0:
192,192,120390,1,0,0:0:0:0:
64,192,120390,1,0,0:0:0:0:
320,192,120610,1,0,0:0:0:0:
448,192,120610,1,0,0:0:0:0:
320,192,120831,1,0,0:0:0:0:
448,192,120831,1,0,0:0:0:0:
192,192,121051,1,0,0:0:0:0:
64,192,121051,1,0,0:0:0:0:
64,192,121272,1,0,0:0:0:0:
192,192,121272,1,0,0:0:0:0:
448,192,121492,1,0,0:0:0:0:
320,192,121492,1,0,0:0:0:0:
320,192,121714,1,0,0:0:0:0:
448,192,121714,1,0,0:0:0:0:
64,192,121934,1,0,0:0:0:0:
192,192,121934,1,0,0:0:0:0:
320,192,122044,1,0,0:0:0:0:
448,192,122155,1,0,0:0:0:0:
64,192,122265,1,0,0:0:0:0:
320,192,122375,1,0,0:0:0:0:
192,192,122485,1,0,0:0:0:0:
64,192,122596,1,0,0:0:0:0:
448,192,122706,1,0,0:0:0:0:
192,192,122816,1,0,0:0:0:0:
64,192,122926,1,0,0:0:0:0:
448,192,123038,1,0,0:0:0:0:
320,192,123148,1,0,0:0:0:0:
64,192,123258,1,0,0:0:0:0:
192,192,123368,1,0,0:0:0:0:
320,192,123479,1,0,0:0:0:0:
64,192,123589,1,0,0:0:0:0:
448,192,123699,1,0,0:0:0:0:
192,192,123699,1,0,0:0:0:0:
320,192,123809,1,0,0:0:0:0:
64,192,123919,1,0,0:0:0:0:
448,192,124030,1,0,0:0:0:0:
64,192,124140,1,0,0:0:0:0:
448,192,124360,1,0,0:0:0:0:
192,192,124360,1,0,0:0:0:0:
192,192,124581,1,0,0:0:0:0:
448,192,124581,1,0,0:0:0:0:
320,192,124801,1,0,0:0:0:0:
64,192,124801,1,0,0:0:0:0:
64,192,125022,1,0,0:0:0:0:
320,192,125022,1,0,0:0:0:0:
448,192,125242,1,0,0:0:0:0:
192,192,125242,1,0,0:0:0:0:
448,192,125354,1,0,0:0:0:0:
192,192,125354,1,0,0:0:0:0:
448,192,127229,1,0,0:0:0:0:
320,192,127229,1,0,0:0:0:0:
192,192,127229,1,0,0:0:0:0:
64,192,127229,1,0,0:0:0:0:
448,192,127669,128,0,128110:0:0:0:0:
320,192,128110,128,0,128551:0:0:0:0:
192,192,128551,128,0,130758:0:0:0:0:
64,192,128551,128,0,130758:0:0:0:0:
448,192,131199,128,0,131640:0:0:0:0:
192,192,131640,128,0,132081:0:0:0:0:
64,192,132081,128,0,134288:0:0:0:0:
320,192,132081,128,0,134288:0:0:0:0:
448,192,134729,128,0,135169:0:0:0:0:
320,192,135169,128,0,135610:0:0:0:0:
64,192,135610,128,0,136934:0:0:0:0:
192,192,136382,128,0,136934:0:0:0:0:
448,192,136934,128,0,139140:0:0:0:0:
320,192,137375,128,0,139140:0:0:0:0:
64,192,138258,128,0,139140:0:0:0:0:
320,192,139581,128,0,140022:0:0:0:0:
448,192,140022,128,0,140905:0:0:0:0:
64,192,140464,128,0,140905:0:0:0:0:
192,192,140905,128,0,141346:0:0:0:0:
448,192,141346,1,0,0:0:0:0:
320,192,141346,1,0,0:0:0:0:
64,192,141788,1,0,0:0:0:0:
320,192,141788,1,0,0:0:0:0:
192,192,141788,1,0,0:0:0:0:
192,192,142229,1,0,0:0:0:0:
320,192,142229,1,0,0:0:0:0:
448,192,142229,1,0,0:0:0:0:
320,192,142669,1,0,0:0:0:0:
192,192,142669,1,0,0:0:0:0:
64,192,142669,1,0,0:0:0:0:
192,192,143110,1,0,0:0:0:0:
448,192,143110,1,0,0:0:0:0:
64,192,143110,1,0,0:0:0:0:
64,192,143551,1,0,0:0:0:0:
320,192,143551,1,0,0:0:0:0:
448,192,143551,1,0,0:0:0:0:
192,192,143992,1,0,0:0:0:0:
64,192,143992,1,0,0:0:0:0:
320,192,143992,1,0,0:0:0:0:
64,192,144434,1,0,0:0:0:0:
192,192,144434,1,0,0:0:0:0:
448,192,144434,1,0,0:0:0:0:
192,192,144875,1,0,0:0:0:0:
320,192,144875,1,0,0:0:0:0:
448,192,144875,1,0,0:0:0:0:
192,192,145316,1,0,0:0:0:0:
320,192,145316,1,0,0:0:0:0:
64,192,145316,1,0,0:0:0:0:
64,192,145758,1,0,0:0:0:0:
192,192,145758,1,0,0:0:0:0:
448,192,145758,1,0,0:0:0:0:
64,192,146199,1,0,0:0:0:0:
448,192,146199,1,0,0:0:0:0:
192,192,146199,1,0,0:0:0:0:
320,192,146640,1,0,0:0:0:0:
448,192,146640,1,0,0:0:0:0:
64,192,146640,1,0,0:0:0:0:
64,192,147081,1,0,0:0:0:0:
192,192,147081,1,0,0:0:0:0:
320,192,147081,1,0,0:0:0:0:
64,192,147522,1,0,0:0:0:0:
192,192,147522,1,0,0:0:0:0:
320,192,147522,1,0,0:0:0:0:
192,192,147964,1,0,0:0:0:0:
448,192,147964,1,0,0:0:0:0:
64,192,147964,1,0,0:0:0:0:
64,192,148405,1,0,0:0:0:0:
320,192,148405,1,0,0:0:0:0:
448,192,148405,1,0,0:0:0:0:
320,192,148846,1,0,0:0:0:0:
192,192,148846,1,0,0:0:0:0:
448,192,148846,1,0,0:0:0:0:
192,192,149288,1,0,0:0:0:0:
320,192,149288,1,0,0:0:0:0:
448,192,149288,1,0,0:0:0:0:
64,192,149729,1,0,0:0:0:0:
320,192,149729,1,0,0:0:0:0:
448,192,149729,1,0,0:0:0:0:
192,192,150169,1,0,0:0:0:0:
64,192,150169,1,0,0:0:0:0:
448,192,150169,1,0,0:0:0:0:
192,192,150610,1,0,0:0:0:0:
320,192,150610,1,0,0:0:0:0:
448,192,150610,1,0,0:0:0:0:
320,192,151051,1,0,0:0:0:0:
192,192,151051,1,0,0:0:0:0:
64,192,151051,1,0,0:0:0:0:
64,192,151492,1,0,0:0:0:0:
192,192,151492,1,0,0:0:0:0:
320,192,151492,1,0,0:0:0:0:
64,192,151934,1,0,0:0:0:0:
192,192,151934,1,0,0:0:0:0:
448,192,151934,1,0,0:0:0:0:
64,192,152375,1,0,0:0:0:0:
192,192,152375,1,0,0:0:0:0:
448,192,152375,1,0,0:0:0:0:
320,192,152816,1,0,0:0:0:0:
448,192,152816,1,0,0:0:0:0:
64,192,152816,1,0,0:0:0:0:
320,192,153258,1,0,0:0:0:0:
192,192,153258,1,0,0:0:0:0:
448,192,153258,1,0,0:0:0:0:
448,192,153699,1,0,0:0:0:0:
320,192,153699,1,0,0:0:0:0:
192,192,153699,1,0,0:0:0:0:
64,192,153699,1,0,0:0:0:0:
448,192,153919,1,0,0:0:0:0:
64,192,154140,1,0,0:0:0:0:
448,192,154140,1,0,0:0:0:0:
320,192,154360,1,0,0:0:0:0:
64,192,154581,1,0,0:0:0:0:
448,192,154581,1,0,0:0:0:0:
320,192,154801,1,0,0:0:0:0:
192,192,155022,1,0,0:0:0:0:
64,192,155022,1,0,0:0:0:0:
320,192,155242,1,0,0:0:0:0:
192,192,155464,1,0,0:0:0:0:
64,192,155464,128,0,156788:0:0:0:0:
192,192,156788,128,0,158110:0:0:0:0:
320,192,157008,128,0,158110:0:0:0:0:
448,192,158110,128,0,158992:0:0:0:0:
320,192,158992,128,0,160316:0:0:0:0:
192,192,160316,128,0,160538:0:0:0:0:
64,192,160538,128,0,162522:0:0:0:0:
192,192,162522,128,0,163405:0:0:0:0:
320,192,163405,128,0,164288:0:0:0:0:
448,192,164288,128,0,165169:0:0:0:0:
64,192,165169,128,0,166051:0:0:0:0:
192,192,165169,128,0,166051:0:0:0:0:
448,192,166051,128,0,166934:0:0:0:0:
320,192,166934,128,0,167816:0:0:0:0:
64,192,167816,128,0,168699:0:0:0:0:
192,192,168699,128,0,169581:0:0:0:0:
448,192,169581,1,0,0:0:0:0:
320,192,169581,128,0,170905:0:0:0:0:
64,192,170242,1,0,0:0:0:0:
448,192,170684,1,0,0:0:0:0:
192,192,170905,128,0,171125:0:0:0:0:
64,192,171125,128,0,172229:0:0:0:0:
448,192,171346,1,0,0:0:0:0:
320,192,172008,1,0,0:0:0:0:
448,192,172229,128,0,173110:0:0:0:0:
192,192,172449,1,0,0:0:0:0:
64,192,173110,128,0,174434:0:0:0:0:
320,192,173110,1,0,0:0:0:0:
448,192,173772,1,0,0:0:0:0:
320,192,174214,1,0,0:0:0:0:
192,192,174434,128,0,174655:0:0:0:0:
448,192,174655,128,0,176640:0:0:0:0:
320,192,174875,1,0,0:0:0:0:
64,192,175538,1,0,0:0:0:0:
320,192,175979,1,0,0:0:0:0:
64,192,176640,1,0,0:0:0:0:
320,192,176640,128,0,177522:0:0:0:0:
192,192,177301,1,0,0:0:0:0:
448,192,177522,128,0,178405:0:0:0:0:
64,192,177742,1,0,0:0:0:0:
64,192,178405,128,0,179288:0:0:0:0:
320,192,178405,1,0,0:0:0:0:
192,192,179066,1,0,0:0:0:0:
320,192,179288,128,0,180169:0:0:0:0:
448,192,179508,1,0,0:0:0:0:
64,192,180169,128,0,181051:0:0:0:0:
448,192,180169,1,0,0:0:0:0:
448,192,180831,1,0,0:0:0:0:
192,192,181051,128,0,181934:0:0:0:0:
320,192,181272,1,0,0:0:0:0:
64,192,181934,1,0,0:0:0:0:
320,192,181934,1,0,0:0:0:0:
448,192,181934,1,0,0:0:0:0:
320,192,183699,1,0,0:0:0:0:
448,192,183699,1,0,0:0:0:0:
64,192,183699,1,0,0:0:0:0:
192,192,184140,1,0,0:0:0:0:
64,192,184140,1,0,0:0:0:0:
448,192,184140,1,0,0:0:0:0:
64,192,184581,1,0,0:0:0:0:
448,192,184581,1,0,0:0:0:0:
192,192,184581,1,0,0:0:0:0:
448,192,185022,1,0,0:0:0:0:
320,192,185022,1,0,0:0:0:0:
192,192,185022,1,0,0:0:0:0:
448,192,185464,1,0,0:0:0:0:
64,192,185464,1,0,0:0:0:0:
192,192,185464,1,0,0:0:0:0:
320,192,185905,1,0,0:0:0:0:
64,192,185905,1,0,0:0:0:0:
448,192,185905,1,0,0:0:0:0:
64,192,186125,1,0,0:0:0:0:
320,192,186235,1,0,0:0:0:0:
448,192,186346,1,0,0:0:0:0:
64,192,186346,1,0,0:0:0:0:
320,192,186566,1,0,0:0:0:0:
192,192,186676,1,0,0:0:0:0:
64,192,186788,1,0,0:0:0:0:
448,192,186788,1,0,0:0:0:0:
64,192,187008,1,0,0:0:0:0:
192,192,187118,1,0,0:0:0:0:
320,192,187229,1,0,0:0:0:0:
448,192,187229,1,0,0:0:0:0:
64,192,187449,1,0,0:0:0:0:
448,192,187559,1,0,0:0:0:0:
192,192,187669,1,0,0:0:0:0:
64,192,187669,1,0,0:0:0:0:
320,192,187890,1,0,0:0:0:0:
64,192,188000,1,0,0:0:0:0:
320,192,188110,1,0,0:0:0:0:
448,192,188110,1,0,0:0:0:0:
64,192,188331,1,0,0:0:0:0:
320,192,188441,1,0,0:0:0:0:
448,192,188551,1,0,0:0:0:0:
64,192,188551,1,0,0:0:0:0:
192,192,188772,1,0,0:0:0:0:
320,192,188882,1,0,0:0:0:0:
192,192,188992,1,0,0:0:0:0:
448,192,188992,1,0,0:0:0:0:
64,192,189214,1,0,0:0:0:0:
192,192,189324,1,0,0:0:0:0:
448,192,189434,1,0,0:0:0:0:
64,192,189434,1,0,0:0:0:0:
320,192,189655,1,0,0:0:0:0:
64,192,189765,1,0,0:0:0:0:
448,192,189875,1,0,0:0:0:0:
192,192,189875,1,0,0:0:0:0:
320,192,190096,1,0,0:0:0:0:
192,192,190206,1,0,0:0:0:0:
64,192,190316,1,0,0:0:0:0:
448,192,190316,1,0,0:0:0:0:
64,192,190538,1,0,0:0:0:0:
192,192,190648,1,0,0:0:0:0:
320,192,190758,1,0,0:0:0:0:
448,192,190758,1,0,0:0:0:0:
64,192,190979,1,0,0:0:0:0:
448,192,191089,1,0,0:0:0:0:
320,192,191144,1,0,0:0:0:0:
64,192,191199,1,0,0:0:0:0:
192,192,191199,1,0,0:0:0:0:
448,192,191419,1,0,0:0:0:0:
64,192,191530,1,0,0:0:0:0:
448,192,191640,1,0,0:0:0:0:
192,192,191640,1,0,0:0:0:0:
320,192,191860,1,0,0:0:0:0:
192,192,191971,1,0,0:0:0:0:
64,192,192081,1,0,0:0:0:0:
448,192,192081,1,0,0:0:0:0:
320,192,192301,1,0,0:0:0:0:
64,192,192412,1,0,0:0:0:0:
192,192,192468,1,0,0:0:0:0:
320,192,192522,1,0,0:0:0:0:
448,192,192522,1,0,0:0:0:0:
64,192,192742,1,0,0:0:0:0:
320,192,192854,1,0,0:0:0:0:
192,192,192964,1,0,0:0:0:0:
64,192,192964,1,0,0:0:0:0:
64,192,193184,1,0,0:0:0:0:
192,192,193294,1,0,0:0:0:0:
320,192,193405,1,0,0:0:0:0:
448,192,193460,1,0,0:0:0:0:
64,192,193625,1,0,0:0:0:0:
448,192,193735,1,0,0:0:0:0:
320,192,193791,1,0,0:0:0:0:
192,192,193846,1,0,0:0:0:0:
64,192,193846,1,0,0:0:0:0:
64,192,194066,1,0,0:0:0:0:
192,192,194176,1,0,0:0:0:0:
448,192,194288,1,0,0:0:0:0:
64,192,194288,1,0,0:0:0:0:
192,192,194508,1,0,0:0:0:0:
448,192,194618,1,0,0:0:0:0:
320,192,194672,1,0,0:0:0:0:
64,192,194729,1,0,0:0:0:0:
192,192,194729,1,0,0:0:0:0:
64,192,194949,1,0,0:0:0:0:
192,192,195059,1,0,0:0:0:0:
448,192,195169,1,0,0:0:0:0:
64,192,195169,1,0,0:0:0:0:
320,192,195390,1,0,0:0:0:0:
64,192,195500,1,0,0:0:0:0:
192,192,195555,1,0,0:0:0:0:
448,192,195610,1,0,0:0:0:0:
320,192,195610,1,0,0:0:0:0:
64,192,195831,1,0,0:0:0:0:
192,192,195941,1,0,0:0:0:0:
320,192,196051,1,0,0:0:0:0:
448,192,196051,1,0,0:0:0:0:
64,192,196272,1,0,0:0:0:0:
448,192,196382,1,0,0:0:0:0:
64,192,196492,1,0,0:0:0:0:
192,192,196492,1,0,0:0:0:0:
64,192,196714,1,0,0:0:0:0:
192,192,196824,1,0,0:0:0:0:
320,192,196934,1,0,0:0:0:0:
448,192,196934,1,0,0:0:0:0:
320,192,197155,1,0,0:0:0:0:
448,192,197155,1,0,0:0:0:0:
64,192,197816,1,0,0:0:0:0:
192,192,197816,1,0,0:0:0:0:
448,192,197816,1,0,0:0:0:0:
192,192,198038,1,0,0:0:0:0:
64,192,198258,1,0,0:0:0:0:
320,192,198258,1,0,0:0:0:0:
448,192,198258,1,0,0:0:0:0:
320,192,198479,1,0,0:0:0:0:
64,192,198699,1,0,0:0:0:0:
192,192,198699,1,0,0:0:0:0:
448,192,198699,1,0,0:0:0:0:
320,192,198919,1,0,0:0:0:0:
64,192,199140,1,0,0:0:0:0:
192,192,199140,1,0,0:0:0:0:
320,192,199140,1,0,0:0:0:0:
448,192,199360,1,0,0:0:0:0:
64,192,199581,1,0,0:0:0:0:
192,192,199581,1,0,0:0:0:0:
320,192,199581,1,0,0:0:0:0:
448,192,199581,1,0,0:0:0:0:
320,192,199801,1,0,0:0:0:0:
64,192,200022,1,0,0:0:0:0:
192,192,200022,1,0,0:0:0:0:
320,192,200022,1,0,0:0:0:0:
448,192,200022,1,0,0:0:0:0:
192,192,200242,1,0,0:0:0:0:
64,192,200464,1,0,0:0:0:0:
192,192,200464,1,0,0:0:0:0:
320,192,200464,1,0,0:0:0:0:
448,192,200464,1,0,0:0:0:0:
64,192,200684,1,0,0:0:0:0:
192,192,200905,1,0,0:0:0:0:
448,192,200905,1,0,0:0:0:0:
320,192,200905,1,0,0:0:0:0:
320,192,201125,1,0,0:0:0:0:
64,192,201346,1,0,0:0:0:0:
192,192,201346,1,0,0:0:0:0:
448,192,201346,1,0,0:0:0:0:
64,192,201566,1,0,0:0:0:0:
192,192,201788,1,0,0:0:0:0:
320,192,201788,1,0,0:0:0:0:
448,192,201788,1,0,0:0:0:0:
320,192,202008,1,0,0:0:0:0:
64,192,202229,1,0,0:0:0:0:
448,192,202229,1,0,0:0:0:0:
192,192,202229,1,0,0:0:0:0:
64,192,202449,1,0,0:0:0:0:
192,192,202669,1,0,0:0:0:0:
320,192,202669,1,0,0:0:0:0:
448,192,202669,1,0,0:0:0:0:
320,192,202890,1,0,0:0:0:0:
64,192,203110,1,0,0:0:0:0:
192,192,203110,1,0,0:0:0:0:
448,192,203110,1,0,0:0:0:0:
64,192,203331,1,0,0:0:0:0:
64,192,203551,1,0,0:0:0:0:
192,192,203551,1,0,0:0:0:0:
320,192,203551,1,0,0:0:0:0:
64,192,203772,1,0,0:0:0:0:
320,192,203992,1,0,0:0:0:0:
64,192,203992,1,0,0:0:0:0:
448,192,203992,1,0,0:0:0:0:
192,192,204214,1,0,0:0:0:0:
64,192,204434,1,0,0:0:0:0:
320,192,204434,1,0,0:0:0:0:
448,192,204434,1,0,0:0:0:0:
448,192,204655,1,0,0:0:0:0:
64,192,204875,1,0,0:0:0:0:
192,192,204875,1,0,0:0:0:0:
320,192,204875,1,0,0:0:0:0:
448,192,204875,1,0,0:0:0:0:
448,192,205096,1,0,0:0:0:0:
64,192,205316,1,0,0:0:0:0:
192,192,205316,1,0,0:0:0:0:
320,192,205316,1,0,0:0:0:0:
448,192,205316,1,0,0:0:0:0:
192,192,205538,1,0,0:0:0:0:
64,192,205758,1,0,0:0:0:0:
192,192,205758,1,0,0:0:0:0:
320,192,205758,1,0,0:0:0:0:
448,192,205758,1,0,0:0:0:0:
64,192,205979,1,0,0:0:0:0:
64,192,206199,1,0,0:0:0:0:
192,192,206199,1,0,0:0:0:0:
320,192,206199,1,0,0:0:0:0:
448,192,206199,1,0,0:0:0:0:
448,192,206419,1,0,0:0:0:0:
320,192,206640,1,0,0:0:0:0:
448,192,206640,1,0,0:0:0:0:
64,192,206860,1,0,0:0:0:0:
64,192,207081,1,0,0:0:0:0:
192,192,207081,1,0,0:0:0:0:
320,192,207301,1,0,0:0:0:0:
64,192,207522,1,0,0:0:0:0:
320,192,207522,1,0,0:0:0:0:
192,192,207742,1,0,0:0:0:0:
192,192,207964,1,0,0:0:0:0:
64,192,207964,1,0,0:0:0:0:
448,192,208184,1,0,0:0:0:0:
192,192,208405,1,0,0:0:0:0:
64,192,208405,1,0,0:0:0:0:
448,192,208625,1,0,0:0:0:0:
448,192,208846,1,0,0:0:0:0:
64,192,208846,1,0,0:0:0:0:
320,192,209066,1,0,0:0:0:0:
64,192,209288,1,0,0:0:0:0:
320,192,209288,1,0,0:0:0:0:
192,192,209508,1,0,0:0:0:0:
64,192,209729,1,0,0:0:0:0:
192,192,209729,1,0,0:0:0:0:
448,192,210169,1,0,0:0:0:0:
320,192,210280,1,0,0:0:0:0:
64,192,210390,1,0,0:0:0:0:
448,192,210500,1,0,0:0:0:0:
192,192,210610,1,0,0:0:0:0:
320,192,210721,1,0,0:0:0:0:
64,192,210831,1,0,0:0:0:0:
192,192,210941,1,0,0:0:0:0:
448,192,211051,1,0,0:0:0:0:
320,192,211162,1,0,0:0:0:0:
192,192,211272,1,0,0:0:0:0:
448,192,211382,1,0,0:0:0:0:
64,192,211492,1,0,0:0:0:0:
320,192,211604,1,0,0:0:0:0:
64,192,211714,1,0,0:0:0:0:
192,192,211824,1,0,0:0:0:0:
448,192,211934,1,0,0:0:0:0:
320,192,211934,1,0,0:0:0:0:
64,192,211934,1,0,0:0:0:0:
320,192,212155,1,0,0:0:0:0:
192,192,212155,1,0,0:0:0:0:
64,192,212375,1,0,0:0:0:0:
320,192,212375,1,0,0:0:0:0:
448,192,212375,1,0,0:0:0:0:
320,192,212596,1,0,0:0:0:0:
192,192,212596,1,0,0:0:0:0:
64,192,212816,1,0,0:0:0:0:
192,192,212816,1,0,0:0:0:0:
448,192,213038,1,0,0:0:0:0:
192,192,213038,1,0,0:0:0:0:
64,192,213258,1,0,0:0:0:0:
192,192,213258,1,0,0:0:0:0:
448,192,213479,1,0,0:0:0:0:
320,192,213479,1,0,0:0:0:0:
64,192,213699,1,0,0:0:0:0:
192,192,213699,1,0,0:0:0:0:
448,192,213699,1,0,0:0:0:0:
192,192,213919,1,0,0:0:0:0:
320,192,213919,1,0,0:0:0:0:
320,192,214140,1,0,0:0:0:0:
448,192,214140,1,0,0:0:0:0:
64,192,214360,1,0,0:0:0:0:
192,192,214360,1,0,0:0:0:0:
320,192,214581,1,0,0:0:0:0:
448,192,214581,1,0,0:0:0:0:
320,192,214801,1,0,0:0:0:0:
448,192,214801,1,0,0:0:0:0:
64,192,215022,1,0,0:0:0:0:
192,192,215022,1,0,0:0:0:0:
192,192,215242,1,0,0:0:0:0:
320,192,215242,1,0,0:0:0:0:
448,192,215464,1,0,0:0:0:0:
64,192,215464,1,0,0:0:0:0:
192,192,215464,1,0,0:0:0:0:
320,192,215684,1,0,0:0:0:0:
448,192,215684,1,0,0:0:0:0:
64,192,215905,1,0,0:0:0:0:
192,192,215905,1,0,0:0:0:0:
320,192,216125,1,0,0:0:0:0:
192,192,216125,1,0,0:0:0:0:
448,192,216346,1,0,0:0:0:0:
320,192,216346,1,0,0:0:0:0:
320,192,216566,1,0,0:0:0:0:
192,192,216566,1,0,0:0:0:0:
64,192,216788,1,0,0:0:0:0:
192,192,216788,1,0,0:0:0:0:
448,192,217008,1,0,0:0:0:0:
320,192,217008,1,0,0:0:0:0:
320,192,217229,1,0,0:0:0:0:
192,192,217229,1,0,0:0:0:0:
64,192,217229,1,0,0:0:0:0:
192,192,217449,1,0,0:0:0:0:
64,192,217449,1,0,0:0:0:0:
320,192,217669,1,0,0:0:0:0:
448,192,217669,1,0,0:0:0:0:
64,192,217890,1,0,0:0:0:0:
320,192,217890,1,0,0:0:0:0:
192,192,218110,1,0,0:0:0:0:
64,192,218110,1,0,0:0:0:0:
320,192,218331,1,0,0:0:0:0:
448,192,218331,1,0,0:0:0:0:
192,192,218551,1,0,0:0:0:0:
64,192,218551,1,0,0:0:0:0:
448,192,218772,1,0,0:0:0:0:
320,192,218772,1,0,0:0:0:0:
320,192,218992,1,0,0:0:0:0:
192,192,218992,1,0,0:0:0:0:
64,192,218992,1,0,0:0:0:0:
64,192,219214,1,0,0:0:0:0:
448,192,219214,1,0,0:0:0:0:
320,192,219434,1,0,0:0:0:0:
448,192,219434,1,0,0:0:0:0:
64,192,219655,1,0,0:0:0:0:
192,192,219655,1,0,0:0:0:0:
192,192,219875,1,0,0:0:0:0:
320,192,219875,1,0,0:0:0:0:
448,192,220096,1,0,0:0:0:0:
320,192,220096,1,0,0:0:0:0:
64,192,220316,1,0,0:0:0:0:
192,192,220316,1,0,0:0:0:0:
320,192,220538,1,0,0:0:0:0:
448,192,220538,1,0,0:0:0:0:
320,192,220758,1,0,0:0:0:0:
192,192,220758,1,0,0:0:0:0:
64,192,220758,1,0,0:0:0:0:
448,192,220979,1,0,0:0:0:0:
320,192,220979,1,0,0:0:0:0:
64,192,221199,1,0,0:0:0:0:
320,192,221199,1,0,0:0:0:0:
192,192,221419,1,0,0:0:0:0:
64,192,221419,1,0,0:0:0:0:
320,192,221640,1,0,0:0:0:0:
448,192,221640,1,0,0:0:0:0:
320,192,221860,1,0,0:0:0:0:
192,192,221860,1,0,0:0:0:0:
192,192,222081,1,0,0:0:0:0:
64,192,222081,1,0,0:0:0:0:
320,192,222301,1,0,0:0:0:0:
448,192,222301,1,0,0:0:0:0:
64,192,222522,1,0,0:0:0:0:
320,192,222522,1,0,0:0:0:0:
192,192,222522,1,0,0:0:0:0:
192,192,222742,1,0,0:0:0:0:
64,192,222742,1,0,0:0:0:0:
320,192,222964,1,0,0:0:0:0:
448,192,222964,1,0,0:0:0:0:
64,192,223184,1,0,0:0:0:0:
320,192,223184,1,0,0:0:0:0:
192,192,223405,1,0,0:0:0:0:
448,192,223405,1,0,0:0:0:0:
320,192,223625,1,0,0:0:0:0:
64,192,223625,1,0,0:0:0:0:
192,192,223846,1,0,0:0:0:0:
448,192,223846,1,0,0:0:0:0:
320,192,224066,1,0,0:0:0:0:
448,192,224066,1,0,0:0:0:0:
320,192,224288,1,0,0:0:0:0:
192,192,224288,1,0,0:0:0:0:
64,192,224288,1,0,0:0:0:0:
320,192,224508,1,0,0:0:0:0:
448,192,224508,1,0,0:0:0:0:
192,192,224729,1,0,0:0:0:0:
64,192,224729,1,0,0:0:0:0:
192,192,224949,1,0,0:0:0:0:
64,192,224949,1,0,0:0:0:0:
320,192,225169,1,0,0:0:0:0:
448,192,225169,1,0,0:0:0:0:
192,192,225390,1,0,0:0:0:0:
64,192,225390,1,0,0:0:0:0:
192,192,225610,1,0,0:0:0:0:
320,192,225610,1,0,0:0:0:0:
320,192,225831,1,0,0:0:0:0:
448,192,225831,1,0,0:0:0:0:
192,192,226051,1,0,0:0:0:0:
320,192,226051,1,0,0:0:0:0:
448,192,226051,1,0,0:0:0:0:
64,192,226051,128,0,227375:0:0:0:0:
192,192,227375,128,0,227596:0:0:0:0:
320,192,227596,128,0,228699:0:0:0:0:
448,192,228699,1,0,0:0:0:0:
64,192,228699,128,0,229581:0:0:0:0:
192,192,229581,128,0,230905:0:0:0:0:
320,192,230905,128,0,231125:0:0:0:0:
448,192,231125,128,0,233221:0:0:0:0:
64,192,233221,128,0,233992:0:0:0:0:
448,192,233992,128,0,234985:0:0:0:0:
64,192,235096,1,0,0:0:0:0:
192,192,235316,1,0,0:0:0:0:
448,192,235316,1,0,0:0:0:0:
448,192,235538,1,0,0:0:0:0:
64,192,235758,1,0,0:0:0:0:
192,192,235758,1,0,0:0:0:0:
448,192,235979,1,0,0:0:0:0:
64,192,236199,1,0,0:0:0:0:
192,192,236199,1,0,0:0:0:0:
448,192,236419,1,0,0:0:0:0:
192,192,236640,1,0,0:0:0:0:
64,192,236640,1,0,0:0:0:0:
448,192,236860,1,0,0:0:0:0:
320,192,237081,1,0,0:0:0:0:
64,192,237301,1,0,0:0:0:0:
448,192,237522,1,0,0:0:0:0:
320,192,237522,1,0,0:0:0:0:
192,192,237742,1,0,0:0:0:0:
64,192,237964,1,0,0:0:0:0:
448,192,237964,1,0,0:0:0:0:
320,192,238184,1,0,0:0:0:0:
448,192,238405,1,0,0:0:0:0:
64,192,238515,1,0,0:0:0:0:
320,192,238625,1,0,0:0:0:0:
192,192,238735,1,0,0:0:0:0:
64,192,238846,1,0,0:0:0:0:
448,192,238956,1,0,0:0:0:0:
320,192,239066,1,0,0:0:0:0:
192,192,239176,1,0,0:0:0:0:
64,192,239288,1,0,0:0:0:0:
448,192,239398,1,0,0:0:0:0:
320,192,239508,1,0,0:0:0:0:
192,192,239618,1,0,0:0:0:0:
64,192,239729,1,0,0:0:0:0:
448,192,239839,1,0,0:0:0:0:
64,192,239949,1,0,0:0:0:0:
448,192,240059,1,0,0:0:0:0:
64,192,240169,1,0,0:0:0:0:
192,192,240169,1,0,0:0:0:0:
448,192,240390,1,0,0:0:0:0:
64,192,240555,1,0,0:0:0:0:
192,192,240831,1,0,0:0:0:0:
320,192,241051,1,0,0:0:0:0:
64,192,241272,1,0,0:0:0:0:
448,192,241492,1,0,0:0:0:0:
320,192,241714,1,0,0:0:0:0:
64,192,241989,1,0,0:0:0:0:
192,192,242155,1,0,0:0:0:0:
448,192,242375,1,0,0:0:0:0:
320,192,242596,1,0,0:0:0:0:
64,192,242816,1,0,0:0:0:0:
448,192,243038,1,0,0:0:0:0:
64,192,243258,1,0,0:0:0:0:
320,192,243479,1,0,0:0:0:0:
192,192,243699,1,0,0:0:0:0:
64,192,243919,1,0,0:0:0:0:
192,192,244140,1,0,0:0:0:0:
320,192,244360,1,0,0:0:0:0:
64,192,244581,1,0,0:0:0:0:
320,192,244801,1,0,0:0:0:0:
448,192,245022,1,0,0:0:0:0:
64,192,245242,1,0,0:0:0:0:
448,192,245464,1,0,0:0:0:0:
320,192,245684,1,0,0:0:0:0:
192,192,245905,1,0,0:0:0:0:
64,192,246125,1,0,0:0:0:0:
448,192,246346,1,0,0:0:0:0:
64,192,246566,1,0,0:0:0:0:
192,192,246788,1,0,0:0:0:0:
320,192,247008,1,0,0:0:0:0:
448,192,247229,1,0,0:0:0:0:
320,192,247449,1,0,0:0:0:0:
64,192,247669,1,0,0:0:0:0:
192,192,247890,1,0,0:0:0:0:
448,192,248110,1,0,0:0:0:0:
320,192,248331,1,0,0:0:0:0:
192,192,248551,1,0,0:0:0:0:
64,192,248772,1,0,0:0:0:0:
448,192,248992,1,0,0:0:0:0:
64,192,249214,1,0,0:0:0:0:
320,192,249434,1,0,0:0:0:0:
192,192,249655,1,0,0:0:0:0:
64,192,249875,1,0,0:0:0:0:
192,192,250096,1,0,0:0:0:0:
448,192,250316,1,0,0:0:0:0:
64,192,250538,1,0,0:0:0:0:
320,192,250758,1,0,0:0:0:0:
192,192,250979,1,0,0:0:0:0:
64,192,251199,1,0,0:0:0:0:
448,192,251419,1,0,0:0:0:0:
64,192,251640,1,0,0:0:0:0:
320,192,251860,1,0,0:0:0:0:
192,192,252081,1,0,0:0:0:0:
64,192,252301,1,0,0:0:0:0:
448,192,252522,1,0,0:0:0:0:
64,192,252742,1,0,0:0:0:0:
320,192,252964,1,0,0:0:0:0:
192,192,253184,1,0,0:0:0:0:
320,192,253405,1,0,0:0:0:0:
192,192,253625,1,0,0:0:0:0:
64,192,253846,1,0,0:0:0:0:
320,192,254121,1,0,0:0:0:0:
192,192,254288,1,0,0:0:0:0:
64,192,254508,1,0,0:0:0:0:
448,192,254729,1,0,0:0:0:0:
192,192,254949,1,0,0:0:0:0:
64,192,255169,1,0,0:0:0:0:
320,192,255390,1,0,0:0:0:0:
192,192,255610,1,0,0:0:0:0:
64,192,255831,1,0,0:0:0:0:
448,192,256051,1,0,0:0:0:0:
320,192,256272,1,0,0:0:0:0:
192,192,256492,1,0,0:0:0:0:
64,192,256714,1,0,0:0:0:0:
448,192,256934,1,0,0:0:0:0:
320,192,257155,1,0,0:0:0:0:
64,192,257375,1,0,0:0:0:0:
192,192,257596,1,0,0:0:0:0:
64,192,257816,1,0,0:0:0:0:
192,192,258038,1,0,0:0:0:0:
448,192,258258,1,0,0:0:0:0:
320,192,258479,1,0,0:0:0:0:
448,192,258699,1,0,0:0:0:0:
320,192,258919,1,0,0:0:0:0:
192,192,259140,1,0,0:0:0:0:
320,192,259360,1,0,0:0:0:0:
192,192,259581,1,0,0:0:0:0:
448,192,259801,1,0,0:0:0:0:
64,192,260022,1,0,0:0:0:0:
320,192,260242,1,0,0:0:0:0:
64,192,260464,1,0,0:0:0:0:
192,192,260684,1,0,0:0:0:0:
64,192,260905,5,0,0:0:0:0:
448,192,261125,1,0,0:0:0:0:
192,192,261346,1,0,0:0:0:0:
320,192,261566,1,0,0:0:0:0:
448,192,261788,1,0,0:0:0:0:
64,192,262008,1,0,0:0:0:0:
448,192,262229,5,0,0:0:0:0:
320,192,262339,1,0,0:0:0:0:
192,192,262449,1,0,0:0:0:0:
64,192,262559,1,0,0:0:0:0:
448,192,262669,1,0,0:0:0:0:
320,192,262780,1,0,0:0:0:0:
64,192,262890,1,0,0:0:0:0:
192,192,263000,1,0,0:0:0:0:
320,192,263110,1,0,0:0:0:0:
64,192,263221,1,0,0:0:0:0:
192,192,263331,1,0,0:0:0:0:
320,192,263441,1,0,0:0:0:0:
64,192,263551,1,0,0:0:0:0:
448,192,263662,1,0,0:0:0:0:
320,192,263772,1,0,0:0:0:0:
64,192,263882,1,0,0:0:0:0:
192,192,263992,1,0,0:0:0:0:
448,192,264104,1,0,0:0:0:0:
320,192,264214,1,0,0:0:0:0:
64,192,264324,1,0,0:0:0:0:
192,192,264434,1,0,0:0:0:0:
448,192,264544,1,0,0:0:0:0:
320,192,264655,1,0,0:0:0:0:
192,192,264765,1,0,0:0:0:0:
64,192,264875,1,0,0:0:0:0:
448,192,264985,1,0,0:0:0:0:
320,192,265096,1,0,0:0:0:0:
192,192,265206,1,0,0:0:0:0:
64,192,265316,1,0,0:0:0:0:
448,192,265426,1,0,0:0:0:0:
64,192,265538,1,0,0:0:0:0:
448,192,265648,1,0,0:0:0:0:
64,192,265758,1,0,0:0:0:0:
448,192,265868,1,0,0:0:0:0:
64,192,265979,1,0,0:0:0:0:
192,192,266089,1,0,0:0:0:0:
448,192,266199,1,0,0:0:0:0:
64,192,266309,1,0,0:0:0:0:
320,192,266419,1,0,0:0:0:0:
448,192,266530,1,0,0:0:0:0:
64,192,266640,1,0,0:0:0:0:
192,192,266750,1,0,0:0:0:0:
320,192,266860,1,0,0:0:0:0:
448,192,266860,1,0,0:0:0:0:
448,192,267081,1,0,0:0:0:0:
320,192,267081,1,0,0:0:0:0:
192,192,267522,1,0,0:0:0:0:
64,192,267522,1,0,0:0:0:0:
192,192,267742,1,0,0:0:0:0:
64,192,267742,1,0,0:0:0:0:
448,192,268405,1,0,0:0:0:0:
192,192,268405,1,0,0:0:0:0:
64,192,268405,1,0,0:0:0:0:
320,192,268405,1,0,0:0:0:0:
448,192,268625,1,0,0:0:0:0:
64,192,268846,1,0,0:0:0:0:
192,192,268846,1,0,0:0:0:0:
320,192,268846,1,0,0:0:0:0:
64,192,269066,1,0,0:0:0:0:
192,192,269288,1,0,0:0:0:0:
320,192,269288,1,0,0:0:0:0:
448,192,269288,1,0,0:0:0:0:
320,192,269508,1,0,0:0:0:0:
192,192,269729,1,0,0:0:0:0:
448,192,269729,1,0,0:0:0:0:
64,192,269729,1,0,0:0:0:0:
192,192,269949,1,0,0:0:0:0:
64,192,270169,1,0,0:0:0:0:
448,192,270169,1,0,0:0:0:0:
320,192,270390,1,0,0:0:0:0:
64,192,270610,1,0,0:0:0:0:
192,192,270610,1,0,0:0:0:0:
448,192,270610,1,0,0:0:0:0:
64,192,270831,1,0,0:0:0:0:
192,192,271051,1,0,0:0:0:0:
320,192,271051,1,0,0:0:0:0:
448,192,271051,1,0,0:0:0:0:
320,192,271272,1,0,0:0:0:0:
448,192,271492,1,0,0:0:0:0:
192,192,271492,1,0,0:0:0:0:
64,192,271492,1,0,0:0:0:0:
64,192,271714,1,0,0:0:0:0:
192,192,271934,1,0,0:0:0:0:
448,192,271934,1,0,0:0:0:0:
320,192,272155,1,0,0:0:0:0:
448,192,272375,1,0,0:0:0:0:
192,192,272375,1,0,0:0:0:0:
64,192,272375,1,0,0:0:0:0:
64,192,272596,1,0,0:0:0:0:
192,192,272816,1,0,0:0:0:0:
320,192,272816,1,0,0:0:0:0:
448,192,272816,1,0,0:0:0:0:
192,192,273038,1,0,0:0:0:0:
320,192,273258,1,0,0:0:0:0:
448,192,273258,1,0,0:0:0:0:
64,192,273258,1,0,0:0:0:0:
448,192,273479,1,0,0:0:0:0:
320,192,273699,1,0,0:0:0:0:
192,192,273699,1,0,0:0:0:0:
64,192,273919,1,0,0:0:0:0:
448,192,274140,1,0,0:0:0:0:
320,192,274140,1,0,0:0:0:0:
192,192,274140,1,0,0:0:0:0:
320,192,274360,1,0,0:0:0:0:
448,192,274581,1,0,0:0:0:0:
192,192,274581,1,0,0:0:0:0:
64,192,274581,1,0,0:0:0:0:
192,192,274801,1,0,0:0:0:0:
64,192,275022,1,0,0:0:0:0:
320,192,275022,1,0,0:0:0:0:
448,192,275022,1,0,0:0:0:0:
192,192,275242,1,0,0:0:0:0:
320,192,275464,1,0,0:0:0:0:
448,192,275464,1,0,0:0:0:0:
64,192,275684,1,0,0:0:0:0:
192,192,275905,1,0,0:0:0:0:
320,192,275905,1,0,0:0:0:0:
448,192,275905,1,0,0:0:0:0:
320,192,276125,1,0,0:0:0:0:
448,192,276346,1,0,0:0:0:0:
64,192,276346,1,0,0:0:0:0:
192,192,276346,1,0,0:0:0:0:
192,192,276566,1,0,0:0:0:0:
64,192,276788,1,0,0:0:0:0:
320,192,276788,1,0,0:0:0:0:
448,192,276788,1,0,0:0:0:0:
448,192,277008,1,0,0:0:0:0:
320,192,277229,1,0,0:0:0:0:
64,192,277229,1,0,0:0:0:0:
192,192,277449,1,0,0:0:0:0:
64,192,277669,1,0,0:0:0:0:
320,192,277669,1,0,0:0:0:0:
448,192,277669,1,0,0:0:0:0:
448,192,277890,1,0,0:0:0:0:
64,192,278110,1,0,0:0:0:0:
192,192,278110,1,0,0:0:0:0:
320,192,278110,1,0,0:0:0:0:
192,192,278331,1,0,0:0:0:0:
320,192,278551,1,0,0:0:0:0:
448,192,278551,1,0,0:0:0:0:
64,192,278551,1,0,0:0:0:0:
448,192,278772,1,0,0:0:0:0:
320,192,278992,1,0,0:0:0:0:
192,192,278992,1,0,0:0:0:0:
64,192,279214,1,0,0:0:0:0:
448,192,279434,1,0,0:0:0:0:
320,192,279434,1,0,0:0:0:0:
192,192,279434,1,0,0:0:0:0:
320,192,279655,1,0,0:0:0:0:
448,192,279875,1,0,0:0:0:0:
192,192,279875,1,0,0:0:0:0:
64,192,279875,1,0,0:0:0:0:
192,192,280096,1,0,0:0:0:0:
64,192,280316,1,0,0:0:0:0:
320,192,280316,1,0,0:0:0:0:
448,192,280316,1,0,0:0:0:0:
64,192,280538,1,0,0:0:0:0:
192,192,280758,1,0,0:0:0:0:
320,192,280758,1,0,0:0:0:0:
448,192,280979,1,0,0:0:0:0:
320,192,281199,1,0,0:0:0:0:
64,192,281199,1,0,0:0:0:0:
192,192,281199,1,0,0:0:0:0:
192,192,281419,1,0,0:0:0:0:
64,192,281640,1,0,0:0:0:0:
320,192,281640,1,0,0:0:0:0:
448,192,281640,1,0,0:0:0:0:
448,192,281860,1,0,0:0:0:0:
64,192,282081,1,0,0:0:0:0:
192,192,282081,1,0,0:0:0:0:
320,192,282081,1,0,0:0:0:0:
192,192,282301,1,0,0:0:0:0:
64,192,282522,1,0,0:0:0:0:
320,192,282522,1,0,0:0:0:0:
192,192,282742,1,0,0:0:0:0:
64,192,282964,1,0,0:0:0:0:
320,192,282964,1,0,0:0:0:0:
448,192,282964,1,0,0:0:0:0:
192,192,283184,1,0,0:0:0:0:
448,192,283405,1,0,0:0:0:0:
320,192,283405,1,0,0:0:0:0:
64,192,283405,1,0,0:0:0:0:
448,192,283625,1,0,0:0:0:0:
320,192,283846,1,0,0:0:0:0:
192,192,283846,1,0,0:0:0:0:
64,192,283846,1,0,0:0:0:0:
192,192,284066,1,0,0:0:0:0:
64,192,284288,1,0,0:0:0:0:
320,192,284288,1,0,0:0:0:0:
448,192,284508,1,0,0:0:0:0:
320,192,284729,1,0,0:0:0:0:
192,192,284729,1,0,0:0:0:0:
64,192,284949,1,0,0:0:0:0:
448,192,285169,1,0,0:0:0:0:
320,192,285169,1,0,0:0:0:0:
192,192,285390,1,0,0:0:0:0:
64,192,285610,1,0,0:0:0:0:
320,192,285610,1,0,0:0:0:0:
192,192,285831,1,0,0:0:0:0:
448,192,286051,1,0,0:0:0:0:
320,192,286051,1,0,0:0:0:0:
192,192,286272,1,0,0:0:0:0:
64,192,286492,1,0,0:0:0:0:
320,192,286492,1,0,0:0:0:0:
448,192,286714,1,0,0:0:0:0:
320,192,286934,1,0,0:0:0:0:
192,192,286934,1,0,0:0:0:0:
64,192,287155,1,0,0:0:0:0:
448,192,287375,1,0,0:0:0:0:
192,192,287375,1,0,0:0:0:0:
320,192,287596,1,0,0:0:0:0:
448,192,287816,1,0,0:0:0:0:
64,192,287816,1,0,0:0:0:0:
320,192,288038,1,0,0:0:0:0:
192,192,288258,1,0,0:0:0:0:
64,192,288258,1,0,0:0:0:0:
448,192,288479,1,0,0:0:0:0:
320,192,288699,1,0,0:0:0:0:
192,192,288699,1,0,0:0:0:0:
64,192,288919,1,0,0:0:0:0:
448,192,289140,1,0,0:0:0:0:
320,192,289140,1,0,0:0:0:0:
192,192,289360,1,0,0:0:0:0:
448,192,289581,1,0,0:0:0:0:
64,192,289581,1,0,0:0:0:0:
320,192,289581,1,0,0:0:0:0:
64,192,289801,1,0,0:0:0:0:
448,192,289801,1,0,0:0:0:0:
192,192,290022,1,0,0:0:0:0:
320,192,290022,1,0,0:0:0:0:
448,192,290022,1,0,0:0:0:0:
192,192,290242,1,0,0:0:0:0:
64,192,290242,1,0,0:0:0:0:
320,192,290464,1,0,0:0:0:0:
192,192,290464,1,0,0:0:0:0:
64,192,290464,1,0,0:0:0:0:
192,192,290684,1,0,0:0:0:0:
320,192,290684,1,0,0:0:0:0:
192,192,290905,1,0,0:0:0:0:
320,192,290905,1,0,0:0:0:0:
448,192,290905,1,0,0:0:0:0:
320,192,291125,1,0,0:0:0:0:
448,192,291125,1,0,0:0:0:0:
64,192,291346,1,0,0:0:0:0:
192,192,291346,1,0,0:0:0:0:
448,192,291346,1,0,0:0:0:0:
192,192,291566,1,0,0:0:0:0:
448,192,291566,1,0,0:0:0:0:
320,192,291788,1,0,0:0:0:0:
192,192,291788,1,0,0:0:0:0:
64,192,291788,1,0,0:0:0:0:
64,192,292008,1,0,0:0:0:0:
320,192,292008,1,0,0:0:0:0:
192,192,292229,1,0,0:0:0:0:
320,192,292229,1,0,0:0:0:0:
448,192,292229,1,0,0:0:0:0:
64,192,292449,1,0,0:0:0:0:
192,192,292449,1,0,0:0:0:0:
448,192,292669,1,0,0:0:0:0:
320,192,292669,1,0,0:0:0:0:
64,192,292669,1,0,0:0:0:0:
64,192,292890,1,0,0:0:0:0:
320,192,292890,1,0,0:0:0:0:
448,192,293110,1,0,0:0:0:0:
320,192,293110,1,0,0:0:0:0:
192,192,293221,1,0,0:0:0:0:
64,192,293221,1,0,0:0:0:0:
448,192,293331,1,0,0:0:0:0:
320,192,293331,1,0,0:0:0:0:
64,192,293441,1,0,0:0:0:0:
192,192,293441,1,0,0:0:0:0:
320,192,293551,1,0,0:0:0:0:
448,192,293551,1,0,0:0:0:0:
192,192,293662,1,0,0:0:0:0:
64,192,293662,1,0,0:0:0:0:
320,192,293772,1,0,0:0:0:0:
448,192,293772,1,0,0:0:0:0:
192,192,293882,1,0,0:0:0:0:
64,192,293882,1,0,0:0:0:0:
320,192,293992,1,0,0:0:0:0:
448,192,293992,1,0,0:0:0:0:
192,192,294104,1,0,0:0:0:0:
64,192,294104,1,0,0:0:0:0:
320,192,294214,1,0,0:0:0:0:
448,192,294214,1,0,0:0:0:0:
192,192,294324,1,0,0:0:0:0:
64,192,294324,1,0,0:0:0:0:
320,192,294434,1,0,0:0:0:0:
448,192,294434,1,0,0:0:0:0:
192,192,294544,1,0,0:0:0:0:
64,192,294544,1,0,0:0:0:0:
448,192,294655,1,0,0:0:0:0:
320,192,294655,1,0,0:0:0:0:
192,192,294765,1,0,0:0:0:0:
64,192,294765,1,0,0:0:0:0:
320,192,294875,1,0,0:0:0:0:
448,192,294875,1,0,0:0:0:0:
64,192,294985,1,0,0:0:0:0:
448,192,295096,1,0,0:0:0:0:
320,192,295206,1,0,0:0:0:0:
192,192,295316,1,0,0:0:0:0:
64,192,295426,1,0,0:0:0:0:
448,192,295538,1,0,0:0:0:0:
320,192,295648,1,0,0:0:0:0:
192,192,295758,1,0,0:0:0:0:
64,192,295868,1,0,0:0:0:0:
448,192,295979,1,0,0:0:0:0:
320,192,296089,1,0,0:0:0:0:
192,192,296199,1,0,0:0:0:0:
64,192,296309,1,0,0:0:0:0:
448,192,296419,1,0,0:0:0:0:
320,192,296530,1,0,0:0:0:0:
192,192,296640,128,0,299288:0:0:0:0:
64,192,296640,128,0,299288:0:0:0:0:
448,192,299288,128,0,300169:0:0:0:0:
320,192,300169,128,0,301714:0:0:0:0:
192,192,301492,128,0,301714:0:0:0:0:
64,192,301714,128,0,303699:0:0:0:0:
448,192,303699,128,0,304581:0:0:0:0:
320,192,304581,128,0,305464:0:0:0:0:
192,192,305464,128,0,306346:0:0:0:0:
64,192,306346,128,0,307229:0:0:0:0:
320,192,307229,128,0,308110:0:0:0:0:
448,192,308110,128,0,308992:0:0:0:0:
192,192,308992,128,0,309875:0:0:0:0:
64,192,309875,128,0,310758:0:0:0:0:
448,192,310758,128,0,312081:0:0:0:0:
320,192,312081,128,0,312301:0:0:0:0:
64,192,312301,128,0,313405:0:0:0:0:
448,192,313405,128,0,314288:0:0:0:0:
64,192,314288,128,0,315610:0:0:0:0:
320,192,315610,128,0,315831:0:0:0:0:
192,192,315831,128,0,317816:0:0:0:0:
448,192,317816,128,0,318699:0:0:0:0:
320,192,318699,1,0,0:0:0:0:
320,192,318809,128,0,319581:0:0:0:0:
192,192,319581,1,0,0:0:0:0:
192,192,319691,128,0,320464:0:0:0:0:
64,192,320464,1,0,0:0:0:0:
64,192,320574,128,0,321346:0:0:0:0:
448,192,321346,1,0,0:0:0:0:
448,192,321456,128,0,322229:0:0:0:0:
64,192,322229,1,0,0:0:0:0:
64,192,322339,128,0,322669:0:0:0:0:
448,192,322669,1,0,0:0:0:0:
448,192,322780,128,0,323110:0:0:0:0:
64,192,323110,1,0,0:0:0:0:
64,192,323221,128,0,323992:0:0:0:0:
448,192,323992,128,0,324875:0:0:0:0:
320,192,324875,128,0,333699:0:0:0:0:
192,192,324875,128,0,333699:0:0:0:0:
64,192,324875,128,0,333699:0:0:0:0:
