osu file format v14

[General]
AudioFilename: rainbowroad.mp3
AudioLeadIn: 0
PreviewTime: 73936
Countdown: 0
SampleSet: Soft
StackLeniency: 0.7
Mode: 3
LetterboxInBreaks: 0
SpecialStyle: 0
WidescreenStoryboard: 1

[Editor]
DistanceSpacing: 1
BeatDivisor: 8
GridSize: 16
TimelineZoom: 1.9

[Metadata]
Title:4k Beginner Pack
TitleUnicode:4k Beginner Pack
Artist:Various Artists
ArtistUnicode:Various Artists
Creator:Yupyapyipyep
Version:nanobii - Rainbow Road
Source:
Tags:
BeatmapID:2920237
BeatmapSetID:668952

[Difficulty]
HPDrainRate:5
CircleSize:4
OverallDifficulty:5
ApproachRate:5
SliderMultiplier:1.4
SliderTickRate:1

[Events]
//Background and Video events
0,0,"rainbowroad-bg.jpg",0,0
//Break Periods
//Storyboard Layer 0 (Background)
//Storyboard Layer 1 (Fail)
//Storyboard Layer 2 (Pass)
//Storyboard Layer 3 (Foreground)
//Storyboard Layer 4 (Overlay)
//Storyboard Sound Samples

[TimingPoints]
108,705.882352941176,4,2,0,100,1,0

[HitObjects]
64,192,108,5,0,0:0:0:0:
192,192,284,1,0,0:0:0:0:
320,192,460,1,0,0:0:0:0:
448,192,637,128,0,2931:0:0:0:0:
448,192,5755,1,0,0:0:0:0:
320,192,5931,1,0,0:0:0:0:
192,192,6108,1,0,0:0:0:0:
64,192,6284,128,0,8225:0:0:0:0:
448,192,8225,1,0,0:0:0:0:
320,192,8402,1,0,0:0:0:0:
64,192,9637,1,0,0:0:0:0:
192,192,9813,1,0,0:0:0:0:
448,192,9990,128,0,11402:0:0:0:0:
192,192,11402,1,0,0:0:0:0:
64,192,11402,128,0,11755:0:0:0:0:
192,192,11755,128,0,12108:0:0:0:0:
320,192,12108,128,0,12460:0:0:0:0:
448,192,12460,128,0,13166:0:0:0:0:
64,192,13166,128,0,13519:0:0:0:0:
448,192,13519,128,0,13872:0:0:0:0:
64,192,13872,128,0,14578:0:0:0:0:
448,192,14578,128,0,14931:0:0:0:0:
320,192,14931,128,0,15284:0:0:0:0:
64,192,15284,128,0,16696:0:0:0:0:
448,192,17049,128,0,17402:0:0:0:0:
320,192,17402,128,0,17755:0:0:0:0:
192,192,17755,128,0,18108:0:0:0:0:
64,192,18108,128,0,18813:0:0:0:0:
448,192,18813,128,0,19166:0:0:0:0:
64,192,19166,128,0,19519:0:0:0:0:
448,192,19519,128,0,21108:0:0:0:0:
64,192,22166,1,0,0:0:0:0:
320,192,22343,1,0,0:0:0:0:
64,192,22519,1,0,0:0:0:0:
320,192,22696,1,0,0:0:0:0:
448,192,22696,1,0,0:0:0:0:
448,192,23049,1,0,0:0:0:0:
320,192,23049,1,0,0:0:0:0:
448,192,23402,1,0,0:0:0:0:
320,192,23402,1,0,0:0:0:0:
448,192,23755,1,0,0:0:0:0:
320,192,23755,1,0,0:0:0:0:
64,192,23755,1,0,0:0:0:0:
192,192,24108,1,0,0:0:0:0:
320,192,24460,1,0,0:0:0:0:
64,192,24813,1,0,0:0:0:0:
448,192,25166,1,0,0:0:0:0:
320,192,25166,1,0,0:0:0:0:
192,192,25343,1,0,0:0:0:0:
64,192,25343,1,0,0:0:0:0:
320,192,25519,1,0,0:0:0:0:
448,192,25519,1,0,0:0:0:0:
64,192,25872,1,0,0:0:0:0:
448,192,26225,1,0,0:0:0:0:
320,192,26225,1,0,0:0:0:0:
320,192,26578,1,0,0:0:0:0:
448,192,26578,1,0,0:0:0:0:
64,192,26931,1,0,0:0:0:0:
320,192,27284,1,0,0:0:0:0:
448,192,27284,1,0,0:0:0:0:
192,192,27637,1,0,0:0:0:0:
64,192,27637,1,0,0:0:0:0:
320,192,27990,1,0,0:0:0:0:
448,192,27990,1,0,0:0:0:0:
320,192,28166,1,0,0:0:0:0:
448,192,28166,1,0,0:0:0:0:
64,192,28696,128,0,29049:0:0:0:0:
320,192,29049,128,0,29402:0:0:0:0:
448,192,29402,128,0,30108:0:0:0:0:
64,192,30108,128,0,30460:0:0:0:0:
192,192,30460,128,0,30813:0:0:0:0:
448,192,30813,128,0,32578:0:0:0:0:
64,192,33284,128,0,33460:0:0:0:0:
192,192,33284,128,0,33460:0:0:0:0:
448,192,33460,128,0,33637:0:0:0:0:
320,192,33460,128,0,33637:0:0:0:0:
64,192,33637,128,0,33813:0:0:0:0:
192,192,33637,128,0,33813:0:0:0:0:
320,192,33990,1,0,0:0:0:0:
448,192,33990,128,0,34343:0:0:0:0:
64,192,34343,128,0,34696:0:0:0:0:
448,192,34696,128,0,35049:0:0:0:0:
64,192,35049,128,0,35755:0:0:0:0:
448,192,35755,128,0,36108:0:0:0:0:
320,192,36108,128,0,36460:0:0:0:0:
192,192,36460,128,0,37166:0:0:0:0:
64,192,37166,128,0,37519:0:0:0:0:
448,192,37519,128,0,37872:0:0:0:0:
320,192,37872,128,0,39284:0:0:0:0:
64,192,39637,128,0,39990:0:0:0:0:
320,192,39990,128,0,40343:0:0:0:0:
448,192,40343,128,0,40696:0:0:0:0:
64,192,40696,128,0,41402:0:0:0:0:
448,192,41402,128,0,41755:0:0:0:0:
320,192,41755,128,0,42108:0:0:0:0:
192,192,42108,128,0,43519:0:0:0:0:
448,192,43872,1,0,0:0:0:0:
320,192,43872,1,0,0:0:0:0:
192,192,44225,1,0,0:0:0:0:
64,192,44225,1,0,0:0:0:0:
320,192,44755,1,0,0:0:0:0:
448,192,44755,1,0,0:0:0:0:
448,192,44931,1,0,0:0:0:0:
320,192,44931,1,0,0:0:0:0:
64,192,45284,128,0,45637:0:0:0:0:
192,192,45637,128,0,45990:0:0:0:0:
448,192,45990,128,0,46343:0:0:0:0:
320,192,46343,128,0,47049:0:0:0:0:
192,192,47049,128,0,47402:0:0:0:0:
64,192,47402,128,0,47755:0:0:0:0:
448,192,47755,128,0,48460:0:0:0:0:
64,192,48460,128,0,48813:0:0:0:0:
448,192,48813,128,0,49166:0:0:0:0:
320,192,49166,128,0,50578:0:0:0:0:
64,192,50931,128,0,51284:0:0:0:0:
448,192,51284,128,0,51637:0:0:0:0:
320,192,51637,128,0,51990:0:0:0:0:
192,192,51990,128,0,52696:0:0:0:0:
448,192,52696,128,0,53049:0:0:0:0:
64,192,53049,128,0,53402:0:0:0:0:
448,192,53402,128,0,55519:0:0:0:0:
320,192,53755,1,0,0:0:0:0:
64,192,54108,1,0,0:0:0:0:
192,192,54284,1,0,0:0:0:0:
320,192,54637,1,0,0:0:0:0:
64,192,54990,1,0,0:0:0:0:
64,192,55872,1,0,0:0:0:0:
192,192,55872,1,0,0:0:0:0:
448,192,56049,1,0,0:0:0:0:
320,192,56049,1,0,0:0:0:0:
192,192,56225,1,0,0:0:0:0:
64,192,56225,1,0,0:0:0:0:
448,192,56402,1,0,0:0:0:0:
320,192,56402,1,0,0:0:0:0:
64,192,56578,1,0,0:0:0:0:
448,192,56843,1,0,0:0:0:0:
64,192,56931,1,0,0:0:0:0:
64,192,57108,128,0,57637:0:0:0:0:
448,192,57990,1,0,0:0:0:0:
320,192,58255,1,0,0:0:0:0:
192,192,58343,1,0,0:0:0:0:
64,192,58519,128,0,59049:0:0:0:0:
448,192,58696,128,0,59049:0:0:0:0:
320,192,59402,1,0,0:0:0:0:
192,192,59666,1,0,0:0:0:0:
64,192,59755,1,0,0:0:0:0:
448,192,59931,128,0,60460:0:0:0:0:
64,192,60107,128,0,60460:0:0:0:0:
448,192,61696,1,0,0:0:0:0:
320,192,61872,1,0,0:0:0:0:
192,192,62049,1,0,0:0:0:0:
64,192,62225,128,0,62490:0:0:0:0:
448,192,62578,1,0,0:0:0:0:
192,192,62755,1,0,0:0:0:0:
64,192,62931,128,0,63284:0:0:0:0:
448,192,63637,1,0,0:0:0:0:
64,192,63902,1,0,0:0:0:0:
192,192,63990,1,0,0:0:0:0:
320,192,64166,1,0,0:0:0:0:
448,192,64343,128,0,64696:0:0:0:0:
64,192,65049,1,0,0:0:0:0:
64,192,65313,1,0,0:0:0:0:
448,192,65578,128,0,66107:0:0:0:0:
64,192,67343,128,0,67519:0:0:0:0:
192,192,67519,128,0,67696:0:0:0:0:
320,192,67696,128,0,67872:0:0:0:0:
448,192,67872,128,0,68137:0:0:0:0:
64,192,68137,1,0,0:0:0:0:
192,192,68225,1,0,0:0:0:0:
448,192,68402,128,0,68931:0:0:0:0:
64,192,68578,128,0,68931:0:0:0:0:
320,192,69284,1,0,0:0:0:0:
64,192,69549,1,0,0:0:0:0:
192,192,69637,1,0,0:0:0:0:
448,192,69813,1,0,0:0:0:0:
448,192,69990,128,0,70343:0:0:0:0:
64,192,70696,128,0,70960:0:0:0:0:
192,192,70960,128,0,71225:0:0:0:0:
448,192,71225,1,0,0:0:0:0:
64,192,71402,128,0,71755:0:0:0:0:
448,192,72990,1,0,0:0:0:0:
64,192,73166,1,0,0:0:0:0:
448,192,73343,1,0,0:0:0:0:
64,192,73519,1,0,0:0:0:0:
192,192,73784,1,0,0:0:0:0:
448,192,73872,128,0,74225:0:0:0:0:
320,192,74225,128,0,74578:0:0:0:0:
192,192,74578,128,0,75284:0:0:0:0:
64,192,75284,128,0,75637:0:0:0:0:
448,192,75637,128,0,75990:0:0:0:0:
64,192,75990,128,0,78460:0:0:0:0:
192,192,76343,1,0,0:0:0:0:
448,192,76607,1,0,0:0:0:0:
192,192,76872,1,0,0:0:0:0:
448,192,80578,1,0,0:0:0:0:
320,192,80755,1,0,0:0:0:0:
192,192,80931,1,0,0:0:0:0:
64,192,81107,128,0,82696:0:0:0:0:
64,192,83402,1,0,0:0:0:0:
192,192,83578,1,0,0:0:0:0:
320,192,83755,1,0,0:0:0:0:
448,192,83931,128,0,85519:0:0:0:0:
64,192,86225,1,0,0:0:0:0:
448,192,86402,1,0,0:0:0:0:
64,192,86578,1,0,0:0:0:0:
448,192,86755,128,0,88343:0:0:0:0:
64,192,89049,1,0,0:0:0:0:
192,192,89225,1,0,0:0:0:0:
320,192,89402,1,0,0:0:0:0:
448,192,89578,128,0,91166:0:0:0:0:
448,192,91872,1,0,0:0:0:0:
64,192,92049,1,0,0:0:0:0:
448,192,92225,1,0,0:0:0:0:
448,192,92402,128,0,93990:0:0:0:0:
64,192,94696,1,0,0:0:0:0:
320,192,94872,1,0,0:0:0:0:
64,192,95049,1,0,0:0:0:0:
448,192,95225,128,0,96813:0:0:0:0:
64,192,97519,1,0,0:0:0:0:
448,192,97696,1,0,0:0:0:0:
64,192,97872,1,0,0:0:0:0:
448,192,98049,128,0,99637:0:0:0:0:
320,192,98049,128,0,98578:0:0:0:0:
192,192,98578,128,0,99284:0:0:0:0:
64,192,99284,128,0,99637:0:0:0:0:
192,192,99637,128,0,99990:0:0:0:0:
448,192,99990,128,0,101578:0:0:0:0:
64,192,102460,128,0,103872:0:0:0:0:
448,192,103166,128,0,103519:0:0:0:0:
320,192,103519,128,0,103872:0:0:0:0:
192,192,103872,128,0,104225:0:0:0:0:
64,192,104225,128,0,104931:0:0:0:0:
448,192,104931,128,0,105284:0:0:0:0:
320,192,105284,128,0,105637:0:0:0:0:
192,192,105637,128,0,106343:0:0:0:0:
64,192,106343,128,0,106696:0:0:0:0:
448,192,106696,128,0,107049:0:0:0:0:
64,192,107049,128,0,108460:0:0:0:0:
192,192,107049,128,0,108460:0:0:0:0:
448,192,108460,1,0,0:0:0:0:
320,192,108637,1,0,0:0:0:0:
64,192,108813,1,0,0:0:0:0:
64,192,109166,1,0,0:0:0:0:
192,192,109343,1,0,0:0:0:0:
448,192,109696,1,0,0:0:0:0:
448,192,110049,1,0,0:0:0:0:
320,192,110402,1,0,0:0:0:0:
320,192,110755,1,0,0:0:0:0:
64,192,111107,1,0,0:0:0:0:
448,192,111107,128,0,114460:0:0:0:0:
64,192,111460,1,0,0:0:0:0:
192,192,111637,1,0,0:0:0:0:
320,192,111990,1,0,0:0:0:0:
192,192,112166,1,0,0:0:0:0:
64,192,112519,1,0,0:0:0:0:
320,192,112696,1,0,0:0:0:0:
64,192,112872,1,0,0:0:0:0:
64,192,114460,1,0,0:0:0:0:
192,192,114637,1,0,0:0:0:0:
320,192,114813,1,0,0:0:0:0:
448,192,114990,1,0,0:0:0:0:
64,192,115166,1,0,0:0:0:0:
448,192,115343,1,0,0:0:0:0:
320,192,115519,1,0,0:0:0:0:
64,192,115696,1,0,0:0:0:0:
192,192,115872,1,0,0:0:0:0:
448,192,116049,1,0,0:0:0:0:
320,192,116225,1,0,0:0:0:0:
192,192,116402,1,0,0:0:0:0:
64,192,116578,1,0,0:0:0:0:
448,192,116755,1,0,0:0:0:0:
64,192,116931,1,0,0:0:0:0:
192,192,117107,1,0,0:0:0:0:
448,192,117284,1,0,0:0:0:0:
320,192,117460,1,0,0:0:0:0:
64,192,117637,1,0,0:0:0:0:
192,192,117813,1,0,0:0:0:0:
320,192,117990,1,0,0:0:0:0:
448,192,118166,1,0,0:0:0:0:
64,192,118343,1,0,0:0:0:0:
192,192,118519,1,0,0:0:0:0:
448,192,118696,1,0,0:0:0:0:
320,192,118872,1,0,0:0:0:0:
192,192,119049,1,0,0:0:0:0:
448,192,119225,1,0,0:0:0:0:
320,192,119402,1,0,0:0:0:0:
64,192,119578,1,0,0:0:0:0:
448,192,119755,1,0,0:0:0:0:
64,192,119931,1,0,0:0:0:0:
448,192,120107,1,0,0:0:0:0:
320,192,120196,1,0,0:0:0:0:
192,192,120284,1,0,0:0:0:0:
64,192,120460,1,0,0:0:0:0:
448,192,120637,1,0,0:0:0:0:
320,192,120725,1,0,0:0:0:0:
192,192,120813,1,0,0:0:0:0:
448,192,120990,1,0,0:0:0:0:
64,192,121166,1,0,0:0:0:0:
192,192,121255,1,0,0:0:0:0:
320,192,121343,1,0,0:0:0:0:
64,192,121519,1,0,0:0:0:0:
192,192,121607,1,0,0:0:0:0:
320,192,121696,1,0,0:0:0:0:
64,192,121872,1,0,0:0:0:0:
448,192,122049,1,0,0:0:0:0:
320,192,122137,1,0,0:0:0:0:
192,192,122225,1,0,0:0:0:0:
448,192,122402,1,0,0:0:0:0:
64,192,122578,1,0,0:0:0:0:
192,192,122666,1,0,0:0:0:0:
320,192,122755,1,0,0:0:0:0:
448,192,122931,1,0,0:0:0:0:
320,192,123019,1,0,0:0:0:0:
192,192,123107,1,0,0:0:0:0:
448,192,123284,1,0,0:0:0:0:
64,192,123460,1,0,0:0:0:0:
320,192,123637,1,0,0:0:0:0:
64,192,123813,1,0,0:0:0:0:
448,192,123990,1,0,0:0:0:0:
64,192,124166,1,0,0:0:0:0:
448,192,124343,128,0,124519:0:0:0:0:
320,192,124343,128,0,124519:0:0:0:0:
192,192,124519,128,0,124696:0:0:0:0:
64,192,124519,128,0,124696:0:0:0:0:
448,192,124696,128,0,124872:0:0:0:0:
320,192,124696,128,0,124872:0:0:0:0:
448,192,125755,128,0,126107:0:0:0:0:
320,192,126107,128,0,126460:0:0:0:0:
192,192,126460,128,0,126813:0:0:0:0:
64,192,126813,128,0,127519:0:0:0:0:
448,192,127519,128,0,127872:0:0:0:0:
64,192,127872,128,0,128225:0:0:0:0:
448,192,128225,128,0,128931:0:0:0:0:
64,192,128931,128,0,129284:0:0:0:0:
192,192,129284,128,0,129637:0:0:0:0:
448,192,129637,128,0,131049:0:0:0:0:
64,192,131402,128,0,131755:0:0:0:0:
320,192,131755,128,0,132107:0:0:0:0:
448,192,132107,128,0,132460:0:0:0:0:
64,192,132460,128,0,133166:0:0:0:0:
448,192,133166,128,0,133519:0:0:0:0:
320,192,133519,128,0,133872:0:0:0:0:
64,192,133872,128,0,135460:0:0:0:0:
448,192,135637,1,0,0:0:0:0:
320,192,135637,1,0,0:0:0:0:
64,192,135990,1,0,0:0:0:0:
320,192,136519,1,0,0:0:0:0:
448,192,136519,1,0,0:0:0:0:
64,192,136696,1,0,0:0:0:0:
448,192,137049,128,0,137402:0:0:0:0:
320,192,137402,128,0,137755:0:0:0:0:
448,192,137755,128,0,138107:0:0:0:0:
64,192,138107,128,0,138813:0:0:0:0:
192,192,138813,128,0,139166:0:0:0:0:
320,192,139166,128,0,139519:0:0:0:0:
448,192,139519,128,0,140225:0:0:0:0:
64,192,140225,128,0,140578:0:0:0:0:
192,192,140578,128,0,140931:0:0:0:0:
448,192,140931,128,0,142343:0:0:0:0:
64,192,142696,128,0,143049:0:0:0:0:
192,192,143049,128,0,143402:0:0:0:0:
320,192,143402,128,0,143755:0:0:0:0:
448,192,143755,128,0,144460:0:0:0:0:
64,192,144460,128,0,144813:0:0:0:0:
192,192,144813,128,0,145166:0:0:0:0:
448,192,145166,128,0,147637:0:0:0:0:
64,192,145519,1,0,0:0:0:0:
192,192,145519,1,0,0:0:0:0:
320,192,145872,1,0,0:0:0:0:
192,192,146049,1,0,0:0:0:0:
64,192,146049,1,0,0:0:0:0:
320,192,146402,1,0,0:0:0:0:
192,192,146578,1,0,0:0:0:0:
64,192,146578,1,0,0:0:0:0:
320,192,146931,1,0,0:0:0:0:
192,192,147107,1,0,0:0:0:0:
64,192,147107,1,0,0:0:0:0:
192,192,147460,1,0,0:0:0:0:
64,192,147460,1,0,0:0:0:0:
320,192,147637,1,0,0:0:0:0:
64,192,147813,1,0,0:0:0:0:
448,192,147990,1,0,0:0:0:0:
192,192,148166,1,0,0:0:0:0:
64,192,148166,1,0,0:0:0:0:
448,192,148343,1,0,0:0:0:0:
64,192,148607,1,0,0:0:0:0:
192,192,148696,1,0,0:0:0:0:
448,192,148872,1,0,0:0:0:0:
64,192,149049,128,0,149402:0:0:0:0:
448,192,149755,1,0,0:0:0:0:
64,192,150019,1,0,0:0:0:0:
192,192,150107,1,0,0:0:0:0:
448,192,150284,128,0,150813:0:0:0:0:
64,192,150460,128,0,150813:0:0:0:0:
64,192,151166,1,0,0:0:0:0:
448,192,151431,1,0,0:0:0:0:
320,192,151519,1,0,0:0:0:0:
64,192,151696,128,0,152225:0:0:0:0:
448,192,151872,128,0,152225:0:0:0:0:
448,192,153460,1,0,0:0:0:0:
64,192,153637,1,0,0:0:0:0:
448,192,153813,1,0,0:0:0:0:
448,192,153990,1,0,0:0:0:0:
64,192,154255,1,0,0:0:0:0:
192,192,154343,1,0,0:0:0:0:
448,192,154519,1,0,0:0:0:0:
64,192,154696,128,0,155049:0:0:0:0:
448,192,155402,1,0,0:0:0:0:
64,192,155666,1,0,0:0:0:0:
448,192,155755,1,0,0:0:0:0:
64,192,155931,1,0,0:0:0:0:
448,192,156107,128,0,156460:0:0:0:0:
64,192,156813,1,0,0:0:0:0:
448,192,157078,1,0,0:0:0:0:
320,192,157166,1,0,0:0:0:0:
64,192,157343,1,0,0:0:0:0:
448,192,157519,128,0,157872:0:0:0:0:
64,192,159107,1,0,0:0:0:0:
192,192,159284,1,0,0:0:0:0:
320,192,159460,1,0,0:0:0:0:
448,192,159637,1,0,0:0:0:0:
64,192,159902,1,0,0:0:0:0:
192,192,159990,1,0,0:0:0:0:
448,192,160166,1,0,0:0:0:0:
448,192,160343,128,0,160696:0:0:0:0:
64,192,161049,1,0,0:0:0:0:
448,192,161313,1,0,0:0:0:0:
320,192,161402,1,0,0:0:0:0:
64,192,161578,128,0,162107:0:0:0:0:
448,192,161755,128,0,162107:0:0:0:0:
192,192,162460,1,0,0:0:0:0:
448,192,162725,1,0,0:0:0:0:
320,192,162813,1,0,0:0:0:0:
64,192,162990,128,0,163519:0:0:0:0:
448,192,163166,128,0,163519:0:0:0:0:
448,192,165284,128,0,165813:0:0:0:0:
320,192,165284,1,0,0:0:0:0:
64,192,165813,128,0,166166:0:0:0:0:
192,192,165813,1,0,0:0:0:0:
448,192,166166,128,0,166519:0:0:0:0:
320,192,166166,1,0,0:0:0:0:
192,192,166519,1,0,0:0:0:0:
64,192,166519,128,0,172343:0:0:0:0:
448,192,167755,1,0,0:0:0:0:
192,192,168107,1,0,0:0:0:0:
448,192,168990,1,0,0:0:0:0:
320,192,169166,1,0,0:0:0:0:
192,192,169343,128,0,172343:0:0:0:0:
