osu file format v14

[General]
AudioFilename: honesty.mp3
AudioLeadIn: 0
PreviewTime: 55077
Countdown: 0
SampleSet: Soft
StackLeniency: 0.7
Mode: 3
LetterboxInBreaks: 0
SpecialStyle: 0
WidescreenStoryboard: 1

[Editor]
DistanceSpacing: 1
BeatDivisor: 4
GridSize: 16
TimelineZoom: 1.9

[Metadata]
Title:4k Beginner Pack
TitleUnicode:4k Beginner Pack
Artist:Various Artists
ArtistUnicode:Various Artists
Creator:Yupyapyipyep
Version:SHANK - "Honesty"
Source:
Tags:
BeatmapID:2896174
BeatmapSetID:668952

[Difficulty]
HPDrainRate:5
CircleSize:4
OverallDifficulty:5
ApproachRate:5
SliderMultiplier:1.4
SliderTickRate:1

[Events]
//Background and Video events
0,0,"1761712.jpg",0,0
//Break Periods
//Storyboard Layer 0 (Background)
//Storyboard Layer 1 (Fail)
//Storyboard Layer 2 (Pass)
//Storyboard Layer 3 (Foreground)
//Storyboard Layer 4 (Overlay)
//Storyboard Sound Samples

[TimingPoints]
15889,304.568527918782,4,2,0,15,1,0

[HitObjects]
448,192,15889,5,0,0:0:0:0:
64,192,15965,1,0,0:0:0:0:
448,192,16041,1,0,0:0:0:0:
64,192,16193,1,0,0:0:0:0:
448,192,16269,1,0,0:0:0:0:
64,192,16345,1,0,0:0:0:0:
448,192,16498,1,0,0:0:0:0:
448,192,16650,1,0,0:0:0:0:
64,192,16802,1,0,0:0:0:0:
448,192,16954,128,0,17259:0:0:0:0:
64,192,17259,1,0,0:0:0:0:
192,192,17259,1,0,0:0:0:0:
320,192,17335,1,0,0:0:0:0:
448,192,17335,1,0,0:0:0:0:
64,192,17411,1,0,0:0:0:0:
192,192,17411,1,0,0:0:0:0:
320,192,17487,1,0,0:0:0:0:
448,192,17487,1,0,0:0:0:0:
64,192,17564,1,0,0:0:0:0:
192,192,17564,1,0,0:0:0:0:
320,192,17640,1,0,0:0:0:0:
448,192,17640,1,0,0:0:0:0:
64,192,17716,1,0,0:0:0:0:
192,192,17716,1,0,0:0:0:0:
64,192,17868,1,0,0:0:0:0:
448,192,18020,1,0,0:0:0:0:
64,192,18173,128,0,18477:0:0:0:0:
448,192,18477,1,0,0:0:0:0:
320,192,18630,1,0,0:0:0:0:
192,192,18630,1,0,0:0:0:0:
64,192,18934,1,0,0:0:0:0:
64,192,19086,1,0,0:0:0:0:
320,192,19239,1,0,0:0:0:0:
448,192,19239,1,0,0:0:0:0:
64,192,19543,1,0,0:0:0:0:
192,192,19696,1,0,0:0:0:0:
64,192,19848,1,0,0:0:0:0:
448,192,19848,1,0,0:0:0:0:
320,192,20152,1,0,0:0:0:0:
320,192,20305,1,0,0:0:0:0:
320,192,20457,1,0,0:0:0:0:
64,192,20457,1,0,0:0:0:0:
64,192,20609,1,0,0:0:0:0:
448,192,20914,1,0,0:0:0:0:
192,192,21066,1,0,0:0:0:0:
64,192,21066,1,0,0:0:0:0:
448,192,21371,1,0,0:0:0:0:
64,192,21523,1,0,0:0:0:0:
448,192,21675,1,0,0:0:0:0:
320,192,21675,1,0,0:0:0:0:
64,192,21980,1,0,0:0:0:0:
64,192,22132,1,0,0:0:0:0:
64,192,22284,1,0,0:0:0:0:
448,192,22284,1,0,0:0:0:0:
448,192,22589,1,0,0:0:0:0:
64,192,22741,1,0,0:0:0:0:
64,192,22894,1,0,0:0:0:0:
320,192,22894,1,0,0:0:0:0:
320,192,23046,1,0,0:0:0:0:
448,192,23350,1,0,0:0:0:0:
192,192,23503,1,0,0:0:0:0:
64,192,23503,1,0,0:0:0:0:
448,192,23807,1,0,0:0:0:0:
448,192,23960,1,0,0:0:0:0:
192,192,24112,1,0,0:0:0:0:
64,192,24112,1,0,0:0:0:0:
448,192,24416,1,0,0:0:0:0:
320,192,24569,1,0,0:0:0:0:
192,192,24721,1,0,0:0:0:0:
64,192,24721,1,0,0:0:0:0:
448,192,25026,1,0,0:0:0:0:
448,192,25178,1,0,0:0:0:0:
64,192,25330,1,0,0:0:0:0:
320,192,25330,1,0,0:0:0:0:
192,192,25482,1,0,0:0:0:0:
448,192,25787,1,0,0:0:0:0:
448,192,25939,1,0,0:0:0:0:
320,192,25939,1,0,0:0:0:0:
64,192,26396,1,0,0:0:0:0:
192,192,26396,1,0,0:0:0:0:
448,192,26701,1,0,0:0:0:0:
448,192,26777,1,0,0:0:0:0:
192,192,26853,1,0,0:0:0:0:
64,192,26853,1,0,0:0:0:0:
448,192,27005,1,0,0:0:0:0:
192,192,27158,1,0,0:0:0:0:
64,192,27158,1,0,0:0:0:0:
448,192,27310,1,0,0:0:0:0:
320,192,27386,1,0,0:0:0:0:
192,192,27462,1,0,0:0:0:0:
64,192,27538,1,0,0:0:0:0:
448,192,27614,1,0,0:0:0:0:
320,192,27691,1,0,0:0:0:0:
192,192,27767,1,0,0:0:0:0:
64,192,27843,1,0,0:0:0:0:
448,192,27919,1,0,0:0:0:0:
320,192,27919,1,0,0:0:0:0:
64,192,28224,1,0,0:0:0:0:
64,192,28376,1,0,0:0:0:0:
448,192,28376,1,0,0:0:0:0:
320,192,28680,1,0,0:0:0:0:
192,192,28833,1,0,0:0:0:0:
448,192,28985,1,0,0:0:0:0:
64,192,28985,1,0,0:0:0:0:
320,192,29290,1,0,0:0:0:0:
320,192,29442,1,0,0:0:0:0:
192,192,29594,1,0,0:0:0:0:
64,192,29594,1,0,0:0:0:0:
448,192,29899,1,0,0:0:0:0:
64,192,30051,1,0,0:0:0:0:
320,192,30203,1,0,0:0:0:0:
448,192,30203,1,0,0:0:0:0:
448,192,30356,1,0,0:0:0:0:
64,192,30660,1,0,0:0:0:0:
192,192,30812,1,0,0:0:0:0:
64,192,30812,1,0,0:0:0:0:
448,192,31117,1,0,0:0:0:0:
320,192,31269,1,0,0:0:0:0:
192,192,31421,1,0,0:0:0:0:
64,192,31421,1,0,0:0:0:0:
448,192,31726,1,0,0:0:0:0:
320,192,31878,1,0,0:0:0:0:
192,192,32031,1,0,0:0:0:0:
64,192,32031,1,0,0:0:0:0:
64,192,32335,1,0,0:0:0:0:
192,192,32487,1,0,0:0:0:0:
320,192,32640,1,0,0:0:0:0:
448,192,32640,1,0,0:0:0:0:
448,192,32792,1,0,0:0:0:0:
64,192,33097,1,0,0:0:0:0:
64,192,33249,1,0,0:0:0:0:
192,192,33249,1,0,0:0:0:0:
448,192,33553,1,0,0:0:0:0:
320,192,33706,1,0,0:0:0:0:
448,192,33858,1,0,0:0:0:0:
64,192,33858,1,0,0:0:0:0:
320,192,34163,1,0,0:0:0:0:
192,192,34315,1,0,0:0:0:0:
320,192,34467,1,0,0:0:0:0:
64,192,34467,1,0,0:0:0:0:
448,192,34772,1,0,0:0:0:0:
64,192,34924,1,0,0:0:0:0:
448,192,35076,1,0,0:0:0:0:
320,192,35076,1,0,0:0:0:0:
64,192,35229,1,0,0:0:0:0:
448,192,35533,1,0,0:0:0:0:
192,192,35685,1,0,0:0:0:0:
64,192,35685,1,0,0:0:0:0:
448,192,36142,1,0,0:0:0:0:
64,192,36218,1,0,0:0:0:0:
448,192,36295,1,0,0:0:0:0:
320,192,36295,1,0,0:0:0:0:
64,192,36447,1,0,0:0:0:0:
448,192,36751,1,0,0:0:0:0:
448,192,36828,1,0,0:0:0:0:
192,192,36904,1,0,0:0:0:0:
64,192,36904,1,0,0:0:0:0:
448,192,37208,1,0,0:0:0:0:
64,192,37284,1,0,0:0:0:0:
448,192,37361,1,0,0:0:0:0:
64,192,37437,1,0,0:0:0:0:
448,192,37513,1,0,0:0:0:0:
320,192,37589,1,0,0:0:0:0:
192,192,37665,1,0,0:0:0:0:
64,192,37741,1,0,0:0:0:0:
448,192,37817,1,0,0:0:0:0:
192,192,37970,1,0,0:0:0:0:
64,192,37970,1,0,0:0:0:0:
448,192,38122,1,0,0:0:0:0:
320,192,38198,1,0,0:0:0:0:
192,192,38274,1,0,0:0:0:0:
64,192,38274,1,0,0:0:0:0:
448,192,38427,1,0,0:0:0:0:
64,192,38579,1,0,0:0:0:0:
192,192,38579,1,0,0:0:0:0:
320,192,38731,1,0,0:0:0:0:
448,192,38807,1,0,0:0:0:0:
64,192,38883,1,0,0:0:0:0:
192,192,38883,1,0,0:0:0:0:
448,192,39036,1,0,0:0:0:0:
192,192,39188,1,0,0:0:0:0:
64,192,39188,1,0,0:0:0:0:
448,192,39340,1,0,0:0:0:0:
448,192,39416,1,0,0:0:0:0:
192,192,39493,1,0,0:0:0:0:
64,192,39493,1,0,0:0:0:0:
320,192,39645,1,0,0:0:0:0:
448,192,39797,1,0,0:0:0:0:
64,192,39797,1,0,0:0:0:0:
192,192,39949,1,0,0:0:0:0:
320,192,40026,1,0,0:0:0:0:
448,192,40102,1,0,0:0:0:0:
64,192,40102,1,0,0:0:0:0:
192,192,40254,1,0,0:0:0:0:
320,192,40406,1,0,0:0:0:0:
448,192,40406,1,0,0:0:0:0:
64,192,40559,1,0,0:0:0:0:
192,192,40635,1,0,0:0:0:0:
320,192,40711,1,0,0:0:0:0:
448,192,40711,1,0,0:0:0:0:
64,192,40863,1,0,0:0:0:0:
320,192,41015,1,0,0:0:0:0:
448,192,41015,1,0,0:0:0:0:
64,192,41168,1,0,0:0:0:0:
192,192,41244,1,0,0:0:0:0:
320,192,41320,1,0,0:0:0:0:
448,192,41320,1,0,0:0:0:0:
64,192,41472,1,0,0:0:0:0:
320,192,41625,1,0,0:0:0:0:
448,192,41625,1,0,0:0:0:0:
64,192,41777,1,0,0:0:0:0:
192,192,41853,1,0,0:0:0:0:
320,192,41929,1,0,0:0:0:0:
448,192,41929,1,0,0:0:0:0:
64,192,42081,1,0,0:0:0:0:
320,192,42234,1,0,0:0:0:0:
448,192,42234,1,0,0:0:0:0:
64,192,42386,1,0,0:0:0:0:
192,192,42462,1,0,0:0:0:0:
320,192,42538,1,0,0:0:0:0:
448,192,42538,1,0,0:0:0:0:
64,192,42691,1,0,0:0:0:0:
64,192,42843,1,0,0:0:0:0:
192,192,42843,1,0,0:0:0:0:
448,192,42995,1,0,0:0:0:0:
320,192,43071,1,0,0:0:0:0:
192,192,43147,1,0,0:0:0:0:
64,192,43147,1,0,0:0:0:0:
448,192,43300,1,0,0:0:0:0:
192,192,43452,1,0,0:0:0:0:
64,192,43452,1,0,0:0:0:0:
448,192,43604,1,0,0:0:0:0:
320,192,43680,1,0,0:0:0:0:
192,192,43757,1,0,0:0:0:0:
64,192,43757,1,0,0:0:0:0:
448,192,43909,1,0,0:0:0:0:
192,192,44061,1,0,0:0:0:0:
64,192,44061,1,0,0:0:0:0:
448,192,44213,1,0,0:0:0:0:
320,192,44290,1,0,0:0:0:0:
192,192,44366,1,0,0:0:0:0:
64,192,44366,1,0,0:0:0:0:
448,192,44518,1,0,0:0:0:0:
192,192,44670,1,0,0:0:0:0:
64,192,44670,1,0,0:0:0:0:
448,192,44823,1,0,0:0:0:0:
320,192,44899,1,0,0:0:0:0:
192,192,44975,1,0,0:0:0:0:
64,192,44975,1,0,0:0:0:0:
448,192,45127,1,0,0:0:0:0:
192,192,45279,1,0,0:0:0:0:
64,192,45279,1,0,0:0:0:0:
448,192,45432,1,0,0:0:0:0:
320,192,45508,1,0,0:0:0:0:
192,192,45584,1,0,0:0:0:0:
64,192,45584,1,0,0:0:0:0:
320,192,45736,1,0,0:0:0:0:
64,192,45889,1,0,0:0:0:0:
448,192,45889,1,0,0:0:0:0:
320,192,46041,1,0,0:0:0:0:
192,192,46117,1,0,0:0:0:0:
64,192,46193,1,0,0:0:0:0:
448,192,46193,1,0,0:0:0:0:
320,192,46345,1,0,0:0:0:0:
64,192,46498,1,0,0:0:0:0:
448,192,46498,1,0,0:0:0:0:
320,192,46650,1,0,0:0:0:0:
192,192,46726,1,0,0:0:0:0:
64,192,46802,1,0,0:0:0:0:
448,192,46802,1,0,0:0:0:0:
320,192,46954,1,0,0:0:0:0:
448,192,47107,1,0,0:0:0:0:
64,192,47107,1,0,0:0:0:0:
320,192,47259,1,0,0:0:0:0:
192,192,47335,1,0,0:0:0:0:
64,192,47411,1,0,0:0:0:0:
448,192,47411,1,0,0:0:0:0:
320,192,47564,1,0,0:0:0:0:
64,192,47716,1,0,0:0:0:0:
448,192,47716,1,0,0:0:0:0:
320,192,47868,1,0,0:0:0:0:
192,192,47944,1,0,0:0:0:0:
64,192,48020,1,0,0:0:0:0:
448,192,48020,1,0,0:0:0:0:
320,192,48173,1,0,0:0:0:0:
448,192,48325,1,0,0:0:0:0:
64,192,48325,1,0,0:0:0:0:
320,192,48477,1,0,0:0:0:0:
192,192,48553,1,0,0:0:0:0:
448,192,48630,1,0,0:0:0:0:
64,192,48630,1,0,0:0:0:0:
192,192,48782,1,0,0:0:0:0:
64,192,48934,1,0,0:0:0:0:
320,192,48934,1,0,0:0:0:0:
448,192,49086,1,0,0:0:0:0:
320,192,49163,1,0,0:0:0:0:
64,192,49239,1,0,0:0:0:0:
192,192,49239,1,0,0:0:0:0:
320,192,49391,1,0,0:0:0:0:
192,192,49543,1,0,0:0:0:0:
448,192,49543,1,0,0:0:0:0:
64,192,49696,1,0,0:0:0:0:
192,192,49772,1,0,0:0:0:0:
448,192,49848,1,0,0:0:0:0:
320,192,49848,1,0,0:0:0:0:
192,192,50000,1,0,0:0:0:0:
320,192,50152,1,0,0:0:0:0:
64,192,50152,1,0,0:0:0:0:
448,192,50305,1,0,0:0:0:0:
320,192,50381,1,0,0:0:0:0:
192,192,50457,1,0,0:0:0:0:
64,192,50457,1,0,0:0:0:0:
320,192,50609,1,0,0:0:0:0:
192,192,50762,1,0,0:0:0:0:
448,192,50762,1,0,0:0:0:0:
64,192,50914,1,0,0:0:0:0:
192,192,50990,1,0,0:0:0:0:
320,192,51066,1,0,0:0:0:0:
448,192,51066,1,0,0:0:0:0:
192,192,51218,1,0,0:0:0:0:
64,192,51371,1,0,0:0:0:0:
320,192,51371,1,0,0:0:0:0:
448,192,51523,1,0,0:0:0:0:
320,192,51599,1,0,0:0:0:0:
192,192,51675,1,0,0:0:0:0:
64,192,51675,1,0,0:0:0:0:
448,192,51828,1,0,0:0:0:0:
192,192,51980,1,0,0:0:0:0:
64,192,51980,1,0,0:0:0:0:
192,192,52132,1,0,0:0:0:0:
64,192,52132,1,0,0:0:0:0:
448,192,52284,1,0,0:0:0:0:
448,192,52589,1,0,0:0:0:0:
192,192,52741,1,0,0:0:0:0:
64,192,52741,1,0,0:0:0:0:
64,192,53046,1,0,0:0:0:0:
192,192,53198,1,0,0:0:0:0:
448,192,53350,1,0,0:0:0:0:
64,192,53350,1,0,0:0:0:0:
448,192,53503,1,0,0:0:0:0:
64,192,53807,1,0,0:0:0:0:
320,192,53960,1,0,0:0:0:0:
448,192,53960,1,0,0:0:0:0:
64,192,54264,1,0,0:0:0:0:
64,192,54416,1,0,0:0:0:0:
448,192,54569,1,0,0:0:0:0:
320,192,54569,1,0,0:0:0:0:
448,192,54721,1,0,0:0:0:0:
448,192,55178,1,0,0:0:0:0:
448,192,55482,1,0,0:0:0:0:
448,192,55787,1,0,0:0:0:0:
448,192,56092,1,0,0:0:0:0:
448,192,57158,1,0,0:0:0:0:
448,192,57462,1,0,0:0:0:0:
192,192,57614,1,0,0:0:0:0:
64,192,57614,1,0,0:0:0:0:
448,192,57919,1,0,0:0:0:0:
64,192,58071,1,0,0:0:0:0:
192,192,58224,1,0,0:0:0:0:
448,192,58224,1,0,0:0:0:0:
320,192,58528,1,0,0:0:0:0:
64,192,58680,1,0,0:0:0:0:
192,192,58833,1,0,0:0:0:0:
448,192,58833,1,0,0:0:0:0:
320,192,59137,1,0,0:0:0:0:
448,192,59290,1,0,0:0:0:0:
192,192,59442,1,0,0:0:0:0:
64,192,59442,1,0,0:0:0:0:
448,192,59594,1,0,0:0:0:0:
64,192,59899,1,0,0:0:0:0:
64,192,60051,1,0,0:0:0:0:
192,192,60051,1,0,0:0:0:0:
320,192,60356,1,0,0:0:0:0:
448,192,60508,1,0,0:0:0:0:
64,192,60660,1,0,0:0:0:0:
320,192,60660,1,0,0:0:0:0:
192,192,60812,1,0,0:0:0:0:
192,192,61117,1,0,0:0:0:0:
320,192,61269,1,0,0:0:0:0:
448,192,61269,1,0,0:0:0:0:
192,192,61574,1,0,0:0:0:0:
320,192,61726,1,0,0:0:0:0:
64,192,61878,1,0,0:0:0:0:
192,192,61878,1,0,0:0:0:0:
192,192,62031,1,0,0:0:0:0:
64,192,62031,1,0,0:0:0:0:
448,192,62335,1,0,0:0:0:0:
64,192,62487,1,0,0:0:0:0:
448,192,62487,1,0,0:0:0:0:
320,192,62792,1,0,0:0:0:0:
448,192,62944,1,0,0:0:0:0:
64,192,63097,1,0,0:0:0:0:
192,192,63097,1,0,0:0:0:0:
448,192,63249,1,0,0:0:0:0:
64,192,63553,1,0,0:0:0:0:
192,192,63706,1,0,0:0:0:0:
448,192,63706,1,0,0:0:0:0:
64,192,64010,1,0,0:0:0:0:
64,192,64163,1,0,0:0:0:0:
64,192,64315,1,0,0:0:0:0:
448,192,64315,1,0,0:0:0:0:
448,192,64467,1,0,0:0:0:0:
64,192,64772,1,0,0:0:0:0:
320,192,64848,1,0,0:0:0:0:
192,192,64924,1,0,0:0:0:0:
448,192,64924,1,0,0:0:0:0:
64,192,65076,1,0,0:0:0:0:
320,192,65229,1,0,0:0:0:0:
448,192,65229,1,0,0:0:0:0:
64,192,65381,1,0,0:0:0:0:
448,192,65685,1,0,0:0:0:0:
448,192,65838,1,0,0:0:0:0:
320,192,65838,1,0,0:0:0:0:
64,192,65990,1,0,0:0:0:0:
192,192,66066,1,0,0:0:0:0:
320,192,66142,1,0,0:0:0:0:
448,192,66218,1,0,0:0:0:0:
64,192,66295,1,0,0:0:0:0:
448,192,66447,1,0,0:0:0:0:
64,192,66599,1,0,0:0:0:0:
448,192,66751,1,0,0:0:0:0:
64,192,66904,1,0,0:0:0:0:
64,192,67361,1,0,0:0:0:0:
448,192,67665,1,0,0:0:0:0:
320,192,67665,1,0,0:0:0:0:
64,192,67817,1,0,0:0:0:0:
448,192,68122,1,0,0:0:0:0:
64,192,68198,1,0,0:0:0:0:
192,192,68274,1,0,0:0:0:0:
320,192,68427,1,0,0:0:0:0:
448,192,68427,1,0,0:0:0:0:
64,192,68731,1,0,0:0:0:0:
192,192,68807,1,0,0:0:0:0:
320,192,68883,1,0,0:0:0:0:
448,192,68883,1,0,0:0:0:0:
448,192,69036,1,0,0:0:0:0:
448,192,69340,1,0,0:0:0:0:
448,192,69797,1,0,0:0:0:0:
192,192,70102,1,0,0:0:0:0:
64,192,70102,1,0,0:0:0:0:
320,192,70254,1,0,0:0:0:0:
448,192,70559,1,0,0:0:0:0:
64,192,70635,1,0,0:0:0:0:
192,192,70711,1,0,0:0:0:0:
320,192,70863,1,0,0:0:0:0:
448,192,70863,1,0,0:0:0:0:
64,192,71168,1,0,0:0:0:0:
448,192,71244,1,0,0:0:0:0:
192,192,71320,1,0,0:0:0:0:
64,192,71320,1,0,0:0:0:0:
448,192,71472,1,0,0:0:0:0:
448,192,71777,1,0,0:0:0:0:
448,192,72234,1,0,0:0:0:0:
64,192,72538,1,0,0:0:0:0:
448,192,72538,1,0,0:0:0:0:
320,192,72691,1,0,0:0:0:0:
192,192,72843,1,0,0:0:0:0:
64,192,72843,1,0,0:0:0:0:
448,192,72995,1,0,0:0:0:0:
192,192,73300,1,0,0:0:0:0:
64,192,73300,1,0,0:0:0:0:
192,192,73452,1,0,0:0:0:0:
64,192,73452,1,0,0:0:0:0:
448,192,73604,1,0,0:0:0:0:
320,192,73680,1,0,0:0:0:0:
192,192,73757,1,0,0:0:0:0:
64,192,73757,1,0,0:0:0:0:
192,192,73909,1,0,0:0:0:0:
64,192,73909,1,0,0:0:0:0:
320,192,74061,1,0,0:0:0:0:
448,192,74061,1,0,0:0:0:0:
64,192,74213,1,0,0:0:0:0:
320,192,74518,1,0,0:0:0:0:
448,192,74518,1,0,0:0:0:0:
64,192,74594,1,0,0:0:0:0:
192,192,74594,1,0,0:0:0:0:
320,192,74670,1,0,0:0:0:0:
448,192,74670,1,0,0:0:0:0:
192,192,74746,1,0,0:0:0:0:
64,192,74746,1,0,0:0:0:0:
320,192,74823,1,0,0:0:0:0:
448,192,74823,1,0,0:0:0:0:
192,192,74899,1,0,0:0:0:0:
64,192,74899,1,0,0:0:0:0:
320,192,74975,1,0,0:0:0:0:
448,192,74975,1,0,0:0:0:0:
64,192,75127,1,0,0:0:0:0:
64,192,75279,1,0,0:0:0:0:
448,192,75432,1,0,0:0:0:0:
64,192,75736,1,0,0:0:0:0:
192,192,75889,1,0,0:0:0:0:
320,192,75889,1,0,0:0:0:0:
64,192,76193,1,0,0:0:0:0:
192,192,76345,1,0,0:0:0:0:
64,192,76498,1,0,0:0:0:0:
320,192,76498,1,0,0:0:0:0:
448,192,76802,1,0,0:0:0:0:
448,192,76954,1,0,0:0:0:0:
320,192,77107,1,0,0:0:0:0:
192,192,77107,1,0,0:0:0:0:
64,192,77411,1,0,0:0:0:0:
192,192,77564,1,0,0:0:0:0:
192,192,77716,1,0,0:0:0:0:
320,192,77716,1,0,0:0:0:0:
448,192,77868,1,0,0:0:0:0:
64,192,78173,1,0,0:0:0:0:
320,192,78325,1,0,0:0:0:0:
448,192,78325,1,0,0:0:0:0:
192,192,78630,1,0,0:0:0:0:
64,192,78782,1,0,0:0:0:0:
448,192,78934,1,0,0:0:0:0:
320,192,78934,1,0,0:0:0:0:
64,192,79239,1,0,0:0:0:0:
192,192,79391,1,0,0:0:0:0:
192,192,79543,1,0,0:0:0:0:
448,192,79543,1,0,0:0:0:0:
320,192,79848,1,0,0:0:0:0:
192,192,80000,1,0,0:0:0:0:
320,192,80152,1,0,0:0:0:0:
448,192,80152,1,0,0:0:0:0:
64,192,80305,1,0,0:0:0:0:
64,192,80609,1,0,0:0:0:0:
320,192,80762,1,0,0:0:0:0:
448,192,80762,1,0,0:0:0:0:
64,192,81066,1,0,0:0:0:0:
64,192,81218,1,0,0:0:0:0:
320,192,81371,1,0,0:0:0:0:
448,192,81371,1,0,0:0:0:0:
192,192,81675,1,0,0:0:0:0:
320,192,81828,1,0,0:0:0:0:
192,192,81980,1,0,0:0:0:0:
64,192,81980,1,0,0:0:0:0:
448,192,82284,1,0,0:0:0:0:
320,192,82437,1,0,0:0:0:0:
192,192,82589,1,0,0:0:0:0:
64,192,82589,1,0,0:0:0:0:
448,192,82741,1,0,0:0:0:0:
448,192,83046,1,0,0:0:0:0:
320,192,83198,1,0,0:0:0:0:
64,192,83198,1,0,0:0:0:0:
192,192,83503,1,0,0:0:0:0:
448,192,83655,1,0,0:0:0:0:
320,192,83655,1,0,0:0:0:0:
64,192,83960,1,0,0:0:0:0:
192,192,84036,1,0,0:0:0:0:
320,192,84112,1,0,0:0:0:0:
448,192,84112,1,0,0:0:0:0:
192,192,84264,1,0,0:0:0:0:
320,192,84340,1,0,0:0:0:0:
192,192,84416,1,0,0:0:0:0:
64,192,84416,1,0,0:0:0:0:
448,192,84645,1,0,0:0:0:0:
320,192,84721,1,0,0:0:0:0:
192,192,84797,1,0,0:0:0:0:
64,192,84873,1,0,0:0:0:0:
448,192,84949,1,0,0:0:0:0:
320,192,85026,1,0,0:0:0:0:
192,192,85102,1,0,0:0:0:0:
64,192,85178,1,0,0:0:0:0:
448,192,85482,1,0,0:0:0:0:
448,192,85635,1,0,0:0:0:0:
64,192,85635,1,0,0:0:0:0:
320,192,85939,1,0,0:0:0:0:
320,192,86092,1,0,0:0:0:0:
448,192,86244,1,0,0:0:0:0:
64,192,86244,1,0,0:0:0:0:
192,192,86548,1,0,0:0:0:0:
320,192,86701,1,0,0:0:0:0:
320,192,86853,1,0,0:0:0:0:
448,192,86853,1,0,0:0:0:0:
64,192,87158,1,0,0:0:0:0:
192,192,87310,1,0,0:0:0:0:
320,192,87462,1,0,0:0:0:0:
448,192,87462,1,0,0:0:0:0:
64,192,87614,1,0,0:0:0:0:
448,192,87919,1,0,0:0:0:0:
320,192,88071,1,0,0:0:0:0:
192,192,88071,1,0,0:0:0:0:
64,192,88376,1,0,0:0:0:0:
64,192,88528,1,0,0:0:0:0:
320,192,88680,1,0,0:0:0:0:
448,192,88680,1,0,0:0:0:0:
320,192,88985,1,0,0:0:0:0:
320,192,89137,1,0,0:0:0:0:
192,192,89290,1,0,0:0:0:0:
64,192,89290,1,0,0:0:0:0:
448,192,89594,1,0,0:0:0:0:
192,192,89746,1,0,0:0:0:0:
448,192,89899,1,0,0:0:0:0:
64,192,89899,1,0,0:0:0:0:
320,192,90051,1,0,0:0:0:0:
320,192,90356,1,0,0:0:0:0:
192,192,90508,1,0,0:0:0:0:
64,192,90508,1,0,0:0:0:0:
448,192,90812,1,0,0:0:0:0:
192,192,90965,1,0,0:0:0:0:
64,192,91117,1,0,0:0:0:0:
448,192,91117,1,0,0:0:0:0:
64,192,91269,1,0,0:0:0:0:
448,192,91574,1,0,0:0:0:0:
64,192,91726,1,0,0:0:0:0:
192,192,91726,1,0,0:0:0:0:
448,192,91878,1,0,0:0:0:0:
320,192,91954,1,0,0:0:0:0:
192,192,92031,1,0,0:0:0:0:
64,192,92031,1,0,0:0:0:0:
192,192,92183,1,0,0:0:0:0:
64,192,92183,1,0,0:0:0:0:
192,192,92335,1,0,0:0:0:0:
64,192,92335,1,0,0:0:0:0:
448,192,92487,1,0,0:0:0:0:
64,192,93858,128,0,94163:0:0:0:0:
192,192,94010,128,0,94163:0:0:0:0:
448,192,94315,128,0,94467:0:0:0:0:
320,192,94619,128,0,94772:0:0:0:0:
192,192,94924,128,0,95381:0:0:0:0:
64,192,94924,1,0,0:0:0:0:
448,192,95381,1,0,0:0:0:0:
448,192,95685,1,0,0:0:0:0:
320,192,95685,1,0,0:0:0:0:
448,192,95838,1,0,0:0:0:0:
192,192,96142,1,0,0:0:0:0:
64,192,96142,1,0,0:0:0:0:
64,192,96295,1,0,0:0:0:0:
320,192,96447,1,0,0:0:0:0:
448,192,96447,1,0,0:0:0:0:
448,192,96751,1,0,0:0:0:0:
320,192,96828,1,0,0:0:0:0:
192,192,96904,1,0,0:0:0:0:
64,192,96904,1,0,0:0:0:0:
448,192,97056,1,0,0:0:0:0:
448,192,97361,1,0,0:0:0:0:
448,192,97817,1,0,0:0:0:0:
448,192,98122,1,0,0:0:0:0:
64,192,98122,1,0,0:0:0:0:
320,192,98274,1,0,0:0:0:0:
64,192,98579,1,0,0:0:0:0:
192,192,98731,1,0,0:0:0:0:
320,192,98883,1,0,0:0:0:0:
448,192,98883,1,0,0:0:0:0:
64,192,99188,1,0,0:0:0:0:
320,192,99264,1,0,0:0:0:0:
192,192,99340,1,0,0:0:0:0:
448,192,99340,1,0,0:0:0:0:
64,192,99493,1,0,0:0:0:0:
448,192,99797,1,0,0:0:0:0:
448,192,100254,1,0,0:0:0:0:
448,192,100559,1,0,0:0:0:0:
320,192,100559,1,0,0:0:0:0:
64,192,100711,1,0,0:0:0:0:
192,192,101168,1,0,0:0:0:0:
320,192,101320,1,0,0:0:0:0:
448,192,101320,1,0,0:0:0:0:
64,192,101548,1,0,0:0:0:0:
192,192,101625,1,0,0:0:0:0:
320,192,101701,1,0,0:0:0:0:
448,192,101701,1,0,0:0:0:0:
320,192,101929,1,0,0:0:0:0:
320,192,102234,1,0,0:0:0:0:
320,192,102691,1,0,0:0:0:0:
192,192,102995,1,0,0:0:0:0:
64,192,102995,1,0,0:0:0:0:
448,192,103147,1,0,0:0:0:0:
64,192,103604,1,0,0:0:0:0:
320,192,103757,1,0,0:0:0:0:
448,192,103757,1,0,0:0:0:0:
64,192,104061,1,0,0:0:0:0:
192,192,104137,1,0,0:0:0:0:
320,192,104213,1,0,0:0:0:0:
448,192,104213,1,0,0:0:0:0:
192,192,104366,1,0,0:0:0:0:
192,192,104670,1,0,0:0:0:0:
320,192,105127,1,0,0:0:0:0:
448,192,105432,1,0,0:0:0:0:
64,192,105432,1,0,0:0:0:0:
64,192,105584,1,0,0:0:0:0:
448,192,105889,1,0,0:0:0:0:
64,192,105965,1,0,0:0:0:0:
448,192,106041,1,0,0:0:0:0:
320,192,106193,1,0,0:0:0:0:
192,192,106193,1,0,0:0:0:0:
448,192,106498,1,0,0:0:0:0:
320,192,106574,1,0,0:0:0:0:
192,192,106650,1,0,0:0:0:0:
64,192,106650,1,0,0:0:0:0:
448,192,106802,1,0,0:0:0:0:
448,192,107107,1,0,0:0:0:0:
448,192,111980,1,0,0:0:0:0:
320,192,111980,1,0,0:0:0:0:
192,192,111980,1,0,0:0:0:0:
64,192,111980,1,0,0:0:0:0:
448,192,112284,1,0,0:0:0:0:
64,192,112437,1,0,0:0:0:0:
320,192,112437,1,0,0:0:0:0:
192,192,112741,1,0,0:0:0:0:
320,192,112894,1,0,0:0:0:0:
64,192,113046,1,0,0:0:0:0:
192,192,113046,1,0,0:0:0:0:
448,192,113350,1,0,0:0:0:0:
448,192,113503,1,0,0:0:0:0:
448,192,113655,1,0,0:0:0:0:
320,192,113655,1,0,0:0:0:0:
64,192,113960,1,0,0:0:0:0:
192,192,114112,1,0,0:0:0:0:
320,192,114264,1,0,0:0:0:0:
448,192,114264,1,0,0:0:0:0:
448,192,114416,1,0,0:0:0:0:
64,192,114721,1,0,0:0:0:0:
192,192,114873,1,0,0:0:0:0:
320,192,114873,1,0,0:0:0:0:
64,192,115178,1,0,0:0:0:0:
448,192,115330,1,0,0:0:0:0:
320,192,115482,1,0,0:0:0:0:
192,192,115482,1,0,0:0:0:0:
64,192,115635,1,0,0:0:0:0:
448,192,115939,1,0,0:0:0:0:
320,192,116092,1,0,0:0:0:0:
192,192,116092,1,0,0:0:0:0:
64,192,116396,1,0,0:0:0:0:
64,192,116548,1,0,0:0:0:0:
192,192,116701,1,0,0:0:0:0:
448,192,116701,1,0,0:0:0:0:
320,192,116853,1,0,0:0:0:0:
448,192,117158,1,0,0:0:0:0:
320,192,117310,1,0,0:0:0:0:
64,192,117310,1,0,0:0:0:0:
192,192,117614,1,0,0:0:0:0:
320,192,117767,1,0,0:0:0:0:
448,192,117919,1,0,0:0:0:0:
64,192,117919,1,0,0:0:0:0:
448,192,118071,1,0,0:0:0:0:
448,192,118376,1,0,0:0:0:0:
320,192,118528,1,0,0:0:0:0:
192,192,118528,1,0,0:0:0:0:
64,192,118833,1,0,0:0:0:0:
192,192,118985,1,0,0:0:0:0:
320,192,119137,1,0,0:0:0:0:
448,192,119137,1,0,0:0:0:0:
192,192,119290,1,0,0:0:0:0:
448,192,119594,1,0,0:0:0:0:
192,192,119746,1,0,0:0:0:0:
64,192,119746,1,0,0:0:0:0:
448,192,120051,1,0,0:0:0:0:
448,192,120203,1,0,0:0:0:0:
320,192,120356,1,0,0:0:0:0:
64,192,120356,1,0,0:0:0:0:
320,192,120660,1,0,0:0:0:0:
448,192,120660,1,0,0:0:0:0:
64,192,120812,1,0,0:0:0:0:
192,192,120889,1,0,0:0:0:0:
320,192,120965,1,0,0:0:0:0:
448,192,120965,1,0,0:0:0:0:
448,192,121117,1,0,0:0:0:0:
320,192,121117,1,0,0:0:0:0:
448,192,121269,1,0,0:0:0:0:
320,192,121269,1,0,0:0:0:0:
448,192,121421,1,0,0:0:0:0:
320,192,121421,1,0,0:0:0:0:
448,192,121574,1,0,0:0:0:0:
320,192,121574,1,0,0:0:0:0:
64,192,121726,1,0,0:0:0:0:
448,192,122031,1,0,0:0:0:0:
320,192,122183,1,0,0:0:0:0:
64,192,122183,1,0,0:0:0:0:
192,192,122487,1,0,0:0:0:0:
320,192,122640,1,0,0:0:0:0:
192,192,122792,1,0,0:0:0:0:
64,192,122792,1,0,0:0:0:0:
448,192,123097,1,0,0:0:0:0:
320,192,123249,1,0,0:0:0:0:
192,192,123401,1,0,0:0:0:0:
64,192,123401,1,0,0:0:0:0:
448,192,123706,1,0,0:0:0:0:
320,192,123858,1,0,0:0:0:0:
192,192,124010,1,0,0:0:0:0:
64,192,124010,1,0,0:0:0:0:
64,192,124163,1,0,0:0:0:0:
448,192,124467,1,0,0:0:0:0:
448,192,124619,1,0,0:0:0:0:
320,192,124619,1,0,0:0:0:0:
64,192,124924,1,0,0:0:0:0:
192,192,125076,1,0,0:0:0:0:
448,192,125229,1,0,0:0:0:0:
64,192,125229,1,0,0:0:0:0:
320,192,125381,1,0,0:0:0:0:
320,192,125685,1,0,0:0:0:0:
320,192,125838,1,0,0:0:0:0:
64,192,125838,1,0,0:0:0:0:
448,192,126142,1,0,0:0:0:0:
320,192,126295,1,0,0:0:0:0:
192,192,126447,1,0,0:0:0:0:
64,192,126447,1,0,0:0:0:0:
64,192,126599,1,0,0:0:0:0:
64,192,126904,1,0,0:0:0:0:
448,192,127056,1,0,0:0:0:0:
320,192,127056,1,0,0:0:0:0:
64,192,127361,1,0,0:0:0:0:
192,192,127513,1,0,0:0:0:0:
448,192,127665,1,0,0:0:0:0:
64,192,127665,1,0,0:0:0:0:
448,192,127817,1,0,0:0:0:0:
192,192,128122,1,0,0:0:0:0:
320,192,128274,1,0,0:0:0:0:
448,192,128274,1,0,0:0:0:0:
64,192,128579,1,0,0:0:0:0:
192,192,128731,1,0,0:0:0:0:
320,192,128883,1,0,0:0:0:0:
448,192,128883,1,0,0:0:0:0:
64,192,129036,1,0,0:0:0:0:
64,192,129340,1,0,0:0:0:0:
320,192,129493,1,0,0:0:0:0:
448,192,129493,1,0,0:0:0:0:
64,192,129797,1,0,0:0:0:0:
64,192,129949,1,0,0:0:0:0:
320,192,130102,1,0,0:0:0:0:
448,192,130102,1,0,0:0:0:0:
448,192,130254,1,0,0:0:0:0:
64,192,130559,1,0,0:0:0:0:
192,192,130711,1,0,0:0:0:0:
320,192,130711,1,0,0:0:0:0:
448,192,131015,1,0,0:0:0:0:
320,192,131168,1,0,0:0:0:0:
64,192,131320,1,0,0:0:0:0:
320,192,131320,1,0,0:0:0:0:
448,192,131472,1,0,0:0:0:0:
320,192,131777,1,0,0:0:0:0:
192,192,131929,1,0,0:0:0:0:
64,192,131929,1,0,0:0:0:0:
448,192,132234,1,0,0:0:0:0:
320,192,132386,1,0,0:0:0:0:
192,192,132538,1,0,0:0:0:0:
64,192,132538,1,0,0:0:0:0:
448,192,132691,1,0,0:0:0:0:
320,192,132995,1,0,0:0:0:0:
192,192,133147,1,0,0:0:0:0:
64,192,133147,1,0,0:0:0:0:
448,192,133452,1,0,0:0:0:0:
192,192,133604,1,0,0:0:0:0:
64,192,133757,1,0,0:0:0:0:
320,192,133757,1,0,0:0:0:0:
448,192,133909,1,0,0:0:0:0:
192,192,134213,1,0,0:0:0:0:
64,192,134213,1,0,0:0:0:0:
192,192,134366,1,0,0:0:0:0:
64,192,134366,1,0,0:0:0:0:
448,192,134518,1,0,0:0:0:0:
320,192,134594,1,0,0:0:0:0:
192,192,134670,1,0,0:0:0:0:
64,192,134670,1,0,0:0:0:0:
448,192,134823,1,0,0:0:0:0:
448,192,134975,1,0,0:0:0:0:
64,192,135127,1,0,0:0:0:0:
448,192,135432,1,0,0:0:0:0:
320,192,135508,1,0,0:0:0:0:
192,192,135584,1,0,0:0:0:0:
64,192,135660,1,0,0:0:0:0:
320,192,135736,1,0,0:0:0:0:
192,192,135812,1,0,0:0:0:0:
64,192,135889,1,0,0:0:0:0:
448,192,136041,1,0,0:0:0:0:
448,192,136193,1,0,0:0:0:0:
448,192,136345,1,0,0:0:0:0:
192,192,136345,1,0,0:0:0:0:
64,192,136345,1,0,0:0:0:0:
320,192,136650,1,0,0:0:0:0:
192,192,136802,1,0,0:0:0:0:
64,192,136802,1,0,0:0:0:0:
448,192,137107,1,0,0:0:0:0:
320,192,137259,1,0,0:0:0:0:
192,192,137411,1,0,0:0:0:0:
64,192,137411,1,0,0:0:0:0:
448,192,137716,1,0,0:0:0:0:
448,192,137868,1,0,0:0:0:0:
448,192,138020,1,0,0:0:0:0:
64,192,138020,1,0,0:0:0:0:
192,192,138325,1,0,0:0:0:0:
320,192,138477,1,0,0:0:0:0:
64,192,138630,1,0,0:0:0:0:
192,192,138630,1,0,0:0:0:0:
448,192,138782,1,0,0:0:0:0:
448,192,139086,1,0,0:0:0:0:
448,192,139239,1,0,0:0:0:0:
320,192,139239,1,0,0:0:0:0:
64,192,139543,1,0,0:0:0:0:
192,192,139696,1,0,0:0:0:0:
320,192,139848,1,0,0:0:0:0:
448,192,139848,1,0,0:0:0:0:
64,192,140152,1,0,0:0:0:0:
192,192,140305,1,0,0:0:0:0:
64,192,140457,1,0,0:0:0:0:
448,192,140457,1,0,0:0:0:0:
64,192,140762,1,0,0:0:0:0:
192,192,140914,1,0,0:0:0:0:
64,192,141066,1,0,0:0:0:0:
320,192,141066,1,0,0:0:0:0:
448,192,141218,1,0,0:0:0:0:
64,192,141523,1,0,0:0:0:0:
64,192,141675,1,0,0:0:0:0:
448,192,141675,1,0,0:0:0:0:
320,192,141980,1,0,0:0:0:0:
320,192,142132,1,0,0:0:0:0:
448,192,142284,1,0,0:0:0:0:
64,192,142284,1,0,0:0:0:0:
192,192,142589,1,0,0:0:0:0:
192,192,142741,1,0,0:0:0:0:
64,192,142894,1,0,0:0:0:0:
448,192,142894,1,0,0:0:0:0:
448,192,143198,1,0,0:0:0:0:
320,192,143350,1,0,0:0:0:0:
192,192,143503,1,0,0:0:0:0:
64,192,143503,1,0,0:0:0:0:
448,192,143655,1,0,0:0:0:0:
64,192,143960,1,0,0:0:0:0:
192,192,144112,1,0,0:0:0:0:
64,192,144112,1,0,0:0:0:0:
320,192,144569,1,0,0:0:0:0:
448,192,144569,1,0,0:0:0:0:
64,192,144873,1,0,0:0:0:0:
192,192,144949,1,0,0:0:0:0:
320,192,145026,1,0,0:0:0:0:
448,192,145026,1,0,0:0:0:0:
64,192,145178,1,0,0:0:0:0:
448,192,145254,1,0,0:0:0:0:
192,192,145330,1,0,0:0:0:0:
64,192,145330,1,0,0:0:0:0:
448,192,145482,1,0,0:0:0:0:
320,192,145559,1,0,0:0:0:0:
192,192,145635,1,0,0:0:0:0:
64,192,145711,1,0,0:0:0:0:
448,192,145787,1,0,0:0:0:0:
320,192,145863,1,0,0:0:0:0:
192,192,145939,1,0,0:0:0:0:
64,192,146015,1,0,0:0:0:0:
448,192,146092,1,0,0:0:0:0:
448,192,146396,1,0,0:0:0:0:
64,192,146548,1,0,0:0:0:0:
192,192,146548,1,0,0:0:0:0:
320,192,146853,1,0,0:0:0:0:
448,192,147005,1,0,0:0:0:0:
192,192,147158,1,0,0:0:0:0:
64,192,147158,1,0,0:0:0:0:
192,192,147462,1,0,0:0:0:0:
320,192,147614,1,0,0:0:0:0:
448,192,147767,1,0,0:0:0:0:
64,192,147767,1,0,0:0:0:0:
64,192,148071,1,0,0:0:0:0:
192,192,148224,1,0,0:0:0:0:
320,192,148376,1,0,0:0:0:0:
448,192,148376,1,0,0:0:0:0:
64,192,148528,1,0,0:0:0:0:
448,192,148833,1,0,0:0:0:0:
320,192,148985,1,0,0:0:0:0:
192,192,148985,1,0,0:0:0:0:
64,192,149290,1,0,0:0:0:0:
192,192,149442,1,0,0:0:0:0:
448,192,149594,1,0,0:0:0:0:
320,192,149594,1,0,0:0:0:0:
64,192,149899,1,0,0:0:0:0:
192,192,150051,1,0,0:0:0:0:
448,192,150203,1,0,0:0:0:0:
64,192,150203,1,0,0:0:0:0:
320,192,150508,1,0,0:0:0:0:
192,192,150660,1,0,0:0:0:0:
448,192,150812,1,0,0:0:0:0:
320,192,150812,1,0,0:0:0:0:
64,192,150965,1,0,0:0:0:0:
448,192,151269,1,0,0:0:0:0:
320,192,151421,1,0,0:0:0:0:
192,192,151421,1,0,0:0:0:0:
64,192,151726,1,0,0:0:0:0:
64,192,151878,1,0,0:0:0:0:
448,192,152031,1,0,0:0:0:0:
192,192,152031,1,0,0:0:0:0:
448,192,152335,1,0,0:0:0:0:
448,192,152487,1,0,0:0:0:0:
320,192,152640,1,0,0:0:0:0:
64,192,152640,1,0,0:0:0:0:
192,192,152944,1,0,0:0:0:0:
320,192,153097,1,0,0:0:0:0:
192,192,153249,1,0,0:0:0:0:
448,192,153249,1,0,0:0:0:0:
320,192,153401,1,0,0:0:0:0:
64,192,153858,1,0,0:0:0:0:
448,192,154163,1,0,0:0:0:0:
320,192,154163,1,0,0:0:0:0:
448,192,154315,1,0,0:0:0:0:
192,192,154619,1,0,0:0:0:0:
64,192,154619,1,0,0:0:0:0:
64,192,154772,1,0,0:0:0:0:
448,192,154924,1,0,0:0:0:0:
64,192,155229,1,0,0:0:0:0:
192,192,155305,1,0,0:0:0:0:
320,192,155381,1,0,0:0:0:0:
448,192,155381,1,0,0:0:0:0:
448,192,155533,1,0,0:0:0:0:
64,192,155838,1,0,0:0:0:0:
192,192,156295,1,0,0:0:0:0:
320,192,156599,1,0,0:0:0:0:
448,192,156599,1,0,0:0:0:0:
448,192,156751,1,0,0:0:0:0:
64,192,157056,1,0,0:0:0:0:
320,192,157056,1,0,0:0:0:0:
192,192,157208,1,0,0:0:0:0:
448,192,157361,1,0,0:0:0:0:
320,192,157361,1,0,0:0:0:0:
64,192,157665,1,0,0:0:0:0:
448,192,157741,1,0,0:0:0:0:
192,192,157817,1,0,0:0:0:0:
64,192,157817,1,0,0:0:0:0:
448,192,157970,1,0,0:0:0:0:
320,192,157970,1,0,0:0:0:0:
448,192,158122,1,0,0:0:0:0:
320,192,158122,1,0,0:0:0:0:
64,192,158274,1,0,0:0:0:0:
448,192,158579,1,0,0:0:0:0:
320,192,158655,1,0,0:0:0:0:
192,192,158731,1,0,0:0:0:0:
64,192,158731,1,0,0:0:0:0:
448,192,158883,1,0,0:0:0:0:
192,192,159036,1,0,0:0:0:0:
64,192,159036,1,0,0:0:0:0:
64,192,159188,1,0,0:0:0:0:
448,192,159493,1,0,0:0:0:0:
320,192,159569,1,0,0:0:0:0:
192,192,159645,1,0,0:0:0:0:
64,192,159645,1,0,0:0:0:0:
448,192,159797,1,0,0:0:0:0:
320,192,159949,1,0,0:0:0:0:
64,192,159949,1,0,0:0:0:0:
192,192,160254,1,0,0:0:0:0:
64,192,160406,1,0,0:0:0:0:
448,192,160406,1,0,0:0:0:0:
448,192,160559,1,0,0:0:0:0:
64,192,160559,1,0,0:0:0:0:
320,192,160711,1,0,0:0:0:0:
64,192,161015,1,0,0:0:0:0:
192,192,161092,1,0,0:0:0:0:
320,192,161168,1,0,0:0:0:0:
448,192,161168,1,0,0:0:0:0:
64,192,161320,1,0,0:0:0:0:
448,192,161625,1,0,0:0:0:0:
320,192,161625,1,0,0:0:0:0:
64,192,161929,1,0,0:0:0:0:
448,192,162005,1,0,0:0:0:0:
192,192,162081,1,0,0:0:0:0:
64,192,162081,1,0,0:0:0:0:
448,192,162234,1,0,0:0:0:0:
320,192,162234,1,0,0:0:0:0:
64,192,162310,1,0,0:0:0:0:
192,192,162310,1,0,0:0:0:0:
320,192,162386,1,0,0:0:0:0:
448,192,162386,1,0,0:0:0:0:
64,192,162538,1,0,0:0:0:0:
64,192,162691,1,0,0:0:0:0:
448,192,162843,1,0,0:0:0:0:
448,192,162995,1,0,0:0:0:0:
64,192,163147,1,0,0:0:0:0:
192,192,163147,1,0,0:0:0:0:
320,192,163147,128,0,170609:0:0:0:0:
