osu file format v14

[General]
AudioFilename: Hysteria.mp3
AudioLeadIn: 0
PreviewTime: 130617
Countdown: 0
SampleSet: Soft
StackLeniency: 0.7
Mode: 3
LetterboxInBreaks: 0
SpecialStyle: 0
WidescreenStoryboard: 1

[Editor]
DistanceSpacing: 1
BeatDivisor: 8
GridSize: 16
TimelineZoom: 2.3

[Metadata]
Title:4k Beginner Pack
TitleUnicode:4k Beginner Pack
Artist:Various Artists
ArtistUnicode:Various Artists
Creator:Yupyapyipyep
Version:Nano - Hysteria
Source:
Tags:
BeatmapID:1416487
BeatmapSetID:668952

[Difficulty]
HPDrainRate:5
CircleSize:4
OverallDifficulty:5
ApproachRate:5
SliderMultiplier:1.4
SliderTickRate:1

[Events]
//Background and Video events
0,0,"hysteria-bg.jpg",0,0
//Break Periods
//Storyboard Layer 0 (Background)
//Storyboard Layer 1 (Fail)
//Storyboard Layer 2 (Pass)
//Storyboard Layer 3 (Foreground)
//Storyboard Layer 4 (Overlay)
//Storyboard Sound Samples

[TimingPoints]
903,571.428571428571,4,2,0,100,1,0

[HitObjects]
448,192,903,5,0,0:0:0:0:
64,192,1188,1,0,0:0:0:0:
192,192,1188,1,0,0:0:0:0:
320,192,1331,1,0,0:0:0:0:
448,192,1331,1,0,0:0:0:0:
192,192,1474,1,0,0:0:0:0:
64,192,1474,1,0,0:0:0:0:
448,192,2045,1,0,0:0:0:0:
320,192,2617,1,0,0:0:0:0:
64,192,3188,1,0,0:0:0:0:
448,192,3474,1,0,0:0:0:0:
64,192,3474,1,0,0:0:0:0:
192,192,3617,1,0,0:0:0:0:
320,192,3617,1,0,0:0:0:0:
448,192,3760,1,0,0:0:0:0:
64,192,3760,1,0,0:0:0:0:
64,192,4331,1,0,0:0:0:0:
192,192,4902,1,0,0:0:0:0:
448,192,5474,1,0,0:0:0:0:
64,192,5760,1,0,0:0:0:0:
320,192,5760,1,0,0:0:0:0:
192,192,5902,1,0,0:0:0:0:
448,192,5902,1,0,0:0:0:0:
320,192,6045,1,0,0:0:0:0:
64,192,6045,1,0,0:0:0:0:
448,192,6617,1,0,0:0:0:0:
320,192,7188,1,0,0:0:0:0:
64,192,7760,1,0,0:0:0:0:
320,192,8045,1,0,0:0:0:0:
448,192,8045,1,0,0:0:0:0:
192,192,8188,1,0,0:0:0:0:
64,192,8188,1,0,0:0:0:0:
320,192,8331,1,0,0:0:0:0:
448,192,8331,1,0,0:0:0:0:
64,192,8902,1,0,0:0:0:0:
448,192,9474,1,0,0:0:0:0:
64,192,10045,1,0,0:0:0:0:
192,192,10331,1,0,0:0:0:0:
448,192,10331,1,0,0:0:0:0:
320,192,10474,1,0,0:0:0:0:
64,192,10474,1,0,0:0:0:0:
192,192,10617,1,0,0:0:0:0:
448,192,10617,1,0,0:0:0:0:
64,192,11188,1,0,0:0:0:0:
192,192,11760,1,0,0:0:0:0:
320,192,12331,1,0,0:0:0:0:
448,192,12617,1,0,0:0:0:0:
64,192,12617,1,0,0:0:0:0:
192,192,12760,1,0,0:0:0:0:
320,192,12760,1,0,0:0:0:0:
448,192,12902,1,0,0:0:0:0:
64,192,12902,1,0,0:0:0:0:
320,192,13474,1,0,0:0:0:0:
192,192,14045,1,0,0:0:0:0:
64,192,14617,1,0,0:0:0:0:
448,192,14902,1,0,0:0:0:0:
320,192,14902,1,0,0:0:0:0:
192,192,15045,1,0,0:0:0:0:
64,192,15045,1,0,0:0:0:0:
320,192,15188,1,0,0:0:0:0:
448,192,15188,1,0,0:0:0:0:
64,192,15760,1,0,0:0:0:0:
448,192,16331,1,0,0:0:0:0:
320,192,16902,1,0,0:0:0:0:
192,192,17188,1,0,0:0:0:0:
64,192,17188,1,0,0:0:0:0:
320,192,17331,1,0,0:0:0:0:
448,192,17331,1,0,0:0:0:0:
192,192,17474,1,0,0:0:0:0:
64,192,17474,1,0,0:0:0:0:
448,192,18045,1,0,0:0:0:0:
192,192,18331,1,0,0:0:0:0:
320,192,18331,1,0,0:0:0:0:
64,192,18617,1,0,0:0:0:0:
448,192,18760,1,0,0:0:0:0:
320,192,18831,1,0,0:0:0:0:
192,192,18902,1,0,0:0:0:0:
64,192,19045,1,0,0:0:0:0:
448,192,19188,1,0,0:0:0:0:
320,192,19331,1,0,0:0:0:0:
64,192,19474,1,0,0:0:0:0:
192,192,19474,1,0,0:0:0:0:
320,192,19760,1,0,0:0:0:0:
448,192,19760,1,0,0:0:0:0:
64,192,20045,1,0,0:0:0:0:
192,192,20188,1,0,0:0:0:0:
448,192,20331,1,0,0:0:0:0:
320,192,20331,1,0,0:0:0:0:
64,192,20474,1,0,0:0:0:0:
448,192,20760,1,0,0:0:0:0:
320,192,20902,1,0,0:0:0:0:
192,192,20902,1,0,0:0:0:0:
64,192,21188,1,0,0:0:0:0:
448,192,21331,1,0,0:0:0:0:
192,192,21474,1,0,0:0:0:0:
64,192,21474,1,0,0:0:0:0:
320,192,21760,1,0,0:0:0:0:
64,192,22045,1,0,0:0:0:0:
448,192,22045,1,0,0:0:0:0:
320,192,22331,1,0,0:0:0:0:
192,192,22474,1,0,0:0:0:0:
64,192,22617,1,0,0:0:0:0:
448,192,22617,1,0,0:0:0:0:
320,192,22760,1,0,0:0:0:0:
64,192,23045,1,0,0:0:0:0:
320,192,23188,1,0,0:0:0:0:
448,192,23188,1,0,0:0:0:0:
64,192,23474,1,0,0:0:0:0:
192,192,23617,1,0,0:0:0:0:
320,192,23760,1,0,0:0:0:0:
448,192,23760,1,0,0:0:0:0:
64,192,24045,1,0,0:0:0:0:
192,192,24331,1,0,0:0:0:0:
448,192,24331,1,0,0:0:0:0:
320,192,24617,1,0,0:0:0:0:
192,192,24760,1,0,0:0:0:0:
64,192,24902,1,0,0:0:0:0:
448,192,24902,1,0,0:0:0:0:
320,192,25045,1,0,0:0:0:0:
64,192,25331,1,0,0:0:0:0:
320,192,25474,1,0,0:0:0:0:
448,192,25474,1,0,0:0:0:0:
64,192,25760,1,0,0:0:0:0:
448,192,25902,1,0,0:0:0:0:
192,192,26045,1,0,0:0:0:0:
64,192,26045,1,0,0:0:0:0:
320,192,26331,1,0,0:0:0:0:
64,192,26617,1,0,0:0:0:0:
192,192,26617,1,0,0:0:0:0:
448,192,26902,1,0,0:0:0:0:
64,192,27045,1,0,0:0:0:0:
320,192,27188,1,0,0:0:0:0:
192,192,27188,1,0,0:0:0:0:
448,192,27331,1,0,0:0:0:0:
64,192,27617,1,0,0:0:0:0:
320,192,27760,1,0,0:0:0:0:
448,192,27760,1,0,0:0:0:0:
64,192,28045,1,0,0:0:0:0:
192,192,28188,1,0,0:0:0:0:
448,192,28331,1,0,0:0:0:0:
320,192,28331,1,0,0:0:0:0:
64,192,28617,1,0,0:0:0:0:
192,192,28902,1,0,0:0:0:0:
320,192,28902,1,0,0:0:0:0:
448,192,29188,1,0,0:0:0:0:
192,192,29331,1,0,0:0:0:0:
64,192,29474,1,0,0:0:0:0:
320,192,29474,1,0,0:0:0:0:
448,192,29760,1,0,0:0:0:0:
320,192,29902,1,0,0:0:0:0:
192,192,30045,1,0,0:0:0:0:
64,192,30045,1,0,0:0:0:0:
448,192,30331,1,0,0:0:0:0:
64,192,30474,1,0,0:0:0:0:
320,192,30617,1,0,0:0:0:0:
448,192,30617,1,0,0:0:0:0:
64,192,30902,1,0,0:0:0:0:
320,192,31188,1,0,0:0:0:0:
448,192,31188,1,0,0:0:0:0:
192,192,31474,1,0,0:0:0:0:
320,192,31617,1,0,0:0:0:0:
64,192,31760,1,0,0:0:0:0:
448,192,31760,1,0,0:0:0:0:
192,192,31902,1,0,0:0:0:0:
448,192,32188,1,0,0:0:0:0:
320,192,32331,1,0,0:0:0:0:
64,192,32331,1,0,0:0:0:0:
192,192,32617,1,0,0:0:0:0:
320,192,32760,1,0,0:0:0:0:
64,192,32902,1,0,0:0:0:0:
448,192,32902,1,0,0:0:0:0:
320,192,33188,1,0,0:0:0:0:
192,192,33474,1,0,0:0:0:0:
64,192,33474,1,0,0:0:0:0:
448,192,33760,1,0,0:0:0:0:
64,192,33902,1,0,0:0:0:0:
192,192,34045,1,0,0:0:0:0:
320,192,34045,1,0,0:0:0:0:
448,192,34188,1,0,0:0:0:0:
64,192,34474,1,0,0:0:0:0:
192,192,34617,1,0,0:0:0:0:
448,192,34617,1,0,0:0:0:0:
64,192,34902,1,0,0:0:0:0:
192,192,35045,1,0,0:0:0:0:
320,192,35188,1,0,0:0:0:0:
448,192,35188,1,0,0:0:0:0:
192,192,35474,1,0,0:0:0:0:
64,192,35474,1,0,0:0:0:0:
448,192,35617,1,0,0:0:0:0:
192,192,35760,1,0,0:0:0:0:
64,192,35760,1,0,0:0:0:0:
448,192,35902,1,0,0:0:0:0:
192,192,36045,1,0,0:0:0:0:
64,192,36045,1,0,0:0:0:0:
448,192,36331,1,0,0:0:0:0:
192,192,36474,1,0,0:0:0:0:
320,192,36474,1,0,0:0:0:0:
64,192,36760,1,0,0:0:0:0:
192,192,36902,1,0,0:0:0:0:
448,192,36902,1,0,0:0:0:0:
192,192,37188,1,0,0:0:0:0:
64,192,37188,1,0,0:0:0:0:
320,192,37331,1,0,0:0:0:0:
448,192,37331,1,0,0:0:0:0:
64,192,37474,1,0,0:0:0:0:
192,192,37617,1,0,0:0:0:0:
448,192,37760,1,0,0:0:0:0:
192,192,38045,1,0,0:0:0:0:
64,192,38045,1,0,0:0:0:0:
448,192,38474,1,0,0:0:0:0:
192,192,38617,1,0,0:0:0:0:
64,192,38617,1,0,0:0:0:0:
448,192,39045,1,0,0:0:0:0:
320,192,39188,1,0,0:0:0:0:
192,192,39188,1,0,0:0:0:0:
64,192,39617,1,0,0:0:0:0:
192,192,39760,1,0,0:0:0:0:
448,192,39760,1,0,0:0:0:0:
320,192,40045,1,0,0:0:0:0:
192,192,40331,1,0,0:0:0:0:
64,192,40331,1,0,0:0:0:0:
448,192,40760,1,0,0:0:0:0:
192,192,40902,1,0,0:0:0:0:
64,192,40902,1,0,0:0:0:0:
320,192,41331,1,0,0:0:0:0:
448,192,41474,1,0,0:0:0:0:
192,192,41474,1,0,0:0:0:0:
64,192,41902,1,0,0:0:0:0:
192,192,42045,1,0,0:0:0:0:
448,192,42045,1,0,0:0:0:0:
320,192,42331,1,0,0:0:0:0:
192,192,42617,1,0,0:0:0:0:
64,192,42617,1,0,0:0:0:0:
448,192,43045,1,0,0:0:0:0:
320,192,43188,1,0,0:0:0:0:
192,192,43188,1,0,0:0:0:0:
64,192,43617,1,0,0:0:0:0:
320,192,43760,1,0,0:0:0:0:
448,192,43760,1,0,0:0:0:0:
64,192,44188,1,0,0:0:0:0:
192,192,44331,1,0,0:0:0:0:
448,192,44331,1,0,0:0:0:0:
320,192,44617,1,0,0:0:0:0:
64,192,44902,1,0,0:0:0:0:
192,192,44902,1,0,0:0:0:0:
448,192,45331,1,0,0:0:0:0:
320,192,45474,1,0,0:0:0:0:
192,192,45474,1,0,0:0:0:0:
64,192,45902,1,0,0:0:0:0:
192,192,46045,1,0,0:0:0:0:
448,192,46045,1,0,0:0:0:0:
320,192,46474,1,0,0:0:0:0:
64,192,46760,1,0,0:0:0:0:
192,192,46760,1,0,0:0:0:0:
448,192,46902,1,0,0:0:0:0:
320,192,47188,1,0,0:0:0:0:
64,192,47188,1,0,0:0:0:0:
192,192,47617,1,0,0:0:0:0:
320,192,47760,1,0,0:0:0:0:
448,192,47760,1,0,0:0:0:0:
64,192,48188,1,0,0:0:0:0:
192,192,48331,1,0,0:0:0:0:
448,192,48331,1,0,0:0:0:0:
320,192,48760,1,0,0:0:0:0:
64,192,48902,1,0,0:0:0:0:
448,192,48902,1,0,0:0:0:0:
192,192,49188,1,0,0:0:0:0:
320,192,49474,1,0,0:0:0:0:
448,192,49474,1,0,0:0:0:0:
64,192,49902,1,0,0:0:0:0:
320,192,50045,1,0,0:0:0:0:
448,192,50045,1,0,0:0:0:0:
64,192,50474,1,0,0:0:0:0:
192,192,50617,1,0,0:0:0:0:
448,192,50617,1,0,0:0:0:0:
320,192,51045,1,0,0:0:0:0:
192,192,51188,1,0,0:0:0:0:
64,192,51188,1,0,0:0:0:0:
448,192,51474,1,0,0:0:0:0:
320,192,51760,1,0,0:0:0:0:
64,192,51760,1,0,0:0:0:0:
192,192,52188,1,0,0:0:0:0:
320,192,52331,1,0,0:0:0:0:
448,192,52331,1,0,0:0:0:0:
64,192,52760,1,0,0:0:0:0:
320,192,52902,1,0,0:0:0:0:
448,192,52902,1,0,0:0:0:0:
64,192,53331,1,0,0:0:0:0:
320,192,53474,1,0,0:0:0:0:
448,192,53474,1,0,0:0:0:0:
192,192,53760,1,0,0:0:0:0:
320,192,53902,1,0,0:0:0:0:
64,192,54045,1,0,0:0:0:0:
448,192,54045,1,0,0:0:0:0:
320,192,54474,1,0,0:0:0:0:
192,192,54617,1,0,0:0:0:0:
64,192,54617,1,0,0:0:0:0:
448,192,54902,1,0,0:0:0:0:
320,192,54902,1,0,0:0:0:0:
64,192,55045,1,0,0:0:0:0:
320,192,55188,1,0,0:0:0:0:
448,192,55188,1,0,0:0:0:0:
64,192,55402,1,0,0:0:0:0:
192,192,55474,1,0,0:0:0:0:
448,192,55617,1,0,0:0:0:0:
64,192,55760,1,0,0:0:0:0:
320,192,55902,1,0,0:0:0:0:
192,192,55902,1,0,0:0:0:0:
448,192,56045,1,0,0:0:0:0:
320,192,56331,1,0,0:0:0:0:
64,192,56331,1,0,0:0:0:0:
448,192,56760,1,0,0:0:0:0:
320,192,56902,1,0,0:0:0:0:
192,192,56902,1,0,0:0:0:0:
64,192,57331,1,0,0:0:0:0:
192,192,57474,1,0,0:0:0:0:
448,192,57474,1,0,0:0:0:0:
320,192,57902,1,0,0:0:0:0:
192,192,58045,1,0,0:0:0:0:
64,192,58045,1,0,0:0:0:0:
448,192,58331,1,0,0:0:0:0:
192,192,58617,1,0,0:0:0:0:
64,192,58617,1,0,0:0:0:0:
448,192,59045,1,0,0:0:0:0:
320,192,59188,1,0,0:0:0:0:
192,192,59188,1,0,0:0:0:0:
64,192,59617,1,0,0:0:0:0:
192,192,59760,1,0,0:0:0:0:
448,192,59760,1,0,0:0:0:0:
64,192,60188,1,0,0:0:0:0:
192,192,60331,1,0,0:0:0:0:
320,192,60331,1,0,0:0:0:0:
448,192,60617,1,0,0:0:0:0:
320,192,60902,1,0,0:0:0:0:
64,192,60902,1,0,0:0:0:0:
448,192,61331,1,0,0:0:0:0:
320,192,61474,1,0,0:0:0:0:
192,192,61474,1,0,0:0:0:0:
64,192,61902,1,0,0:0:0:0:
320,192,62045,1,0,0:0:0:0:
448,192,62045,1,0,0:0:0:0:
192,192,62474,1,0,0:0:0:0:
64,192,62617,1,0,0:0:0:0:
448,192,62617,1,0,0:0:0:0:
320,192,62902,1,0,0:0:0:0:
192,192,63188,1,0,0:0:0:0:
448,192,63188,1,0,0:0:0:0:
64,192,63617,1,0,0:0:0:0:
320,192,63760,1,0,0:0:0:0:
448,192,63760,1,0,0:0:0:0:
64,192,64188,1,0,0:0:0:0:
320,192,64331,1,0,0:0:0:0:
448,192,64331,1,0,0:0:0:0:
64,192,64760,1,0,0:0:0:0:
192,192,65045,1,0,0:0:0:0:
448,192,65045,1,0,0:0:0:0:
320,192,65188,1,0,0:0:0:0:
192,192,65474,1,0,0:0:0:0:
64,192,65474,1,0,0:0:0:0:
448,192,65902,1,0,0:0:0:0:
192,192,66045,1,0,0:0:0:0:
64,192,66045,1,0,0:0:0:0:
448,192,66474,1,0,0:0:0:0:
320,192,66617,1,0,0:0:0:0:
64,192,66617,1,0,0:0:0:0:
192,192,67045,1,0,0:0:0:0:
320,192,67188,1,0,0:0:0:0:
448,192,67188,1,0,0:0:0:0:
64,192,67474,1,0,0:0:0:0:
320,192,67760,1,0,0:0:0:0:
448,192,67760,1,0,0:0:0:0:
64,192,68188,1,0,0:0:0:0:
192,192,68331,1,0,0:0:0:0:
448,192,68331,1,0,0:0:0:0:
320,192,68760,1,0,0:0:0:0:
192,192,68902,1,0,0:0:0:0:
64,192,68902,1,0,0:0:0:0:
448,192,69331,1,0,0:0:0:0:
192,192,69474,1,0,0:0:0:0:
64,192,69474,1,0,0:0:0:0:
320,192,69760,1,0,0:0:0:0:
192,192,70045,1,0,0:0:0:0:
64,192,70045,1,0,0:0:0:0:
448,192,70474,1,0,0:0:0:0:
320,192,70617,1,0,0:0:0:0:
192,192,70617,1,0,0:0:0:0:
64,192,71045,1,0,0:0:0:0:
192,192,71188,1,0,0:0:0:0:
448,192,71188,1,0,0:0:0:0:
320,192,71617,1,0,0:0:0:0:
192,192,71760,1,0,0:0:0:0:
64,192,71760,1,0,0:0:0:0:
448,192,72045,1,0,0:0:0:0:
320,192,72045,1,0,0:0:0:0:
192,192,72474,1,0,0:0:0:0:
64,192,72474,1,0,0:0:0:0:
448,192,72902,1,0,0:0:0:0:
320,192,72902,1,0,0:0:0:0:
64,192,73188,128,0,74331:0:0:0:0:
448,192,74331,1,0,0:0:0:0:
320,192,74617,1,0,0:0:0:0:
192,192,74617,1,0,0:0:0:0:
64,192,74902,1,0,0:0:0:0:
448,192,75045,1,0,0:0:0:0:
192,192,75188,1,0,0:0:0:0:
64,192,75188,1,0,0:0:0:0:
320,192,75331,1,0,0:0:0:0:
64,192,75617,1,0,0:0:0:0:
192,192,75760,1,0,0:0:0:0:
320,192,75760,1,0,0:0:0:0:
448,192,76045,1,0,0:0:0:0:
320,192,76188,1,0,0:0:0:0:
64,192,76331,1,0,0:0:0:0:
192,192,76331,1,0,0:0:0:0:
320,192,76617,1,0,0:0:0:0:
64,192,76902,1,0,0:0:0:0:
448,192,76902,1,0,0:0:0:0:
320,192,77188,1,0,0:0:0:0:
64,192,77331,1,0,0:0:0:0:
320,192,77474,1,0,0:0:0:0:
192,192,77474,1,0,0:0:0:0:
448,192,77617,1,0,0:0:0:0:
64,192,77902,1,0,0:0:0:0:
320,192,78045,1,0,0:0:0:0:
448,192,78045,1,0,0:0:0:0:
64,192,78331,1,0,0:0:0:0:
320,192,78474,1,0,0:0:0:0:
192,192,78617,1,0,0:0:0:0:
448,192,78617,1,0,0:0:0:0:
64,192,78902,1,0,0:0:0:0:
320,192,79188,1,0,0:0:0:0:
448,192,79188,1,0,0:0:0:0:
64,192,79474,1,0,0:0:0:0:
448,192,79617,1,0,0:0:0:0:
64,192,79760,1,0,0:0:0:0:
320,192,79760,1,0,0:0:0:0:
192,192,79902,1,0,0:0:0:0:
448,192,80188,1,0,0:0:0:0:
192,192,80331,1,0,0:0:0:0:
64,192,80331,1,0,0:0:0:0:
448,192,80617,1,0,0:0:0:0:
320,192,80760,1,0,0:0:0:0:
64,192,80902,1,0,0:0:0:0:
192,192,80902,1,0,0:0:0:0:
448,192,81188,1,0,0:0:0:0:
320,192,81474,1,0,0:0:0:0:
64,192,81474,1,0,0:0:0:0:
448,192,81760,1,0,0:0:0:0:
320,192,81902,1,0,0:0:0:0:
192,192,82045,1,0,0:0:0:0:
64,192,82045,1,0,0:0:0:0:
448,192,82188,1,0,0:0:0:0:
64,192,82474,1,0,0:0:0:0:
320,192,82617,1,0,0:0:0:0:
192,192,82617,1,0,0:0:0:0:
448,192,82902,1,0,0:0:0:0:
192,192,83045,1,0,0:0:0:0:
320,192,83188,1,0,0:0:0:0:
64,192,83188,1,0,0:0:0:0:
448,192,83474,1,0,0:0:0:0:
192,192,83760,1,0,0:0:0:0:
64,192,83760,1,0,0:0:0:0:
448,192,84045,1,0,0:0:0:0:
320,192,84188,1,0,0:0:0:0:
192,192,84331,1,0,0:0:0:0:
64,192,84331,1,0,0:0:0:0:
448,192,84474,1,0,0:0:0:0:
64,192,84760,1,0,0:0:0:0:
320,192,84902,1,0,0:0:0:0:
448,192,84902,1,0,0:0:0:0:
64,192,85188,1,0,0:0:0:0:
192,192,85331,1,0,0:0:0:0:
320,192,85474,1,0,0:0:0:0:
448,192,85474,1,0,0:0:0:0:
64,192,85760,1,0,0:0:0:0:
192,192,86045,1,0,0:0:0:0:
448,192,86045,1,0,0:0:0:0:
320,192,86331,1,0,0:0:0:0:
192,192,86474,1,0,0:0:0:0:
64,192,86617,1,0,0:0:0:0:
448,192,86617,1,0,0:0:0:0:
320,192,86760,1,0,0:0:0:0:
64,192,87045,1,0,0:0:0:0:
320,192,87188,1,0,0:0:0:0:
448,192,87188,1,0,0:0:0:0:
64,192,87474,1,0,0:0:0:0:
448,192,87617,1,0,0:0:0:0:
192,192,87760,1,0,0:0:0:0:
64,192,87760,1,0,0:0:0:0:
320,192,88045,1,0,0:0:0:0:
64,192,88331,1,0,0:0:0:0:
448,192,88331,1,0,0:0:0:0:
320,192,88617,1,0,0:0:0:0:
64,192,88760,1,0,0:0:0:0:
448,192,88902,1,0,0:0:0:0:
192,192,88902,1,0,0:0:0:0:
320,192,89045,1,0,0:0:0:0:
64,192,89331,1,0,0:0:0:0:
320,192,89474,1,0,0:0:0:0:
448,192,89474,1,0,0:0:0:0:
64,192,89760,1,0,0:0:0:0:
192,192,89902,1,0,0:0:0:0:
320,192,90045,1,0,0:0:0:0:
448,192,90045,1,0,0:0:0:0:
64,192,90331,1,0,0:0:0:0:
192,192,90617,1,0,0:0:0:0:
448,192,90617,1,0,0:0:0:0:
64,192,90902,1,0,0:0:0:0:
320,192,90902,1,0,0:0:0:0:
192,192,91045,1,0,0:0:0:0:
320,192,91331,1,0,0:0:0:0:
448,192,91331,1,0,0:0:0:0:
64,192,91617,1,0,0:0:0:0:
192,192,91760,1,0,0:0:0:0:
320,192,91760,1,0,0:0:0:0:
448,192,91974,1,0,0:0:0:0:
320,192,92045,1,0,0:0:0:0:
192,192,92188,1,0,0:0:0:0:
64,192,92331,1,0,0:0:0:0:
448,192,92474,1,0,0:0:0:0:
320,192,92474,1,0,0:0:0:0:
64,192,92617,1,0,0:0:0:0:
192,192,92902,1,0,0:0:0:0:
448,192,92902,1,0,0:0:0:0:
64,192,93188,1,0,0:0:0:0:
192,192,93331,1,0,0:0:0:0:
320,192,93474,1,0,0:0:0:0:
448,192,93474,1,0,0:0:0:0:
64,192,93617,1,0,0:0:0:0:
448,192,93902,1,0,0:0:0:0:
320,192,94045,1,0,0:0:0:0:
192,192,94045,1,0,0:0:0:0:
64,192,94331,1,0,0:0:0:0:
448,192,94474,1,0,0:0:0:0:
320,192,94617,1,0,0:0:0:0:
64,192,94617,1,0,0:0:0:0:
192,192,94902,1,0,0:0:0:0:
64,192,95188,1,0,0:0:0:0:
448,192,95188,1,0,0:0:0:0:
320,192,95474,1,0,0:0:0:0:
192,192,95617,1,0,0:0:0:0:
64,192,95760,1,0,0:0:0:0:
448,192,95760,1,0,0:0:0:0:
320,192,95902,1,0,0:0:0:0:
64,192,96188,1,0,0:0:0:0:
320,192,96331,1,0,0:0:0:0:
448,192,96331,1,0,0:0:0:0:
64,192,96617,1,0,0:0:0:0:
192,192,96760,1,0,0:0:0:0:
320,192,96902,1,0,0:0:0:0:
448,192,96902,1,0,0:0:0:0:
64,192,97188,1,0,0:0:0:0:
192,192,97474,1,0,0:0:0:0:
448,192,97474,1,0,0:0:0:0:
320,192,97760,1,0,0:0:0:0:
64,192,97902,1,0,0:0:0:0:
320,192,98045,1,0,0:0:0:0:
448,192,98045,1,0,0:0:0:0:
192,192,98188,1,0,0:0:0:0:
448,192,98474,1,0,0:0:0:0:
192,192,98617,1,0,0:0:0:0:
64,192,98617,1,0,0:0:0:0:
448,192,98902,1,0,0:0:0:0:
320,192,99045,1,0,0:0:0:0:
192,192,99188,1,0,0:0:0:0:
64,192,99188,1,0,0:0:0:0:
448,192,99474,1,0,0:0:0:0:
64,192,99760,1,0,0:0:0:0:
192,192,99760,1,0,0:0:0:0:
448,192,100045,1,0,0:0:0:0:
320,192,100188,1,0,0:0:0:0:
192,192,100331,1,0,0:0:0:0:
64,192,100331,1,0,0:0:0:0:
448,192,100474,1,0,0:0:0:0:
64,192,100760,1,0,0:0:0:0:
192,192,100902,1,0,0:0:0:0:
320,192,100902,1,0,0:0:0:0:
448,192,101188,1,0,0:0:0:0:
320,192,101331,1,0,0:0:0:0:
64,192,101474,1,0,0:0:0:0:
448,192,101474,1,0,0:0:0:0:
192,192,101760,1,0,0:0:0:0:
320,192,102045,1,0,0:0:0:0:
448,192,102045,1,0,0:0:0:0:
64,192,102331,1,0,0:0:0:0:
192,192,102474,1,0,0:0:0:0:
320,192,102617,1,0,0:0:0:0:
448,192,102617,1,0,0:0:0:0:
64,192,102760,1,0,0:0:0:0:
448,192,103045,1,0,0:0:0:0:
64,192,103188,1,0,0:0:0:0:
320,192,103188,1,0,0:0:0:0:
192,192,103474,1,0,0:0:0:0:
448,192,103617,1,0,0:0:0:0:
320,192,103760,1,0,0:0:0:0:
64,192,103760,1,0,0:0:0:0:
448,192,104045,1,0,0:0:0:0:
64,192,104331,1,0,0:0:0:0:
192,192,104331,1,0,0:0:0:0:
448,192,104617,1,0,0:0:0:0:
320,192,104760,1,0,0:0:0:0:
192,192,104902,1,0,0:0:0:0:
64,192,104902,1,0,0:0:0:0:
448,192,105188,1,0,0:0:0:0:
320,192,105188,1,0,0:0:0:0:
320,192,106331,1,0,0:0:0:0:
448,192,106331,128,0,106617:0:0:0:0:
192,192,106617,1,0,0:0:0:0:
64,192,106617,128,0,108045:0:0:0:0:
448,192,107474,1,0,0:0:0:0:
320,192,107617,1,0,0:0:0:0:
192,192,107760,1,0,0:0:0:0:
192,192,108045,128,0,108331:0:0:0:0:
448,192,108331,1,0,0:0:0:0:
320,192,108331,128,0,108617:0:0:0:0:
192,192,108617,128,0,110617:0:0:0:0:
64,192,108617,1,0,0:0:0:0:
320,192,108760,1,0,0:0:0:0:
64,192,108902,1,0,0:0:0:0:
448,192,108902,1,0,0:0:0:0:
448,192,109760,1,0,0:0:0:0:
64,192,109902,1,0,0:0:0:0:
448,192,110045,1,0,0:0:0:0:
448,192,110617,128,0,110902:0:0:0:0:
64,192,110902,1,0,0:0:0:0:
192,192,111188,1,0,0:0:0:0:
320,192,111188,1,0,0:0:0:0:
192,192,111617,1,0,0:0:0:0:
64,192,111760,1,0,0:0:0:0:
448,192,111760,1,0,0:0:0:0:
320,192,112188,1,0,0:0:0:0:
64,192,112331,1,0,0:0:0:0:
192,192,112331,1,0,0:0:0:0:
448,192,112760,1,0,0:0:0:0:
64,192,112902,1,0,0:0:0:0:
320,192,112902,1,0,0:0:0:0:
192,192,113188,1,0,0:0:0:0:
448,192,113474,1,0,0:0:0:0:
320,192,113474,1,0,0:0:0:0:
64,192,113902,1,0,0:0:0:0:
320,192,114045,1,0,0:0:0:0:
448,192,114045,1,0,0:0:0:0:
64,192,114474,1,0,0:0:0:0:
192,192,114617,1,0,0:0:0:0:
320,192,114617,1,0,0:0:0:0:
448,192,115045,1,0,0:0:0:0:
64,192,115188,1,0,0:0:0:0:
320,192,115188,1,0,0:0:0:0:
192,192,115474,1,0,0:0:0:0:
320,192,115760,1,0,0:0:0:0:
448,192,115760,1,0,0:0:0:0:
64,192,116188,1,0,0:0:0:0:
320,192,116331,1,0,0:0:0:0:
448,192,116331,1,0,0:0:0:0:
64,192,116760,1,0,0:0:0:0:
320,192,116902,1,0,0:0:0:0:
448,192,116902,1,0,0:0:0:0:
64,192,117331,1,0,0:0:0:0:
320,192,117474,1,0,0:0:0:0:
448,192,117474,1,0,0:0:0:0:
64,192,117760,1,0,0:0:0:0:
320,192,118188,128,0,118617:0:0:0:0:
448,192,118617,128,0,118902:0:0:0:0:
64,192,118902,128,0,119045:0:0:0:0:
192,192,119045,128,0,119188:0:0:0:0:
448,192,119188,128,0,119331:0:0:0:0:
64,192,119331,128,0,119617:0:0:0:0:
192,192,119617,128,0,119760:0:0:0:0:
448,192,120045,1,0,0:0:0:0:
64,192,120331,1,0,0:0:0:0:
192,192,120331,1,0,0:0:0:0:
320,192,120760,1,0,0:0:0:0:
64,192,120902,1,0,0:0:0:0:
448,192,120902,1,0,0:0:0:0:
192,192,121331,1,0,0:0:0:0:
320,192,121474,1,0,0:0:0:0:
448,192,121474,1,0,0:0:0:0:
64,192,121902,1,0,0:0:0:0:
448,192,122045,1,0,0:0:0:0:
320,192,122045,1,0,0:0:0:0:
192,192,122331,1,0,0:0:0:0:
64,192,122617,1,0,0:0:0:0:
448,192,122617,1,0,0:0:0:0:
320,192,123045,1,0,0:0:0:0:
192,192,123188,1,0,0:0:0:0:
64,192,123188,1,0,0:0:0:0:
448,192,123617,1,0,0:0:0:0:
192,192,123760,1,0,0:0:0:0:
64,192,123760,1,0,0:0:0:0:
448,192,124188,1,0,0:0:0:0:
192,192,124331,1,0,0:0:0:0:
64,192,124331,1,0,0:0:0:0:
448,192,124617,1,0,0:0:0:0:
64,192,124902,1,0,0:0:0:0:
320,192,124902,1,0,0:0:0:0:
192,192,125331,1,0,0:0:0:0:
64,192,125474,1,0,0:0:0:0:
448,192,125474,1,0,0:0:0:0:
320,192,125902,1,0,0:0:0:0:
192,192,126045,1,0,0:0:0:0:
64,192,126045,1,0,0:0:0:0:
448,192,126474,1,0,0:0:0:0:
64,192,126617,1,0,0:0:0:0:
320,192,126617,1,0,0:0:0:0:
192,192,126902,1,0,0:0:0:0:
64,192,126902,1,0,0:0:0:0:
448,192,127331,1,0,0:0:0:0:
320,192,127331,1,0,0:0:0:0:
192,192,127760,1,0,0:0:0:0:
64,192,127760,1,0,0:0:0:0:
448,192,128188,1,0,0:0:0:0:
320,192,128331,1,0,0:0:0:0:
64,192,128331,1,0,0:0:0:0:
448,192,128617,1,0,0:0:0:0:
64,192,128760,1,0,0:0:0:0:
192,192,128902,1,0,0:0:0:0:
448,192,129188,1,0,0:0:0:0:
320,192,129188,1,0,0:0:0:0:
192,192,129617,1,0,0:0:0:0:
64,192,129617,1,0,0:0:0:0:
448,192,130045,1,0,0:0:0:0:
320,192,130045,1,0,0:0:0:0:
448,192,131474,1,0,0:0:0:0:
192,192,131760,1,0,0:0:0:0:
64,192,131760,1,0,0:0:0:0:
448,192,132045,1,0,0:0:0:0:
320,192,132188,1,0,0:0:0:0:
192,192,132331,1,0,0:0:0:0:
64,192,132331,1,0,0:0:0:0:
448,192,132474,1,0,0:0:0:0:
64,192,132760,1,0,0:0:0:0:
192,192,132902,1,0,0:0:0:0:
448,192,132902,1,0,0:0:0:0:
320,192,133188,1,0,0:0:0:0:
64,192,133331,1,0,0:0:0:0:
192,192,133474,1,0,0:0:0:0:
448,192,133474,1,0,0:0:0:0:
64,192,133760,1,0,0:0:0:0:
320,192,134045,1,0,0:0:0:0:
448,192,134045,1,0,0:0:0:0:
192,192,134331,1,0,0:0:0:0:
448,192,134474,1,0,0:0:0:0:
320,192,134617,1,0,0:0:0:0:
64,192,134617,1,0,0:0:0:0:
192,192,134760,1,0,0:0:0:0:
448,192,135045,1,0,0:0:0:0:
192,192,135188,1,0,0:0:0:0:
64,192,135188,1,0,0:0:0:0:
448,192,135474,1,0,0:0:0:0:
320,192,135617,1,0,0:0:0:0:
192,192,135760,1,0,0:0:0:0:
64,192,135760,1,0,0:0:0:0:
448,192,136045,1,0,0:0:0:0:
320,192,136331,1,0,0:0:0:0:
64,192,136331,1,0,0:0:0:0:
192,192,136617,1,0,0:0:0:0:
320,192,136760,1,0,0:0:0:0:
64,192,136902,1,0,0:0:0:0:
448,192,136902,1,0,0:0:0:0:
320,192,137331,1,0,0:0:0:0:
192,192,137474,1,0,0:0:0:0:
64,192,137474,1,0,0:0:0:0:
448,192,137760,1,0,0:0:0:0:
64,192,137902,1,0,0:0:0:0:
192,192,138045,1,0,0:0:0:0:
320,192,138045,1,0,0:0:0:0:
448,192,138331,1,0,0:0:0:0:
192,192,138617,1,0,0:0:0:0:
64,192,138617,1,0,0:0:0:0:
448,192,138902,1,0,0:0:0:0:
64,192,139045,1,0,0:0:0:0:
192,192,139188,1,0,0:0:0:0:
320,192,139188,1,0,0:0:0:0:
448,192,139331,1,0,0:0:0:0:
64,192,139617,1,0,0:0:0:0:
320,192,139760,1,0,0:0:0:0:
448,192,139760,1,0,0:0:0:0:
64,192,140045,1,0,0:0:0:0:
192,192,140188,1,0,0:0:0:0:
320,192,140331,1,0,0:0:0:0:
448,192,140331,1,0,0:0:0:0:
64,192,140617,1,0,0:0:0:0:
192,192,140902,1,0,0:0:0:0:
448,192,140902,1,0,0:0:0:0:
320,192,141188,1,0,0:0:0:0:
192,192,141331,1,0,0:0:0:0:
64,192,141474,1,0,0:0:0:0:
448,192,141474,1,0,0:0:0:0:
320,192,141617,1,0,0:0:0:0:
64,192,141902,1,0,0:0:0:0:
320,192,142045,1,0,0:0:0:0:
448,192,142045,1,0,0:0:0:0:
64,192,142331,1,0,0:0:0:0:
448,192,142474,1,0,0:0:0:0:
192,192,142617,1,0,0:0:0:0:
64,192,142617,1,0,0:0:0:0:
448,192,142902,1,0,0:0:0:0:
320,192,143188,1,0,0:0:0:0:
64,192,143188,1,0,0:0:0:0:
448,192,143474,1,0,0:0:0:0:
192,192,143617,1,0,0:0:0:0:
320,192,143760,1,0,0:0:0:0:
64,192,143760,1,0,0:0:0:0:
448,192,143902,1,0,0:0:0:0:
64,192,144188,1,0,0:0:0:0:
192,192,144331,1,0,0:0:0:0:
320,192,144331,1,0,0:0:0:0:
448,192,144617,1,0,0:0:0:0:
320,192,144760,1,0,0:0:0:0:
192,192,144902,1,0,0:0:0:0:
64,192,144902,1,0,0:0:0:0:
448,192,145188,1,0,0:0:0:0:
320,192,145474,1,0,0:0:0:0:
64,192,145474,1,0,0:0:0:0:
192,192,145760,1,0,0:0:0:0:
320,192,145902,1,0,0:0:0:0:
448,192,146045,1,0,0:0:0:0:
64,192,146045,1,0,0:0:0:0:
320,192,146188,1,0,0:0:0:0:
64,192,146474,1,0,0:0:0:0:
192,192,146617,1,0,0:0:0:0:
448,192,146617,1,0,0:0:0:0:
64,192,146902,1,0,0:0:0:0:
448,192,147045,1,0,0:0:0:0:
192,192,147188,1,0,0:0:0:0:
64,192,147188,1,0,0:0:0:0:
320,192,147474,1,0,0:0:0:0:
192,192,147760,1,0,0:0:0:0:
64,192,147760,1,0,0:0:0:0:
320,192,148045,1,0,0:0:0:0:
448,192,148045,1,0,0:0:0:0:
64,192,148188,1,0,0:0:0:0:
448,192,148331,1,0,0:0:0:0:
192,192,148474,1,0,0:0:0:0:
64,192,148474,1,0,0:0:0:0:
448,192,148760,1,0,0:0:0:0:
320,192,148902,1,0,0:0:0:0:
192,192,148902,1,0,0:0:0:0:
64,192,149188,1,0,0:0:0:0:
192,192,149188,1,0,0:0:0:0:
320,192,149331,1,0,0:0:0:0:
448,192,149331,1,0,0:0:0:0:
192,192,149474,1,0,0:0:0:0:
64,192,149474,1,0,0:0:0:0:
320,192,149617,1,0,0:0:0:0:
448,192,149617,1,0,0:0:0:0:
64,192,149760,1,0,0:0:0:0:
320,192,150045,1,0,0:0:0:0:
448,192,150045,1,0,0:0:0:0:
64,192,150331,1,0,0:0:0:0:
192,192,150474,1,0,0:0:0:0:
320,192,150617,1,0,0:0:0:0:
448,192,150617,1,0,0:0:0:0:
64,192,150760,1,0,0:0:0:0:
192,192,151045,1,0,0:0:0:0:
320,192,151188,1,0,0:0:0:0:
448,192,151188,1,0,0:0:0:0:
64,192,151474,1,0,0:0:0:0:
448,192,151617,1,0,0:0:0:0:
320,192,151760,1,0,0:0:0:0:
192,192,151760,1,0,0:0:0:0:
448,192,152045,1,0,0:0:0:0:
320,192,152331,1,0,0:0:0:0:
64,192,152331,1,0,0:0:0:0:
448,192,152617,1,0,0:0:0:0:
320,192,152760,1,0,0:0:0:0:
192,192,152902,1,0,0:0:0:0:
64,192,152902,1,0,0:0:0:0:
448,192,153045,1,0,0:0:0:0:
64,192,153331,1,0,0:0:0:0:
192,192,153474,1,0,0:0:0:0:
320,192,153474,1,0,0:0:0:0:
448,192,153760,1,0,0:0:0:0:
320,192,153902,1,0,0:0:0:0:
192,192,154045,1,0,0:0:0:0:
64,192,154045,1,0,0:0:0:0:
448,192,154331,1,0,0:0:0:0:
320,192,154617,1,0,0:0:0:0:
64,192,154617,1,0,0:0:0:0:
192,192,154902,1,0,0:0:0:0:
320,192,155045,1,0,0:0:0:0:
448,192,155188,1,0,0:0:0:0:
64,192,155188,1,0,0:0:0:0:
192,192,155331,1,0,0:0:0:0:
448,192,155617,1,0,0:0:0:0:
192,192,155760,1,0,0:0:0:0:
64,192,155760,1,0,0:0:0:0:
448,192,156045,1,0,0:0:0:0:
320,192,156188,1,0,0:0:0:0:
192,192,156331,1,0,0:0:0:0:
64,192,156331,1,0,0:0:0:0:
448,192,156617,1,0,0:0:0:0:
320,192,156902,1,0,0:0:0:0:
64,192,156902,1,0,0:0:0:0:
192,192,157188,1,0,0:0:0:0:
320,192,157331,1,0,0:0:0:0:
448,192,157474,1,0,0:0:0:0:
64,192,157474,1,0,0:0:0:0:
192,192,157617,1,0,0:0:0:0:
448,192,157902,1,0,0:0:0:0:
192,192,158045,1,0,0:0:0:0:
64,192,158045,1,0,0:0:0:0:
448,192,158331,1,0,0:0:0:0:
64,192,158474,1,0,0:0:0:0:
192,192,158617,1,0,0:0:0:0:
320,192,158617,1,0,0:0:0:0:
64,192,158902,1,0,0:0:0:0:
192,192,159188,1,0,0:0:0:0:
320,192,159188,1,0,0:0:0:0:
448,192,159474,1,0,0:0:0:0:
64,192,159617,1,0,0:0:0:0:
320,192,159760,1,0,0:0:0:0:
448,192,159760,1,0,0:0:0:0:
192,192,159902,1,0,0:0:0:0:
448,192,160188,1,0,0:0:0:0:
320,192,160331,1,0,0:0:0:0:
192,192,160331,1,0,0:0:0:0:
64,192,160617,1,0,0:0:0:0:
192,192,160760,1,0,0:0:0:0:
320,192,160902,1,0,0:0:0:0:
448,192,160902,1,0,0:0:0:0:
64,192,161188,1,0,0:0:0:0:
448,192,161474,1,0,0:0:0:0:
320,192,161474,1,0,0:0:0:0:
64,192,161760,1,0,0:0:0:0:
448,192,161902,1,0,0:0:0:0:
320,192,162045,1,0,0:0:0:0:
192,192,162045,1,0,0:0:0:0:
64,192,162331,1,0,0:0:0:0:
448,192,162474,1,0,0:0:0:0:
192,192,162617,1,0,0:0:0:0:
64,192,162617,1,0,0:0:0:0:
320,192,162760,1,0,0:0:0:0:
448,192,162760,1,0,0:0:0:0:
64,192,162902,1,0,0:0:0:0:
448,192,163045,1,0,0:0:0:0:
64,192,163188,1,0,0:0:0:0:
448,192,163331,1,0,0:0:0:0:
64,192,163474,128,0,163902:0:0:0:0:
448,192,163902,128,0,164188:0:0:0:0:
320,192,164188,128,0,164617:0:0:0:0:
64,192,164617,128,0,164902:0:0:0:0:
192,192,164617,1,0,0:0:0:0:
448,192,165045,1,0,0:0:0:0:
320,192,165045,1,0,0:0:0:0:
64,192,165188,1,0,0:0:0:0:
192,192,165188,1,0,0:0:0:0:
320,192,165331,1,0,0:0:0:0:
448,192,165331,1,0,0:0:0:0:
64,192,165474,1,0,0:0:0:0:
448,192,165760,1,0,0:0:0:0:
320,192,165902,1,0,0:0:0:0:
64,192,166188,1,0,0:0:0:0:
448,192,166617,1,0,0:0:0:0:
192,192,166902,1,0,0:0:0:0:
64,192,166902,1,0,0:0:0:0:
320,192,167188,1,0,0:0:0:0:
448,192,167474,1,0,0:0:0:0:
64,192,167474,1,0,0:0:0:0:
192,192,167760,1,0,0:0:0:0:
448,192,168045,1,0,0:0:0:0:
64,192,168045,128,0,168474:0:0:0:0:
192,192,168474,128,0,168902:0:0:0:0:
448,192,168474,1,0,0:0:0:0:
320,192,168902,128,0,169188:0:0:0:0:
64,192,168902,1,0,0:0:0:0:
448,192,169188,128,0,169617:0:0:0:0:
64,192,169188,1,0,0:0:0:0:
192,192,169617,1,0,0:0:0:0:
64,192,169617,1,0,0:0:0:0:
320,192,169760,1,0,0:0:0:0:
448,192,169760,1,0,0:0:0:0:
64,192,170045,1,0,0:0:0:0:
320,192,170331,1,0,0:0:0:0:
448,192,170331,1,0,0:0:0:0:
192,192,170760,1,0,0:0:0:0:
448,192,171188,1,0,0:0:0:0:
320,192,171474,1,0,0:0:0:0:
192,192,171474,1,0,0:0:0:0:
64,192,171760,1,0,0:0:0:0:
192,192,172045,1,0,0:0:0:0:
448,192,172045,1,0,0:0:0:0:
320,192,172617,1,0,0:0:0:0:
64,192,172617,128,0,173045:0:0:0:0:
448,192,173045,128,0,173474:0:0:0:0:
192,192,173045,1,0,0:0:0:0:
64,192,173474,128,0,173760:0:0:0:0:
320,192,173474,1,0,0:0:0:0:
448,192,173760,128,0,174331:0:0:0:0:
192,192,173760,1,0,0:0:0:0:
192,192,174331,1,0,0:0:0:0:
64,192,174331,1,0,0:0:0:0:
320,192,174474,1,0,0:0:0:0:
448,192,174474,1,0,0:0:0:0:
64,192,174617,1,0,0:0:0:0:
192,192,174902,1,0,0:0:0:0:
448,192,175331,1,0,0:0:0:0:
320,192,175760,1,0,0:0:0:0:
64,192,176045,1,0,0:0:0:0:
192,192,176045,1,0,0:0:0:0:
448,192,176331,1,0,0:0:0:0:
320,192,176617,1,0,0:0:0:0:
64,192,176617,1,0,0:0:0:0:
192,192,176902,1,0,0:0:0:0:
64,192,177188,1,0,0:0:0:0:
448,192,177188,128,0,177617:0:0:0:0:
320,192,177617,128,0,178045:0:0:0:0:
64,192,177617,1,0,0:0:0:0:
64,192,178045,128,0,178331:0:0:0:0:
192,192,178045,1,0,0:0:0:0:
320,192,178331,1,0,0:0:0:0:
448,192,178331,1,0,0:0:0:0:
64,192,178760,1,0,0:0:0:0:
448,192,178760,1,0,0:0:0:0:
320,192,178902,1,0,0:0:0:0:
192,192,178902,1,0,0:0:0:0:
64,192,179188,1,0,0:0:0:0:
192,192,179474,1,0,0:0:0:0:
320,192,179902,1,0,0:0:0:0:
448,192,180331,1,0,0:0:0:0:
192,192,180617,1,0,0:0:0:0:
64,192,180617,1,0,0:0:0:0:
320,192,180760,1,0,0:0:0:0:
448,192,180760,1,0,0:0:0:0:
64,192,180902,1,0,0:0:0:0:
320,192,181045,1,0,0:0:0:0:
448,192,181045,1,0,0:0:0:0:
192,192,181188,1,0,0:0:0:0:
64,192,181188,1,0,0:0:0:0:
320,192,181331,1,0,0:0:0:0:
448,192,181331,1,0,0:0:0:0:
192,192,181474,1,0,0:0:0:0:
64,192,181474,1,0,0:0:0:0:
320,192,181617,1,0,0:0:0:0:
448,192,181617,1,0,0:0:0:0:
64,192,181760,1,0,0:0:0:0:
448,192,182045,1,0,0:0:0:0:
192,192,182045,1,0,0:0:0:0:
320,192,182331,1,0,0:0:0:0:
192,192,182474,1,0,0:0:0:0:
64,192,182617,1,0,0:0:0:0:
448,192,182617,1,0,0:0:0:0:
320,192,182760,1,0,0:0:0:0:
64,192,183045,1,0,0:0:0:0:
320,192,183188,1,0,0:0:0:0:
448,192,183188,1,0,0:0:0:0:
64,192,183474,1,0,0:0:0:0:
192,192,183617,1,0,0:0:0:0:
448,192,183760,1,0,0:0:0:0:
64,192,183760,1,0,0:0:0:0:
192,192,184045,1,0,0:0:0:0:
448,192,184188,1,0,0:0:0:0:
192,192,184331,1,0,0:0:0:0:
64,192,184331,1,0,0:0:0:0:
448,192,184617,1,0,0:0:0:0:
64,192,184760,1,0,0:0:0:0:
448,192,184902,1,0,0:0:0:0:
320,192,184902,1,0,0:0:0:0:
64,192,185045,1,0,0:0:0:0:
448,192,185331,1,0,0:0:0:0:
192,192,185474,1,0,0:0:0:0:
64,192,185474,1,0,0:0:0:0:
448,192,185760,1,0,0:0:0:0:
192,192,185902,1,0,0:0:0:0:
320,192,186045,1,0,0:0:0:0:
64,192,186045,1,0,0:0:0:0:
448,192,186331,1,0,0:0:0:0:
192,192,186617,1,0,0:0:0:0:
64,192,186617,1,0,0:0:0:0:
448,192,186902,1,0,0:0:0:0:
320,192,187045,1,0,0:0:0:0:
192,192,187188,1,0,0:0:0:0:
64,192,187188,1,0,0:0:0:0:
448,192,187331,1,0,0:0:0:0:
64,192,187617,1,0,0:0:0:0:
192,192,187760,1,0,0:0:0:0:
448,192,187760,1,0,0:0:0:0:
320,192,188045,1,0,0:0:0:0:
448,192,188188,1,0,0:0:0:0:
192,192,188331,1,0,0:0:0:0:
64,192,188331,1,0,0:0:0:0:
448,192,188617,1,0,0:0:0:0:
320,192,188902,1,0,0:0:0:0:
64,192,188902,1,0,0:0:0:0:
448,192,189188,1,0,0:0:0:0:
320,192,189331,1,0,0:0:0:0:
192,192,189474,1,0,0:0:0:0:
64,192,189474,1,0,0:0:0:0:
448,192,189617,1,0,0:0:0:0:
64,192,189760,1,0,0:0:0:0:
448,192,189902,1,0,0:0:0:0:
192,192,190045,1,0,0:0:0:0:
64,192,190045,1,0,0:0:0:0:
320,192,190117,1,0,0:0:0:0:
448,192,190117,1,0,0:0:0:0:
192,192,190188,1,0,0:0:0:0:
64,192,190188,1,0,0:0:0:0:
448,192,190331,1,0,0:0:0:0:
320,192,190331,1,0,0:0:0:0:
192,192,190474,1,0,0:0:0:0:
64,192,190474,1,0,0:0:0:0:
448,192,190617,1,0,0:0:0:0:
320,192,190617,1,0,0:0:0:0:
192,192,190760,1,0,0:0:0:0:
64,192,190760,1,0,0:0:0:0:
448,192,190902,128,0,191045:0:0:0:0:
64,192,191188,128,0,191331:0:0:0:0:
448,192,191474,128,0,191617:0:0:0:0:
64,192,191760,128,0,191902:0:0:0:0:
448,192,191902,128,0,192045:0:0:0:0:
320,192,192045,128,0,192188:0:0:0:0:
192,192,192188,128,0,192331:0:0:0:0:
64,192,192331,128,0,192474:0:0:0:0:
448,192,192474,128,0,192617:0:0:0:0:
320,192,192617,128,0,192760:0:0:0:0:
192,192,192760,128,0,192902:0:0:0:0:
64,192,192902,128,0,193045:0:0:0:0:
448,192,193045,128,0,193188:0:0:0:0:
320,192,193188,1,0,0:0:0:0:
192,192,193474,1,0,0:0:0:0:
64,192,193474,1,0,0:0:0:0:
448,192,193760,1,0,0:0:0:0:
320,192,193902,1,0,0:0:0:0:
192,192,194045,1,0,0:0:0:0:
64,192,194045,1,0,0:0:0:0:
448,192,194188,1,0,0:0:0:0:
64,192,194474,1,0,0:0:0:0:
192,192,194617,1,0,0:0:0:0:
448,192,194617,1,0,0:0:0:0:
64,192,194902,1,0,0:0:0:0:
192,192,195045,1,0,0:0:0:0:
448,192,195188,1,0,0:0:0:0:
64,192,195188,1,0,0:0:0:0:
320,192,195474,1,0,0:0:0:0:
192,192,195760,1,0,0:0:0:0:
64,192,195760,1,0,0:0:0:0:
448,192,196045,1,0,0:0:0:0:
320,192,196188,1,0,0:0:0:0:
192,192,196331,1,0,0:0:0:0:
64,192,196331,1,0,0:0:0:0:
320,192,196474,1,0,0:0:0:0:
64,192,196760,1,0,0:0:0:0:
192,192,196902,1,0,0:0:0:0:
448,192,196902,1,0,0:0:0:0:
320,192,197188,1,0,0:0:0:0:
64,192,197331,1,0,0:0:0:0:
320,192,197474,1,0,0:0:0:0:
448,192,197474,1,0,0:0:0:0:
64,192,197760,1,0,0:0:0:0:
192,192,198045,1,0,0:0:0:0:
448,192,198045,1,0,0:0:0:0:
64,192,198331,1,0,0:0:0:0:
192,192,198474,1,0,0:0:0:0:
448,192,198617,1,0,0:0:0:0:
320,192,198617,1,0,0:0:0:0:
64,192,198760,1,0,0:0:0:0:
448,192,199045,1,0,0:0:0:0:
320,192,199188,1,0,0:0:0:0:
192,192,199188,1,0,0:0:0:0:
64,192,199474,1,0,0:0:0:0:
448,192,199617,1,0,0:0:0:0:
192,192,199760,1,0,0:0:0:0:
64,192,199760,1,0,0:0:0:0:
320,192,200045,1,0,0:0:0:0:
64,192,200331,1,0,0:0:0:0:
192,192,200331,1,0,0:0:0:0:
448,192,200617,1,0,0:0:0:0:
320,192,200760,1,0,0:0:0:0:
192,192,200902,1,0,0:0:0:0:
64,192,200902,1,0,0:0:0:0:
448,192,201045,1,0,0:0:0:0:
64,192,201331,1,0,0:0:0:0:
192,192,201474,1,0,0:0:0:0:
320,192,201474,1,0,0:0:0:0:
448,192,201760,1,0,0:0:0:0:
320,192,201902,1,0,0:0:0:0:
64,192,202045,1,0,0:0:0:0:
448,192,202045,1,0,0:0:0:0:
192,192,202331,1,0,0:0:0:0:
448,192,202617,1,0,0:0:0:0:
320,192,202617,1,0,0:0:0:0:
64,192,202902,1,0,0:0:0:0:
192,192,203045,1,0,0:0:0:0:
320,192,203188,1,0,0:0:0:0:
448,192,203188,1,0,0:0:0:0:
64,192,203617,1,0,0:0:0:0:
320,192,203760,1,0,0:0:0:0:
448,192,203760,1,0,0:0:0:0:
64,192,204045,1,0,0:0:0:0:
448,192,204188,1,0,0:0:0:0:
320,192,204331,1,0,0:0:0:0:
192,192,204331,1,0,0:0:0:0:
64,192,204617,1,0,0:0:0:0:
192,192,204902,1,0,0:0:0:0:
448,192,204902,1,0,0:0:0:0:
64,192,205188,1,0,0:0:0:0:
192,192,205331,1,0,0:0:0:0:
448,192,205474,1,0,0:0:0:0:
64,192,205474,1,0,0:0:0:0:
320,192,205617,1,0,0:0:0:0:
64,192,205902,1,0,0:0:0:0:
192,192,206045,1,0,0:0:0:0:
448,192,206045,1,0,0:0:0:0:
64,192,206331,1,0,0:0:0:0:
448,192,206474,1,0,0:0:0:0:
320,192,206617,1,0,0:0:0:0:
64,192,206617,1,0,0:0:0:0:
448,192,206902,1,0,0:0:0:0:
192,192,207188,1,0,0:0:0:0:
64,192,207188,1,0,0:0:0:0:
320,192,207474,1,0,0:0:0:0:
448,192,207617,1,0,0:0:0:0:
192,192,207760,1,0,0:0:0:0:
64,192,207760,1,0,0:0:0:0:
320,192,207902,1,0,0:0:0:0:
64,192,208188,1,0,0:0:0:0:
320,192,208331,1,0,0:0:0:0:
448,192,208617,1,0,0:0:0:0:
320,192,208760,1,0,0:0:0:0:
192,192,208902,1,0,0:0:0:0:
64,192,208902,1,0,0:0:0:0:
448,192,209188,1,0,0:0:0:0:
320,192,209474,1,0,0:0:0:0:
64,192,209474,1,0,0:0:0:0:
192,192,209760,1,0,0:0:0:0:
448,192,209760,1,0,0:0:0:0:
320,192,209902,1,0,0:0:0:0:
448,192,210188,1,0,0:0:0:0:
64,192,210188,1,0,0:0:0:0:
320,192,210474,1,0,0:0:0:0:
192,192,210617,1,0,0:0:0:0:
64,192,210617,1,0,0:0:0:0:
448,192,210902,1,0,0:0:0:0:
64,192,210902,1,0,0:0:0:0:
320,192,211045,1,0,0:0:0:0:
192,192,211045,1,0,0:0:0:0:
448,192,211188,1,0,0:0:0:0:
64,192,211188,1,0,0:0:0:0:
320,192,211331,1,0,0:0:0:0:
192,192,211331,1,0,0:0:0:0:
448,192,211474,1,0,0:0:0:0:
64,192,211760,1,0,0:0:0:0:
192,192,211760,1,0,0:0:0:0:
448,192,212045,1,0,0:0:0:0:
320,192,212188,1,0,0:0:0:0:
192,192,212331,1,0,0:0:0:0:
64,192,212331,1,0,0:0:0:0:
448,192,212474,1,0,0:0:0:0:
64,192,212760,1,0,0:0:0:0:
320,192,212902,1,0,0:0:0:0:
448,192,212902,1,0,0:0:0:0:
64,192,213188,1,0,0:0:0:0:
192,192,213331,1,0,0:0:0:0:
320,192,213474,1,0,0:0:0:0:
448,192,213474,1,0,0:0:0:0:
192,192,213760,1,0,0:0:0:0:
448,192,214045,1,0,0:0:0:0:
64,192,214045,1,0,0:0:0:0:
320,192,214331,1,0,0:0:0:0:
192,192,214474,1,0,0:0:0:0:
448,192,214617,1,0,0:0:0:0:
64,192,214617,1,0,0:0:0:0:
192,192,215045,1,0,0:0:0:0:
320,192,215188,1,0,0:0:0:0:
448,192,215188,1,0,0:0:0:0:
64,192,215474,1,0,0:0:0:0:
320,192,215617,1,0,0:0:0:0:
192,192,215760,1,0,0:0:0:0:
448,192,215760,1,0,0:0:0:0:
64,192,216045,1,0,0:0:0:0:
192,192,216331,1,0,0:0:0:0:
320,192,216331,1,0,0:0:0:0:
448,192,216617,1,0,0:0:0:0:
320,192,216760,1,0,0:0:0:0:
192,192,216902,1,0,0:0:0:0:
64,192,216902,1,0,0:0:0:0:
448,192,217045,1,0,0:0:0:0:
64,192,217331,1,0,0:0:0:0:
320,192,217474,1,0,0:0:0:0:
448,192,217474,1,0,0:0:0:0:
64,192,217760,1,0,0:0:0:0:
192,192,217902,1,0,0:0:0:0:
320,192,218045,1,0,0:0:0:0:
448,192,218045,1,0,0:0:0:0:
192,192,218331,1,0,0:0:0:0:
448,192,218617,1,0,0:0:0:0:
64,192,218617,1,0,0:0:0:0:
320,192,218902,1,0,0:0:0:0:
192,192,219045,1,0,0:0:0:0:
64,192,219188,1,0,0:0:0:0:
448,192,219188,1,0,0:0:0:0:
320,192,219331,1,0,0:0:0:0:
64,192,219617,1,0,0:0:0:0:
320,192,219760,1,0,0:0:0:0:
448,192,219760,1,0,0:0:0:0:
192,192,220045,1,0,0:0:0:0:
448,192,220331,1,0,0:0:0:0:
64,192,220331,1,0,0:0:0:0:
320,192,220617,1,0,0:0:0:0:
192,192,220902,1,0,0:0:0:0:
64,192,220902,1,0,0:0:0:0:
448,192,221188,1,0,0:0:0:0:
320,192,221331,1,0,0:0:0:0:
192,192,221474,1,0,0:0:0:0:
64,192,221474,1,0,0:0:0:0:
448,192,221617,1,0,0:0:0:0:
64,192,221902,1,0,0:0:0:0:
192,192,222045,1,0,0:0:0:0:
320,192,222045,1,0,0:0:0:0:
448,192,222331,1,0,0:0:0:0:
64,192,222474,1,0,0:0:0:0:
320,192,222617,1,0,0:0:0:0:
448,192,222617,1,0,0:0:0:0:
192,192,222902,1,0,0:0:0:0:
448,192,223188,1,0,0:0:0:0:
64,192,223188,1,0,0:0:0:0:
192,192,223474,1,0,0:0:0:0:
320,192,223617,1,0,0:0:0:0:
448,192,223760,1,0,0:0:0:0:
64,192,223760,1,0,0:0:0:0:
320,192,224045,1,0,0:0:0:0:
192,192,224045,1,0,0:0:0:0:
448,192,224474,1,0,0:0:0:0:
320,192,224617,1,0,0:0:0:0:
192,192,224760,1,0,0:0:0:0:
64,192,224902,1,0,0:0:0:0:
448,192,224902,1,0,0:0:0:0:
320,192,225188,1,0,0:0:0:0:
192,192,225474,1,0,0:0:0:0:
64,192,225474,1,0,0:0:0:0:
448,192,225760,1,0,0:0:0:0:
320,192,225902,1,0,0:0:0:0:
192,192,226045,1,0,0:0:0:0:
64,192,226045,1,0,0:0:0:0:
448,192,226188,1,0,0:0:0:0:
64,192,226474,1,0,0:0:0:0:
192,192,226617,1,0,0:0:0:0:
320,192,226617,1,0,0:0:0:0:
448,192,226902,1,0,0:0:0:0:
320,192,227045,1,0,0:0:0:0:
192,192,227188,1,0,0:0:0:0:
64,192,227188,1,0,0:0:0:0:
320,192,227474,1,0,0:0:0:0:
64,192,227760,1,0,0:0:0:0:
448,192,227760,1,0,0:0:0:0:
192,192,228045,1,0,0:0:0:0:
320,192,228188,1,0,0:0:0:0:
448,192,228331,1,0,0:0:0:0:
192,192,228331,1,0,0:0:0:0:
64,192,228474,1,0,0:0:0:0:
448,192,228760,1,0,0:0:0:0:
64,192,228902,1,0,0:0:0:0:
320,192,228902,1,0,0:0:0:0:
448,192,229188,1,0,0:0:0:0:
320,192,229331,1,0,0:0:0:0:
192,192,229474,1,0,0:0:0:0:
64,192,229474,1,0,0:0:0:0:
448,192,229760,1,0,0:0:0:0:
192,192,230045,1,0,0:0:0:0:
64,192,230045,1,0,0:0:0:0:
448,192,230331,1,0,0:0:0:0:
64,192,230474,1,0,0:0:0:0:
448,192,230617,1,0,0:0:0:0:
320,192,230617,1,0,0:0:0:0:
64,192,230760,1,0,0:0:0:0:
448,192,231045,1,0,0:0:0:0:
192,192,231188,1,0,0:0:0:0:
64,192,231188,1,0,0:0:0:0:
448,192,231474,1,0,0:0:0:0:
320,192,231617,1,0,0:0:0:0:
192,192,231760,1,0,0:0:0:0:
64,192,231760,1,0,0:0:0:0:
448,192,232045,1,0,0:0:0:0:
320,192,232331,1,0,0:0:0:0:
64,192,232331,1,0,0:0:0:0:
192,192,232617,1,0,0:0:0:0:
320,192,232760,1,0,0:0:0:0:
448,192,232902,1,0,0:0:0:0:
64,192,232902,1,0,0:0:0:0:
192,192,233045,1,0,0:0:0:0:
448,192,233331,1,0,0:0:0:0:
320,192,233474,1,0,0:0:0:0:
192,192,233474,1,0,0:0:0:0:
64,192,233760,1,0,0:0:0:0:
192,192,233902,1,0,0:0:0:0:
320,192,234045,1,0,0:0:0:0:
448,192,234045,1,0,0:0:0:0:
448,192,234331,1,0,0:0:0:0:
320,192,234331,1,0,0:0:0:0:
192,192,234617,1,0,0:0:0:0:
64,192,234617,1,0,0:0:0:0:
448,192,234902,1,0,0:0:0:0:
320,192,235045,1,0,0:0:0:0:
64,192,235188,1,0,0:0:0:0:
448,192,235188,1,0,0:0:0:0:
192,192,235474,1,0,0:0:0:0:
320,192,235617,1,0,0:0:0:0:
64,192,235760,1,0,0:0:0:0:
448,192,235760,1,0,0:0:0:0:
192,192,236045,1,0,0:0:0:0:
320,192,236188,1,0,0:0:0:0:
448,192,236331,1,0,0:0:0:0:
192,192,236331,1,0,0:0:0:0:
64,192,236617,1,0,0:0:0:0:
192,192,236902,1,0,0:0:0:0:
448,192,236902,1,0,0:0:0:0:
64,192,237188,1,0,0:0:0:0:
192,192,237331,1,0,0:0:0:0:
320,192,237474,1,0,0:0:0:0:
448,192,237474,1,0,0:0:0:0:
192,192,237617,1,0,0:0:0:0:
64,192,237902,1,0,0:0:0:0:
192,192,238045,1,0,0:0:0:0:
320,192,238045,1,0,0:0:0:0:
448,192,238331,1,0,0:0:0:0:
320,192,238474,1,0,0:0:0:0:
192,192,238617,1,0,0:0:0:0:
64,192,238617,1,0,0:0:0:0:
448,192,238902,1,0,0:0:0:0:
192,192,239188,1,0,0:0:0:0:
64,192,239188,1,0,0:0:0:0:
448,192,239474,1,0,0:0:0:0:
320,192,239617,1,0,0:0:0:0:
192,192,239760,1,0,0:0:0:0:
64,192,239760,1,0,0:0:0:0:
448,192,239902,1,0,0:0:0:0:
64,192,240188,1,0,0:0:0:0:
320,192,240331,1,0,0:0:0:0:
448,192,240331,1,0,0:0:0:0:
64,192,240617,1,0,0:0:0:0:
192,192,240760,1,0,0:0:0:0:
320,192,240902,1,0,0:0:0:0:
448,192,240902,1,0,0:0:0:0:
192,192,241188,1,0,0:0:0:0:
64,192,241188,1,0,0:0:0:0:
448,192,241331,1,0,0:0:0:0:
192,192,241474,1,0,0:0:0:0:
64,192,241474,1,0,0:0:0:0:
448,192,241617,1,0,0:0:0:0:
320,192,241760,1,0,0:0:0:0:
192,192,241760,1,0,0:0:0:0:
64,192,241902,1,0,0:0:0:0:
448,192,242045,1,0,0:0:0:0:
192,192,242188,1,0,0:0:0:0:
64,192,242188,1,0,0:0:0:0:
320,192,242331,1,0,0:0:0:0:
448,192,242474,1,0,0:0:0:0:
192,192,242617,1,0,0:0:0:0:
64,192,242617,1,0,0:0:0:0:
448,192,242760,1,0,0:0:0:0:
320,192,242760,1,0,0:0:0:0:
192,192,242831,1,0,0:0:0:0:
64,192,242831,1,0,0:0:0:0:
320,192,242902,1,0,0:0:0:0:
448,192,242902,1,0,0:0:0:0:
64,192,243045,1,0,0:0:0:0:
448,192,243188,1,0,0:0:0:0:
64,192,243331,1,0,0:0:0:0:
192,192,243474,1,0,0:0:0:0:
320,192,243474,1,0,0:0:0:0:
448,192,243474,128,0,247760:0:0:0:0:
64,192,247760,128,0,248117:0:0:0:0:
