osu file format v14

[General]
AudioFilename: Pyramidium.mp3
AudioLeadIn: 0
PreviewTime: 56254
Countdown: 0
SampleSet: Soft
StackLeniency: 0.7
Mode: 3
LetterboxInBreaks: 0
SpecialStyle: 0
WidescreenStoryboard: 1

[Editor]
DistanceSpacing: 1
BeatDivisor: 8
GridSize: 16
TimelineZoom: 1.9

[Metadata]
Title:4k Beginner Pack
TitleUnicode:4k Beginner Pack
Artist:Various Artists
ArtistUnicode:Various Artists
Creator:Yupyapyipyep
Version:Beek - Pyramidium [Speed Training]
Source:
Tags:
BeatmapID:2934070
BeatmapSetID:668952

[Difficulty]
HPDrainRate:5
CircleSize:4
OverallDifficulty:5
ApproachRate:5
SliderMultiplier:1.4
SliderTickRate:1

[Events]
//Background and Video events
0,0,"pyramidium-bg.png",0,0
//Break Periods
//Storyboard Layer 0 (Background)
//Storyboard Layer 1 (Fail)
//Storyboard Layer 2 (Pass)
//Storyboard Layer 3 (Foreground)
//Storyboard Layer 4 (Overlay)
//Storyboard Sound Samples

[TimingPoints]
68,535.523027490182,4,2,0,100,1,0
10518,535.523027490182,4,2,0,100,1,0

[HitObjects]
64,192,68,5,0,0:0:0:0:
192,192,134,1,0,0:0:0:0:
448,192,201,1,0,0:0:0:0:
64,192,268,1,0,0:0:0:0:
192,192,335,1,0,0:0:0:0:
448,192,402,1,0,0:0:0:0:
64,192,469,1,0,0:0:0:0:
64,192,1406,1,0,0:0:0:0:
320,192,1473,1,0,0:0:0:0:
192,192,1540,1,0,0:0:0:0:
448,192,1607,1,0,0:0:0:0:
320,192,1674,1,0,0:0:0:0:
64,192,1741,1,0,0:0:0:0:
192,192,1808,1,0,0:0:0:0:
448,192,3749,1,0,0:0:0:0:
192,192,3816,1,0,0:0:0:0:
320,192,3883,1,0,0:0:0:0:
64,192,3950,1,0,0:0:0:0:
192,192,4017,1,0,0:0:0:0:
448,192,4084,1,0,0:0:0:0:
320,192,4151,1,0,0:0:0:0:
64,192,4218,1,0,0:0:0:0:
448,192,4553,1,0,0:0:0:0:
64,192,4619,1,0,0:0:0:0:
320,192,4686,1,0,0:0:0:0:
192,192,4753,1,0,0:0:0:0:
448,192,4820,1,0,0:0:0:0:
64,192,4887,1,0,0:0:0:0:
448,192,6226,1,0,0:0:0:0:
64,192,6293,1,0,0:0:0:0:
320,192,6360,1,0,0:0:0:0:
64,192,6427,1,0,0:0:0:0:
192,192,6494,1,0,0:0:0:0:
448,192,6561,1,0,0:0:0:0:
320,192,6628,1,0,0:0:0:0:
64,192,7163,1,0,0:0:0:0:
192,192,7230,1,0,0:0:0:0:
448,192,7297,1,0,0:0:0:0:
64,192,7364,1,0,0:0:0:0:
320,192,7431,1,0,0:0:0:0:
448,192,7498,1,0,0:0:0:0:
448,192,8770,1,0,0:0:0:0:
64,192,8837,1,0,0:0:0:0:
192,192,8904,1,0,0:0:0:0:
320,192,8971,1,0,0:0:0:0:
192,192,9038,1,0,0:0:0:0:
448,192,9104,1,0,0:0:0:0:
320,192,9171,1,0,0:0:0:0:
64,192,9439,5,0,0:0:0:0:
448,192,9506,1,0,0:0:0:0:
320,192,9573,1,0,0:0:0:0:
64,192,9640,1,0,0:0:0:0:
192,192,9707,1,0,0:0:0:0:
192,192,10510,1,0,0:0:0:0:
320,192,10510,1,0,0:0:0:0:
448,192,10510,1,0,0:0:0:0:
448,192,10651,1,0,0:0:0:0:
320,192,10651,1,0,0:0:0:0:
64,192,10785,1,0,0:0:0:0:
192,192,10785,1,0,0:0:0:0:
448,192,10852,1,0,0:0:0:0:
64,192,10919,1,0,0:0:0:0:
192,192,10919,1,0,0:0:0:0:
320,192,10986,1,0,0:0:0:0:
448,192,11053,1,0,0:0:0:0:
64,192,11187,1,0,0:0:0:0:
448,192,11321,1,0,0:0:0:0:
320,192,11321,1,0,0:0:0:0:
64,192,11589,1,0,0:0:0:0:
448,192,11655,1,0,0:0:0:0:
64,192,11722,1,0,0:0:0:0:
192,192,11789,1,0,0:0:0:0:
448,192,11856,1,0,0:0:0:0:
320,192,11856,1,0,0:0:0:0:
64,192,11923,1,0,0:0:0:0:
192,192,11990,1,0,0:0:0:0:
448,192,12258,1,0,0:0:0:0:
192,192,12392,1,0,0:0:0:0:
64,192,12392,1,0,0:0:0:0:
448,192,12660,1,0,0:0:0:0:
192,192,12660,1,0,0:0:0:0:
320,192,12793,1,0,0:0:0:0:
64,192,12793,1,0,0:0:0:0:
448,192,13061,1,0,0:0:0:0:
320,192,13195,1,0,0:0:0:0:
448,192,13195,1,0,0:0:0:0:
64,192,13262,1,0,0:0:0:0:
192,192,13329,1,0,0:0:0:0:
320,192,13396,1,0,0:0:0:0:
64,192,13463,1,0,0:0:0:0:
448,192,13465,1,0,0:0:0:0:
64,192,13731,1,0,0:0:0:0:
448,192,13798,1,0,0:0:0:0:
320,192,13865,1,0,0:0:0:0:
64,192,13931,1,0,0:0:0:0:
192,192,13998,1,0,0:0:0:0:
448,192,13998,128,0,14132:0:0:0:0:
64,192,14199,1,0,0:0:0:0:
64,192,14266,1,0,0:0:0:0:
448,192,14400,1,0,0:0:0:0:
320,192,14534,1,0,0:0:0:0:
448,192,14534,1,0,0:0:0:0:
64,192,14802,1,0,0:0:0:0:
192,192,14802,1,0,0:0:0:0:
448,192,15069,1,0,0:0:0:0:
320,192,15069,1,0,0:0:0:0:
64,192,15136,1,0,0:0:0:0:
192,192,15203,1,0,0:0:0:0:
448,192,15270,1,0,0:0:0:0:
64,192,15337,1,0,0:0:0:0:
192,192,15404,1,0,0:0:0:0:
448,192,15471,1,0,0:0:0:0:
192,192,15605,1,0,0:0:0:0:
64,192,15605,1,0,0:0:0:0:
448,192,15873,1,0,0:0:0:0:
64,192,15873,1,0,0:0:0:0:
320,192,15940,1,0,0:0:0:0:
192,192,16007,1,0,0:0:0:0:
64,192,16074,1,0,0:0:0:0:
448,192,16140,1,0,0:0:0:0:
320,192,16140,1,0,0:0:0:0:
192,192,16542,1,0,0:0:0:0:
320,192,16542,1,0,0:0:0:0:
320,192,16676,1,0,0:0:0:0:
192,192,16676,1,0,0:0:0:0:
448,192,16944,1,0,0:0:0:0:
320,192,16944,1,0,0:0:0:0:
64,192,16944,1,0,0:0:0:0:
448,192,17078,1,0,0:0:0:0:
320,192,17078,1,0,0:0:0:0:
192,192,17345,1,0,0:0:0:0:
64,192,17345,1,0,0:0:0:0:
192,192,17479,1,0,0:0:0:0:
64,192,17479,1,0,0:0:0:0:
320,192,17546,1,0,0:0:0:0:
64,192,17613,1,0,0:0:0:0:
448,192,17613,1,0,0:0:0:0:
192,192,17680,1,0,0:0:0:0:
320,192,17747,1,0,0:0:0:0:
448,192,17747,1,0,0:0:0:0:
64,192,18015,1,0,0:0:0:0:
192,192,18082,1,0,0:0:0:0:
320,192,18149,1,0,0:0:0:0:
448,192,18216,1,0,0:0:0:0:
192,192,18283,1,0,0:0:0:0:
64,192,18283,1,0,0:0:0:0:
192,192,18416,1,0,0:0:0:0:
320,192,18416,1,0,0:0:0:0:
64,192,18684,1,0,0:0:0:0:
192,192,18684,1,0,0:0:0:0:
448,192,18818,1,0,0:0:0:0:
320,192,18818,1,0,0:0:0:0:
64,192,18952,1,0,0:0:0:0:
192,192,18952,1,0,0:0:0:0:
320,192,19086,1,0,0:0:0:0:
448,192,19086,1,0,0:0:0:0:
64,192,19354,1,0,0:0:0:0:
192,192,19354,1,0,0:0:0:0:
448,192,19421,1,0,0:0:0:0:
192,192,19488,1,0,0:0:0:0:
64,192,19488,1,0,0:0:0:0:
320,192,19554,1,0,0:0:0:0:
448,192,19621,1,0,0:0:0:0:
64,192,19688,1,0,0:0:0:0:
320,192,19755,1,0,0:0:0:0:
448,192,19755,1,0,0:0:0:0:
192,192,19889,1,0,0:0:0:0:
64,192,19889,1,0,0:0:0:0:
448,192,20157,1,0,0:0:0:0:
64,192,20157,1,0,0:0:0:0:
192,192,20224,1,0,0:0:0:0:
320,192,20291,1,0,0:0:0:0:
448,192,20358,1,0,0:0:0:0:
192,192,20425,1,0,0:0:0:0:
64,192,20425,1,0,0:0:0:0:
448,192,20492,1,0,0:0:0:0:
192,192,20826,1,0,0:0:0:0:
64,192,20826,1,0,0:0:0:0:
192,192,20960,1,0,0:0:0:0:
64,192,20960,1,0,0:0:0:0:
448,192,20960,1,0,0:0:0:0:
64,192,21228,1,0,0:0:0:0:
320,192,21228,1,0,0:0:0:0:
192,192,21362,1,0,0:0:0:0:
448,192,21362,1,0,0:0:0:0:
64,192,21630,1,0,0:0:0:0:
192,192,21630,1,0,0:0:0:0:
320,192,21763,1,0,0:0:0:0:
448,192,21763,1,0,0:0:0:0:
64,192,21830,1,0,0:0:0:0:
320,192,21897,1,0,0:0:0:0:
448,192,21897,1,0,0:0:0:0:
192,192,21964,1,0,0:0:0:0:
448,192,22031,1,0,0:0:0:0:
64,192,22031,1,0,0:0:0:0:
448,192,22299,1,0,0:0:0:0:
320,192,22299,1,0,0:0:0:0:
64,192,22366,1,0,0:0:0:0:
448,192,22433,1,0,0:0:0:0:
192,192,22500,1,0,0:0:0:0:
320,192,22567,1,0,0:0:0:0:
448,192,22634,1,0,0:0:0:0:
192,192,22701,1,0,0:0:0:0:
64,192,22701,1,0,0:0:0:0:
320,192,22768,1,0,0:0:0:0:
448,192,22768,1,0,0:0:0:0:
192,192,22835,1,0,0:0:0:0:
64,192,22835,1,0,0:0:0:0:
448,192,22968,1,0,0:0:0:0:
320,192,22968,1,0,0:0:0:0:
192,192,23102,1,0,0:0:0:0:
64,192,23102,1,0,0:0:0:0:
320,192,23370,1,0,0:0:0:0:
64,192,23370,1,0,0:0:0:0:
448,192,23638,1,0,0:0:0:0:
320,192,23705,1,0,0:0:0:0:
64,192,23772,1,0,0:0:0:0:
192,192,23839,1,0,0:0:0:0:
320,192,23906,1,0,0:0:0:0:
448,192,23906,1,0,0:0:0:0:
64,192,23973,1,0,0:0:0:0:
448,192,24039,1,0,0:0:0:0:
320,192,24039,1,0,0:0:0:0:
192,192,24106,1,0,0:0:0:0:
64,192,24106,1,0,0:0:0:0:
320,192,24173,1,0,0:0:0:0:
448,192,24173,1,0,0:0:0:0:
448,192,24441,1,0,0:0:0:0:
320,192,24441,1,0,0:0:0:0:
192,192,24508,1,0,0:0:0:0:
64,192,24575,1,0,0:0:0:0:
448,192,24642,1,0,0:0:0:0:
192,192,24709,1,0,0:0:0:0:
64,192,24709,1,0,0:0:0:0:
320,192,24776,1,0,0:0:0:0:
192,192,25111,1,0,0:0:0:0:
64,192,25111,1,0,0:0:0:0:
64,192,25244,1,0,0:0:0:0:
192,192,25244,1,0,0:0:0:0:
320,192,25244,1,0,0:0:0:0:
64,192,25512,1,0,0:0:0:0:
320,192,25512,1,0,0:0:0:0:
448,192,25646,1,0,0:0:0:0:
192,192,25646,1,0,0:0:0:0:
320,192,25780,1,0,0:0:0:0:
64,192,25780,1,0,0:0:0:0:
192,192,25914,1,0,0:0:0:0:
448,192,25914,1,0,0:0:0:0:
320,192,26048,1,0,0:0:0:0:
192,192,26115,1,0,0:0:0:0:
64,192,26182,1,0,0:0:0:0:
448,192,26248,1,0,0:0:0:0:
192,192,26315,1,0,0:0:0:0:
64,192,26315,1,0,0:0:0:0:
448,192,26382,1,0,0:0:0:0:
64,192,26583,1,0,0:0:0:0:
192,192,26583,1,0,0:0:0:0:
448,192,26650,1,0,0:0:0:0:
320,192,26717,1,0,0:0:0:0:
192,192,26784,1,0,0:0:0:0:
448,192,26851,1,0,0:0:0:0:
64,192,26851,1,0,0:0:0:0:
320,192,26985,1,0,0:0:0:0:
192,192,26985,1,0,0:0:0:0:
448,192,27253,1,0,0:0:0:0:
320,192,27253,1,0,0:0:0:0:
192,192,27320,1,0,0:0:0:0:
64,192,27320,1,0,0:0:0:0:
448,192,27386,1,0,0:0:0:0:
320,192,27386,1,0,0:0:0:0:
448,192,27654,1,0,0:0:0:0:
320,192,27654,1,0,0:0:0:0:
192,192,27788,1,0,0:0:0:0:
64,192,27788,1,0,0:0:0:0:
448,192,27922,1,0,0:0:0:0:
320,192,27922,1,0,0:0:0:0:
64,192,27922,1,0,0:0:0:0:
192,192,27989,1,0,0:0:0:0:
320,192,28056,1,0,0:0:0:0:
448,192,28123,1,0,0:0:0:0:
64,192,28190,1,0,0:0:0:0:
192,192,28257,1,0,0:0:0:0:
320,192,28324,1,0,0:0:0:0:
448,192,28391,1,0,0:0:0:0:
64,192,28458,1,0,0:0:0:0:
192,192,28524,1,0,0:0:0:0:
320,192,28591,1,0,0:0:0:0:
448,192,28658,1,0,0:0:0:0:
64,192,28725,1,0,0:0:0:0:
192,192,28792,1,0,0:0:0:0:
320,192,28859,1,0,0:0:0:0:
448,192,28926,1,0,0:0:0:0:
64,192,28993,1,0,0:0:0:0:
192,192,28993,1,0,0:0:0:0:
448,192,29060,1,0,0:0:0:0:
64,192,29127,1,0,0:0:0:0:
448,192,29194,1,0,0:0:0:0:
64,192,29261,1,0,0:0:0:0:
192,192,29328,1,0,0:0:0:0:
448,192,29395,1,0,0:0:0:0:
320,192,29462,1,0,0:0:0:0:
64,192,29529,1,0,0:0:0:0:
192,192,29596,1,0,0:0:0:0:
448,192,29662,1,0,0:0:0:0:
320,192,29729,1,0,0:0:0:0:
192,192,29796,1,0,0:0:0:0:
64,192,29863,1,0,0:0:0:0:
320,192,29930,1,0,0:0:0:0:
448,192,29997,1,0,0:0:0:0:
320,192,30064,1,0,0:0:0:0:
448,192,30131,1,0,0:0:0:0:
64,192,30198,1,0,0:0:0:0:
192,192,30265,1,0,0:0:0:0:
64,192,30332,1,0,0:0:0:0:
448,192,30399,1,0,0:0:0:0:
320,192,30466,1,0,0:0:0:0:
192,192,30533,1,0,0:0:0:0:
448,192,30600,1,0,0:0:0:0:
64,192,30667,1,0,0:0:0:0:
320,192,30733,1,0,0:0:0:0:
192,192,30800,1,0,0:0:0:0:
448,192,30867,1,0,0:0:0:0:
64,192,30934,1,0,0:0:0:0:
320,192,31001,1,0,0:0:0:0:
192,192,31068,1,0,0:0:0:0:
448,192,31135,1,0,0:0:0:0:
64,192,31202,1,0,0:0:0:0:
320,192,31269,1,0,0:0:0:0:
192,192,31336,1,0,0:0:0:0:
448,192,31403,1,0,0:0:0:0:
64,192,31403,1,0,0:0:0:0:
320,192,31470,1,0,0:0:0:0:
192,192,31537,1,0,0:0:0:0:
64,192,31604,1,0,0:0:0:0:
448,192,31671,1,0,0:0:0:0:
320,192,31738,1,0,0:0:0:0:
192,192,31805,1,0,0:0:0:0:
64,192,31871,1,0,0:0:0:0:
448,192,31938,1,0,0:0:0:0:
320,192,31938,1,0,0:0:0:0:
192,192,32005,1,0,0:0:0:0:
64,192,32072,1,0,0:0:0:0:
448,192,32139,1,0,0:0:0:0:
320,192,32206,1,0,0:0:0:0:
64,192,32273,1,0,0:0:0:0:
192,192,32340,1,0,0:0:0:0:
448,192,32407,1,0,0:0:0:0:
320,192,32474,1,0,0:0:0:0:
64,192,32541,1,0,0:0:0:0:
192,192,32608,1,0,0:0:0:0:
448,192,32675,1,0,0:0:0:0:
320,192,32742,1,0,0:0:0:0:
64,192,32809,1,0,0:0:0:0:
192,192,32876,1,0,0:0:0:0:
448,192,32943,1,0,0:0:0:0:
320,192,33009,1,0,0:0:0:0:
64,192,33076,1,0,0:0:0:0:
192,192,33143,1,0,0:0:0:0:
320,192,33210,1,0,0:0:0:0:
448,192,33277,1,0,0:0:0:0:
64,192,33277,1,0,0:0:0:0:
320,192,33344,1,0,0:0:0:0:
192,192,33411,1,0,0:0:0:0:
64,192,33478,1,0,0:0:0:0:
448,192,33545,1,0,0:0:0:0:
320,192,33612,1,0,0:0:0:0:
192,192,33679,1,0,0:0:0:0:
64,192,33746,1,0,0:0:0:0:
448,192,33813,1,0,0:0:0:0:
320,192,33880,1,0,0:0:0:0:
192,192,33947,1,0,0:0:0:0:
64,192,34014,1,0,0:0:0:0:
448,192,34081,1,0,0:0:0:0:
320,192,34147,1,0,0:0:0:0:
192,192,34214,1,0,0:0:0:0:
64,192,34281,1,0,0:0:0:0:
448,192,34348,1,0,0:0:0:0:
320,192,34415,1,0,0:0:0:0:
64,192,34482,1,0,0:0:0:0:
192,192,34549,1,0,0:0:0:0:
448,192,34616,1,0,0:0:0:0:
320,192,34683,1,0,0:0:0:0:
64,192,34750,1,0,0:0:0:0:
192,192,34817,1,0,0:0:0:0:
448,192,34884,1,0,0:0:0:0:
64,192,34884,1,0,0:0:0:0:
320,192,34884,1,0,0:0:0:0:
448,192,35152,1,0,0:0:0:0:
320,192,35152,1,0,0:0:0:0:
192,192,35419,1,0,0:0:0:0:
64,192,35419,1,0,0:0:0:0:
320,192,35553,1,0,0:0:0:0:
448,192,35553,1,0,0:0:0:0:
64,192,35821,1,0,0:0:0:0:
320,192,35821,1,0,0:0:0:0:
64,192,35955,1,0,0:0:0:0:
320,192,35955,1,0,0:0:0:0:
448,192,35955,1,0,0:0:0:0:
448,192,36089,1,0,0:0:0:0:
320,192,36089,1,0,0:0:0:0:
192,192,36223,1,0,0:0:0:0:
64,192,36223,1,0,0:0:0:0:
448,192,36490,1,0,0:0:0:0:
64,192,36490,1,0,0:0:0:0:
192,192,36557,1,0,0:0:0:0:
320,192,36624,1,0,0:0:0:0:
64,192,36691,1,0,0:0:0:0:
192,192,36758,1,0,0:0:0:0:
320,192,36825,1,0,0:0:0:0:
448,192,36892,1,0,0:0:0:0:
64,192,36959,1,0,0:0:0:0:
192,192,37026,1,0,0:0:0:0:
320,192,37093,1,0,0:0:0:0:
64,192,37160,1,0,0:0:0:0:
192,192,37227,1,0,0:0:0:0:
320,192,37294,1,0,0:0:0:0:
448,192,37361,1,0,0:0:0:0:
64,192,37428,1,0,0:0:0:0:
448,192,37494,1,0,0:0:0:0:
64,192,37561,1,0,0:0:0:0:
192,192,37561,1,0,0:0:0:0:
448,192,37628,1,0,0:0:0:0:
320,192,37695,1,0,0:0:0:0:
192,192,37762,1,0,0:0:0:0:
64,192,37829,1,0,0:0:0:0:
448,192,37896,1,0,0:0:0:0:
320,192,37963,1,0,0:0:0:0:
192,192,38030,1,0,0:0:0:0:
64,192,38097,1,0,0:0:0:0:
448,192,38164,1,0,0:0:0:0:
320,192,38231,1,0,0:0:0:0:
192,192,38298,1,0,0:0:0:0:
64,192,38365,1,0,0:0:0:0:
192,192,38432,1,0,0:0:0:0:
448,192,38499,1,0,0:0:0:0:
320,192,38566,1,0,0:0:0:0:
64,192,38632,1,0,0:0:0:0:
192,192,38699,1,0,0:0:0:0:
448,192,38766,1,0,0:0:0:0:
320,192,38833,1,0,0:0:0:0:
64,192,38900,1,0,0:0:0:0:
192,192,38967,1,0,0:0:0:0:
448,192,39034,1,0,0:0:0:0:
320,192,39101,1,0,0:0:0:0:
64,192,39168,1,0,0:0:0:0:
192,192,39168,1,0,0:0:0:0:
448,192,39235,1,0,0:0:0:0:
320,192,39302,1,0,0:0:0:0:
192,192,39369,1,0,0:0:0:0:
64,192,39436,1,0,0:0:0:0:
448,192,39503,1,0,0:0:0:0:
192,192,39570,1,0,0:0:0:0:
320,192,39637,1,0,0:0:0:0:
192,192,39704,1,0,0:0:0:0:
64,192,39770,1,0,0:0:0:0:
448,192,39837,1,0,0:0:0:0:
192,192,39904,1,0,0:0:0:0:
448,192,39971,1,0,0:0:0:0:
320,192,40038,1,0,0:0:0:0:
192,192,40105,1,0,0:0:0:0:
64,192,40172,1,0,0:0:0:0:
448,192,40239,1,0,0:0:0:0:
320,192,40306,1,0,0:0:0:0:
192,192,40373,1,0,0:0:0:0:
64,192,40440,1,0,0:0:0:0:
448,192,40507,1,0,0:0:0:0:
320,192,40507,1,0,0:0:0:0:
192,192,40574,1,0,0:0:0:0:
64,192,40641,1,0,0:0:0:0:
448,192,40708,1,0,0:0:0:0:
320,192,40775,1,0,0:0:0:0:
64,192,40841,1,0,0:0:0:0:
192,192,40908,1,0,0:0:0:0:
320,192,40975,1,0,0:0:0:0:
448,192,41042,1,0,0:0:0:0:
64,192,41109,1,0,0:0:0:0:
320,192,41176,1,0,0:0:0:0:
448,192,41243,1,0,0:0:0:0:
64,192,41310,1,0,0:0:0:0:
320,192,41377,1,0,0:0:0:0:
448,192,41444,1,0,0:0:0:0:
64,192,41511,1,0,0:0:0:0:
192,192,41578,1,0,0:0:0:0:
320,192,41645,1,0,0:0:0:0:
448,192,41712,1,0,0:0:0:0:
64,192,41779,1,0,0:0:0:0:
192,192,41846,1,0,0:0:0:0:
448,192,41913,1,0,0:0:0:0:
320,192,41979,1,0,0:0:0:0:
64,192,42046,1,0,0:0:0:0:
192,192,42113,1,0,0:0:0:0:
448,192,42180,1,0,0:0:0:0:
320,192,42247,1,0,0:0:0:0:
64,192,42314,1,0,0:0:0:0:
192,192,42381,1,0,0:0:0:0:
320,192,42448,1,0,0:0:0:0:
448,192,42515,1,0,0:0:0:0:
320,192,42582,1,0,0:0:0:0:
192,192,42649,1,0,0:0:0:0:
64,192,42716,1,0,0:0:0:0:
448,192,42783,1,0,0:0:0:0:
320,192,42850,1,0,0:0:0:0:
192,192,42917,1,0,0:0:0:0:
64,192,42984,1,0,0:0:0:0:
448,192,43051,1,0,0:0:0:0:
64,192,43117,1,0,0:0:0:0:
448,192,43184,1,0,0:0:0:0:
320,192,43184,1,0,0:0:0:0:
192,192,43318,1,0,0:0:0:0:
64,192,43318,1,0,0:0:0:0:
64,192,43452,1,0,0:0:0:0:
320,192,43452,1,0,0:0:0:0:
448,192,43452,1,0,0:0:0:0:
64,192,43720,1,0,0:0:0:0:
320,192,43720,1,0,0:0:0:0:
320,192,43988,1,0,0:0:0:0:
448,192,43988,1,0,0:0:0:0:
448,192,44122,1,0,0:0:0:0:
320,192,44122,1,0,0:0:0:0:
64,192,44389,1,0,0:0:0:0:
192,192,44389,1,0,0:0:0:0:
64,192,44523,1,0,0:0:0:0:
192,192,44523,1,0,0:0:0:0:
448,192,44523,1,0,0:0:0:0:
192,192,44791,1,0,0:0:0:0:
64,192,44791,1,0,0:0:0:0:
448,192,44791,1,0,0:0:0:0:
448,192,45059,1,0,0:0:0:0:
64,192,45059,1,0,0:0:0:0:
192,192,45126,1,0,0:0:0:0:
320,192,45193,1,0,0:0:0:0:
64,192,45260,1,0,0:0:0:0:
192,192,45326,1,0,0:0:0:0:
320,192,45393,1,0,0:0:0:0:
448,192,45460,1,0,0:0:0:0:
64,192,45527,1,0,0:0:0:0:
192,192,45594,1,0,0:0:0:0:
320,192,45661,1,0,0:0:0:0:
448,192,45728,1,0,0:0:0:0:
64,192,45795,1,0,0:0:0:0:
192,192,45862,1,0,0:0:0:0:
320,192,45929,1,0,0:0:0:0:
448,192,45996,1,0,0:0:0:0:
64,192,46063,1,0,0:0:0:0:
192,192,46130,1,0,0:0:0:0:
320,192,46130,1,0,0:0:0:0:
448,192,46197,1,0,0:0:0:0:
64,192,46264,1,0,0:0:0:0:
448,192,46331,1,0,0:0:0:0:
320,192,46398,1,0,0:0:0:0:
192,192,46464,1,0,0:0:0:0:
448,192,46531,1,0,0:0:0:0:
320,192,46598,1,0,0:0:0:0:
64,192,46665,1,0,0:0:0:0:
192,192,46732,1,0,0:0:0:0:
448,192,46799,1,0,0:0:0:0:
320,192,46866,1,0,0:0:0:0:
64,192,46933,1,0,0:0:0:0:
448,192,47000,1,0,0:0:0:0:
64,192,47067,1,0,0:0:0:0:
192,192,47134,1,0,0:0:0:0:
448,192,47201,1,0,0:0:0:0:
192,192,47268,1,0,0:0:0:0:
448,192,47335,1,0,0:0:0:0:
320,192,47402,1,0,0:0:0:0:
64,192,47469,1,0,0:0:0:0:
192,192,47536,1,0,0:0:0:0:
320,192,47602,1,0,0:0:0:0:
64,192,47669,1,0,0:0:0:0:
192,192,47736,1,0,0:0:0:0:
320,192,47803,1,0,0:0:0:0:
448,192,47870,1,0,0:0:0:0:
64,192,47937,1,0,0:0:0:0:
192,192,48004,1,0,0:0:0:0:
320,192,48071,1,0,0:0:0:0:
64,192,48138,1,0,0:0:0:0:
192,192,48205,1,0,0:0:0:0:
320,192,48272,1,0,0:0:0:0:
448,192,48339,1,0,0:0:0:0:
320,192,48406,1,0,0:0:0:0:
192,192,48473,1,0,0:0:0:0:
64,192,48540,1,0,0:0:0:0:
448,192,48540,1,0,0:0:0:0:
320,192,48674,1,0,0:0:0:0:
448,192,48740,1,0,0:0:0:0:
64,192,48807,1,0,0:0:0:0:
192,192,48874,1,0,0:0:0:0:
320,192,48941,1,0,0:0:0:0:
448,192,49008,1,0,0:0:0:0:
320,192,49075,1,0,0:0:0:0:
192,192,49075,1,0,0:0:0:0:
64,192,49142,1,0,0:0:0:0:
448,192,49209,1,0,0:0:0:0:
320,192,49276,1,0,0:0:0:0:
192,192,49343,1,0,0:0:0:0:
64,192,49410,1,0,0:0:0:0:
448,192,49477,1,0,0:0:0:0:
320,192,49544,1,0,0:0:0:0:
192,192,49611,1,0,0:0:0:0:
448,192,49678,1,0,0:0:0:0:
320,192,49745,1,0,0:0:0:0:
192,192,49812,1,0,0:0:0:0:
64,192,49878,1,0,0:0:0:0:
448,192,49945,1,0,0:0:0:0:
192,192,50012,1,0,0:0:0:0:
64,192,50079,1,0,0:0:0:0:
448,192,50146,1,0,0:0:0:0:
192,192,50213,1,0,0:0:0:0:
320,192,50280,1,0,0:0:0:0:
448,192,50347,1,0,0:0:0:0:
192,192,50414,1,0,0:0:0:0:
64,192,50414,1,0,0:0:0:0:
320,192,50481,1,0,0:0:0:0:
448,192,50548,1,0,0:0:0:0:
64,192,50615,1,0,0:0:0:0:
448,192,50682,1,0,0:0:0:0:
64,192,50749,1,0,0:0:0:0:
192,192,50816,1,0,0:0:0:0:
448,192,50883,1,0,0:0:0:0:
320,192,50949,1,0,0:0:0:0:
64,192,51016,1,0,0:0:0:0:
192,192,51083,1,0,0:0:0:0:
320,192,51150,1,0,0:0:0:0:
448,192,51217,1,0,0:0:0:0:
192,192,51284,1,0,0:0:0:0:
64,192,51351,1,0,0:0:0:0:
448,192,51351,1,0,0:0:0:0:
320,192,51418,1,0,0:0:0:0:
192,192,51485,1,0,0:0:0:0:
64,192,51552,1,0,0:0:0:0:
448,192,51619,1,0,0:0:0:0:
320,192,51686,1,0,0:0:0:0:
64,192,51753,1,0,0:0:0:0:
192,192,51820,1,0,0:0:0:0:
448,192,51887,1,0,0:0:0:0:
320,192,51887,1,0,0:0:0:0:
448,192,52021,1,0,0:0:0:0:
320,192,52021,1,0,0:0:0:0:
448,192,52288,1,0,0:0:0:0:
64,192,52288,1,0,0:0:0:0:
192,192,52355,1,0,0:0:0:0:
320,192,52422,1,0,0:0:0:0:
64,192,52489,1,0,0:0:0:0:
320,192,52556,1,0,0:0:0:0:
448,192,52556,1,0,0:0:0:0:
64,192,52623,1,0,0:0:0:0:
448,192,52690,1,0,0:0:0:0:
320,192,52690,1,0,0:0:0:0:
320,192,52958,1,0,0:0:0:0:
448,192,52958,1,0,0:0:0:0:
192,192,53092,1,0,0:0:0:0:
64,192,53092,1,0,0:0:0:0:
320,192,53225,1,0,0:0:0:0:
448,192,53225,1,0,0:0:0:0:
448,192,53359,1,0,0:0:0:0:
320,192,53359,1,0,0:0:0:0:
448,192,53627,1,0,0:0:0:0:
64,192,53627,1,0,0:0:0:0:
192,192,53694,1,0,0:0:0:0:
320,192,53761,1,0,0:0:0:0:
448,192,53828,1,0,0:0:0:0:
64,192,53895,1,0,0:0:0:0:
192,192,53962,1,0,0:0:0:0:
320,192,54029,1,0,0:0:0:0:
64,192,54096,1,0,0:0:0:0:
192,192,54163,1,0,0:0:0:0:
320,192,54230,1,0,0:0:0:0:
448,192,54297,1,0,0:0:0:0:
64,192,54363,1,0,0:0:0:0:
192,192,54430,1,0,0:0:0:0:
320,192,54497,1,0,0:0:0:0:
448,192,54564,1,0,0:0:0:0:
64,192,54631,1,0,0:0:0:0:
448,192,54698,1,0,0:0:0:0:
320,192,54698,1,0,0:0:0:0:
192,192,54765,1,0,0:0:0:0:
64,192,54832,1,0,0:0:0:0:
448,192,54899,1,0,0:0:0:0:
192,192,54966,1,0,0:0:0:0:
320,192,55033,1,0,0:0:0:0:
64,192,55100,1,0,0:0:0:0:
192,192,55167,1,0,0:0:0:0:
448,192,55234,1,0,0:0:0:0:
64,192,55301,1,0,0:0:0:0:
320,192,55368,1,0,0:0:0:0:
192,192,55434,1,0,0:0:0:0:
448,192,55501,1,0,0:0:0:0:
64,192,55568,1,0,0:0:0:0:
192,192,55635,1,0,0:0:0:0:
448,192,55702,1,0,0:0:0:0:
64,192,55769,1,0,0:0:0:0:
192,192,55836,1,0,0:0:0:0:
448,192,55903,1,0,0:0:0:0:
320,192,55970,1,0,0:0:0:0:
192,192,56037,1,0,0:0:0:0:
448,192,56104,1,0,0:0:0:0:
64,192,56171,1,0,0:0:0:0:
320,192,56238,1,0,0:0:0:0:
64,192,56305,1,0,0:0:0:0:
448,192,56372,1,0,0:0:0:0:
192,192,56439,1,0,0:0:0:0:
320,192,56506,1,0,0:0:0:0:
448,192,56572,1,0,0:0:0:0:
64,192,56572,1,0,0:0:0:0:
320,192,56639,1,0,0:0:0:0:
192,192,56706,1,0,0:0:0:0:
64,192,56773,1,0,0:0:0:0:
448,192,56840,1,0,0:0:0:0:
192,192,56907,1,0,0:0:0:0:
320,192,56974,1,0,0:0:0:0:
64,192,57041,1,0,0:0:0:0:
192,192,57108,1,0,0:0:0:0:
320,192,57175,1,0,0:0:0:0:
448,192,57242,1,0,0:0:0:0:
320,192,57309,1,0,0:0:0:0:
192,192,57376,1,0,0:0:0:0:
64,192,57443,1,0,0:0:0:0:
448,192,57510,1,0,0:0:0:0:
320,192,57577,1,0,0:0:0:0:
64,192,57644,1,0,0:0:0:0:
192,192,57710,1,0,0:0:0:0:
448,192,57777,1,0,0:0:0:0:
320,192,57844,1,0,0:0:0:0:
64,192,57911,1,0,0:0:0:0:
192,192,57978,1,0,0:0:0:0:
320,192,58045,1,0,0:0:0:0:
448,192,58112,1,0,0:0:0:0:
64,192,58179,1,0,0:0:0:0:
192,192,58246,1,0,0:0:0:0:
320,192,58313,1,0,0:0:0:0:
448,192,58380,1,0,0:0:0:0:
64,192,58447,1,0,0:0:0:0:
192,192,58514,1,0,0:0:0:0:
320,192,58581,1,0,0:0:0:0:
448,192,58648,1,0,0:0:0:0:
64,192,58715,1,0,0:0:0:0:
192,192,58782,1,0,0:0:0:0:
448,192,58848,1,0,0:0:0:0:
320,192,58915,1,0,0:0:0:0:
64,192,58982,1,0,0:0:0:0:
192,192,59049,1,0,0:0:0:0:
448,192,59116,1,0,0:0:0:0:
320,192,59183,1,0,0:0:0:0:
64,192,59250,1,0,0:0:0:0:
192,192,59317,1,0,0:0:0:0:
320,192,59384,1,0,0:0:0:0:
448,192,59451,1,0,0:0:0:0:
64,192,59451,1,0,0:0:0:0:
192,192,59518,1,0,0:0:0:0:
320,192,59585,1,0,0:0:0:0:
448,192,59652,1,0,0:0:0:0:
64,192,59719,1,0,0:0:0:0:
192,192,59786,1,0,0:0:0:0:
320,192,59853,1,0,0:0:0:0:
64,192,59919,1,0,0:0:0:0:
192,192,59986,1,0,0:0:0:0:
320,192,60053,1,0,0:0:0:0:
64,192,60120,1,0,0:0:0:0:
192,192,60187,1,0,0:0:0:0:
320,192,60254,1,0,0:0:0:0:
448,192,60321,1,0,0:0:0:0:
64,192,60321,1,0,0:0:0:0:
320,192,60455,1,0,0:0:0:0:
192,192,60455,1,0,0:0:0:0:
64,192,60589,1,0,0:0:0:0:
448,192,60589,1,0,0:0:0:0:
448,192,60857,1,0,0:0:0:0:
320,192,60857,1,0,0:0:0:0:
192,192,61124,1,0,0:0:0:0:
64,192,61124,1,0,0:0:0:0:
192,192,61258,1,0,0:0:0:0:
64,192,61258,1,0,0:0:0:0:
448,192,61392,1,0,0:0:0:0:
320,192,61392,1,0,0:0:0:0:
192,192,61526,1,0,0:0:0:0:
64,192,61526,1,0,0:0:0:0:
448,192,61660,1,0,0:0:0:0:
64,192,61660,1,0,0:0:0:0:
192,192,61660,1,0,0:0:0:0:
64,192,61928,1,0,0:0:0:0:
320,192,61928,1,0,0:0:0:0:
192,192,62062,1,0,0:0:0:0:
448,192,62062,1,0,0:0:0:0:
64,192,62195,1,0,0:0:0:0:
320,192,62195,1,0,0:0:0:0:
448,192,62329,1,0,0:0:0:0:
192,192,62329,1,0,0:0:0:0:
320,192,62597,1,0,0:0:0:0:
448,192,62597,1,0,0:0:0:0:
448,192,62731,1,0,0:0:0:0:
320,192,62731,1,0,0:0:0:0:
64,192,62731,1,0,0:0:0:0:
448,192,62999,1,0,0:0:0:0:
64,192,63066,1,0,0:0:0:0:
320,192,63133,1,0,0:0:0:0:
192,192,63200,1,0,0:0:0:0:
448,192,63267,1,0,0:0:0:0:
64,192,63267,1,0,0:0:0:0:
320,192,63333,1,0,0:0:0:0:
448,192,63668,1,0,0:0:0:0:
320,192,63668,1,0,0:0:0:0:
64,192,63802,1,0,0:0:0:0:
448,192,63802,1,0,0:0:0:0:
320,192,63802,1,0,0:0:0:0:
64,192,64070,1,0,0:0:0:0:
192,192,64070,1,0,0:0:0:0:
192,192,64204,1,0,0:0:0:0:
64,192,64204,1,0,0:0:0:0:
320,192,64471,1,0,0:0:0:0:
448,192,64471,1,0,0:0:0:0:
448,192,64605,1,0,0:0:0:0:
320,192,64605,1,0,0:0:0:0:
64,192,64605,1,0,0:0:0:0:
320,192,64739,1,0,0:0:0:0:
64,192,64739,1,0,0:0:0:0:
64,192,64873,1,0,0:0:0:0:
192,192,64873,1,0,0:0:0:0:
320,192,64873,1,0,0:0:0:0:
448,192,65141,1,0,0:0:0:0:
320,192,65208,1,0,0:0:0:0:
64,192,65275,1,0,0:0:0:0:
448,192,65342,1,0,0:0:0:0:
192,192,65409,1,0,0:0:0:0:
320,192,65409,1,0,0:0:0:0:
64,192,65476,1,0,0:0:0:0:
448,192,65542,1,0,0:0:0:0:
320,192,65542,1,0,0:0:0:0:
192,192,65609,1,0,0:0:0:0:
64,192,65609,1,0,0:0:0:0:
320,192,65676,1,0,0:0:0:0:
448,192,65676,1,0,0:0:0:0:
192,192,65810,1,0,0:0:0:0:
64,192,65810,1,0,0:0:0:0:
448,192,65944,1,0,0:0:0:0:
192,192,65944,1,0,0:0:0:0:
64,192,65944,1,0,0:0:0:0:
64,192,66212,1,0,0:0:0:0:
448,192,66212,1,0,0:0:0:0:
448,192,66480,1,0,0:0:0:0:
64,192,66480,1,0,0:0:0:0:
320,192,66547,1,0,0:0:0:0:
64,192,66614,1,0,0:0:0:0:
448,192,66680,1,0,0:0:0:0:
320,192,66747,1,0,0:0:0:0:
64,192,66881,1,0,0:0:0:0:
192,192,66881,1,0,0:0:0:0:
320,192,67015,1,0,0:0:0:0:
448,192,67015,1,0,0:0:0:0:
64,192,67283,1,0,0:0:0:0:
192,192,67350,1,0,0:0:0:0:
448,192,67417,1,0,0:0:0:0:
64,192,67484,1,0,0:0:0:0:
192,192,67551,1,0,0:0:0:0:
320,192,67551,1,0,0:0:0:0:
448,192,67618,1,0,0:0:0:0:
64,192,67952,1,0,0:0:0:0:
192,192,67952,1,0,0:0:0:0:
64,192,68086,1,0,0:0:0:0:
448,192,68086,1,0,0:0:0:0:
320,192,68086,1,0,0:0:0:0:
448,192,68354,1,0,0:0:0:0:
320,192,68387,1,0,0:0:0:0:
64,192,68488,1,0,0:0:0:0:
192,192,68521,1,0,0:0:0:0:
448,192,68756,1,0,0:0:0:0:
320,192,68789,1,0,0:0:0:0:
192,192,68890,1,0,0:0:0:0:
64,192,68890,1,0,0:0:0:0:
320,192,69023,1,0,0:0:0:0:
448,192,69023,1,0,0:0:0:0:
192,192,69157,1,0,0:0:0:0:
64,192,69157,1,0,0:0:0:0:
448,192,69425,1,0,0:0:0:0:
64,192,69492,1,0,0:0:0:0:
320,192,69559,1,0,0:0:0:0:
448,192,69626,1,0,0:0:0:0:
64,192,69693,1,0,0:0:0:0:
192,192,69693,1,0,0:0:0:0:
320,192,69760,1,0,0:0:0:0:
448,192,69827,1,0,0:0:0:0:
64,192,70094,1,0,0:0:0:0:
320,192,70094,1,0,0:0:0:0:
448,192,70228,1,0,0:0:0:0:
320,192,70228,1,0,0:0:0:0:
64,192,70228,1,0,0:0:0:0:
320,192,70362,1,0,0:0:0:0:
448,192,70362,1,0,0:0:0:0:
192,192,70496,1,0,0:0:0:0:
64,192,70496,1,0,0:0:0:0:
320,192,70764,1,0,0:0:0:0:
448,192,70764,1,0,0:0:0:0:
448,192,70898,1,0,0:0:0:0:
320,192,70898,1,0,0:0:0:0:
64,192,71165,1,0,0:0:0:0:
192,192,71165,1,0,0:0:0:0:
64,192,71299,1,0,0:0:0:0:
192,192,71299,1,0,0:0:0:0:
448,192,71299,1,0,0:0:0:0:
64,192,71567,1,0,0:0:0:0:
448,192,71634,1,0,0:0:0:0:
192,192,71701,1,0,0:0:0:0:
320,192,71768,1,0,0:0:0:0:
64,192,71835,1,0,0:0:0:0:
448,192,71835,1,0,0:0:0:0:
192,192,71902,1,0,0:0:0:0:
320,192,71969,1,0,0:0:0:0:
64,192,72237,1,0,0:0:0:0:
192,192,72237,1,0,0:0:0:0:
192,192,72370,1,0,0:0:0:0:
64,192,72370,1,0,0:0:0:0:
448,192,72370,1,0,0:0:0:0:
64,192,72638,1,0,0:0:0:0:
192,192,72672,1,0,0:0:0:0:
448,192,72772,1,0,0:0:0:0:
320,192,72806,1,0,0:0:0:0:
64,192,73040,1,0,0:0:0:0:
192,192,73073,1,0,0:0:0:0:
448,192,73174,1,0,0:0:0:0:
320,192,73174,1,0,0:0:0:0:
192,192,73308,1,0,0:0:0:0:
64,192,73308,1,0,0:0:0:0:
64,192,73441,1,0,0:0:0:0:
192,192,73441,1,0,0:0:0:0:
448,192,73441,1,0,0:0:0:0:
64,192,73709,1,0,0:0:0:0:
448,192,73709,1,0,0:0:0:0:
320,192,73776,1,0,0:0:0:0:
64,192,73843,1,0,0:0:0:0:
448,192,73910,1,0,0:0:0:0:
320,192,73977,1,0,0:0:0:0:
192,192,73977,1,0,0:0:0:0:
64,192,74044,1,0,0:0:0:0:
448,192,74178,1,0,0:0:0:0:
320,192,74178,1,0,0:0:0:0:
192,192,74245,1,0,0:0:0:0:
64,192,74245,1,0,0:0:0:0:
448,192,74379,1,0,0:0:0:0:
320,192,74379,1,0,0:0:0:0:
64,192,74513,1,0,0:0:0:0:
448,192,74513,1,0,0:0:0:0:
320,192,74513,1,0,0:0:0:0:
320,192,74780,1,0,0:0:0:0:
64,192,74780,1,0,0:0:0:0:
64,192,75048,1,0,0:0:0:0:
192,192,75048,1,0,0:0:0:0:
448,192,75115,1,0,0:0:0:0:
192,192,75182,1,0,0:0:0:0:
64,192,75182,1,0,0:0:0:0:
320,192,75249,1,0,0:0:0:0:
448,192,75316,1,0,0:0:0:0:
64,192,75316,1,0,0:0:0:0:
320,192,75450,1,0,0:0:0:0:
192,192,75450,1,0,0:0:0:0:
64,192,75517,1,0,0:0:0:0:
448,192,75517,1,0,0:0:0:0:
320,192,75584,1,0,0:0:0:0:
192,192,75584,1,0,0:0:0:0:
64,192,75851,1,0,0:0:0:0:
448,192,75918,1,0,0:0:0:0:
64,192,75985,1,0,0:0:0:0:
192,192,76052,1,0,0:0:0:0:
320,192,76119,1,0,0:0:0:0:
448,192,76119,1,0,0:0:0:0:
448,192,76521,1,0,0:0:0:0:
320,192,76521,1,0,0:0:0:0:
448,192,76655,1,0,0:0:0:0:
320,192,76655,1,0,0:0:0:0:
64,192,76655,1,0,0:0:0:0:
448,192,76922,1,0,0:0:0:0:
320,192,76956,1,0,0:0:0:0:
64,192,77056,1,0,0:0:0:0:
192,192,77090,1,0,0:0:0:0:
448,192,77190,1,0,0:0:0:0:
64,192,77224,1,0,0:0:0:0:
448,192,77324,1,0,0:0:0:0:
320,192,77357,1,0,0:0:0:0:
192,192,77458,1,0,0:0:0:0:
64,192,77458,1,0,0:0:0:0:
448,192,77592,1,0,0:0:0:0:
320,192,77592,1,0,0:0:0:0:
320,192,77726,1,0,0:0:0:0:
448,192,77726,1,0,0:0:0:0:
64,192,77726,1,0,0:0:0:0:
64,192,77993,1,0,0:0:0:0:
320,192,77993,1,0,0:0:0:0:
448,192,78060,1,0,0:0:0:0:
64,192,78127,1,0,0:0:0:0:
192,192,78194,1,0,0:0:0:0:
320,192,78261,1,0,0:0:0:0:
448,192,78261,1,0,0:0:0:0:
192,192,78395,1,0,0:0:0:0:
64,192,78395,1,0,0:0:0:0:
448,192,78663,1,0,0:0:0:0:
320,192,78663,1,0,0:0:0:0:
192,192,78730,1,0,0:0:0:0:
64,192,78730,1,0,0:0:0:0:
448,192,78797,1,0,0:0:0:0:
320,192,78797,1,0,0:0:0:0:
192,192,78931,1,0,0:0:0:0:
64,192,78931,1,0,0:0:0:0:
64,192,79064,1,0,0:0:0:0:
192,192,79064,1,0,0:0:0:0:
320,192,79198,1,0,0:0:0:0:
448,192,79198,1,0,0:0:0:0:
192,192,79265,1,0,0:0:0:0:
64,192,79265,1,0,0:0:0:0:
448,192,79332,1,0,0:0:0:0:
320,192,79399,1,0,0:0:0:0:
64,192,79466,1,0,0:0:0:0:
192,192,79533,1,0,0:0:0:0:
448,192,79600,1,0,0:0:0:0:
320,192,79667,1,0,0:0:0:0:
64,192,79734,1,0,0:0:0:0:
192,192,79801,1,0,0:0:0:0:
448,192,79868,1,0,0:0:0:0:
320,192,79935,1,0,0:0:0:0:
64,192,80002,1,0,0:0:0:0:
192,192,80069,1,0,0:0:0:0:
320,192,80135,1,0,0:0:0:0:
448,192,80202,1,0,0:0:0:0:
192,192,80269,1,0,0:0:0:0:
320,192,80336,1,0,0:0:0:0:
64,192,80403,1,0,0:0:0:0:
192,192,80470,1,0,0:0:0:0:
448,192,80537,1,0,0:0:0:0:
320,192,80604,1,0,0:0:0:0:
192,192,80671,1,0,0:0:0:0:
448,192,80738,1,0,0:0:0:0:
64,192,80738,1,0,0:0:0:0:
320,192,80805,1,0,0:0:0:0:
64,192,80872,1,0,0:0:0:0:
192,192,80939,1,0,0:0:0:0:
448,192,81006,1,0,0:0:0:0:
64,192,81073,1,0,0:0:0:0:
320,192,81140,1,0,0:0:0:0:
192,192,81207,1,0,0:0:0:0:
448,192,81273,1,0,0:0:0:0:
64,192,81273,1,0,0:0:0:0:
320,192,81340,1,0,0:0:0:0:
192,192,81407,1,0,0:0:0:0:
64,192,81474,1,0,0:0:0:0:
448,192,81541,1,0,0:0:0:0:
320,192,81608,1,0,0:0:0:0:
192,192,81675,1,0,0:0:0:0:
64,192,81742,1,0,0:0:0:0:
320,192,81809,1,0,0:0:0:0:
448,192,81809,1,0,0:0:0:0:
64,192,81876,1,0,0:0:0:0:
192,192,81943,1,0,0:0:0:0:
448,192,82010,1,0,0:0:0:0:
320,192,82077,1,0,0:0:0:0:
64,192,82144,1,0,0:0:0:0:
192,192,82211,1,0,0:0:0:0:
320,192,82278,1,0,0:0:0:0:
64,192,82345,1,0,0:0:0:0:
448,192,82411,1,0,0:0:0:0:
192,192,82478,1,0,0:0:0:0:
320,192,82545,1,0,0:0:0:0:
448,192,82612,1,0,0:0:0:0:
64,192,82612,1,0,0:0:0:0:
320,192,82679,1,0,0:0:0:0:
192,192,82746,1,0,0:0:0:0:
64,192,82813,1,0,0:0:0:0:
192,192,82880,1,0,0:0:0:0:
320,192,82947,1,0,0:0:0:0:
448,192,83014,1,0,0:0:0:0:
320,192,83081,1,0,0:0:0:0:
192,192,83148,1,0,0:0:0:0:
64,192,83148,1,0,0:0:0:0:
448,192,83215,1,0,0:0:0:0:
320,192,83282,1,0,0:0:0:0:
192,192,83349,1,0,0:0:0:0:
448,192,83416,1,0,0:0:0:0:
64,192,83416,1,0,0:0:0:0:
320,192,83483,1,0,0:0:0:0:
192,192,83549,1,0,0:0:0:0:
64,192,83616,1,0,0:0:0:0:
448,192,83683,1,0,0:0:0:0:
320,192,83750,1,0,0:0:0:0:
64,192,83817,1,0,0:0:0:0:
192,192,83884,1,0,0:0:0:0:
320,192,83951,1,0,0:0:0:0:
448,192,84018,1,0,0:0:0:0:
64,192,84085,1,0,0:0:0:0:
192,192,84152,1,0,0:0:0:0:
320,192,84219,1,0,0:0:0:0:
448,192,84286,1,0,0:0:0:0:
64,192,84353,1,0,0:0:0:0:
192,192,84420,1,0,0:0:0:0:
320,192,84487,1,0,0:0:0:0:
448,192,84554,1,0,0:0:0:0:
64,192,84620,1,0,0:0:0:0:
192,192,84687,1,0,0:0:0:0:
448,192,84754,1,0,0:0:0:0:
320,192,84821,1,0,0:0:0:0:
64,192,84888,1,0,0:0:0:0:
192,192,84955,1,0,0:0:0:0:
320,192,85022,1,0,0:0:0:0:
448,192,85022,1,0,0:0:0:0:
64,192,85089,1,0,0:0:0:0:
192,192,85156,1,0,0:0:0:0:
448,192,85223,1,0,0:0:0:0:
320,192,85290,1,0,0:0:0:0:
64,192,85357,1,0,0:0:0:0:
192,192,85424,1,0,0:0:0:0:
448,192,85491,1,0,0:0:0:0:
320,192,85491,1,0,0:0:0:0:
64,192,85558,1,0,0:0:0:0:
320,192,85625,1,0,0:0:0:0:
448,192,85625,1,0,0:0:0:0:
192,192,85692,1,0,0:0:0:0:
64,192,85758,1,0,0:0:0:0:
448,192,85825,1,0,0:0:0:0:
320,192,85892,1,0,0:0:0:0:
64,192,85959,1,0,0:0:0:0:
192,192,86026,1,0,0:0:0:0:
448,192,86093,1,0,0:0:0:0:
64,192,86093,1,0,0:0:0:0:
320,192,86294,1,0,0:0:0:0:
448,192,86294,1,0,0:0:0:0:
192,192,86562,1,0,0:0:0:0:
64,192,86562,1,0,0:0:0:0:
448,192,86830,1,0,0:0:0:0:
320,192,86830,1,0,0:0:0:0:
448,192,86963,1,0,0:0:0:0:
320,192,86963,1,0,0:0:0:0:
64,192,87231,1,0,0:0:0:0:
192,192,87231,1,0,0:0:0:0:
64,192,87365,1,0,0:0:0:0:
192,192,87365,1,0,0:0:0:0:
448,192,87365,1,0,0:0:0:0:
192,192,87499,1,0,0:0:0:0:
448,192,87499,1,0,0:0:0:0:
320,192,87633,1,0,0:0:0:0:
64,192,87633,1,0,0:0:0:0:
448,192,87901,1,0,0:0:0:0:
64,192,87901,1,0,0:0:0:0:
192,192,87968,1,0,0:0:0:0:
320,192,88034,1,0,0:0:0:0:
448,192,88101,1,0,0:0:0:0:
64,192,88168,1,0,0:0:0:0:
192,192,88235,1,0,0:0:0:0:
320,192,88302,1,0,0:0:0:0:
448,192,88369,1,0,0:0:0:0:
64,192,88436,1,0,0:0:0:0:
192,192,88503,1,0,0:0:0:0:
320,192,88570,1,0,0:0:0:0:
448,192,88637,1,0,0:0:0:0:
64,192,88704,1,0,0:0:0:0:
192,192,88771,1,0,0:0:0:0:
320,192,88838,1,0,0:0:0:0:
448,192,88905,1,0,0:0:0:0:
64,192,88972,1,0,0:0:0:0:
192,192,89039,1,0,0:0:0:0:
448,192,89106,1,0,0:0:0:0:
320,192,89172,1,0,0:0:0:0:
64,192,89239,1,0,0:0:0:0:
192,192,89306,1,0,0:0:0:0:
448,192,89373,1,0,0:0:0:0:
320,192,89440,1,0,0:0:0:0:
64,192,89507,1,0,0:0:0:0:
192,192,89574,1,0,0:0:0:0:
448,192,89641,1,0,0:0:0:0:
320,192,89708,1,0,0:0:0:0:
64,192,89775,1,0,0:0:0:0:
192,192,89842,1,0,0:0:0:0:
448,192,89909,1,0,0:0:0:0:
320,192,89976,1,0,0:0:0:0:
64,192,90043,1,0,0:0:0:0:
192,192,90110,1,0,0:0:0:0:
448,192,90177,1,0,0:0:0:0:
320,192,90243,1,0,0:0:0:0:
64,192,90310,1,0,0:0:0:0:
192,192,90377,1,0,0:0:0:0:
448,192,90444,1,0,0:0:0:0:
320,192,90511,1,0,0:0:0:0:
64,192,90578,1,0,0:0:0:0:
192,192,90645,1,0,0:0:0:0:
320,192,90712,1,0,0:0:0:0:
448,192,90779,1,0,0:0:0:0:
64,192,90846,1,0,0:0:0:0:
192,192,90913,1,0,0:0:0:0:
320,192,90980,1,0,0:0:0:0:
448,192,91047,1,0,0:0:0:0:
64,192,91114,1,0,0:0:0:0:
192,192,91181,1,0,0:0:0:0:
320,192,91248,1,0,0:0:0:0:
448,192,91315,1,0,0:0:0:0:
192,192,91381,1,0,0:0:0:0:
64,192,91448,1,0,0:0:0:0:
320,192,91515,1,0,0:0:0:0:
448,192,91582,1,0,0:0:0:0:
192,192,91649,1,0,0:0:0:0:
64,192,91716,1,0,0:0:0:0:
320,192,91783,1,0,0:0:0:0:
448,192,91850,1,0,0:0:0:0:
192,192,91917,1,0,0:0:0:0:
64,192,91984,1,0,0:0:0:0:
320,192,92051,1,0,0:0:0:0:
448,192,92118,1,0,0:0:0:0:
64,192,92185,1,0,0:0:0:0:
192,192,92252,1,0,0:0:0:0:
320,192,92319,1,0,0:0:0:0:
448,192,92386,1,0,0:0:0:0:
64,192,92453,1,0,0:0:0:0:
192,192,92519,1,0,0:0:0:0:
320,192,92586,1,0,0:0:0:0:
448,192,92653,1,0,0:0:0:0:
64,192,92720,1,0,0:0:0:0:
192,192,92787,1,0,0:0:0:0:
320,192,92854,1,0,0:0:0:0:
448,192,92921,1,0,0:0:0:0:
192,192,92988,1,0,0:0:0:0:
64,192,93055,1,0,0:0:0:0:
320,192,93122,1,0,0:0:0:0:
448,192,93189,1,0,0:0:0:0:
192,192,93256,1,0,0:0:0:0:
64,192,93323,1,0,0:0:0:0:
320,192,93390,1,0,0:0:0:0:
448,192,93457,1,0,0:0:0:0:
192,192,93524,1,0,0:0:0:0:
320,192,93591,1,0,0:0:0:0:
448,192,93657,1,0,0:0:0:0:
64,192,93724,1,0,0:0:0:0:
192,192,93791,1,0,0:0:0:0:
320,192,93858,1,0,0:0:0:0:
448,192,93925,1,0,0:0:0:0:
64,192,93992,1,0,0:0:0:0:
192,192,94059,1,0,0:0:0:0:
320,192,94126,1,0,0:0:0:0:
448,192,94193,1,0,0:0:0:0:
64,192,94260,1,0,0:0:0:0:
192,192,94327,1,0,0:0:0:0:
320,192,94394,1,0,0:0:0:0:
448,192,94461,1,0,0:0:0:0:
64,192,94528,1,0,0:0:0:0:
448,192,94595,1,0,0:0:0:0:
320,192,94595,1,0,0:0:0:0:
192,192,94728,1,0,0:0:0:0:
64,192,94728,1,0,0:0:0:0:
320,192,94862,1,0,0:0:0:0:
448,192,94862,1,0,0:0:0:0:
320,192,95130,1,0,0:0:0:0:
448,192,95130,1,0,0:0:0:0:
192,192,95197,1,0,0:0:0:0:
64,192,95264,1,0,0:0:0:0:
448,192,95331,1,0,0:0:0:0:
192,192,95398,1,0,0:0:0:0:
320,192,95398,1,0,0:0:0:0:
64,192,95465,1,0,0:0:0:0:
320,192,95532,1,0,0:0:0:0:
448,192,95532,1,0,0:0:0:0:
192,192,95800,1,0,0:0:0:0:
64,192,95800,1,0,0:0:0:0:
64,192,95933,1,0,0:0:0:0:
192,192,95933,1,0,0:0:0:0:
448,192,95933,1,0,0:0:0:0:
448,192,96067,1,0,0:0:0:0:
320,192,96067,1,0,0:0:0:0:
192,192,96201,1,0,0:0:0:0:
64,192,96201,1,0,0:0:0:0:
320,192,96469,1,0,0:0:0:0:
448,192,96469,1,0,0:0:0:0:
64,192,96536,1,0,0:0:0:0:
192,192,96603,1,0,0:0:0:0:
448,192,96670,1,0,0:0:0:0:
320,192,96737,1,0,0:0:0:0:
64,192,96804,1,0,0:0:0:0:
192,192,96871,1,0,0:0:0:0:
448,192,96938,1,0,0:0:0:0:
320,192,97004,1,0,0:0:0:0:
64,192,97071,1,0,0:0:0:0:
192,192,97138,1,0,0:0:0:0:
448,192,97205,1,0,0:0:0:0:
320,192,97272,1,0,0:0:0:0:
64,192,97339,1,0,0:0:0:0:
192,192,97406,1,0,0:0:0:0:
448,192,97473,1,0,0:0:0:0:
192,192,97540,1,0,0:0:0:0:
320,192,97540,1,0,0:0:0:0:
64,192,97607,1,0,0:0:0:0:
448,192,97674,1,0,0:0:0:0:
320,192,97741,1,0,0:0:0:0:
192,192,97808,1,0,0:0:0:0:
64,192,97875,1,0,0:0:0:0:
320,192,97875,1,0,0:0:0:0:
448,192,97942,1,0,0:0:0:0:
64,192,98009,1,0,0:0:0:0:
192,192,98076,1,0,0:0:0:0:
320,192,98142,1,0,0:0:0:0:
448,192,98209,1,0,0:0:0:0:
64,192,98276,1,0,0:0:0:0:
192,192,98343,1,0,0:0:0:0:
448,192,98410,1,0,0:0:0:0:
320,192,98410,1,0,0:0:0:0:
64,192,98477,1,0,0:0:0:0:
192,192,98544,1,0,0:0:0:0:
320,192,98611,1,0,0:0:0:0:
448,192,98678,1,0,0:0:0:0:
64,192,98745,1,0,0:0:0:0:
192,192,98812,1,0,0:0:0:0:
320,192,98879,1,0,0:0:0:0:
448,192,98946,1,0,0:0:0:0:
64,192,98946,1,0,0:0:0:0:
192,192,99013,1,0,0:0:0:0:
320,192,99080,1,0,0:0:0:0:
448,192,99147,1,0,0:0:0:0:
192,192,99214,1,0,0:0:0:0:
64,192,99280,1,0,0:0:0:0:
320,192,99347,1,0,0:0:0:0:
448,192,99414,1,0,0:0:0:0:
192,192,99481,1,0,0:0:0:0:
64,192,99548,1,0,0:0:0:0:
320,192,99615,1,0,0:0:0:0:
448,192,99682,1,0,0:0:0:0:
64,192,99682,1,0,0:0:0:0:
192,192,99749,1,0,0:0:0:0:
448,192,99816,1,0,0:0:0:0:
320,192,99883,1,0,0:0:0:0:
64,192,99950,1,0,0:0:0:0:
192,192,100017,1,0,0:0:0:0:
448,192,100084,1,0,0:0:0:0:
320,192,100151,1,0,0:0:0:0:
192,192,100218,1,0,0:0:0:0:
64,192,100218,1,0,0:0:0:0:
448,192,100285,1,0,0:0:0:0:
64,192,100351,1,0,0:0:0:0:
192,192,100418,1,0,0:0:0:0:
320,192,100485,1,0,0:0:0:0:
448,192,100485,1,0,0:0:0:0:
64,192,100552,1,0,0:0:0:0:
192,192,100619,1,0,0:0:0:0:
320,192,100686,1,0,0:0:0:0:
448,192,100753,1,0,0:0:0:0:
64,192,100820,1,0,0:0:0:0:
192,192,100887,1,0,0:0:0:0:
320,192,100954,1,0,0:0:0:0:
448,192,101021,1,0,0:0:0:0:
320,192,101088,1,0,0:0:0:0:
192,192,101155,1,0,0:0:0:0:
64,192,101222,1,0,0:0:0:0:
192,192,101289,1,0,0:0:0:0:
320,192,101356,1,0,0:0:0:0:
448,192,101423,1,0,0:0:0:0:
320,192,101489,1,0,0:0:0:0:
192,192,101556,1,0,0:0:0:0:
64,192,101623,1,0,0:0:0:0:
448,192,101690,1,0,0:0:0:0:
320,192,101757,1,0,0:0:0:0:
64,192,101824,1,0,0:0:0:0:
192,192,101891,1,0,0:0:0:0:
320,192,101958,1,0,0:0:0:0:
448,192,102025,1,0,0:0:0:0:
64,192,102092,1,0,0:0:0:0:
320,192,102159,1,0,0:0:0:0:
192,192,102159,1,0,0:0:0:0:
448,192,102226,1,0,0:0:0:0:
64,192,102293,1,0,0:0:0:0:
192,192,102360,1,0,0:0:0:0:
320,192,102427,1,0,0:0:0:0:
448,192,102494,1,0,0:0:0:0:
64,192,102561,1,0,0:0:0:0:
320,192,102627,1,0,0:0:0:0:
448,192,102627,1,0,0:0:0:0:
64,192,102694,1,0,0:0:0:0:
320,192,102761,1,0,0:0:0:0:
448,192,102761,1,0,0:0:0:0:
192,192,102828,1,0,0:0:0:0:
64,192,102895,1,0,0:0:0:0:
448,192,102962,1,0,0:0:0:0:
320,192,103029,1,0,0:0:0:0:
192,192,103096,1,0,0:0:0:0:
64,192,103163,1,0,0:0:0:0:
320,192,103230,1,0,0:0:0:0:
448,192,103230,1,0,0:0:0:0:
64,192,103431,1,0,0:0:0:0:
192,192,103431,1,0,0:0:0:0:
448,192,103699,1,0,0:0:0:0:
320,192,103699,1,0,0:0:0:0:
64,192,103765,1,0,0:0:0:0:
192,192,103832,1,0,0:0:0:0:
320,192,103899,1,0,0:0:0:0:
448,192,103966,1,0,0:0:0:0:
64,192,103966,1,0,0:0:0:0:
192,192,104033,1,0,0:0:0:0:
320,192,104100,1,0,0:0:0:0:
448,192,104100,1,0,0:0:0:0:
64,192,104368,1,0,0:0:0:0:
192,192,104368,1,0,0:0:0:0:
320,192,104502,1,0,0:0:0:0:
448,192,104502,1,0,0:0:0:0:
192,192,104636,1,0,0:0:0:0:
64,192,104636,1,0,0:0:0:0:
320,192,104770,1,0,0:0:0:0:
448,192,104770,1,0,0:0:0:0:
64,192,105037,1,0,0:0:0:0:
448,192,105037,1,0,0:0:0:0:
320,192,105104,1,0,0:0:0:0:
64,192,105171,1,0,0:0:0:0:
192,192,105238,1,0,0:0:0:0:
448,192,105305,1,0,0:0:0:0:
320,192,105372,1,0,0:0:0:0:
64,192,105439,1,0,0:0:0:0:
192,192,105506,1,0,0:0:0:0:
448,192,105573,1,0,0:0:0:0:
320,192,105640,1,0,0:0:0:0:
64,192,105707,1,0,0:0:0:0:
192,192,105774,1,0,0:0:0:0:
448,192,105841,1,0,0:0:0:0:
320,192,105908,1,0,0:0:0:0:
64,192,105974,1,0,0:0:0:0:
192,192,106041,1,0,0:0:0:0:
448,192,106108,1,0,0:0:0:0:
320,192,106108,1,0,0:0:0:0:
192,192,106175,1,0,0:0:0:0:
64,192,106242,1,0,0:0:0:0:
448,192,106309,1,0,0:0:0:0:
320,192,106376,1,0,0:0:0:0:
192,192,106443,1,0,0:0:0:0:
64,192,106510,1,0,0:0:0:0:
448,192,106577,1,0,0:0:0:0:
320,192,106644,1,0,0:0:0:0:
192,192,106711,1,0,0:0:0:0:
64,192,106778,1,0,0:0:0:0:
448,192,106845,1,0,0:0:0:0:
320,192,106912,1,0,0:0:0:0:
192,192,106979,1,0,0:0:0:0:
64,192,107046,1,0,0:0:0:0:
448,192,107112,1,0,0:0:0:0:
320,192,107179,1,0,0:0:0:0:
192,192,107246,1,0,0:0:0:0:
64,192,107313,1,0,0:0:0:0:
448,192,107380,1,0,0:0:0:0:
320,192,107447,1,0,0:0:0:0:
192,192,107514,1,0,0:0:0:0:
64,192,107581,1,0,0:0:0:0:
448,192,107648,1,0,0:0:0:0:
320,192,107715,1,0,0:0:0:0:
192,192,107715,1,0,0:0:0:0:
64,192,107782,1,0,0:0:0:0:
320,192,107849,1,0,0:0:0:0:
448,192,107916,1,0,0:0:0:0:
192,192,107983,1,0,0:0:0:0:
64,192,108050,1,0,0:0:0:0:
320,192,108117,1,0,0:0:0:0:
448,192,108184,1,0,0:0:0:0:
192,192,108250,1,0,0:0:0:0:
64,192,108317,1,0,0:0:0:0:
320,192,108384,1,0,0:0:0:0:
448,192,108451,1,0,0:0:0:0:
192,192,108518,1,0,0:0:0:0:
64,192,108585,1,0,0:0:0:0:
320,192,108652,1,0,0:0:0:0:
448,192,108719,1,0,0:0:0:0:
192,192,108786,1,0,0:0:0:0:
64,192,108853,1,0,0:0:0:0:
448,192,108920,1,0,0:0:0:0:
320,192,108987,1,0,0:0:0:0:
64,192,109054,1,0,0:0:0:0:
192,192,109121,1,0,0:0:0:0:
448,192,109188,1,0,0:0:0:0:
320,192,109255,1,0,0:0:0:0:
64,192,109321,1,0,0:0:0:0:
192,192,109388,1,0,0:0:0:0:
320,192,109455,1,0,0:0:0:0:
448,192,109522,1,0,0:0:0:0:
64,192,109589,1,0,0:0:0:0:
192,192,109656,1,0,0:0:0:0:
320,192,109723,1,0,0:0:0:0:
448,192,109790,1,0,0:0:0:0:
64,192,109857,1,0,0:0:0:0:
192,192,109924,1,0,0:0:0:0:
320,192,109991,1,0,0:0:0:0:
448,192,110058,1,0,0:0:0:0:
64,192,110125,1,0,0:0:0:0:
192,192,110192,1,0,0:0:0:0:
320,192,110259,1,0,0:0:0:0:
64,192,110326,1,0,0:0:0:0:
192,192,110393,1,0,0:0:0:0:
320,192,110459,1,0,0:0:0:0:
448,192,110459,1,0,0:0:0:0:
64,192,110526,1,0,0:0:0:0:
192,192,110593,1,0,0:0:0:0:
320,192,110660,1,0,0:0:0:0:
448,192,110727,1,0,0:0:0:0:
64,192,110794,1,0,0:0:0:0:
192,192,110861,1,0,0:0:0:0:
320,192,110928,1,0,0:0:0:0:
448,192,110995,1,0,0:0:0:0:
64,192,110995,1,0,0:0:0:0:
192,192,111062,1,0,0:0:0:0:
320,192,111129,1,0,0:0:0:0:
448,192,111196,1,0,0:0:0:0:
192,192,111263,1,0,0:0:0:0:
64,192,111263,1,0,0:0:0:0:
320,192,111330,1,0,0:0:0:0:
448,192,111397,1,0,0:0:0:0:
64,192,111397,1,0,0:0:0:0:
320,192,111464,1,0,0:0:0:0:
192,192,111531,1,0,0:0:0:0:
64,192,111597,1,0,0:0:0:0:
448,192,111731,1,0,0:0:0:0:
320,192,111731,1,0,0:0:0:0:
448,192,111865,1,0,0:0:0:0:
320,192,111865,1,0,0:0:0:0:
64,192,111999,1,0,0:0:0:0:
192,192,111999,1,0,0:0:0:0:
448,192,112267,1,0,0:0:0:0:
320,192,112267,1,0,0:0:0:0:
320,192,112535,1,0,0:0:0:0:
448,192,112535,1,0,0:0:0:0:
320,192,112669,1,0,0:0:0:0:
448,192,112669,1,0,0:0:0:0:
192,192,112936,1,0,0:0:0:0:
64,192,112936,1,0,0:0:0:0:
64,192,113070,1,0,0:0:0:0:
192,192,113070,1,0,0:0:0:0:
448,192,113070,1,0,0:0:0:0:
448,192,113204,1,0,0:0:0:0:
320,192,113204,1,0,0:0:0:0:
192,192,113338,1,0,0:0:0:0:
64,192,113338,1,0,0:0:0:0:
448,192,113606,1,0,0:0:0:0:
320,192,113606,1,0,0:0:0:0:
64,192,113673,1,0,0:0:0:0:
192,192,113740,1,0,0:0:0:0:
320,192,113807,1,0,0:0:0:0:
448,192,113873,1,0,0:0:0:0:
64,192,113940,1,0,0:0:0:0:
192,192,114007,1,0,0:0:0:0:
320,192,114074,1,0,0:0:0:0:
448,192,114141,1,0,0:0:0:0:
64,192,114208,1,0,0:0:0:0:
192,192,114275,1,0,0:0:0:0:
320,192,114342,1,0,0:0:0:0:
448,192,114409,1,0,0:0:0:0:
64,192,114476,1,0,0:0:0:0:
192,192,114543,1,0,0:0:0:0:
320,192,114610,1,0,0:0:0:0:
448,192,114677,1,0,0:0:0:0:
320,192,114744,1,0,0:0:0:0:
64,192,114811,1,0,0:0:0:0:
192,192,114878,1,0,0:0:0:0:
448,192,114944,1,0,0:0:0:0:
320,192,115011,1,0,0:0:0:0:
64,192,115078,1,0,0:0:0:0:
192,192,115145,1,0,0:0:0:0:
448,192,115212,1,0,0:0:0:0:
320,192,115279,1,0,0:0:0:0:
64,192,115346,1,0,0:0:0:0:
192,192,115413,1,0,0:0:0:0:
320,192,115480,1,0,0:0:0:0:
448,192,115480,1,0,0:0:0:0:
192,192,115614,1,0,0:0:0:0:
64,192,115614,1,0,0:0:0:0:
320,192,115882,1,0,0:0:0:0:
448,192,115882,1,0,0:0:0:0:
64,192,116016,1,0,0:0:0:0:
192,192,116016,1,0,0:0:0:0:
320,192,116149,1,0,0:0:0:0:
448,192,116149,1,0,0:0:0:0:
64,192,116283,1,0,0:0:0:0:
448,192,116283,1,0,0:0:0:0:
320,192,116283,1,0,0:0:0:0:
192,192,116551,1,0,0:0:0:0:
448,192,116551,1,0,0:0:0:0:
448,192,116819,1,0,0:0:0:0:
320,192,116819,1,0,0:0:0:0:
192,192,116953,1,0,0:0:0:0:
64,192,116953,1,0,0:0:0:0:
320,192,117020,1,0,0:0:0:0:
448,192,117020,1,0,0:0:0:0:
192,192,117087,1,0,0:0:0:0:
64,192,117087,1,0,0:0:0:0:
448,192,117220,1,0,0:0:0:0:
320,192,117220,1,0,0:0:0:0:
64,192,117354,1,0,0:0:0:0:
192,192,117354,1,0,0:0:0:0:
320,192,117421,1,0,0:0:0:0:
448,192,117488,1,0,0:0:0:0:
64,192,117555,1,0,0:0:0:0:
192,192,117622,1,0,0:0:0:0:
448,192,117689,1,0,0:0:0:0:
320,192,117756,1,0,0:0:0:0:
192,192,117823,1,0,0:0:0:0:
64,192,117890,1,0,0:0:0:0:
320,192,117957,1,0,0:0:0:0:
448,192,118024,1,0,0:0:0:0:
192,192,118091,1,0,0:0:0:0:
64,192,118158,1,0,0:0:0:0:
320,192,118225,1,0,0:0:0:0:
448,192,118292,1,0,0:0:0:0:
192,192,118358,1,0,0:0:0:0:
64,192,118425,1,0,0:0:0:0:
320,192,118492,1,0,0:0:0:0:
448,192,118559,1,0,0:0:0:0:
192,192,118626,1,0,0:0:0:0:
64,192,118693,1,0,0:0:0:0:
320,192,118760,1,0,0:0:0:0:
448,192,118827,1,0,0:0:0:0:
192,192,118894,1,0,0:0:0:0:
64,192,118961,1,0,0:0:0:0:
448,192,119028,1,0,0:0:0:0:
320,192,119095,1,0,0:0:0:0:
192,192,119162,1,0,0:0:0:0:
64,192,119229,1,0,0:0:0:0:
448,192,119296,1,0,0:0:0:0:
320,192,119363,1,0,0:0:0:0:
192,192,119429,1,0,0:0:0:0:
64,192,119496,1,0,0:0:0:0:
448,192,119563,1,0,0:0:0:0:
320,192,119630,1,0,0:0:0:0:
192,192,119697,1,0,0:0:0:0:
64,192,119764,1,0,0:0:0:0:
448,192,119764,1,0,0:0:0:0:
320,192,119898,1,0,0:0:0:0:
192,192,119898,1,0,0:0:0:0:
320,192,120166,1,0,0:0:0:0:
192,192,120166,1,0,0:0:0:0:
64,192,120300,1,0,0:0:0:0:
448,192,120300,1,0,0:0:0:0:
320,192,120434,1,0,0:0:0:0:
192,192,120434,1,0,0:0:0:0:
64,192,120567,1,0,0:0:0:0:
448,192,120567,1,0,0:0:0:0:
192,192,120835,1,0,0:0:0:0:
64,192,120835,1,0,0:0:0:0:
320,192,121103,1,0,0:0:0:0:
448,192,121103,1,0,0:0:0:0:
192,192,121170,1,0,0:0:0:0:
64,192,121170,1,0,0:0:0:0:
320,192,121237,1,0,0:0:0:0:
448,192,121237,1,0,0:0:0:0:
192,192,121304,1,0,0:0:0:0:
64,192,121304,1,0,0:0:0:0:
192,192,121505,1,0,0:0:0:0:
64,192,121505,1,0,0:0:0:0:
448,192,121572,1,0,0:0:0:0:
320,192,121572,1,0,0:0:0:0:
192,192,121639,1,0,0:0:0:0:
64,192,121639,1,0,0:0:0:0:
64,192,121705,1,0,0:0:0:0:
192,192,121705,1,0,0:0:0:0:
448,192,121772,1,0,0:0:0:0:
320,192,121772,1,0,0:0:0:0:
64,192,121839,1,0,0:0:0:0:
192,192,121906,1,0,0:0:0:0:
448,192,122174,1,0,0:0:0:0:
64,192,122174,1,0,0:0:0:0:
320,192,122241,1,0,0:0:0:0:
192,192,122308,1,0,0:0:0:0:
64,192,122375,1,0,0:0:0:0:
448,192,122442,1,0,0:0:0:0:
320,192,122509,1,0,0:0:0:0:
192,192,122576,1,0,0:0:0:0:
64,192,122643,1,0,0:0:0:0:
448,192,122710,1,0,0:0:0:0:
320,192,122777,1,0,0:0:0:0:
192,192,122843,1,0,0:0:0:0:
64,192,122910,1,0,0:0:0:0:
448,192,122977,1,0,0:0:0:0:
320,192,123044,1,0,0:0:0:0:
192,192,123111,1,0,0:0:0:0:
64,192,123178,1,0,0:0:0:0:
448,192,123245,1,0,0:0:0:0:
320,192,123312,1,0,0:0:0:0:
192,192,123379,1,0,0:0:0:0:
64,192,123446,1,0,0:0:0:0:
448,192,123513,1,0,0:0:0:0:
320,192,123580,1,0,0:0:0:0:
64,192,123647,1,0,0:0:0:0:
192,192,123714,1,0,0:0:0:0:
448,192,123781,1,0,0:0:0:0:
320,192,123848,1,0,0:0:0:0:
64,192,123915,1,0,0:0:0:0:
192,192,123981,1,0,0:0:0:0:
448,192,124048,1,0,0:0:0:0:
320,192,124048,1,0,0:0:0:0:
192,192,124115,1,0,0:0:0:0:
64,192,124115,1,0,0:0:0:0:
320,192,124182,1,0,0:0:0:0:
448,192,124182,1,0,0:0:0:0:
192,192,124249,1,0,0:0:0:0:
64,192,124249,1,0,0:0:0:0:
448,192,124450,1,0,0:0:0:0:
192,192,124450,1,0,0:0:0:0:
64,192,124584,1,0,0:0:0:0:
192,192,124584,1,0,0:0:0:0:
320,192,124651,1,0,0:0:0:0:
448,192,124651,1,0,0:0:0:0:
192,192,124718,1,0,0:0:0:0:
64,192,124718,1,0,0:0:0:0:
448,192,124852,1,0,0:0:0:0:
320,192,124852,1,0,0:0:0:0:
448,192,124919,1,0,0:0:0:0:
320,192,124919,1,0,0:0:0:0:
192,192,125119,1,0,0:0:0:0:
448,192,125119,1,0,0:0:0:0:
64,192,125253,1,0,0:0:0:0:
320,192,125253,1,0,0:0:0:0:
192,192,125387,1,0,0:0:0:0:
448,192,125387,1,0,0:0:0:0:
320,192,125521,1,0,0:0:0:0:
64,192,125521,1,0,0:0:0:0:
448,192,125655,1,0,0:0:0:0:
320,192,125722,1,0,0:0:0:0:
64,192,125789,1,0,0:0:0:0:
192,192,125856,1,0,0:0:0:0:
448,192,125923,1,0,0:0:0:0:
64,192,125990,1,0,0:0:0:0:
192,192,126057,1,0,0:0:0:0:
448,192,126190,1,0,0:0:0:0:
320,192,126257,1,0,0:0:0:0:
64,192,126324,1,0,0:0:0:0:
192,192,126391,1,0,0:0:0:0:
320,192,126458,1,0,0:0:0:0:
448,192,126458,1,0,0:0:0:0:
192,192,126592,1,0,0:0:0:0:
64,192,126592,1,0,0:0:0:0:
448,192,126860,1,0,0:0:0:0:
192,192,126860,1,0,0:0:0:0:
320,192,126994,1,0,0:0:0:0:
64,192,126994,1,0,0:0:0:0:
320,192,127262,1,0,0:0:0:0:
64,192,127262,1,0,0:0:0:0:
64,192,127529,1,0,0:0:0:0:
320,192,127529,1,0,0:0:0:0:
448,192,127529,1,0,0:0:0:0:
448,192,127931,1,0,0:0:0:0:
192,192,127931,1,0,0:0:0:0:
448,192,128065,1,0,0:0:0:0:
192,192,128065,1,0,0:0:0:0:
64,192,128065,1,0,0:0:0:0:
64,192,128333,1,0,0:0:0:0:
192,192,128366,1,0,0:0:0:0:
448,192,128466,1,0,0:0:0:0:
320,192,128500,1,0,0:0:0:0:
64,192,128734,1,0,0:0:0:0:
192,192,128734,1,0,0:0:0:0:
448,192,128868,1,0,0:0:0:0:
320,192,128868,1,0,0:0:0:0:
64,192,129002,1,0,0:0:0:0:
192,192,129035,1,0,0:0:0:0:
448,192,129136,1,0,0:0:0:0:
320,192,129136,1,0,0:0:0:0:
192,192,129169,1,0,0:0:0:0:
448,192,129404,1,0,0:0:0:0:
320,192,129404,1,0,0:0:0:0:
64,192,129671,1,0,0:0:0:0:
192,192,129671,1,0,0:0:0:0:
320,192,129671,1,0,0:0:0:0:
