osu file format v14

[General]
AudioFilename: Lucky Star.mp3
AudioLeadIn: 0
PreviewTime: 70910
Countdown: 0
SampleSet: None
StackLeniency: 0.7
Mode: 3
LetterboxInBreaks: 0
SpecialStyle: 0
WidescreenStoryboard: 1

[Editor]
DistanceSpacing: 1
BeatDivisor: 8
GridSize: 16
TimelineZoom: 2.799999

[Metadata]
Title:4k Beginner Pack
TitleUnicode:4k Beginner Pack
Artist:Various Artists
ArtistUnicode:Various Artists
Creator:Yupyapyipyep
Version:Avizura - Lucky Star
Source:
Tags:
BeatmapID:2914129
BeatmapSetID:668952

[Difficulty]
HPDrainRate:5
CircleSize:4
OverallDifficulty:5
ApproachRate:5
SliderMultiplier:1.4
SliderTickRate:1

[Events]
//Background and Video events
0,0,"luckystar-bg.jpg",0,0
//Break Periods
//Storyboard Layer 0 (Background)
//Storyboard Layer 1 (Fail)
//Storyboard Layer 2 (Pass)
//Storyboard Layer 3 (Foreground)
//Storyboard Layer 4 (Overlay)
//Storyboard Sound Samples

[TimingPoints]
282,342.857142857143,4,2,0,100,1,0

[HitObjects]
192,192,5767,5,0,0:0:0:0:
448,192,5767,1,0,0:0:0:0:
64,192,7139,1,0,0:0:0:0:
192,192,8510,1,0,0:0:0:0:
320,192,8510,1,0,0:0:0:0:
64,192,9882,1,0,0:0:0:0:
448,192,9882,1,0,0:0:0:0:
320,192,11253,1,0,0:0:0:0:
448,192,11253,1,0,0:0:0:0:
64,192,13996,1,0,0:0:0:0:
192,192,13996,1,0,0:0:0:0:
64,192,16739,1,0,0:0:0:0:
448,192,16739,1,0,0:0:0:0:
320,192,18110,1,0,0:0:0:0:
192,192,19482,1,0,0:0:0:0:
64,192,19482,1,0,0:0:0:0:
320,192,20853,1,0,0:0:0:0:
448,192,20853,1,0,0:0:0:0:
64,192,22224,1,0,0:0:0:0:
320,192,22224,1,0,0:0:0:0:
192,192,24967,1,0,0:0:0:0:
448,192,24967,1,0,0:0:0:0:
448,192,27710,1,0,0:0:0:0:
64,192,27882,1,0,0:0:0:0:
320,192,28053,1,0,0:0:0:0:
448,192,28053,1,0,0:0:0:0:
64,192,28224,1,0,0:0:0:0:
448,192,28310,1,0,0:0:0:0:
64,192,28396,1,0,0:0:0:0:
448,192,28482,1,0,0:0:0:0:
64,192,28567,1,0,0:0:0:0:
320,192,28739,1,0,0:0:0:0:
448,192,28739,1,0,0:0:0:0:
64,192,28910,1,0,0:0:0:0:
192,192,28996,1,0,0:0:0:0:
320,192,29082,1,0,0:0:0:0:
448,192,29253,1,0,0:0:0:0:
192,192,29424,1,0,0:0:0:0:
64,192,29424,1,0,0:0:0:0:
448,192,29596,1,0,0:0:0:0:
64,192,29682,1,0,0:0:0:0:
448,192,29767,1,0,0:0:0:0:
64,192,29853,1,0,0:0:0:0:
448,192,29939,1,0,0:0:0:0:
192,192,30110,1,0,0:0:0:0:
64,192,30110,1,0,0:0:0:0:
448,192,30282,1,0,0:0:0:0:
320,192,30367,1,0,0:0:0:0:
192,192,30453,1,0,0:0:0:0:
64,192,30624,1,0,0:0:0:0:
320,192,30796,1,0,0:0:0:0:
448,192,30796,1,0,0:0:0:0:
64,192,30967,1,0,0:0:0:0:
192,192,31053,1,0,0:0:0:0:
320,192,31139,1,0,0:0:0:0:
448,192,31224,1,0,0:0:0:0:
64,192,31310,1,0,0:0:0:0:
448,192,31482,1,0,0:0:0:0:
320,192,31482,1,0,0:0:0:0:
64,192,31653,1,0,0:0:0:0:
192,192,31739,1,0,0:0:0:0:
320,192,31824,1,0,0:0:0:0:
448,192,31996,1,0,0:0:0:0:
192,192,32167,1,0,0:0:0:0:
64,192,32167,1,0,0:0:0:0:
448,192,32339,1,0,0:0:0:0:
320,192,32424,1,0,0:0:0:0:
192,192,32510,1,0,0:0:0:0:
64,192,32596,1,0,0:0:0:0:
448,192,32682,1,0,0:0:0:0:
192,192,32853,1,0,0:0:0:0:
64,192,32853,1,0,0:0:0:0:
448,192,33024,1,0,0:0:0:0:
320,192,33110,1,0,0:0:0:0:
192,192,33196,1,0,0:0:0:0:
64,192,33367,1,0,0:0:0:0:
320,192,33539,1,0,0:0:0:0:
448,192,33539,1,0,0:0:0:0:
64,192,33710,1,0,0:0:0:0:
448,192,33796,1,0,0:0:0:0:
64,192,33882,1,0,0:0:0:0:
448,192,33967,1,0,0:0:0:0:
64,192,34053,1,0,0:0:0:0:
320,192,34224,1,0,0:0:0:0:
448,192,34224,1,0,0:0:0:0:
64,192,34396,1,0,0:0:0:0:
192,192,34482,1,0,0:0:0:0:
320,192,34567,1,0,0:0:0:0:
448,192,34739,1,0,0:0:0:0:
192,192,34910,1,0,0:0:0:0:
64,192,34910,1,0,0:0:0:0:
448,192,35082,1,0,0:0:0:0:
64,192,35167,1,0,0:0:0:0:
448,192,35253,1,0,0:0:0:0:
64,192,35339,1,0,0:0:0:0:
448,192,35424,1,0,0:0:0:0:
192,192,35596,1,0,0:0:0:0:
64,192,35596,1,0,0:0:0:0:
448,192,35767,1,0,0:0:0:0:
320,192,35853,1,0,0:0:0:0:
192,192,35939,1,0,0:0:0:0:
64,192,36110,1,0,0:0:0:0:
320,192,36282,1,0,0:0:0:0:
448,192,36282,1,0,0:0:0:0:
64,192,36453,1,0,0:0:0:0:
192,192,36539,1,0,0:0:0:0:
320,192,36624,1,0,0:0:0:0:
448,192,36710,1,0,0:0:0:0:
64,192,36796,1,0,0:0:0:0:
320,192,36967,1,0,0:0:0:0:
448,192,36967,1,0,0:0:0:0:
64,192,37139,1,0,0:0:0:0:
192,192,37224,1,0,0:0:0:0:
320,192,37310,1,0,0:0:0:0:
448,192,37482,1,0,0:0:0:0:
192,192,37653,1,0,0:0:0:0:
64,192,37653,1,0,0:0:0:0:
448,192,37824,1,0,0:0:0:0:
320,192,37910,1,0,0:0:0:0:
192,192,37996,1,0,0:0:0:0:
64,192,38082,1,0,0:0:0:0:
448,192,38167,1,0,0:0:0:0:
192,192,38339,1,0,0:0:0:0:
64,192,38339,1,0,0:0:0:0:
448,192,38510,1,0,0:0:0:0:
320,192,38596,1,0,0:0:0:0:
192,192,38682,1,0,0:0:0:0:
64,192,38853,1,0,0:0:0:0:
320,192,39024,1,0,0:0:0:0:
448,192,39024,1,0,0:0:0:0:
64,192,39196,1,0,0:0:0:0:
448,192,39282,1,0,0:0:0:0:
64,192,39367,1,0,0:0:0:0:
448,192,39453,1,0,0:0:0:0:
64,192,39539,1,0,0:0:0:0:
320,192,39710,1,0,0:0:0:0:
448,192,39710,1,0,0:0:0:0:
64,192,39882,1,0,0:0:0:0:
192,192,39967,1,0,0:0:0:0:
320,192,40053,1,0,0:0:0:0:
448,192,40224,1,0,0:0:0:0:
64,192,40396,1,0,0:0:0:0:
192,192,40396,1,0,0:0:0:0:
448,192,40567,1,0,0:0:0:0:
64,192,40653,1,0,0:0:0:0:
448,192,40739,1,0,0:0:0:0:
64,192,40824,1,0,0:0:0:0:
448,192,40910,1,0,0:0:0:0:
192,192,41082,1,0,0:0:0:0:
64,192,41082,1,0,0:0:0:0:
448,192,41253,1,0,0:0:0:0:
320,192,41339,1,0,0:0:0:0:
192,192,41424,1,0,0:0:0:0:
64,192,41596,1,0,0:0:0:0:
320,192,41767,1,0,0:0:0:0:
448,192,41767,1,0,0:0:0:0:
64,192,41939,1,0,0:0:0:0:
192,192,42024,1,0,0:0:0:0:
320,192,42110,1,0,0:0:0:0:
448,192,42196,1,0,0:0:0:0:
64,192,42282,1,0,0:0:0:0:
320,192,42453,1,0,0:0:0:0:
448,192,42453,1,0,0:0:0:0:
64,192,42624,1,0,0:0:0:0:
192,192,42710,1,0,0:0:0:0:
320,192,42796,1,0,0:0:0:0:
448,192,42967,1,0,0:0:0:0:
192,192,43139,1,0,0:0:0:0:
64,192,43139,1,0,0:0:0:0:
448,192,43310,1,0,0:0:0:0:
320,192,43396,1,0,0:0:0:0:
192,192,43482,1,0,0:0:0:0:
64,192,43567,1,0,0:0:0:0:
448,192,43653,1,0,0:0:0:0:
192,192,43824,1,0,0:0:0:0:
64,192,43824,1,0,0:0:0:0:
448,192,43996,1,0,0:0:0:0:
320,192,44082,1,0,0:0:0:0:
192,192,44167,1,0,0:0:0:0:
64,192,44339,1,0,0:0:0:0:
448,192,44510,1,0,0:0:0:0:
320,192,44510,1,0,0:0:0:0:
64,192,44682,1,0,0:0:0:0:
448,192,44767,1,0,0:0:0:0:
64,192,44853,1,0,0:0:0:0:
448,192,44939,1,0,0:0:0:0:
64,192,45024,1,0,0:0:0:0:
320,192,45196,1,0,0:0:0:0:
448,192,45196,1,0,0:0:0:0:
64,192,45367,1,0,0:0:0:0:
192,192,45453,1,0,0:0:0:0:
320,192,45539,1,0,0:0:0:0:
448,192,45710,1,0,0:0:0:0:
192,192,45882,1,0,0:0:0:0:
64,192,45882,1,0,0:0:0:0:
448,192,46053,1,0,0:0:0:0:
64,192,46139,1,0,0:0:0:0:
448,192,46224,1,0,0:0:0:0:
64,192,46310,1,0,0:0:0:0:
448,192,46396,1,0,0:0:0:0:
192,192,46567,1,0,0:0:0:0:
64,192,46567,1,0,0:0:0:0:
448,192,46739,1,0,0:0:0:0:
320,192,46824,1,0,0:0:0:0:
192,192,46910,1,0,0:0:0:0:
64,192,47082,1,0,0:0:0:0:
320,192,47253,1,0,0:0:0:0:
448,192,47253,1,0,0:0:0:0:
64,192,47424,1,0,0:0:0:0:
192,192,47510,1,0,0:0:0:0:
320,192,47596,1,0,0:0:0:0:
448,192,47682,1,0,0:0:0:0:
64,192,47767,1,0,0:0:0:0:
320,192,47939,1,0,0:0:0:0:
448,192,47939,1,0,0:0:0:0:
64,192,48110,1,0,0:0:0:0:
192,192,48196,1,0,0:0:0:0:
320,192,48282,1,0,0:0:0:0:
448,192,48453,1,0,0:0:0:0:
192,192,48624,1,0,0:0:0:0:
64,192,48624,1,0,0:0:0:0:
448,192,48796,1,0,0:0:0:0:
320,192,48882,1,0,0:0:0:0:
192,192,48967,1,0,0:0:0:0:
64,192,49053,1,0,0:0:0:0:
448,192,49139,1,0,0:0:0:0:
192,192,49310,1,0,0:0:0:0:
64,192,49310,1,0,0:0:0:0:
320,192,49653,1,0,0:0:0:0:
448,192,49653,1,0,0:0:0:0:
64,192,49824,1,0,0:0:0:0:
320,192,49996,1,0,0:0:0:0:
448,192,49996,1,0,0:0:0:0:
64,192,50167,1,0,0:0:0:0:
448,192,50253,1,0,0:0:0:0:
64,192,50339,1,0,0:0:0:0:
448,192,50424,1,0,0:0:0:0:
64,192,50510,1,0,0:0:0:0:
192,192,50510,1,0,0:0:0:0:
320,192,50682,1,0,0:0:0:0:
448,192,50682,1,0,0:0:0:0:
64,192,50853,1,0,0:0:0:0:
192,192,50939,1,0,0:0:0:0:
320,192,51024,1,0,0:0:0:0:
448,192,51024,1,0,0:0:0:0:
64,192,51196,1,0,0:0:0:0:
320,192,51367,1,0,0:0:0:0:
448,192,51367,1,0,0:0:0:0:
64,192,51539,1,0,0:0:0:0:
448,192,51624,1,0,0:0:0:0:
64,192,51710,1,0,0:0:0:0:
448,192,51796,1,0,0:0:0:0:
64,192,51882,1,0,0:0:0:0:
192,192,51882,1,0,0:0:0:0:
320,192,52053,1,0,0:0:0:0:
448,192,52053,1,0,0:0:0:0:
64,192,52224,1,0,0:0:0:0:
320,192,52396,1,0,0:0:0:0:
448,192,52396,1,0,0:0:0:0:
64,192,52567,1,0,0:0:0:0:
320,192,52739,1,0,0:0:0:0:
448,192,52739,1,0,0:0:0:0:
64,192,52910,1,0,0:0:0:0:
192,192,52996,1,0,0:0:0:0:
320,192,53082,1,0,0:0:0:0:
448,192,53167,1,0,0:0:0:0:
64,192,53253,1,0,0:0:0:0:
192,192,53253,1,0,0:0:0:0:
320,192,53424,1,0,0:0:0:0:
448,192,53424,1,0,0:0:0:0:
64,192,53596,1,0,0:0:0:0:
192,192,53682,1,0,0:0:0:0:
320,192,53767,1,0,0:0:0:0:
448,192,53767,1,0,0:0:0:0:
64,192,53939,1,0,0:0:0:0:
320,192,54110,1,0,0:0:0:0:
448,192,54110,1,0,0:0:0:0:
64,192,54282,1,0,0:0:0:0:
448,192,54367,1,0,0:0:0:0:
64,192,54453,1,0,0:0:0:0:
448,192,54539,1,0,0:0:0:0:
192,192,54624,1,0,0:0:0:0:
64,192,54624,1,0,0:0:0:0:
320,192,54796,1,0,0:0:0:0:
448,192,54796,1,0,0:0:0:0:
64,192,54967,1,0,0:0:0:0:
320,192,55139,1,0,0:0:0:0:
448,192,55139,1,0,0:0:0:0:
64,192,55310,1,0,0:0:0:0:
320,192,55482,1,0,0:0:0:0:
448,192,55482,1,0,0:0:0:0:
64,192,55653,1,0,0:0:0:0:
192,192,55739,1,0,0:0:0:0:
320,192,55824,1,0,0:0:0:0:
448,192,55910,1,0,0:0:0:0:
192,192,55996,1,0,0:0:0:0:
64,192,55996,1,0,0:0:0:0:
320,192,56167,1,0,0:0:0:0:
448,192,56167,1,0,0:0:0:0:
64,192,56339,1,0,0:0:0:0:
192,192,56424,1,0,0:0:0:0:
320,192,56510,1,0,0:0:0:0:
448,192,56510,1,0,0:0:0:0:
64,192,56682,1,0,0:0:0:0:
320,192,56853,1,0,0:0:0:0:
448,192,56853,1,0,0:0:0:0:
64,192,57024,1,0,0:0:0:0:
192,192,57110,1,0,0:0:0:0:
320,192,57196,1,0,0:0:0:0:
448,192,57282,1,0,0:0:0:0:
64,192,57367,1,0,0:0:0:0:
192,192,57367,1,0,0:0:0:0:
320,192,57539,1,0,0:0:0:0:
448,192,57539,1,0,0:0:0:0:
64,192,57710,1,0,0:0:0:0:
320,192,57882,1,0,0:0:0:0:
448,192,57882,1,0,0:0:0:0:
64,192,58053,1,0,0:0:0:0:
320,192,58224,1,0,0:0:0:0:
448,192,58224,1,0,0:0:0:0:
64,192,58396,1,0,0:0:0:0:
448,192,58482,1,0,0:0:0:0:
64,192,58567,1,0,0:0:0:0:
448,192,58653,1,0,0:0:0:0:
64,192,58739,1,0,0:0:0:0:
192,192,58739,1,0,0:0:0:0:
320,192,58910,1,0,0:0:0:0:
448,192,58910,1,0,0:0:0:0:
64,192,59082,1,0,0:0:0:0:
192,192,59167,1,0,0:0:0:0:
320,192,59253,1,0,0:0:0:0:
448,192,59253,1,0,0:0:0:0:
64,192,59424,1,0,0:0:0:0:
320,192,59596,1,0,0:0:0:0:
448,192,59596,1,0,0:0:0:0:
64,192,59767,1,0,0:0:0:0:
192,192,59767,1,0,0:0:0:0:
448,192,59853,1,0,0:0:0:0:
64,192,59939,1,0,0:0:0:0:
448,192,60024,1,0,0:0:0:0:
64,192,60110,1,0,0:0:0:0:
320,192,60282,1,0,0:0:0:0:
448,192,60282,1,0,0:0:0:0:
192,192,60453,1,0,0:0:0:0:
64,192,60453,1,0,0:0:0:0:
320,192,60539,1,0,0:0:0:0:
448,192,60539,1,0,0:0:0:0:
64,192,60624,1,0,0:0:0:0:
192,192,60624,1,0,0:0:0:0:
448,192,60796,1,0,0:0:0:0:
320,192,60882,1,0,0:0:0:0:
192,192,60967,1,0,0:0:0:0:
64,192,60967,1,0,0:0:0:0:
448,192,61139,1,0,0:0:0:0:
64,192,61224,1,0,0:0:0:0:
448,192,61310,1,0,0:0:0:0:
64,192,61396,1,0,0:0:0:0:
320,192,61482,1,0,0:0:0:0:
448,192,61482,1,0,0:0:0:0:
192,192,61653,1,0,0:0:0:0:
64,192,61653,1,0,0:0:0:0:
448,192,61824,1,0,0:0:0:0:
320,192,61910,1,0,0:0:0:0:
192,192,61996,1,0,0:0:0:0:
64,192,61996,1,0,0:0:0:0:
448,192,62167,1,0,0:0:0:0:
192,192,62339,1,0,0:0:0:0:
64,192,62339,1,0,0:0:0:0:
448,192,62510,1,0,0:0:0:0:
192,192,62682,1,0,0:0:0:0:
64,192,62682,1,0,0:0:0:0:
320,192,62853,1,0,0:0:0:0:
448,192,62853,1,0,0:0:0:0:
192,192,63024,1,0,0:0:0:0:
64,192,63024,1,0,0:0:0:0:
448,192,63196,1,0,0:0:0:0:
192,192,63367,1,0,0:0:0:0:
64,192,63367,1,0,0:0:0:0:
448,192,63539,1,0,0:0:0:0:
192,192,63710,1,0,0:0:0:0:
64,192,63710,1,0,0:0:0:0:
448,192,63882,1,0,0:0:0:0:
192,192,64053,1,0,0:0:0:0:
64,192,64053,1,0,0:0:0:0:
320,192,64224,1,0,0:0:0:0:
448,192,64224,1,0,0:0:0:0:
192,192,64396,1,0,0:0:0:0:
64,192,64396,1,0,0:0:0:0:
448,192,64567,1,0,0:0:0:0:
192,192,64739,1,0,0:0:0:0:
64,192,64739,1,0,0:0:0:0:
448,192,64910,1,0,0:0:0:0:
192,192,65082,1,0,0:0:0:0:
64,192,65082,1,0,0:0:0:0:
448,192,65253,1,0,0:0:0:0:
192,192,65424,1,0,0:0:0:0:
64,192,65424,1,0,0:0:0:0:
320,192,65596,1,0,0:0:0:0:
448,192,65596,1,0,0:0:0:0:
192,192,65767,1,0,0:0:0:0:
64,192,65767,1,0,0:0:0:0:
448,192,65939,1,0,0:0:0:0:
192,192,66110,1,0,0:0:0:0:
64,192,66110,1,0,0:0:0:0:
320,192,66282,1,0,0:0:0:0:
448,192,66282,1,0,0:0:0:0:
192,192,66453,1,0,0:0:0:0:
64,192,66453,1,0,0:0:0:0:
320,192,66624,1,0,0:0:0:0:
448,192,66624,1,0,0:0:0:0:
192,192,66796,1,0,0:0:0:0:
64,192,66796,1,0,0:0:0:0:
320,192,66967,1,0,0:0:0:0:
448,192,66967,1,0,0:0:0:0:
192,192,67139,1,0,0:0:0:0:
64,192,67139,1,0,0:0:0:0:
320,192,67310,1,0,0:0:0:0:
448,192,67310,1,0,0:0:0:0:
192,192,67482,1,0,0:0:0:0:
64,192,67482,1,0,0:0:0:0:
320,192,67653,1,0,0:0:0:0:
448,192,67653,1,0,0:0:0:0:
192,192,67824,1,0,0:0:0:0:
64,192,67824,1,0,0:0:0:0:
320,192,67996,1,0,0:0:0:0:
448,192,67996,1,0,0:0:0:0:
192,192,68167,1,0,0:0:0:0:
64,192,68167,1,0,0:0:0:0:
448,192,68339,1,0,0:0:0:0:
320,192,68339,1,0,0:0:0:0:
192,192,68510,1,0,0:0:0:0:
64,192,68510,1,0,0:0:0:0:
320,192,68682,1,0,0:0:0:0:
448,192,68682,1,0,0:0:0:0:
192,192,68853,1,0,0:0:0:0:
64,192,68853,1,0,0:0:0:0:
320,192,68939,1,0,0:0:0:0:
448,192,68939,1,0,0:0:0:0:
192,192,69024,1,0,0:0:0:0:
64,192,69024,1,0,0:0:0:0:
320,192,69110,1,0,0:0:0:0:
448,192,69110,1,0,0:0:0:0:
192,192,69196,1,0,0:0:0:0:
64,192,69196,1,0,0:0:0:0:
320,192,69282,1,0,0:0:0:0:
448,192,69282,1,0,0:0:0:0:
192,192,69367,1,0,0:0:0:0:
64,192,69367,1,0,0:0:0:0:
320,192,69453,1,0,0:0:0:0:
448,192,69453,1,0,0:0:0:0:
192,192,69539,1,0,0:0:0:0:
64,192,69539,1,0,0:0:0:0:
320,192,69624,1,0,0:0:0:0:
448,192,69624,1,0,0:0:0:0:
192,192,69710,1,0,0:0:0:0:
64,192,69710,1,0,0:0:0:0:
320,192,69796,1,0,0:0:0:0:
448,192,69796,1,0,0:0:0:0:
192,192,69882,1,0,0:0:0:0:
64,192,69882,1,0,0:0:0:0:
320,192,69967,1,0,0:0:0:0:
448,192,69967,1,0,0:0:0:0:
192,192,70053,1,0,0:0:0:0:
64,192,70053,1,0,0:0:0:0:
320,192,70139,1,0,0:0:0:0:
448,192,70139,1,0,0:0:0:0:
64,192,70224,1,0,0:0:0:0:
192,192,70310,1,0,0:0:0:0:
320,192,70396,1,0,0:0:0:0:
448,192,70482,1,0,0:0:0:0:
64,192,70567,1,0,0:0:0:0:
448,192,70739,1,0,0:0:0:0:
320,192,70824,1,0,0:0:0:0:
192,192,70910,1,0,0:0:0:0:
64,192,71082,1,0,0:0:0:0:
448,192,71253,1,0,0:0:0:0:
64,192,71424,1,0,0:0:0:0:
320,192,71596,1,0,0:0:0:0:
448,192,71596,1,0,0:0:0:0:
64,192,71767,1,0,0:0:0:0:
320,192,71939,1,0,0:0:0:0:
448,192,71939,1,0,0:0:0:0:
64,192,72110,1,0,0:0:0:0:
192,192,72282,1,0,0:0:0:0:
320,192,72453,1,0,0:0:0:0:
448,192,72453,1,0,0:0:0:0:
448,192,72624,1,0,0:0:0:0:
320,192,72624,1,0,0:0:0:0:
64,192,72796,1,0,0:0:0:0:
320,192,72967,1,0,0:0:0:0:
448,192,72967,1,0,0:0:0:0:
64,192,73139,1,0,0:0:0:0:
320,192,73310,1,0,0:0:0:0:
448,192,73310,1,0,0:0:0:0:
64,192,73482,1,0,0:0:0:0:
192,192,73653,1,0,0:0:0:0:
320,192,73824,1,0,0:0:0:0:
448,192,73824,1,0,0:0:0:0:
320,192,73996,1,0,0:0:0:0:
448,192,73996,1,0,0:0:0:0:
64,192,74167,1,0,0:0:0:0:
320,192,74339,1,0,0:0:0:0:
448,192,74339,1,0,0:0:0:0:
64,192,74510,1,0,0:0:0:0:
448,192,74682,1,0,0:0:0:0:
320,192,74682,1,0,0:0:0:0:
64,192,74853,1,0,0:0:0:0:
192,192,75024,1,0,0:0:0:0:
448,192,75196,1,0,0:0:0:0:
320,192,75196,1,0,0:0:0:0:
320,192,75367,1,0,0:0:0:0:
448,192,75367,1,0,0:0:0:0:
64,192,75539,1,0,0:0:0:0:
320,192,75710,1,0,0:0:0:0:
448,192,75710,1,0,0:0:0:0:
64,192,75882,1,0,0:0:0:0:
448,192,76053,1,0,0:0:0:0:
320,192,76053,1,0,0:0:0:0:
64,192,76224,1,0,0:0:0:0:
192,192,76396,1,0,0:0:0:0:
448,192,76567,1,0,0:0:0:0:
320,192,76567,1,0,0:0:0:0:
320,192,76739,1,0,0:0:0:0:
448,192,76739,1,0,0:0:0:0:
64,192,76910,1,0,0:0:0:0:
320,192,77082,1,0,0:0:0:0:
448,192,77082,1,0,0:0:0:0:
64,192,77253,1,0,0:0:0:0:
320,192,77424,1,0,0:0:0:0:
448,192,77424,1,0,0:0:0:0:
64,192,77596,1,0,0:0:0:0:
192,192,77767,1,0,0:0:0:0:
320,192,77939,1,0,0:0:0:0:
448,192,77939,1,0,0:0:0:0:
320,192,78110,1,0,0:0:0:0:
448,192,78110,1,0,0:0:0:0:
64,192,78282,1,0,0:0:0:0:
320,192,78453,1,0,0:0:0:0:
448,192,78453,1,0,0:0:0:0:
64,192,78624,1,0,0:0:0:0:
320,192,78796,1,0,0:0:0:0:
448,192,78796,1,0,0:0:0:0:
64,192,78967,1,0,0:0:0:0:
192,192,79139,1,0,0:0:0:0:
320,192,79310,1,0,0:0:0:0:
448,192,79310,1,0,0:0:0:0:
448,192,79482,1,0,0:0:0:0:
320,192,79482,1,0,0:0:0:0:
64,192,79653,1,0,0:0:0:0:
320,192,79824,1,0,0:0:0:0:
448,192,79824,1,0,0:0:0:0:
64,192,79996,1,0,0:0:0:0:
320,192,80167,1,0,0:0:0:0:
448,192,80167,1,0,0:0:0:0:
64,192,80339,1,0,0:0:0:0:
192,192,80510,1,0,0:0:0:0:
320,192,80682,1,0,0:0:0:0:
448,192,80682,1,0,0:0:0:0:
448,192,80853,1,0,0:0:0:0:
320,192,80853,1,0,0:0:0:0:
64,192,81024,1,0,0:0:0:0:
320,192,81196,1,0,0:0:0:0:
448,192,81196,1,0,0:0:0:0:
64,192,81367,1,0,0:0:0:0:
448,192,81539,1,0,0:0:0:0:
320,192,81539,1,0,0:0:0:0:
64,192,81710,1,0,0:0:0:0:
192,192,81924,1,0,0:0:0:0:
320,192,82053,1,0,0:0:0:0:
448,192,82053,1,0,0:0:0:0:
448,192,82224,1,0,0:0:0:0:
320,192,82224,1,0,0:0:0:0:
64,192,82396,1,0,0:0:0:0:
320,192,82567,1,0,0:0:0:0:
448,192,82567,1,0,0:0:0:0:
64,192,82739,1,0,0:0:0:0:
320,192,82910,1,0,0:0:0:0:
448,192,82910,1,0,0:0:0:0:
64,192,83082,1,0,0:0:0:0:
192,192,83253,1,0,0:0:0:0:
320,192,83424,1,0,0:0:0:0:
448,192,83424,1,0,0:0:0:0:
448,192,83596,1,0,0:0:0:0:
320,192,83596,1,0,0:0:0:0:
64,192,83767,1,0,0:0:0:0:
320,192,83939,1,0,0:0:0:0:
448,192,83939,1,0,0:0:0:0:
64,192,84110,1,0,0:0:0:0:
320,192,84282,1,0,0:0:0:0:
448,192,84282,1,0,0:0:0:0:
64,192,84453,1,0,0:0:0:0:
192,192,84624,1,0,0:0:0:0:
320,192,84796,1,0,0:0:0:0:
448,192,84796,1,0,0:0:0:0:
448,192,84967,1,0,0:0:0:0:
320,192,84967,1,0,0:0:0:0:
64,192,85139,1,0,0:0:0:0:
320,192,85310,1,0,0:0:0:0:
448,192,85310,1,0,0:0:0:0:
64,192,85482,1,0,0:0:0:0:
320,192,85653,1,0,0:0:0:0:
448,192,85653,1,0,0:0:0:0:
64,192,85824,1,0,0:0:0:0:
192,192,85996,1,0,0:0:0:0:
320,192,86167,1,0,0:0:0:0:
448,192,86167,1,0,0:0:0:0:
448,192,86339,1,0,0:0:0:0:
320,192,86339,1,0,0:0:0:0:
64,192,86510,1,0,0:0:0:0:
320,192,86682,1,0,0:0:0:0:
448,192,86682,1,0,0:0:0:0:
64,192,86853,1,0,0:0:0:0:
320,192,87024,1,0,0:0:0:0:
448,192,87024,1,0,0:0:0:0:
64,192,87196,1,0,0:0:0:0:
192,192,87367,1,0,0:0:0:0:
320,192,87539,1,0,0:0:0:0:
448,192,87539,1,0,0:0:0:0:
448,192,87710,1,0,0:0:0:0:
320,192,87710,1,0,0:0:0:0:
64,192,87882,1,0,0:0:0:0:
320,192,88053,1,0,0:0:0:0:
448,192,88053,1,0,0:0:0:0:
64,192,88224,1,0,0:0:0:0:
320,192,88396,1,0,0:0:0:0:
448,192,88396,1,0,0:0:0:0:
64,192,88567,1,0,0:0:0:0:
192,192,88739,1,0,0:0:0:0:
320,192,88910,1,0,0:0:0:0:
448,192,88910,1,0,0:0:0:0:
320,192,89082,1,0,0:0:0:0:
448,192,89082,1,0,0:0:0:0:
64,192,89253,1,0,0:0:0:0:
320,192,89424,1,0,0:0:0:0:
448,192,89424,1,0,0:0:0:0:
64,192,89596,1,0,0:0:0:0:
320,192,89767,1,0,0:0:0:0:
448,192,89767,1,0,0:0:0:0:
64,192,89939,1,0,0:0:0:0:
192,192,90110,1,0,0:0:0:0:
320,192,90282,1,0,0:0:0:0:
448,192,90282,1,0,0:0:0:0:
448,192,90453,1,0,0:0:0:0:
320,192,90453,1,0,0:0:0:0:
64,192,90624,1,0,0:0:0:0:
320,192,90796,1,0,0:0:0:0:
448,192,90796,1,0,0:0:0:0:
64,192,90967,1,0,0:0:0:0:
320,192,91139,1,0,0:0:0:0:
448,192,91139,1,0,0:0:0:0:
64,192,91310,1,0,0:0:0:0:
192,192,91482,1,0,0:0:0:0:
320,192,91653,1,0,0:0:0:0:
448,192,91653,1,0,0:0:0:0:
448,192,91824,1,0,0:0:0:0:
320,192,91824,1,0,0:0:0:0:
64,192,91996,1,0,0:0:0:0:
192,192,92167,1,0,0:0:0:0:
320,192,92339,1,0,0:0:0:0:
448,192,92339,1,0,0:0:0:0:
320,192,92510,1,0,0:0:0:0:
448,192,92510,1,0,0:0:0:0:
64,192,92682,1,0,0:0:0:0:
192,192,92853,1,0,0:0:0:0:
320,192,93024,1,0,0:0:0:0:
448,192,93024,1,0,0:0:0:0:
320,192,93196,1,0,0:0:0:0:
448,192,93196,1,0,0:0:0:0:
192,192,93539,1,0,0:0:0:0:
64,192,93539,1,0,0:0:0:0:
448,192,93710,1,0,0:0:0:0:
192,192,93882,1,0,0:0:0:0:
64,192,93882,1,0,0:0:0:0:
448,192,94053,1,0,0:0:0:0:
320,192,94224,1,0,0:0:0:0:
192,192,94396,1,0,0:0:0:0:
64,192,94396,1,0,0:0:0:0:
192,192,94567,1,0,0:0:0:0:
64,192,94567,1,0,0:0:0:0:
448,192,94739,1,0,0:0:0:0:
192,192,94910,1,0,0:0:0:0:
64,192,94910,1,0,0:0:0:0:
448,192,95082,1,0,0:0:0:0:
192,192,95253,1,0,0:0:0:0:
64,192,95253,1,0,0:0:0:0:
448,192,95424,1,0,0:0:0:0:
320,192,95596,1,0,0:0:0:0:
192,192,95767,1,0,0:0:0:0:
64,192,95767,1,0,0:0:0:0:
192,192,95939,1,0,0:0:0:0:
64,192,95939,1,0,0:0:0:0:
448,192,96110,1,0,0:0:0:0:
192,192,96282,1,0,0:0:0:0:
64,192,96282,1,0,0:0:0:0:
448,192,96453,1,0,0:0:0:0:
192,192,96624,1,0,0:0:0:0:
64,192,96624,1,0,0:0:0:0:
448,192,96796,1,0,0:0:0:0:
320,192,96967,1,0,0:0:0:0:
192,192,97139,1,0,0:0:0:0:
64,192,97139,1,0,0:0:0:0:
64,192,97310,1,0,0:0:0:0:
192,192,97310,1,0,0:0:0:0:
448,192,97482,1,0,0:0:0:0:
192,192,97653,1,0,0:0:0:0:
64,192,97653,1,0,0:0:0:0:
448,192,97824,1,0,0:0:0:0:
192,192,97996,1,0,0:0:0:0:
64,192,97996,1,0,0:0:0:0:
448,192,98167,1,0,0:0:0:0:
320,192,98339,1,0,0:0:0:0:
192,192,98510,1,0,0:0:0:0:
64,192,98510,1,0,0:0:0:0:
192,192,98682,1,0,0:0:0:0:
64,192,98682,1,0,0:0:0:0:
448,192,98853,1,0,0:0:0:0:
192,192,99024,1,0,0:0:0:0:
64,192,99024,1,0,0:0:0:0:
448,192,99196,1,0,0:0:0:0:
192,192,99367,1,0,0:0:0:0:
64,192,99367,1,0,0:0:0:0:
448,192,99539,1,0,0:0:0:0:
320,192,99710,1,0,0:0:0:0:
192,192,99882,1,0,0:0:0:0:
64,192,99882,1,0,0:0:0:0:
192,192,100053,1,0,0:0:0:0:
64,192,100053,1,0,0:0:0:0:
448,192,100224,1,0,0:0:0:0:
192,192,100396,1,0,0:0:0:0:
64,192,100396,1,0,0:0:0:0:
448,192,100567,1,0,0:0:0:0:
192,192,100739,1,0,0:0:0:0:
64,192,100739,1,0,0:0:0:0:
448,192,100910,1,0,0:0:0:0:
320,192,101082,1,0,0:0:0:0:
192,192,101253,1,0,0:0:0:0:
64,192,101253,1,0,0:0:0:0:
192,192,101424,1,0,0:0:0:0:
64,192,101424,1,0,0:0:0:0:
448,192,101596,1,0,0:0:0:0:
192,192,101767,1,0,0:0:0:0:
64,192,101767,1,0,0:0:0:0:
448,192,101939,1,0,0:0:0:0:
192,192,102110,1,0,0:0:0:0:
64,192,102110,1,0,0:0:0:0:
448,192,102282,1,0,0:0:0:0:
320,192,102453,1,0,0:0:0:0:
192,192,102624,1,0,0:0:0:0:
64,192,102624,1,0,0:0:0:0:
192,192,102796,1,0,0:0:0:0:
64,192,102796,1,0,0:0:0:0:
448,192,102967,1,0,0:0:0:0:
192,192,103139,1,0,0:0:0:0:
64,192,103139,1,0,0:0:0:0:
448,192,103310,1,0,0:0:0:0:
192,192,103482,1,0,0:0:0:0:
64,192,103482,1,0,0:0:0:0:
448,192,103653,1,0,0:0:0:0:
320,192,103824,1,0,0:0:0:0:
192,192,103996,1,0,0:0:0:0:
64,192,103996,1,0,0:0:0:0:
192,192,104167,1,0,0:0:0:0:
64,192,104167,1,0,0:0:0:0:
448,192,104339,1,0,0:0:0:0:
192,192,104510,1,0,0:0:0:0:
64,192,104510,1,0,0:0:0:0:
448,192,104682,1,0,0:0:0:0:
192,192,104853,1,0,0:0:0:0:
64,192,104853,1,0,0:0:0:0:
448,192,105024,1,0,0:0:0:0:
320,192,105196,1,0,0:0:0:0:
192,192,105367,1,0,0:0:0:0:
64,192,105367,1,0,0:0:0:0:
192,192,105539,1,0,0:0:0:0:
64,192,105539,1,0,0:0:0:0:
448,192,105710,1,0,0:0:0:0:
192,192,105882,1,0,0:0:0:0:
64,192,105882,1,0,0:0:0:0:
448,192,106053,1,0,0:0:0:0:
192,192,106224,1,0,0:0:0:0:
64,192,106224,1,0,0:0:0:0:
448,192,106396,1,0,0:0:0:0:
320,192,106567,1,0,0:0:0:0:
192,192,106739,1,0,0:0:0:0:
64,192,106739,1,0,0:0:0:0:
64,192,106910,1,0,0:0:0:0:
192,192,106910,1,0,0:0:0:0:
448,192,107082,1,0,0:0:0:0:
192,192,107253,1,0,0:0:0:0:
64,192,107253,1,0,0:0:0:0:
448,192,107424,1,0,0:0:0:0:
192,192,107596,1,0,0:0:0:0:
64,192,107596,1,0,0:0:0:0:
448,192,107767,1,0,0:0:0:0:
320,192,107939,1,0,0:0:0:0:
192,192,108110,1,0,0:0:0:0:
64,192,108110,1,0,0:0:0:0:
192,192,108282,1,0,0:0:0:0:
64,192,108282,1,0,0:0:0:0:
448,192,108453,1,0,0:0:0:0:
192,192,108624,1,0,0:0:0:0:
64,192,108624,1,0,0:0:0:0:
448,192,108796,1,0,0:0:0:0:
192,192,108967,1,0,0:0:0:0:
64,192,108967,1,0,0:0:0:0:
448,192,109139,1,0,0:0:0:0:
320,192,109310,1,0,0:0:0:0:
64,192,109482,1,0,0:0:0:0:
192,192,109482,1,0,0:0:0:0:
192,192,109653,1,0,0:0:0:0:
64,192,109653,1,0,0:0:0:0:
448,192,109824,1,0,0:0:0:0:
64,192,109996,128,0,110339:0:0:0:0:
448,192,110339,128,0,110682:0:0:0:0:
320,192,110682,128,0,111024:0:0:0:0:
64,192,111024,128,0,111367:0:0:0:0:
192,192,111367,128,0,111710:0:0:0:0:
448,192,111710,128,0,112053:0:0:0:0:
320,192,112053,128,0,112396:0:0:0:0:
192,192,112396,128,0,112739:0:0:0:0:
448,192,112739,128,0,113082:0:0:0:0:
64,192,113082,128,0,113424:0:0:0:0:
192,192,113424,128,0,113767:0:0:0:0:
320,192,113767,128,0,114110:0:0:0:0:
448,192,114110,128,0,114453:0:0:0:0:
192,192,114453,128,0,114796:0:0:0:0:
64,192,114796,128,0,115482:0:0:0:0:
