osu file format v14

[General]
AudioFilename: C18H27NO3.mp3
AudioLeadIn: 0
PreviewTime: 89184
Countdown: 0
SampleSet: Soft
StackLeniency: 0.7
Mode: 3
LetterboxInBreaks: 0
EpilepsyWarning: 1
SpecialStyle: 0
WidescreenStoryboard: 1

[Editor]
DistanceSpacing: 1
BeatDivisor: 4
GridSize: 4
TimelineZoom: 2.9

[Metadata]
Title:4K Dump Pack
TitleUnicode:4K Dump Pack
Artist:Various Artists
ArtistUnicode:Various Artists
Creator:fufu-
Version:Team Grimoire - C18H27NO3
Source:
Tags:
BeatmapID:1418528
BeatmapSetID:586042

[Difficulty]
HPDrainRate:7
CircleSize:4
OverallDifficulty:8
ApproachRate:5
SliderMultiplier:1.4
SliderTickRate:1

[Events]
//Background and Video events
0,0,"c18h27no3.jpg",0,0
//Break Periods
//Storyboard Layer 0 (Background)
//Storyboard Layer 1 (Fail)
//Storyboard Layer 2 (Pass)
//Storyboard Layer 3 (Foreground)
//Storyboard Sound Samples

[TimingPoints]
1184,285.714285714286,4,2,1,25,1,0
21755,-100,4,2,1,25,0,1
30326,-100,4,2,1,25,0,0
30898,-100,4,2,1,25,0,1
40041,-100,4,2,1,25,0,0
89184,-100,4,2,1,25,0,1
92612,-100,4,2,1,25,0,0
93755,-100,4,2,1,25,0,1
97184,-100,4,2,1,25,0,0
98326,-100,4,2,1,25,0,1
101755,-100,4,2,1,25,0,0
102898,-100,4,2,1,25,0,1
107469,-100,4,2,1,25,0,0

[HitObjects]
64,192,2326,5,0,0:0:0:0:
448,192,2326,1,0,0:0:0:0:
320,192,2612,1,0,0:0:0:0:
192,192,2898,1,0,0:0:0:0:
448,192,2898,1,0,0:0:0:0:
320,192,3184,1,0,0:0:0:0:
64,192,3469,1,0,0:0:0:0:
192,192,3469,1,0,0:0:0:0:
448,192,3755,1,0,0:0:0:0:
320,192,3898,1,0,0:0:0:0:
192,192,4041,1,0,0:0:0:0:
64,192,4041,1,0,0:0:0:0:
320,192,4326,1,0,0:0:0:0:
448,192,4326,1,0,0:0:0:0:
64,192,4612,1,0,0:0:0:0:
320,192,4612,1,0,0:0:0:0:
192,192,4898,1,0,0:0:0:0:
320,192,5184,1,0,0:0:0:0:
448,192,5184,1,0,0:0:0:0:
192,192,5469,1,0,0:0:0:0:
320,192,5755,1,0,0:0:0:0:
448,192,5755,1,0,0:0:0:0:
192,192,6041,1,0,0:0:0:0:
320,192,6184,1,0,0:0:0:0:
448,192,6326,1,0,0:0:0:0:
64,192,6326,1,0,0:0:0:0:
192,192,6612,1,0,0:0:0:0:
320,192,6612,1,0,0:0:0:0:
192,192,6898,1,0,0:0:0:0:
320,192,6898,1,0,0:0:0:0:
448,192,7184,1,0,0:0:0:0:
64,192,7469,1,0,0:0:0:0:
448,192,7469,1,0,0:0:0:0:
192,192,7755,1,0,0:0:0:0:
320,192,8041,1,0,0:0:0:0:
64,192,8041,1,0,0:0:0:0:
320,192,8326,1,0,0:0:0:0:
192,192,8469,1,0,0:0:0:0:
448,192,8612,1,0,0:0:0:0:
320,192,8612,1,0,0:0:0:0:
320,192,8898,1,0,0:0:0:0:
192,192,9184,1,0,0:0:0:0:
64,192,9184,1,0,0:0:0:0:
320,192,9469,1,0,0:0:0:0:
448,192,9755,1,0,0:0:0:0:
192,192,9755,1,0,0:0:0:0:
64,192,10041,1,0,0:0:0:0:
192,192,10326,1,0,0:0:0:0:
320,192,10326,1,0,0:0:0:0:
64,192,10612,1,0,0:0:0:0:
448,192,10755,1,0,0:0:0:0:
64,192,10898,1,0,0:0:0:0:
192,192,11184,1,0,0:0:0:0:
320,192,11184,1,0,0:0:0:0:
320,192,11469,1,0,0:0:0:0:
448,192,11469,1,0,0:0:0:0:
320,192,11755,128,0,11969:0:0:0:0:
448,192,11755,128,0,11969:0:0:0:0:
320,192,12041,128,0,12255:0:0:0:0:
448,192,12041,128,0,12255:0:0:0:0:
448,192,12326,128,0,12541:0:0:0:0:
320,192,12326,128,0,12541:0:0:0:0:
192,192,12612,1,0,0:0:0:0:
320,192,12612,1,0,0:0:0:0:
64,192,12898,128,0,12969:0:0:0:0:
64,192,13041,128,0,13112:0:0:0:0:
64,192,13184,128,0,13398:0:0:0:0:
192,192,13184,128,0,13398:0:0:0:0:
64,192,13469,128,0,13684:0:0:0:0:
192,192,13469,128,0,13684:0:0:0:0:
320,192,13469,128,0,13684:0:0:0:0:
448,192,13755,1,0,0:0:0:0:
320,192,13755,1,0,0:0:0:0:
64,192,14041,128,0,14255:0:0:0:0:
192,192,14041,128,0,14255:0:0:0:0:
320,192,14326,128,0,14541:0:0:0:0:
448,192,14326,128,0,14541:0:0:0:0:
192,192,14612,128,0,14826:0:0:0:0:
64,192,14612,128,0,14826:0:0:0:0:
320,192,14898,1,0,0:0:0:0:
448,192,14898,1,0,0:0:0:0:
192,192,15184,128,0,15255:0:0:0:0:
320,192,15184,128,0,15255:0:0:0:0:
192,192,15326,128,0,15398:0:0:0:0:
320,192,15326,128,0,15398:0:0:0:0:
192,192,15469,128,0,15684:0:0:0:0:
320,192,15469,128,0,15684:0:0:0:0:
64,192,15755,128,0,15969:0:0:0:0:
448,192,15755,128,0,15969:0:0:0:0:
64,192,16041,128,0,16541:0:0:0:0:
192,192,16041,128,0,16398:0:0:0:0:
320,192,16041,128,0,16255:0:0:0:0:
448,192,16041,128,0,16112:0:0:0:0:
320,192,16612,128,0,16969:0:0:0:0:
192,192,16612,128,0,16826:0:0:0:0:
64,192,16612,128,0,16684:0:0:0:0:
448,192,16612,128,0,17112:0:0:0:0:
448,192,17184,128,0,17255:0:0:0:0:
64,192,17184,128,0,17684:0:0:0:0:
192,192,17184,128,0,17541:0:0:0:0:
320,192,17184,128,0,17398:0:0:0:0:
320,192,17755,128,0,18112:0:0:0:0:
192,192,17755,128,0,17969:0:0:0:0:
64,192,17755,128,0,17826:0:0:0:0:
448,192,17755,128,0,18255:0:0:0:0:
64,192,18326,128,0,19469:0:0:0:0:
448,192,19469,128,0,19684:0:0:0:0:
192,192,19755,128,0,20255:0:0:0:0:
64,192,19755,128,0,20612:0:0:0:0:
192,192,20326,128,0,20612:0:0:0:0:
320,192,20612,1,0,0:0:0:0:
448,192,20612,1,0,0:0:0:0:
320,192,21755,1,0,0:0:0:0:
448,192,21755,1,0,0:0:0:0:
192,192,21755,1,0,0:0:0:0:
64,192,21898,1,0,0:0:0:0:
192,192,21898,1,0,0:0:0:0:
64,192,22041,1,0,0:0:0:0:
320,192,22041,1,0,0:0:0:0:
448,192,22041,1,0,0:0:0:0:
192,192,22184,1,0,0:0:0:0:
320,192,22184,1,0,0:0:0:0:
64,192,22326,1,0,0:0:0:0:
192,192,22326,1,0,0:0:0:0:
448,192,22326,1,0,0:0:0:0:
64,192,22469,1,0,0:0:0:0:
320,192,22469,1,0,0:0:0:0:
192,192,22612,1,0,0:0:0:0:
320,192,22612,1,0,0:0:0:0:
448,192,22612,1,0,0:0:0:0:
192,192,22755,1,0,0:0:0:0:
64,192,22755,1,0,0:0:0:0:
192,192,22898,1,0,0:0:0:0:
320,192,22898,1,0,0:0:0:0:
448,192,22898,1,0,0:0:0:0:
448,192,23041,1,0,0:0:0:0:
64,192,23041,1,0,0:0:0:0:
192,192,23184,1,0,0:0:0:0:
320,192,23184,1,0,0:0:0:0:
448,192,23184,1,0,0:0:0:0:
64,192,23326,1,0,0:0:0:0:
192,192,23326,1,0,0:0:0:0:
64,192,23469,1,0,0:0:0:0:
320,192,23469,1,0,0:0:0:0:
448,192,23469,1,0,0:0:0:0:
64,192,23612,1,0,0:0:0:0:
320,192,23612,1,0,0:0:0:0:
64,192,23755,1,0,0:0:0:0:
192,192,23755,1,0,0:0:0:0:
448,192,23755,1,0,0:0:0:0:
192,192,23898,1,0,0:0:0:0:
448,192,23898,1,0,0:0:0:0:
64,192,23969,1,0,0:0:0:0:
448,192,24041,1,0,0:0:0:0:
320,192,24041,1,0,0:0:0:0:
192,192,24041,1,0,0:0:0:0:
320,192,24184,1,0,0:0:0:0:
448,192,24184,1,0,0:0:0:0:
192,192,24326,1,0,0:0:0:0:
64,192,24326,1,0,0:0:0:0:
448,192,24326,1,0,0:0:0:0:
320,192,24469,1,0,0:0:0:0:
64,192,24469,1,0,0:0:0:0:
192,192,24612,1,0,0:0:0:0:
448,192,24612,1,0,0:0:0:0:
64,192,24612,1,0,0:0:0:0:
192,192,24755,1,0,0:0:0:0:
320,192,24755,1,0,0:0:0:0:
64,192,24898,1,0,0:0:0:0:
192,192,24898,1,0,0:0:0:0:
320,192,24898,1,0,0:0:0:0:
448,192,25041,1,0,0:0:0:0:
320,192,25041,1,0,0:0:0:0:
192,192,25184,1,0,0:0:0:0:
64,192,25184,1,0,0:0:0:0:
448,192,25184,1,0,0:0:0:0:
192,192,25326,1,0,0:0:0:0:
320,192,25326,1,0,0:0:0:0:
64,192,25469,1,0,0:0:0:0:
320,192,25469,1,0,0:0:0:0:
448,192,25469,1,0,0:0:0:0:
64,192,25612,1,0,0:0:0:0:
192,192,25612,1,0,0:0:0:0:
192,192,25755,1,0,0:0:0:0:
320,192,25755,1,0,0:0:0:0:
448,192,25755,1,0,0:0:0:0:
64,192,25898,1,0,0:0:0:0:
448,192,25898,1,0,0:0:0:0:
64,192,26041,1,0,0:0:0:0:
192,192,26041,1,0,0:0:0:0:
320,192,26041,1,0,0:0:0:0:
320,192,26184,1,0,0:0:0:0:
448,192,26184,1,0,0:0:0:0:
192,192,26255,1,0,0:0:0:0:
320,192,26326,1,0,0:0:0:0:
448,192,26326,1,0,0:0:0:0:
64,192,26326,1,0,0:0:0:0:
192,192,26469,1,0,0:0:0:0:
448,192,26469,1,0,0:0:0:0:
192,192,26612,1,0,0:0:0:0:
320,192,26612,1,0,0:0:0:0:
448,192,26612,1,0,0:0:0:0:
64,192,26755,1,0,0:0:0:0:
320,192,26755,1,0,0:0:0:0:
64,192,26898,1,0,0:0:0:0:
192,192,26898,1,0,0:0:0:0:
320,192,26898,1,0,0:0:0:0:
64,192,27041,1,0,0:0:0:0:
320,192,27041,1,0,0:0:0:0:
64,192,27184,1,0,0:0:0:0:
320,192,27184,1,0,0:0:0:0:
448,192,27184,1,0,0:0:0:0:
192,192,27326,1,0,0:0:0:0:
320,192,27326,1,0,0:0:0:0:
448,192,27469,1,0,0:0:0:0:
320,192,27469,1,0,0:0:0:0:
64,192,27469,1,0,0:0:0:0:
320,192,27612,1,0,0:0:0:0:
192,192,27612,1,0,0:0:0:0:
64,192,27755,1,0,0:0:0:0:
192,192,27755,1,0,0:0:0:0:
448,192,27755,1,0,0:0:0:0:
320,192,27898,1,0,0:0:0:0:
192,192,27898,1,0,0:0:0:0:
64,192,28041,1,0,0:0:0:0:
448,192,28041,1,0,0:0:0:0:
192,192,28041,1,0,0:0:0:0:
320,192,28184,1,0,0:0:0:0:
448,192,28184,1,0,0:0:0:0:
64,192,28326,1,0,0:0:0:0:
192,192,28326,1,0,0:0:0:0:
448,192,28326,1,0,0:0:0:0:
448,192,28469,1,0,0:0:0:0:
64,192,28469,1,0,0:0:0:0:
192,192,28541,1,0,0:0:0:0:
320,192,28612,1,0,0:0:0:0:
448,192,28612,1,0,0:0:0:0:
64,192,28612,1,0,0:0:0:0:
192,192,28755,1,0,0:0:0:0:
320,192,28755,1,0,0:0:0:0:
64,192,28898,1,0,0:0:0:0:
192,192,28898,1,0,0:0:0:0:
320,192,28898,1,0,0:0:0:0:
64,192,29041,1,0,0:0:0:0:
448,192,29041,1,0,0:0:0:0:
192,192,29184,1,0,0:0:0:0:
448,192,29184,1,0,0:0:0:0:
64,192,29184,1,0,0:0:0:0:
320,192,29326,1,0,0:0:0:0:
448,192,29326,1,0,0:0:0:0:
64,192,29469,1,0,0:0:0:0:
192,192,29469,1,0,0:0:0:0:
320,192,29469,1,0,0:0:0:0:
64,192,29612,1,0,0:0:0:0:
192,192,29612,1,0,0:0:0:0:
192,192,29755,1,0,0:0:0:0:
320,192,29755,1,0,0:0:0:0:
448,192,29755,1,0,0:0:0:0:
192,192,29898,1,0,0:0:0:0:
448,192,29898,1,0,0:0:0:0:
64,192,30041,1,0,0:0:0:0:
192,192,30041,1,0,0:0:0:0:
320,192,30041,1,0,0:0:0:0:
320,192,30184,1,0,0:0:0:0:
448,192,30184,1,0,0:0:0:0:
192,192,30255,1,0,0:0:0:0:
320,192,30326,128,0,30469:0:0:0:0:
448,192,30326,128,0,30541:0:0:0:0:
448,192,30612,128,0,30666:0:0:0:0:
320,192,30612,128,0,30684:0:0:0:0:
192,192,30612,128,0,30701:0:0:0:0:
64,192,30612,128,0,30719:0:0:0:0:
64,192,30755,128,0,30809:0:0:0:0:
192,192,30755,128,0,30826:0:0:0:0:
320,192,30755,128,0,30844:0:0:0:0:
448,192,30755,128,0,30862:0:0:0:0:
192,192,30898,1,0,0:0:0:0:
64,192,30898,1,0,0:0:0:0:
320,192,30898,1,0,0:0:0:0:
448,192,31041,1,0,0:0:0:0:
320,192,31041,1,0,0:0:0:0:
448,192,31184,1,0,0:0:0:0:
192,192,31184,1,0,0:0:0:0:
64,192,31184,1,0,0:0:0:0:
320,192,31326,1,0,0:0:0:0:
192,192,31326,1,0,0:0:0:0:
448,192,31469,1,0,0:0:0:0:
320,192,31469,1,0,0:0:0:0:
64,192,31469,1,0,0:0:0:0:
448,192,31612,1,0,0:0:0:0:
192,192,31612,1,0,0:0:0:0:
320,192,31755,1,0,0:0:0:0:
192,192,31755,1,0,0:0:0:0:
64,192,31755,1,0,0:0:0:0:
320,192,31898,1,0,0:0:0:0:
448,192,31898,1,0,0:0:0:0:
320,192,32041,1,0,0:0:0:0:
192,192,32041,1,0,0:0:0:0:
64,192,32041,1,0,0:0:0:0:
64,192,32184,1,0,0:0:0:0:
448,192,32184,1,0,0:0:0:0:
320,192,32326,1,0,0:0:0:0:
192,192,32326,1,0,0:0:0:0:
64,192,32326,1,0,0:0:0:0:
448,192,32469,1,0,0:0:0:0:
320,192,32469,1,0,0:0:0:0:
448,192,32612,1,0,0:0:0:0:
192,192,32612,1,0,0:0:0:0:
64,192,32612,1,0,0:0:0:0:
448,192,32755,1,0,0:0:0:0:
192,192,32755,1,0,0:0:0:0:
448,192,32898,1,0,0:0:0:0:
320,192,32898,1,0,0:0:0:0:
64,192,32898,1,0,0:0:0:0:
320,192,33041,1,0,0:0:0:0:
64,192,33041,1,0,0:0:0:0:
448,192,33112,1,0,0:0:0:0:
64,192,33184,1,0,0:0:0:0:
192,192,33184,1,0,0:0:0:0:
320,192,33184,1,0,0:0:0:0:
192,192,33326,1,0,0:0:0:0:
64,192,33326,1,0,0:0:0:0:
320,192,33469,1,0,0:0:0:0:
448,192,33469,1,0,0:0:0:0:
64,192,33469,1,0,0:0:0:0:
192,192,33612,1,0,0:0:0:0:
448,192,33612,1,0,0:0:0:0:
320,192,33755,1,0,0:0:0:0:
64,192,33755,1,0,0:0:0:0:
448,192,33755,1,0,0:0:0:0:
320,192,33898,1,0,0:0:0:0:
192,192,33898,1,0,0:0:0:0:
448,192,34041,1,0,0:0:0:0:
320,192,34041,1,0,0:0:0:0:
192,192,34041,1,0,0:0:0:0:
64,192,34184,1,0,0:0:0:0:
192,192,34184,1,0,0:0:0:0:
320,192,34326,1,0,0:0:0:0:
448,192,34326,1,0,0:0:0:0:
64,192,34326,1,0,0:0:0:0:
320,192,34469,1,0,0:0:0:0:
192,192,34469,1,0,0:0:0:0:
448,192,34612,1,0,0:0:0:0:
192,192,34612,1,0,0:0:0:0:
64,192,34612,1,0,0:0:0:0:
448,192,34755,1,0,0:0:0:0:
320,192,34755,1,0,0:0:0:0:
64,192,34898,128,0,35398:0:0:0:0:
192,192,34898,128,0,35326:0:0:0:0:
320,192,34898,128,0,35255:0:0:0:0:
448,192,34898,128,0,35184:0:0:0:0:
192,192,35469,1,0,0:0:0:0:
64,192,35469,1,0,0:0:0:0:
448,192,35469,1,0,0:0:0:0:
320,192,35612,1,0,0:0:0:0:
64,192,35612,1,0,0:0:0:0:
320,192,35755,1,0,0:0:0:0:
192,192,35755,1,0,0:0:0:0:
64,192,35755,1,0,0:0:0:0:
448,192,35898,1,0,0:0:0:0:
192,192,35898,1,0,0:0:0:0:
448,192,36041,1,0,0:0:0:0:
320,192,36041,1,0,0:0:0:0:
192,192,36041,1,0,0:0:0:0:
448,192,36184,1,0,0:0:0:0:
192,192,36184,1,0,0:0:0:0:
448,192,36326,1,0,0:0:0:0:
192,192,36326,1,0,0:0:0:0:
64,192,36326,1,0,0:0:0:0:
320,192,36469,1,0,0:0:0:0:
192,192,36469,1,0,0:0:0:0:
64,192,36612,1,0,0:0:0:0:
192,192,36612,1,0,0:0:0:0:
448,192,36612,1,0,0:0:0:0:
192,192,36755,1,0,0:0:0:0:
320,192,36755,1,0,0:0:0:0:
448,192,36898,1,0,0:0:0:0:
320,192,36898,1,0,0:0:0:0:
64,192,36898,1,0,0:0:0:0:
192,192,37041,1,0,0:0:0:0:
320,192,37041,1,0,0:0:0:0:
448,192,37184,1,0,0:0:0:0:
64,192,37184,1,0,0:0:0:0:
320,192,37184,1,0,0:0:0:0:
192,192,37326,1,0,0:0:0:0:
64,192,37326,1,0,0:0:0:0:
448,192,37469,1,0,0:0:0:0:
320,192,37469,1,0,0:0:0:0:
64,192,37469,1,0,0:0:0:0:
64,192,37612,1,0,0:0:0:0:
448,192,37612,1,0,0:0:0:0:
320,192,37684,1,0,0:0:0:0:
192,192,37755,1,0,0:0:0:0:
448,192,37755,1,0,0:0:0:0:
64,192,37755,128,0,38255:0:0:0:0:
320,192,37898,1,0,0:0:0:0:
192,192,37898,1,0,0:0:0:0:
448,192,38041,1,0,0:0:0:0:
320,192,38041,1,0,0:0:0:0:
192,192,38041,1,0,0:0:0:0:
448,192,38184,1,0,0:0:0:0:
192,192,38184,1,0,0:0:0:0:
64,192,38326,128,0,38398:0:0:0:0:
192,192,38326,1,0,0:0:0:0:
320,192,38326,1,0,0:0:0:0:
64,192,38469,128,0,38541:0:0:0:0:
192,192,38469,128,0,38541:0:0:0:0:
320,192,38469,1,0,0:0:0:0:
448,192,38612,1,0,0:0:0:0:
64,192,38612,128,0,38684:0:0:0:0:
192,192,38612,128,0,38684:0:0:0:0:
320,192,38612,128,0,38684:0:0:0:0:
64,192,38755,128,0,38826:0:0:0:0:
192,192,38755,128,0,38826:0:0:0:0:
320,192,38755,128,0,38826:0:0:0:0:
448,192,38755,128,0,38826:0:0:0:0:
64,192,38898,1,0,0:0:0:0:
192,192,38934,1,0,0:0:0:0:
320,192,38969,1,0,0:0:0:0:
448,192,39005,1,0,0:0:0:0:
192,192,39041,1,0,0:0:0:0:
320,192,39076,1,0,0:0:0:0:
64,192,39112,1,0,0:0:0:0:
192,192,39148,1,0,0:0:0:0:
448,192,39184,1,0,0:0:0:0:
320,192,39219,1,0,0:0:0:0:
192,192,39255,1,0,0:0:0:0:
64,192,39291,1,0,0:0:0:0:
448,192,39326,1,0,0:0:0:0:
320,192,39362,1,0,0:0:0:0:
192,192,39398,1,0,0:0:0:0:
64,192,39434,1,0,0:0:0:0:
448,192,39469,128,0,39505:0:0:0:0:
64,192,39469,128,0,39505:0:0:0:0:
320,192,39505,128,0,39541:0:0:0:0:
192,192,39541,128,0,39576:0:0:0:0:
448,192,39541,128,0,39576:0:0:0:0:
64,192,39576,128,0,39612:0:0:0:0:
320,192,39576,128,0,39612:0:0:0:0:
192,192,39612,128,0,39648:0:0:0:0:
448,192,39612,128,0,39648:0:0:0:0:
64,192,39648,128,0,39684:0:0:0:0:
320,192,39648,128,0,39684:0:0:0:0:
192,192,39684,128,0,39719:0:0:0:0:
448,192,39684,128,0,39719:0:0:0:0:
64,192,39719,128,0,39755:0:0:0:0:
320,192,39719,128,0,39755:0:0:0:0:
192,192,39755,128,0,39791:0:0:0:0:
448,192,39755,128,0,39791:0:0:0:0:
64,192,39791,128,0,39826:0:0:0:0:
320,192,39791,128,0,39826:0:0:0:0:
192,192,39826,128,0,39862:0:0:0:0:
448,192,39826,128,0,39862:0:0:0:0:
320,192,39862,128,0,39898:0:0:0:0:
64,192,39862,128,0,39898:0:0:0:0:
192,192,39898,128,0,39934:0:0:0:0:
448,192,39898,128,0,39934:0:0:0:0:
320,192,39934,128,0,39969:0:0:0:0:
64,192,39934,128,0,39969:0:0:0:0:
192,192,39969,128,0,40005:0:0:0:0:
448,192,40005,128,0,40041:0:0:0:0:
64,192,40005,128,0,40041:0:0:0:0:
192,192,40041,1,0,0:0:0:0:
320,192,40041,1,0,0:0:0:0:
448,192,40112,1,0,0:0:0:0:
192,192,40184,1,0,0:0:0:0:
320,192,40255,1,0,0:0:0:0:
448,192,40326,1,0,0:0:0:0:
192,192,40326,1,0,0:0:0:0:
64,192,40398,1,0,0:0:0:0:
320,192,40469,1,0,0:0:0:0:
192,192,40541,1,0,0:0:0:0:
64,192,40612,1,0,0:0:0:0:
320,192,40612,1,0,0:0:0:0:
448,192,40684,1,0,0:0:0:0:
320,192,40755,1,0,0:0:0:0:
192,192,40826,1,0,0:0:0:0:
64,192,40898,1,0,0:0:0:0:
448,192,40898,1,0,0:0:0:0:
192,192,40969,1,0,0:0:0:0:
448,192,41041,1,0,0:0:0:0:
320,192,41112,1,0,0:0:0:0:
192,192,41184,1,0,0:0:0:0:
448,192,41184,1,0,0:0:0:0:
64,192,41255,1,0,0:0:0:0:
320,192,41326,1,0,0:0:0:0:
448,192,41398,1,0,0:0:0:0:
192,192,41469,1,0,0:0:0:0:
64,192,41469,1,0,0:0:0:0:
320,192,41541,1,0,0:0:0:0:
64,192,41612,1,0,0:0:0:0:
192,192,41684,1,0,0:0:0:0:
320,192,41755,1,0,0:0:0:0:
448,192,41755,1,0,0:0:0:0:
192,192,41826,1,0,0:0:0:0:
320,192,41898,1,0,0:0:0:0:
192,192,41969,1,0,0:0:0:0:
448,192,42041,1,0,0:0:0:0:
320,192,42041,1,0,0:0:0:0:
64,192,42112,1,0,0:0:0:0:
192,192,42112,1,0,0:0:0:0:
448,192,42184,1,0,0:0:0:0:
320,192,42184,1,0,0:0:0:0:
64,192,42255,1,0,0:0:0:0:
192,192,42255,1,0,0:0:0:0:
320,192,42326,1,0,0:0:0:0:
448,192,42326,1,0,0:0:0:0:
192,192,42398,1,0,0:0:0:0:
64,192,42469,1,0,0:0:0:0:
320,192,42541,1,0,0:0:0:0:
192,192,42612,1,0,0:0:0:0:
64,192,42612,1,0,0:0:0:0:
320,192,42684,1,0,0:0:0:0:
448,192,42755,1,0,0:0:0:0:
320,192,42826,1,0,0:0:0:0:
192,192,42898,1,0,0:0:0:0:
448,192,42898,1,0,0:0:0:0:
64,192,42969,1,0,0:0:0:0:
448,192,43041,1,0,0:0:0:0:
320,192,43112,1,0,0:0:0:0:
192,192,43184,1,0,0:0:0:0:
448,192,43184,1,0,0:0:0:0:
320,192,43255,1,0,0:0:0:0:
192,192,43326,1,0,0:0:0:0:
64,192,43398,1,0,0:0:0:0:
192,192,43469,1,0,0:0:0:0:
320,192,43469,1,0,0:0:0:0:
448,192,43541,1,0,0:0:0:0:
64,192,43612,1,0,0:0:0:0:
448,192,43684,1,0,0:0:0:0:
192,192,43755,1,0,0:0:0:0:
64,192,43755,1,0,0:0:0:0:
320,192,43826,1,0,0:0:0:0:
448,192,43898,1,0,0:0:0:0:
192,192,43969,1,0,0:0:0:0:
320,192,44041,1,0,0:0:0:0:
448,192,44041,1,0,0:0:0:0:
64,192,44112,1,0,0:0:0:0:
192,192,44184,1,0,0:0:0:0:
320,192,44255,1,0,0:0:0:0:
448,192,44326,1,0,0:0:0:0:
192,192,44326,1,0,0:0:0:0:
320,192,44398,1,0,0:0:0:0:
192,192,44469,1,0,0:0:0:0:
448,192,44469,1,0,0:0:0:0:
320,192,44541,1,0,0:0:0:0:
64,192,44612,1,0,0:0:0:0:
448,192,44612,1,0,0:0:0:0:
192,192,44684,1,0,0:0:0:0:
320,192,44684,1,0,0:0:0:0:
64,192,44755,1,0,0:0:0:0:
448,192,44755,1,0,0:0:0:0:
320,192,44826,1,0,0:0:0:0:
192,192,44826,1,0,0:0:0:0:
448,192,44898,1,0,0:0:0:0:
64,192,44898,1,0,0:0:0:0:
192,192,44969,1,0,0:0:0:0:
320,192,44969,1,0,0:0:0:0:
64,192,45041,1,0,0:0:0:0:
448,192,45041,1,0,0:0:0:0:
192,192,45112,1,0,0:0:0:0:
320,192,45112,1,0,0:0:0:0:
448,192,45184,1,0,0:0:0:0:
64,192,45184,1,0,0:0:0:0:
320,192,45255,1,0,0:0:0:0:
64,192,45326,1,0,0:0:0:0:
448,192,45398,1,0,0:0:0:0:
320,192,45469,1,0,0:0:0:0:
192,192,45469,1,0,0:0:0:0:
64,192,45541,1,0,0:0:0:0:
448,192,45612,1,0,0:0:0:0:
320,192,45684,1,0,0:0:0:0:
192,192,45755,1,0,0:0:0:0:
64,192,45755,1,0,0:0:0:0:
320,192,45826,1,0,0:0:0:0:
192,192,45898,1,0,0:0:0:0:
320,192,45969,1,0,0:0:0:0:
192,192,46041,1,0,0:0:0:0:
448,192,46041,1,0,0:0:0:0:
320,192,46112,1,0,0:0:0:0:
448,192,46184,1,0,0:0:0:0:
320,192,46255,1,0,0:0:0:0:
192,192,46326,1,0,0:0:0:0:
64,192,46326,1,0,0:0:0:0:
448,192,46398,1,0,0:0:0:0:
320,192,46469,1,0,0:0:0:0:
192,192,46541,1,0,0:0:0:0:
64,192,46612,1,0,0:0:0:0:
448,192,46612,1,0,0:0:0:0:
192,192,46684,1,0,0:0:0:0:
320,192,46755,1,0,0:0:0:0:
448,192,46826,1,0,0:0:0:0:
64,192,46898,1,0,0:0:0:0:
320,192,46898,1,0,0:0:0:0:
192,192,46969,1,0,0:0:0:0:
320,192,47041,1,0,0:0:0:0:
192,192,47112,1,0,0:0:0:0:
320,192,47184,1,0,0:0:0:0:
448,192,47184,1,0,0:0:0:0:
192,192,47255,1,0,0:0:0:0:
64,192,47326,1,0,0:0:0:0:
320,192,47398,1,0,0:0:0:0:
192,192,47469,1,0,0:0:0:0:
448,192,47469,1,0,0:0:0:0:
64,192,47541,1,0,0:0:0:0:
192,192,47612,1,0,0:0:0:0:
320,192,47684,1,0,0:0:0:0:
448,192,47755,1,0,0:0:0:0:
192,192,47755,1,0,0:0:0:0:
320,192,47826,1,0,0:0:0:0:
448,192,47898,1,0,0:0:0:0:
64,192,47969,1,0,0:0:0:0:
192,192,48041,1,0,0:0:0:0:
320,192,48041,1,0,0:0:0:0:
448,192,48112,1,0,0:0:0:0:
192,192,48184,1,0,0:0:0:0:
320,192,48184,1,0,0:0:0:0:
448,192,48255,1,0,0:0:0:0:
192,192,48326,1,0,0:0:0:0:
320,192,48326,1,0,0:0:0:0:
448,192,48398,1,0,0:0:0:0:
320,192,48469,1,0,0:0:0:0:
192,192,48541,1,0,0:0:0:0:
64,192,48612,128,0,48826:0:0:0:0:
320,192,48612,128,0,48826:0:0:0:0:
64,192,48898,128,0,49112:0:0:0:0:
320,192,48898,128,0,49112:0:0:0:0:
64,192,49184,1,0,0:0:0:0:
320,192,49184,1,0,0:0:0:0:
192,192,49326,1,0,0:0:0:0:
448,192,49326,1,0,0:0:0:0:
320,192,49469,1,0,0:0:0:0:
448,192,49469,1,0,0:0:0:0:
64,192,49612,1,0,0:0:0:0:
448,192,49612,1,0,0:0:0:0:
192,192,49755,1,0,0:0:0:0:
320,192,49755,1,0,0:0:0:0:
448,192,49826,1,0,0:0:0:0:
192,192,49898,1,0,0:0:0:0:
320,192,49969,1,0,0:0:0:0:
192,192,50041,1,0,0:0:0:0:
448,192,50041,1,0,0:0:0:0:
64,192,50112,1,0,0:0:0:0:
320,192,50184,1,0,0:0:0:0:
192,192,50255,1,0,0:0:0:0:
320,192,50326,1,0,0:0:0:0:
64,192,50326,1,0,0:0:0:0:
448,192,50398,1,0,0:0:0:0:
320,192,50469,1,0,0:0:0:0:
192,192,50541,1,0,0:0:0:0:
448,192,50612,1,0,0:0:0:0:
64,192,50612,1,0,0:0:0:0:
192,192,50684,1,0,0:0:0:0:
448,192,50755,1,0,0:0:0:0:
320,192,50826,1,0,0:0:0:0:
448,192,50898,1,0,0:0:0:0:
192,192,50898,1,0,0:0:0:0:
64,192,50969,1,0,0:0:0:0:
320,192,51041,1,0,0:0:0:0:
448,192,51112,1,0,0:0:0:0:
64,192,51184,1,0,0:0:0:0:
192,192,51184,1,0,0:0:0:0:
320,192,51255,1,0,0:0:0:0:
448,192,51255,1,0,0:0:0:0:
64,192,51326,1,0,0:0:0:0:
192,192,51326,1,0,0:0:0:0:
320,192,51398,1,0,0:0:0:0:
448,192,51398,1,0,0:0:0:0:
64,192,51469,1,0,0:0:0:0:
192,192,51469,1,0,0:0:0:0:
448,192,51541,1,0,0:0:0:0:
320,192,51612,1,0,0:0:0:0:
192,192,51684,1,0,0:0:0:0:
320,192,51755,1,0,0:0:0:0:
64,192,51755,1,0,0:0:0:0:
448,192,51826,1,0,0:0:0:0:
320,192,51898,1,0,0:0:0:0:
192,192,51969,1,0,0:0:0:0:
320,192,52041,1,0,0:0:0:0:
448,192,52041,1,0,0:0:0:0:
192,192,52112,1,0,0:0:0:0:
64,192,52184,1,0,0:0:0:0:
320,192,52255,1,0,0:0:0:0:
64,192,52326,1,0,0:0:0:0:
192,192,52326,1,0,0:0:0:0:
320,192,52398,1,0,0:0:0:0:
448,192,52469,1,0,0:0:0:0:
320,192,52541,1,0,0:0:0:0:
448,192,52612,1,0,0:0:0:0:
192,192,52612,1,0,0:0:0:0:
64,192,52684,1,0,0:0:0:0:
448,192,52755,1,0,0:0:0:0:
320,192,52826,1,0,0:0:0:0:
448,192,52898,1,0,0:0:0:0:
192,192,52898,1,0,0:0:0:0:
320,192,52969,1,0,0:0:0:0:
192,192,53041,1,0,0:0:0:0:
64,192,53112,1,0,0:0:0:0:
320,192,53184,1,0,0:0:0:0:
192,192,53184,1,0,0:0:0:0:
448,192,53255,1,0,0:0:0:0:
64,192,53326,1,0,0:0:0:0:
192,192,53326,1,0,0:0:0:0:
320,192,53398,1,0,0:0:0:0:
448,192,53469,1,0,0:0:0:0:
192,192,53469,1,0,0:0:0:0:
320,192,53541,1,0,0:0:0:0:
448,192,53612,1,0,0:0:0:0:
64,192,53612,1,0,0:0:0:0:
192,192,53684,1,0,0:0:0:0:
448,192,53755,1,0,0:0:0:0:
320,192,53755,1,0,0:0:0:0:
64,192,53826,1,0,0:0:0:0:
192,192,53898,1,0,0:0:0:0:
320,192,53969,1,0,0:0:0:0:
192,192,54041,1,0,0:0:0:0:
448,192,54041,1,0,0:0:0:0:
320,192,54112,1,0,0:0:0:0:
448,192,54184,1,0,0:0:0:0:
192,192,54184,1,0,0:0:0:0:
320,192,54255,1,0,0:0:0:0:
448,192,54326,1,0,0:0:0:0:
64,192,54326,1,0,0:0:0:0:
192,192,54398,1,0,0:0:0:0:
320,192,54469,1,0,0:0:0:0:
192,192,54541,1,0,0:0:0:0:
64,192,54612,1,0,0:0:0:0:
448,192,54612,1,0,0:0:0:0:
320,192,54684,1,0,0:0:0:0:
192,192,54755,1,0,0:0:0:0:
320,192,54826,1,0,0:0:0:0:
64,192,54898,1,0,0:0:0:0:
448,192,54898,1,0,0:0:0:0:
320,192,54969,1,0,0:0:0:0:
192,192,55041,1,0,0:0:0:0:
64,192,55112,1,0,0:0:0:0:
192,192,55184,1,0,0:0:0:0:
320,192,55184,1,0,0:0:0:0:
64,192,55255,1,0,0:0:0:0:
192,192,55326,1,0,0:0:0:0:
320,192,55398,1,0,0:0:0:0:
64,192,55469,1,0,0:0:0:0:
192,192,55469,1,0,0:0:0:0:
320,192,55541,1,0,0:0:0:0:
192,192,55612,1,0,0:0:0:0:
320,192,55684,1,0,0:0:0:0:
192,192,55755,1,0,0:0:0:0:
64,192,55755,1,0,0:0:0:0:
320,192,55826,1,0,0:0:0:0:
448,192,55898,1,0,0:0:0:0:
320,192,55969,1,0,0:0:0:0:
64,192,56041,1,0,0:0:0:0:
192,192,56041,1,0,0:0:0:0:
448,192,56112,1,0,0:0:0:0:
320,192,56184,1,0,0:0:0:0:
192,192,56255,1,0,0:0:0:0:
448,192,56326,1,0,0:0:0:0:
64,192,56326,1,0,0:0:0:0:
192,192,56398,1,0,0:0:0:0:
320,192,56469,1,0,0:0:0:0:
448,192,56541,1,0,0:0:0:0:
320,192,56612,1,0,0:0:0:0:
64,192,56612,1,0,0:0:0:0:
192,192,56684,1,0,0:0:0:0:
320,192,56755,1,0,0:0:0:0:
192,192,56826,1,0,0:0:0:0:
448,192,56898,1,0,0:0:0:0:
320,192,56898,1,0,0:0:0:0:
192,192,56969,1,0,0:0:0:0:
64,192,57041,1,0,0:0:0:0:
320,192,57112,1,0,0:0:0:0:
448,192,57184,5,0,0:0:0:0:
192,192,57184,1,0,0:0:0:0:
64,192,57255,1,0,0:0:0:0:
192,192,57326,1,0,0:0:0:0:
320,192,57398,1,0,0:0:0:0:
192,192,57469,1,0,0:0:0:0:
448,192,57469,1,0,0:0:0:0:
320,192,57541,1,0,0:0:0:0:
448,192,57612,1,0,0:0:0:0:
64,192,57684,1,0,0:0:0:0:
192,192,57755,1,0,0:0:0:0:
320,192,57755,1,0,0:0:0:0:
448,192,57826,1,0,0:0:0:0:
64,192,57898,1,0,0:0:0:0:
192,192,57969,1,0,0:0:0:0:
320,192,58041,1,0,0:0:0:0:
448,192,58041,1,0,0:0:0:0:
64,192,58112,1,0,0:0:0:0:
192,192,58184,1,0,0:0:0:0:
320,192,58255,1,0,0:0:0:0:
64,192,58326,128,0,58576:0:0:0:0:
192,192,58326,128,0,58541:0:0:0:0:
320,192,58326,128,0,58505:0:0:0:0:
448,192,58326,128,0,58469:0:0:0:0:
64,192,58612,128,0,58862:0:0:0:0:
192,192,58612,128,0,58826:0:0:0:0:
320,192,58612,128,0,58826:0:0:0:0:
448,192,58612,128,0,58862:0:0:0:0:
64,192,58898,128,0,59005:0:0:0:0:
192,192,58898,128,0,58969:0:0:0:0:
320,192,58898,128,0,59005:0:0:0:0:
448,192,58898,128,0,58969:0:0:0:0:
192,192,59041,128,0,59148:0:0:0:0:
64,192,59041,128,0,59112:0:0:0:0:
320,192,59041,128,0,59112:0:0:0:0:
448,192,59041,128,0,59148:0:0:0:0:
320,192,59184,128,0,59255:0:0:0:0:
448,192,59184,128,0,59291:0:0:0:0:
192,192,59184,128,0,59291:0:0:0:0:
64,192,59184,128,0,59255:0:0:0:0:
64,192,59326,128,0,59434:0:0:0:0:
192,192,59326,128,0,59398:0:0:0:0:
320,192,59326,128,0,59434:0:0:0:0:
448,192,59326,128,0,59398:0:0:0:0:
64,192,59469,1,0,0:0:0:0:
192,192,59469,1,0,0:0:0:0:
320,192,59469,1,0,0:0:0:0:
448,192,59469,1,0,0:0:0:0:
320,192,59612,1,0,0:0:0:0:
448,192,59612,128,0,59684:0:0:0:0:
192,192,59684,1,0,0:0:0:0:
64,192,59684,128,0,59755:0:0:0:0:
320,192,59755,1,0,0:0:0:0:
448,192,59755,128,0,59826:0:0:0:0:
192,192,59898,1,0,0:0:0:0:
64,192,59898,1,0,0:0:0:0:
448,192,60041,1,0,0:0:0:0:
320,192,60041,1,0,0:0:0:0:
448,192,60184,1,0,0:0:0:0:
320,192,60184,1,0,0:0:0:0:
192,192,60184,1,0,0:0:0:0:
448,192,60326,1,0,0:0:0:0:
320,192,60326,1,0,0:0:0:0:
192,192,60326,1,0,0:0:0:0:
64,192,60326,1,0,0:0:0:0:
64,192,60469,1,0,0:0:0:0:
192,192,60469,1,0,0:0:0:0:
320,192,60469,1,0,0:0:0:0:
448,192,60469,1,0,0:0:0:0:
64,192,60612,128,0,60862:0:0:0:0:
192,192,60648,128,0,60862:0:0:0:0:
320,192,60684,128,0,60862:0:0:0:0:
448,192,60719,128,0,60862:0:0:0:0:
448,192,60898,128,0,61148:0:0:0:0:
320,192,60898,128,0,61112:0:0:0:0:
192,192,60898,128,0,61076:0:0:0:0:
64,192,60898,128,0,61041:0:0:0:0:
64,192,61184,128,0,61291:0:0:0:0:
192,192,61184,128,0,61255:0:0:0:0:
320,192,61184,128,0,61219:0:0:0:0:
448,192,61184,1,0,0:0:0:0:
64,192,61326,1,0,0:0:0:0:
448,192,61326,128,0,61434:0:0:0:0:
320,192,61326,128,0,61398:0:0:0:0:
192,192,61326,128,0,61362:0:0:0:0:
448,192,61469,1,0,0:0:0:0:
320,192,61469,128,0,61505:0:0:0:0:
192,192,61469,128,0,61541:0:0:0:0:
64,192,61469,128,0,61576:0:0:0:0:
64,192,61612,1,0,0:0:0:0:
192,192,61612,128,0,61648:0:0:0:0:
320,192,61612,128,0,61684:0:0:0:0:
448,192,61612,128,0,61719:0:0:0:0:
320,192,61755,1,0,0:0:0:0:
192,192,61755,1,0,0:0:0:0:
64,192,61755,128,0,61826:0:0:0:0:
192,192,61898,1,0,0:0:0:0:
320,192,61898,1,0,0:0:0:0:
448,192,61898,128,0,61969:0:0:0:0:
320,192,62041,1,0,0:0:0:0:
192,192,62041,1,0,0:0:0:0:
64,192,62041,128,0,62112:0:0:0:0:
192,192,62184,1,0,0:0:0:0:
320,192,62184,1,0,0:0:0:0:
448,192,62184,128,0,62255:0:0:0:0:
64,192,62326,1,0,0:0:0:0:
192,192,62326,1,0,0:0:0:0:
64,192,62469,1,0,0:0:0:0:
192,192,62469,1,0,0:0:0:0:
320,192,62469,1,0,0:0:0:0:
64,192,62612,1,0,0:0:0:0:
192,192,62612,1,0,0:0:0:0:
320,192,62612,1,0,0:0:0:0:
448,192,62612,1,0,0:0:0:0:
448,192,62755,1,0,0:0:0:0:
320,192,62755,1,0,0:0:0:0:
192,192,62755,1,0,0:0:0:0:
64,192,62755,1,0,0:0:0:0:
448,192,62898,128,0,63148:0:0:0:0:
320,192,62934,128,0,63112:0:0:0:0:
192,192,62969,128,0,63076:0:0:0:0:
64,192,63005,128,0,63041:0:0:0:0:
64,192,63184,128,0,63434:0:0:0:0:
192,192,63219,128,0,63398:0:0:0:0:
320,192,63255,128,0,63362:0:0:0:0:
448,192,63291,128,0,63326:0:0:0:0:
192,192,63469,128,0,63576:0:0:0:0:
320,192,63469,128,0,63541:0:0:0:0:
448,192,63469,128,0,63541:0:0:0:0:
192,192,63612,128,0,63684:0:0:0:0:
320,192,63612,128,0,63719:0:0:0:0:
448,192,63612,128,0,63684:0:0:0:0:
192,192,63755,128,0,63826:0:0:0:0:
320,192,63755,128,0,63826:0:0:0:0:
448,192,63755,128,0,63862:0:0:0:0:
448,192,63898,128,0,63969:0:0:0:0:
320,192,63898,128,0,64005:0:0:0:0:
192,192,63898,128,0,63969:0:0:0:0:
192,192,64041,1,0,0:0:0:0:
320,192,64041,1,0,0:0:0:0:
448,192,64041,1,0,0:0:0:0:
64,192,64184,1,0,0:0:0:0:
192,192,64184,128,0,64255:0:0:0:0:
448,192,64255,1,0,0:0:0:0:
320,192,64255,128,0,64326:0:0:0:0:
64,192,64326,1,0,0:0:0:0:
192,192,64326,128,0,64398:0:0:0:0:
64,192,64469,1,0,0:0:0:0:
192,192,64469,1,0,0:0:0:0:
448,192,64612,128,0,64719:0:0:0:0:
192,192,64612,128,0,64719:0:0:0:0:
320,192,64648,128,0,64719:0:0:0:0:
64,192,64648,128,0,64719:0:0:0:0:
320,192,64755,128,0,64862:0:0:0:0:
64,192,64755,128,0,64862:0:0:0:0:
448,192,64791,128,0,64862:0:0:0:0:
192,192,64791,128,0,64862:0:0:0:0:
448,192,64898,128,0,65005:0:0:0:0:
192,192,64898,128,0,65005:0:0:0:0:
320,192,64934,128,0,65005:0:0:0:0:
64,192,64934,128,0,65005:0:0:0:0:
64,192,65041,128,0,65148:0:0:0:0:
320,192,65041,128,0,65148:0:0:0:0:
192,192,65076,128,0,65148:0:0:0:0:
448,192,65076,128,0,65148:0:0:0:0:
64,192,65184,128,0,65291:0:0:0:0:
64,192,65326,128,0,65434:0:0:0:0:
64,192,65469,128,0,65576:0:0:0:0:
192,192,65469,128,0,65576:0:0:0:0:
64,192,65612,128,0,65719:0:0:0:0:
192,192,65612,128,0,65719:0:0:0:0:
64,192,65755,128,0,65862:0:0:0:0:
192,192,65755,128,0,65862:0:0:0:0:
320,192,65755,128,0,65862:0:0:0:0:
64,192,65898,128,0,66005:0:0:0:0:
192,192,65898,128,0,66005:0:0:0:0:
320,192,65898,128,0,66005:0:0:0:0:
64,192,66041,128,0,66148:0:0:0:0:
192,192,66041,128,0,66148:0:0:0:0:
320,192,66041,128,0,66148:0:0:0:0:
448,192,66041,128,0,66148:0:0:0:0:
64,192,66184,128,0,66291:0:0:0:0:
192,192,66184,128,0,66291:0:0:0:0:
320,192,66184,128,0,66291:0:0:0:0:
448,192,66184,128,0,66291:0:0:0:0:
64,192,66326,128,0,66862:0:0:0:0:
192,192,66326,128,0,66719:0:0:0:0:
320,192,66326,128,0,66576:0:0:0:0:
448,192,66326,128,0,66434:0:0:0:0:
448,192,66469,128,0,66541:0:0:0:0:
320,192,66612,128,0,66684:0:0:0:0:
192,192,66755,128,0,66826:0:0:0:0:
64,192,66898,128,0,67434:0:0:0:0:
448,192,66898,1,0,0:0:0:0:
320,192,66898,1,0,0:0:0:0:
192,192,66898,1,0,0:0:0:0:
192,192,67041,128,0,67434:0:0:0:0:
320,192,67184,128,0,67434:0:0:0:0:
448,192,67326,128,0,67434:0:0:0:0:
192,192,67469,128,0,67648:0:0:0:0:
320,192,67469,128,0,67684:0:0:0:0:
448,192,67469,128,0,67719:0:0:0:0:
64,192,67469,128,0,67612:0:0:0:0:
448,192,67755,128,0,68005:0:0:0:0:
320,192,67755,128,0,68005:0:0:0:0:
192,192,67755,128,0,68005:0:0:0:0:
64,192,67755,128,0,68005:0:0:0:0:
448,192,68041,128,0,68112:0:0:0:0:
320,192,68041,128,0,68094:0:0:0:0:
192,192,68041,128,0,68076:0:0:0:0:
64,192,68041,128,0,68059:0:0:0:0:
320,192,68184,128,0,68237:0:0:0:0:
448,192,68184,128,0,68219:0:0:0:0:
192,192,68184,128,0,68255:0:0:0:0:
64,192,68184,128,0,68273:0:0:0:0:
192,192,68326,128,0,68398:0:0:0:0:
64,192,68326,128,0,68380:0:0:0:0:
320,192,68326,128,0,68416:0:0:0:0:
448,192,68326,128,0,68434:0:0:0:0:
64,192,68469,128,0,68594:0:0:0:0:
448,192,68469,128,0,68541:0:0:0:0:
320,192,68469,128,0,68559:0:0:0:0:
192,192,68469,128,0,68576:0:0:0:0:
448,192,68612,1,0,0:0:0:0:
320,192,68612,1,0,0:0:0:0:
192,192,68612,1,0,0:0:0:0:
64,192,68612,1,0,0:0:0:0:
64,192,68755,1,0,0:0:0:0:
192,192,68755,128,0,68826:0:0:0:0:
448,192,68826,1,0,0:0:0:0:
320,192,68826,128,0,68898:0:0:0:0:
64,192,68898,1,0,0:0:0:0:
192,192,68898,128,0,68969:0:0:0:0:
320,192,69041,1,0,0:0:0:0:
448,192,69041,1,0,0:0:0:0:
64,192,69184,1,0,0:0:0:0:
192,192,69184,1,0,0:0:0:0:
64,192,69326,1,0,0:0:0:0:
320,192,69326,1,0,0:0:0:0:
192,192,69326,1,0,0:0:0:0:
64,192,69469,1,0,0:0:0:0:
320,192,69469,1,0,0:0:0:0:
448,192,69469,1,0,0:0:0:0:
192,192,69469,1,0,0:0:0:0:
448,192,69612,1,0,0:0:0:0:
320,192,69612,1,0,0:0:0:0:
192,192,69612,1,0,0:0:0:0:
64,192,69612,1,0,0:0:0:0:
448,192,69755,128,0,70005:0:0:0:0:
320,192,69791,128,0,70005:0:0:0:0:
192,192,69826,128,0,70005:0:0:0:0:
64,192,69862,128,0,70005:0:0:0:0:
64,192,70041,128,0,70291:0:0:0:0:
192,192,70041,128,0,70255:0:0:0:0:
320,192,70041,128,0,70219:0:0:0:0:
448,192,70041,128,0,70184:0:0:0:0:
448,192,70326,128,0,70362:0:0:0:0:
320,192,70326,128,0,70398:0:0:0:0:
192,192,70326,128,0,70434:0:0:0:0:
64,192,70326,128,0,70398:0:0:0:0:
64,192,70469,128,0,70505:0:0:0:0:
192,192,70469,128,0,70541:0:0:0:0:
320,192,70469,128,0,70576:0:0:0:0:
448,192,70469,128,0,70541:0:0:0:0:
192,192,70612,128,0,70719:0:0:0:0:
320,192,70612,128,0,70684:0:0:0:0:
448,192,70612,128,0,70648:0:0:0:0:
64,192,70612,128,0,70684:0:0:0:0:
320,192,70755,128,0,70862:0:0:0:0:
192,192,70755,128,0,70826:0:0:0:0:
64,192,70755,128,0,70791:0:0:0:0:
448,192,70755,128,0,70826:0:0:0:0:
448,192,70898,1,0,0:0:0:0:
192,192,70898,128,0,71005:0:0:0:0:
320,192,70898,128,0,71005:0:0:0:0:
64,192,71041,1,0,0:0:0:0:
320,192,71041,128,0,71148:0:0:0:0:
192,192,71041,128,0,71148:0:0:0:0:
448,192,71184,1,0,0:0:0:0:
192,192,71184,128,0,71291:0:0:0:0:
320,192,71184,128,0,71291:0:0:0:0:
64,192,71326,1,0,0:0:0:0:
320,192,71326,128,0,71434:0:0:0:0:
192,192,71326,128,0,71434:0:0:0:0:
448,192,71469,1,0,0:0:0:0:
320,192,71469,1,0,0:0:0:0:
448,192,71612,1,0,0:0:0:0:
320,192,71612,1,0,0:0:0:0:
192,192,71612,1,0,0:0:0:0:
448,192,71755,1,0,0:0:0:0:
320,192,71755,1,0,0:0:0:0:
192,192,71755,1,0,0:0:0:0:
64,192,71755,1,0,0:0:0:0:
64,192,71898,1,0,0:0:0:0:
192,192,71898,1,0,0:0:0:0:
320,192,71898,1,0,0:0:0:0:
448,192,71898,1,0,0:0:0:0:
64,192,72041,128,0,72291:0:0:0:0:
192,192,72076,128,0,72255:0:0:0:0:
320,192,72112,128,0,72219:0:0:0:0:
448,192,72148,128,0,72184:0:0:0:0:
448,192,72326,128,0,72576:0:0:0:0:
320,192,72362,128,0,72541:0:0:0:0:
192,192,72398,128,0,72505:0:0:0:0:
64,192,72434,128,0,72469:0:0:0:0:
448,192,72612,128,0,72648:0:0:0:0:
192,192,72612,128,0,72684:0:0:0:0:
64,192,72612,128,0,72719:0:0:0:0:
448,192,72755,128,0,72862:0:0:0:0:
192,192,72755,128,0,72826:0:0:0:0:
64,192,72755,128,0,72791:0:0:0:0:
448,192,72898,128,0,72934:0:0:0:0:
192,192,72898,128,0,72969:0:0:0:0:
64,192,72898,128,0,73005:0:0:0:0:
64,192,73041,128,0,73076:0:0:0:0:
192,192,73041,128,0,73112:0:0:0:0:
448,192,73041,128,0,73148:0:0:0:0:
320,192,73184,1,0,0:0:0:0:
192,192,73184,1,0,0:0:0:0:
64,192,73184,1,0,0:0:0:0:
320,192,73326,1,0,0:0:0:0:
448,192,73326,128,0,73398:0:0:0:0:
192,192,73398,1,0,0:0:0:0:
64,192,73398,128,0,73469:0:0:0:0:
320,192,73469,1,0,0:0:0:0:
448,192,73469,128,0,73541:0:0:0:0:
448,192,73612,1,0,0:0:0:0:
320,192,73612,1,0,0:0:0:0:
448,192,73755,128,0,73862:0:0:0:0:
64,192,73755,128,0,73862:0:0:0:0:
192,192,73791,128,0,73826:0:0:0:0:
320,192,73791,128,0,73826:0:0:0:0:
64,192,73898,128,0,74005:0:0:0:0:
448,192,73898,128,0,74005:0:0:0:0:
320,192,73934,128,0,73969:0:0:0:0:
192,192,73934,128,0,73969:0:0:0:0:
64,192,74041,128,0,74148:0:0:0:0:
448,192,74041,128,0,74148:0:0:0:0:
192,192,74076,128,0,74112:0:0:0:0:
320,192,74076,128,0,74112:0:0:0:0:
448,192,74184,128,0,74291:0:0:0:0:
64,192,74184,128,0,74291:0:0:0:0:
320,192,74219,128,0,74255:0:0:0:0:
192,192,74219,128,0,74255:0:0:0:0:
64,192,74326,128,0,74576:0:0:0:0:
192,192,74362,128,0,74576:0:0:0:0:
320,192,74398,128,0,74576:0:0:0:0:
448,192,74434,128,0,74576:0:0:0:0:
448,192,74612,128,0,74862:0:0:0:0:
320,192,74648,128,0,74862:0:0:0:0:
192,192,74684,128,0,74862:0:0:0:0:
64,192,74719,128,0,74862:0:0:0:0:
64,192,74898,1,0,0:0:0:0:
192,192,74898,1,0,0:0:0:0:
64,192,75041,1,0,0:0:0:0:
192,192,75041,1,0,0:0:0:0:
320,192,75041,1,0,0:0:0:0:
64,192,75184,1,0,0:0:0:0:
192,192,75184,1,0,0:0:0:0:
320,192,75184,1,0,0:0:0:0:
448,192,75184,1,0,0:0:0:0:
64,192,75326,1,0,0:0:0:0:
192,192,75326,1,0,0:0:0:0:
320,192,75326,1,0,0:0:0:0:
448,192,75326,1,0,0:0:0:0:
64,192,75469,128,0,75576:0:0:0:0:
192,192,75469,128,0,75559:0:0:0:0:
320,192,75469,128,0,75541:0:0:0:0:
448,192,75469,128,0,75523:0:0:0:0:
64,192,75612,1,0,0:0:0:0:
192,192,75612,1,0,0:0:0:0:
320,192,75612,1,0,0:0:0:0:
448,192,75612,1,0,0:0:0:0:
448,192,75755,128,0,75862:0:0:0:0:
320,192,75755,128,0,75844:0:0:0:0:
192,192,75755,128,0,75826:0:0:0:0:
64,192,75755,128,0,75809:0:0:0:0:
64,192,75898,1,0,0:0:0:0:
192,192,75898,1,0,0:0:0:0:
320,192,75898,1,0,0:0:0:0:
448,192,75898,1,0,0:0:0:0:
448,192,76041,128,0,76576:0:0:0:0:
64,192,76041,1,0,0:0:0:0:
192,192,76041,1,0,0:0:0:0:
320,192,76041,1,0,0:0:0:0:
320,192,76184,128,0,76576:0:0:0:0:
192,192,76326,128,0,76576:0:0:0:0:
64,192,76469,128,0,76576:0:0:0:0:
64,192,76612,1,0,0:0:0:0:
192,192,76612,1,0,0:0:0:0:
320,192,76612,1,0,0:0:0:0:
448,192,76612,1,0,0:0:0:0:
192,192,77755,1,0,0:0:0:0:
320,192,77755,1,0,0:0:0:0:
448,192,77755,1,0,0:0:0:0:
64,192,77755,1,0,0:0:0:0:
320,192,78898,1,0,0:0:0:0:
192,192,78898,1,0,0:0:0:0:
64,192,78898,1,0,0:0:0:0:
448,192,78898,1,0,0:0:0:0:
320,192,80041,1,0,0:0:0:0:
192,192,80041,1,0,0:0:0:0:
448,192,80041,1,0,0:0:0:0:
64,192,80041,1,0,0:0:0:0:
192,192,81184,1,0,0:0:0:0:
320,192,81184,1,0,0:0:0:0:
448,192,81184,1,0,0:0:0:0:
64,192,81184,1,0,0:0:0:0:
320,192,81755,1,0,0:0:0:0:
192,192,81755,1,0,0:0:0:0:
448,192,81755,1,0,0:0:0:0:
64,192,81755,1,0,0:0:0:0:
192,192,82326,1,0,0:0:0:0:
320,192,82326,1,0,0:0:0:0:
448,192,82326,1,0,0:0:0:0:
64,192,82326,1,0,0:0:0:0:
192,192,82898,1,0,0:0:0:0:
320,192,82898,1,0,0:0:0:0:
448,192,82898,1,0,0:0:0:0:
64,192,82898,1,0,0:0:0:0:
192,192,83469,1,0,0:0:0:0:
320,192,83469,1,0,0:0:0:0:
448,192,83469,1,0,0:0:0:0:
64,192,83469,1,0,0:0:0:0:
192,192,83755,1,0,0:0:0:0:
320,192,83755,1,0,0:0:0:0:
64,192,83755,1,0,0:0:0:0:
448,192,83755,1,0,0:0:0:0:
192,192,84041,1,0,0:0:0:0:
320,192,84041,1,0,0:0:0:0:
448,192,84041,1,0,0:0:0:0:
64,192,84041,1,0,0:0:0:0:
192,192,84326,1,0,0:0:0:0:
320,192,84326,1,0,0:0:0:0:
64,192,84326,1,0,0:0:0:0:
448,192,84326,1,0,0:0:0:0:
192,192,84612,1,0,0:0:0:0:
320,192,84612,1,0,0:0:0:0:
448,192,84612,1,0,0:0:0:0:
64,192,84612,1,0,0:0:0:0:
192,192,84755,1,0,0:0:0:0:
320,192,84755,1,0,0:0:0:0:
448,192,84755,1,0,0:0:0:0:
64,192,84755,1,0,0:0:0:0:
192,192,84898,1,0,0:0:0:0:
320,192,84898,1,0,0:0:0:0:
64,192,84898,1,0,0:0:0:0:
448,192,84898,1,0,0:0:0:0:
320,192,85041,1,0,0:0:0:0:
192,192,85041,1,0,0:0:0:0:
448,192,85041,1,0,0:0:0:0:
64,192,85041,1,0,0:0:0:0:
448,192,85184,1,0,0:0:0:0:
320,192,85184,1,0,0:0:0:0:
192,192,85184,1,0,0:0:0:0:
64,192,85184,1,0,0:0:0:0:
64,192,85255,1,0,0:0:0:0:
448,192,85326,1,0,0:0:0:0:
448,192,85398,1,0,0:0:0:0:
192,192,85469,1,0,0:0:0:0:
192,192,85541,1,0,0:0:0:0:
320,192,85612,1,0,0:0:0:0:
320,192,85684,1,0,0:0:0:0:
64,192,85755,1,0,0:0:0:0:
64,192,85826,1,0,0:0:0:0:
448,192,85898,1,0,0:0:0:0:
448,192,85969,1,0,0:0:0:0:
192,192,86041,1,0,0:0:0:0:
192,192,86112,1,0,0:0:0:0:
320,192,86184,1,0,0:0:0:0:
320,192,86255,1,0,0:0:0:0:
64,192,86326,1,0,0:0:0:0:
192,192,86326,1,0,0:0:0:0:
64,192,86398,1,0,0:0:0:0:
192,192,86398,1,0,0:0:0:0:
320,192,86469,1,0,0:0:0:0:
448,192,86469,1,0,0:0:0:0:
320,192,86541,1,0,0:0:0:0:
448,192,86541,1,0,0:0:0:0:
64,192,86612,1,0,0:0:0:0:
192,192,86612,1,0,0:0:0:0:
64,192,86684,1,0,0:0:0:0:
192,192,86684,1,0,0:0:0:0:
320,192,86755,1,0,0:0:0:0:
448,192,86755,1,0,0:0:0:0:
448,192,86826,1,0,0:0:0:0:
320,192,86826,1,0,0:0:0:0:
64,192,86898,128,0,87005:0:0:0:0:
192,192,86934,128,0,87005:0:0:0:0:
320,192,86969,128,0,87005:0:0:0:0:
448,192,87005,1,0,0:0:0:0:
64,192,87041,128,0,87148:0:0:0:0:
192,192,87076,128,0,87148:0:0:0:0:
320,192,87112,128,0,87148:0:0:0:0:
448,192,87148,1,0,0:0:0:0:
64,192,87184,128,0,87291:0:0:0:0:
192,192,87219,128,0,87291:0:0:0:0:
320,192,87255,128,0,87291:0:0:0:0:
448,192,87291,1,0,0:0:0:0:
64,192,87326,128,0,87434:0:0:0:0:
192,192,87362,128,0,87434:0:0:0:0:
320,192,87398,128,0,87434:0:0:0:0:
448,192,87434,1,0,0:0:0:0:
64,192,87469,128,0,87576:0:0:0:0:
192,192,87505,128,0,87576:0:0:0:0:
320,192,87541,128,0,87576:0:0:0:0:
448,192,87576,1,0,0:0:0:0:
64,192,87612,128,0,87719:0:0:0:0:
192,192,87648,128,0,87719:0:0:0:0:
320,192,87684,128,0,87719:0:0:0:0:
448,192,87719,1,0,0:0:0:0:
64,192,87755,128,0,87862:0:0:0:0:
192,192,87791,128,0,87862:0:0:0:0:
320,192,87826,128,0,87862:0:0:0:0:
448,192,87862,1,0,0:0:0:0:
64,192,87898,128,0,88005:0:0:0:0:
192,192,87934,128,0,88005:0:0:0:0:
320,192,87969,128,0,88005:0:0:0:0:
448,192,88005,1,0,0:0:0:0:
64,192,88041,128,0,88148:0:0:0:0:
192,192,88076,128,0,88112:0:0:0:0:
448,192,88112,128,0,88219:0:0:0:0:
320,192,88148,128,0,88184:0:0:0:0:
64,192,88184,128,0,88291:0:0:0:0:
192,192,88219,128,0,88255:0:0:0:0:
448,192,88255,128,0,88362:0:0:0:0:
320,192,88291,128,0,88326:0:0:0:0:
64,192,88326,128,0,88434:0:0:0:0:
192,192,88362,128,0,88398:0:0:0:0:
448,192,88398,128,0,88505:0:0:0:0:
320,192,88434,128,0,88469:0:0:0:0:
64,192,88469,128,0,88576:0:0:0:0:
192,192,88505,128,0,88541:0:0:0:0:
448,192,88541,128,0,88648:0:0:0:0:
320,192,88576,128,0,88612:0:0:0:0:
64,192,88612,128,0,88719:0:0:0:0:
192,192,88648,128,0,88684:0:0:0:0:
448,192,88684,128,0,88791:0:0:0:0:
320,192,88719,128,0,88755:0:0:0:0:
64,192,88755,128,0,88862:0:0:0:0:
192,192,88791,128,0,88826:0:0:0:0:
448,192,88826,128,0,88934:0:0:0:0:
320,192,88862,128,0,88898:0:0:0:0:
64,192,88898,128,0,89005:0:0:0:0:
192,192,88934,128,0,88969:0:0:0:0:
448,192,88969,128,0,89076:0:0:0:0:
320,192,89005,128,0,89041:0:0:0:0:
64,192,89041,128,0,89148:0:0:0:0:
192,192,89076,128,0,89112:0:0:0:0:
448,192,89112,128,0,89148:0:0:0:0:
320,192,89148,1,0,0:0:0:0:
64,192,89184,1,0,0:0:0:0:
192,192,89184,1,0,0:0:0:0:
320,192,89184,1,0,0:0:0:0:
448,192,89184,1,0,0:0:0:0:
192,192,89326,1,0,0:0:0:0:
320,192,89326,1,0,0:0:0:0:
448,192,89469,1,0,0:0:0:0:
320,192,89469,1,0,0:0:0:0:
192,192,89469,1,0,0:0:0:0:
64,192,89612,1,0,0:0:0:0:
320,192,89612,1,0,0:0:0:0:
192,192,89755,1,0,0:0:0:0:
64,192,89755,1,0,0:0:0:0:
448,192,89755,1,0,0:0:0:0:
320,192,89898,1,0,0:0:0:0:
64,192,89898,1,0,0:0:0:0:
192,192,90041,1,0,0:0:0:0:
320,192,90041,1,0,0:0:0:0:
448,192,90041,1,0,0:0:0:0:
64,192,90184,1,0,0:0:0:0:
192,192,90184,1,0,0:0:0:0:
192,192,90326,1,0,0:0:0:0:
320,192,90326,1,0,0:0:0:0:
448,192,90326,1,0,0:0:0:0:
64,192,90326,1,0,0:0:0:0:
320,192,90469,1,0,0:0:0:0:
192,192,90469,1,0,0:0:0:0:
64,192,90612,1,0,0:0:0:0:
320,192,90612,1,0,0:0:0:0:
448,192,90612,1,0,0:0:0:0:
192,192,90755,1,0,0:0:0:0:
320,192,90755,1,0,0:0:0:0:
64,192,90898,1,0,0:0:0:0:
192,192,90898,1,0,0:0:0:0:
448,192,90898,1,0,0:0:0:0:
448,192,91041,1,0,0:0:0:0:
192,192,91041,1,0,0:0:0:0:
192,192,91184,1,0,0:0:0:0:
320,192,91184,1,0,0:0:0:0:
448,192,91184,1,0,0:0:0:0:
64,192,91326,1,0,0:0:0:0:
192,192,91326,1,0,0:0:0:0:
64,192,91469,1,0,0:0:0:0:
320,192,91469,1,0,0:0:0:0:
448,192,91469,1,0,0:0:0:0:
192,192,91469,1,0,0:0:0:0:
64,192,91612,1,0,0:0:0:0:
448,192,91612,1,0,0:0:0:0:
192,192,91755,1,0,0:0:0:0:
320,192,91755,1,0,0:0:0:0:
448,192,91755,1,0,0:0:0:0:
192,192,91898,1,0,0:0:0:0:
320,192,91898,1,0,0:0:0:0:
64,192,92041,1,0,0:0:0:0:
192,192,92041,1,0,0:0:0:0:
320,192,92041,1,0,0:0:0:0:
448,192,92184,1,0,0:0:0:0:
64,192,92184,1,0,0:0:0:0:
192,192,92326,1,0,0:0:0:0:
320,192,92326,1,0,0:0:0:0:
448,192,92326,1,0,0:0:0:0:
192,192,92469,1,0,0:0:0:0:
320,192,92469,1,0,0:0:0:0:
192,192,92612,128,0,92898:0:0:0:0:
448,192,92612,1,0,0:0:0:0:
320,192,92612,1,0,0:0:0:0:
64,192,92612,128,0,93398:0:0:0:0:
320,192,92755,1,0,0:0:0:0:
448,192,92755,1,0,0:0:0:0:
320,192,92898,1,0,0:0:0:0:
448,192,92898,1,0,0:0:0:0:
320,192,93041,1,0,0:0:0:0:
448,192,93041,1,0,0:0:0:0:
320,192,93184,1,0,0:0:0:0:
448,192,93184,1,0,0:0:0:0:
192,192,93184,128,0,93684:0:0:0:0:
320,192,93326,1,0,0:0:0:0:
448,192,93326,1,0,0:0:0:0:
64,192,93469,128,0,93684:0:0:0:0:
320,192,93469,1,0,0:0:0:0:
448,192,93469,1,0,0:0:0:0:
320,192,93612,1,0,0:0:0:0:
448,192,93612,1,0,0:0:0:0:
64,192,93755,1,0,0:0:0:0:
192,192,93755,1,0,0:0:0:0:
320,192,93755,1,0,0:0:0:0:
448,192,93755,1,0,0:0:0:0:
192,192,93898,1,0,0:0:0:0:
320,192,93898,1,0,0:0:0:0:
320,192,94041,1,0,0:0:0:0:
448,192,94041,1,0,0:0:0:0:
64,192,94041,1,0,0:0:0:0:
192,192,94184,1,0,0:0:0:0:
448,192,94184,1,0,0:0:0:0:
320,192,94326,1,0,0:0:0:0:
192,192,94326,1,0,0:0:0:0:
64,192,94326,1,0,0:0:0:0:
192,192,94469,1,0,0:0:0:0:
448,192,94469,1,0,0:0:0:0:
64,192,94612,1,0,0:0:0:0:
320,192,94612,1,0,0:0:0:0:
448,192,94612,1,0,0:0:0:0:
64,192,94755,1,0,0:0:0:0:
192,192,94755,1,0,0:0:0:0:
192,192,94898,1,0,0:0:0:0:
320,192,94898,1,0,0:0:0:0:
448,192,94898,1,0,0:0:0:0:
64,192,94898,1,0,0:0:0:0:
448,192,95041,1,0,0:0:0:0:
320,192,95041,1,0,0:0:0:0:
320,192,95184,1,0,0:0:0:0:
192,192,95184,1,0,0:0:0:0:
64,192,95184,1,0,0:0:0:0:
64,192,95326,1,0,0:0:0:0:
448,192,95326,1,0,0:0:0:0:
192,192,95469,1,0,0:0:0:0:
320,192,95469,1,0,0:0:0:0:
448,192,95469,1,0,0:0:0:0:
64,192,95612,1,0,0:0:0:0:
192,192,95612,1,0,0:0:0:0:
192,192,95755,1,0,0:0:0:0:
64,192,95755,1,0,0:0:0:0:
448,192,95755,1,0,0:0:0:0:
192,192,95898,1,0,0:0:0:0:
320,192,95898,1,0,0:0:0:0:
448,192,96041,1,0,0:0:0:0:
320,192,96041,1,0,0:0:0:0:
64,192,96041,1,0,0:0:0:0:
192,192,96041,1,0,0:0:0:0:
192,192,96184,1,0,0:0:0:0:
320,192,96184,1,0,0:0:0:0:
448,192,96326,1,0,0:0:0:0:
320,192,96326,1,0,0:0:0:0:
64,192,96326,1,0,0:0:0:0:
192,192,96469,1,0,0:0:0:0:
320,192,96469,1,0,0:0:0:0:
448,192,96612,1,0,0:0:0:0:
320,192,96612,1,0,0:0:0:0:
64,192,96612,1,0,0:0:0:0:
192,192,96755,1,0,0:0:0:0:
320,192,96755,1,0,0:0:0:0:
448,192,96898,1,0,0:0:0:0:
64,192,96898,1,0,0:0:0:0:
192,192,96898,1,0,0:0:0:0:
320,192,97041,1,0,0:0:0:0:
192,192,97041,1,0,0:0:0:0:
64,192,97184,1,0,0:0:0:0:
192,192,97184,1,0,0:0:0:0:
320,192,97184,128,0,97969:0:0:0:0:
448,192,97184,128,0,97469:0:0:0:0:
64,192,97326,1,0,0:0:0:0:
192,192,97326,1,0,0:0:0:0:
64,192,97469,1,0,0:0:0:0:
192,192,97469,1,0,0:0:0:0:
192,192,97612,1,0,0:0:0:0:
64,192,97612,1,0,0:0:0:0:
192,192,97755,1,0,0:0:0:0:
64,192,97755,1,0,0:0:0:0:
448,192,97755,128,0,98255:0:0:0:0:
64,192,97898,1,0,0:0:0:0:
192,192,97898,1,0,0:0:0:0:
320,192,98041,128,0,98255:0:0:0:0:
192,192,98041,1,0,0:0:0:0:
64,192,98041,1,0,0:0:0:0:
64,192,98184,1,0,0:0:0:0:
192,192,98184,1,0,0:0:0:0:
64,192,98326,1,0,0:0:0:0:
192,192,98326,1,0,0:0:0:0:
320,192,98326,1,0,0:0:0:0:
448,192,98326,1,0,0:0:0:0:
192,192,98469,1,0,0:0:0:0:
448,192,98469,1,0,0:0:0:0:
320,192,98469,1,0,0:0:0:0:
64,192,98612,1,0,0:0:0:0:
320,192,98612,1,0,0:0:0:0:
448,192,98612,1,0,0:0:0:0:
64,192,98755,1,0,0:0:0:0:
192,192,98755,1,0,0:0:0:0:
320,192,98755,1,0,0:0:0:0:
64,192,98898,1,0,0:0:0:0:
192,192,98898,1,0,0:0:0:0:
448,192,98898,1,0,0:0:0:0:
192,192,99041,1,0,0:0:0:0:
320,192,99041,1,0,0:0:0:0:
448,192,99041,1,0,0:0:0:0:
192,192,99184,1,0,0:0:0:0:
320,192,99184,1,0,0:0:0:0:
448,192,99184,1,0,0:0:0:0:
64,192,99326,1,0,0:0:0:0:
320,192,99326,1,0,0:0:0:0:
448,192,99326,1,0,0:0:0:0:
64,192,99469,1,0,0:0:0:0:
192,192,99469,1,0,0:0:0:0:
320,192,99469,1,0,0:0:0:0:
448,192,99469,1,0,0:0:0:0:
64,192,99612,1,0,0:0:0:0:
192,192,99612,1,0,0:0:0:0:
320,192,99612,1,0,0:0:0:0:
192,192,99755,1,0,0:0:0:0:
320,192,99755,1,0,0:0:0:0:
448,192,99755,1,0,0:0:0:0:
320,192,99898,1,0,0:0:0:0:
192,192,99898,1,0,0:0:0:0:
64,192,99898,1,0,0:0:0:0:
320,192,100041,1,0,0:0:0:0:
448,192,100041,1,0,0:0:0:0:
64,192,100041,1,0,0:0:0:0:
64,192,100184,1,0,0:0:0:0:
192,192,100184,1,0,0:0:0:0:
448,192,100184,1,0,0:0:0:0:
64,192,100326,1,0,0:0:0:0:
320,192,100326,1,0,0:0:0:0:
448,192,100326,1,0,0:0:0:0:
64,192,100469,1,0,0:0:0:0:
192,192,100469,1,0,0:0:0:0:
320,192,100469,1,0,0:0:0:0:
64,192,100612,1,0,0:0:0:0:
192,192,100612,1,0,0:0:0:0:
320,192,100612,1,0,0:0:0:0:
448,192,100612,1,0,0:0:0:0:
192,192,100755,1,0,0:0:0:0:
320,192,100755,1,0,0:0:0:0:
448,192,100755,1,0,0:0:0:0:
64,192,100898,1,0,0:0:0:0:
192,192,100898,1,0,0:0:0:0:
320,192,100898,1,0,0:0:0:0:
448,192,101041,1,0,0:0:0:0:
320,192,101041,1,0,0:0:0:0:
64,192,101041,1,0,0:0:0:0:
64,192,101184,1,0,0:0:0:0:
320,192,101184,1,0,0:0:0:0:
448,192,101184,1,0,0:0:0:0:
64,192,101326,1,0,0:0:0:0:
192,192,101326,1,0,0:0:0:0:
448,192,101326,1,0,0:0:0:0:
64,192,101469,1,0,0:0:0:0:
192,192,101469,1,0,0:0:0:0:
448,192,101469,1,0,0:0:0:0:
448,192,101612,1,0,0:0:0:0:
320,192,101612,1,0,0:0:0:0:
192,192,101612,1,0,0:0:0:0:
64,192,101755,128,0,101969:0:0:0:0:
192,192,101755,1,0,0:0:0:0:
320,192,101755,1,0,0:0:0:0:
448,192,101755,1,0,0:0:0:0:
192,192,101898,1,0,0:0:0:0:
320,192,101898,1,0,0:0:0:0:
448,192,101898,1,0,0:0:0:0:
64,192,102041,128,0,102255:0:0:0:0:
192,192,102041,1,0,0:0:0:0:
448,192,102041,1,0,0:0:0:0:
320,192,102041,1,0,0:0:0:0:
192,192,102184,1,0,0:0:0:0:
448,192,102184,1,0,0:0:0:0:
320,192,102184,1,0,0:0:0:0:
64,192,102326,128,0,102541:0:0:0:0:
192,192,102326,1,0,0:0:0:0:
320,192,102326,1,0,0:0:0:0:
448,192,102326,1,0,0:0:0:0:
192,192,102469,1,0,0:0:0:0:
320,192,102469,1,0,0:0:0:0:
448,192,102469,1,0,0:0:0:0:
64,192,102612,128,0,102826:0:0:0:0:
192,192,102612,1,0,0:0:0:0:
320,192,102612,1,0,0:0:0:0:
448,192,102612,1,0,0:0:0:0:
192,192,102755,1,0,0:0:0:0:
320,192,102755,1,0,0:0:0:0:
448,192,102755,1,0,0:0:0:0:
64,192,102898,1,0,0:0:0:0:
192,192,102898,1,0,0:0:0:0:
320,192,102898,1,0,0:0:0:0:
448,192,102898,1,0,0:0:0:0:
192,192,103041,1,0,0:0:0:0:
320,192,103041,1,0,0:0:0:0:
448,192,103041,1,0,0:0:0:0:
64,192,103184,1,0,0:0:0:0:
320,192,103184,1,0,0:0:0:0:
448,192,103184,1,0,0:0:0:0:
192,192,103326,1,0,0:0:0:0:
320,192,103326,1,0,0:0:0:0:
448,192,103326,1,0,0:0:0:0:
64,192,103469,1,0,0:0:0:0:
192,192,103469,1,0,0:0:0:0:
448,192,103469,1,0,0:0:0:0:
64,192,103612,1,0,0:0:0:0:
192,192,103612,1,0,0:0:0:0:
320,192,103612,1,0,0:0:0:0:
64,192,103755,1,0,0:0:0:0:
192,192,103755,1,0,0:0:0:0:
448,192,103755,1,0,0:0:0:0:
192,192,103898,1,0,0:0:0:0:
320,192,103898,1,0,0:0:0:0:
64,192,103898,1,0,0:0:0:0:
64,192,104041,1,0,0:0:0:0:
192,192,104041,1,0,0:0:0:0:
320,192,104041,1,0,0:0:0:0:
448,192,104041,1,0,0:0:0:0:
64,192,104184,1,0,0:0:0:0:
192,192,104184,1,0,0:0:0:0:
320,192,104184,1,0,0:0:0:0:
320,192,104326,1,0,0:0:0:0:
192,192,104326,1,0,0:0:0:0:
64,192,104326,1,0,0:0:0:0:
64,192,104469,1,0,0:0:0:0:
192,192,104469,1,0,0:0:0:0:
320,192,104469,1,0,0:0:0:0:
320,192,104612,1,0,0:0:0:0:
448,192,104612,1,0,0:0:0:0:
64,192,104612,1,0,0:0:0:0:
192,192,104612,1,0,0:0:0:0:
64,192,104755,1,0,0:0:0:0:
320,192,104755,1,0,0:0:0:0:
448,192,104755,1,0,0:0:0:0:
64,192,104898,1,0,0:0:0:0:
320,192,104898,1,0,0:0:0:0:
448,192,104898,1,0,0:0:0:0:
64,192,105041,1,0,0:0:0:0:
320,192,105041,1,0,0:0:0:0:
448,192,105041,1,0,0:0:0:0:
64,192,105184,128,0,105255:0:0:0:0:
192,192,105184,128,0,105237:0:0:0:0:
320,192,105184,128,0,105219:0:0:0:0:
448,192,105184,128,0,105201:0:0:0:0:
320,192,105326,128,0,105362:0:0:0:0:
192,192,105326,128,0,105380:0:0:0:0:
448,192,105326,128,0,105344:0:0:0:0:
64,192,105326,128,0,105398:0:0:0:0:
320,192,105469,128,0,105523:0:0:0:0:
192,192,105469,128,0,105505:0:0:0:0:
448,192,105469,128,0,105541:0:0:0:0:
64,192,105469,128,0,105487:0:0:0:0:
192,192,105612,128,0,105648:0:0:0:0:
64,192,105612,128,0,105630:0:0:0:0:
320,192,105612,128,0,105666:0:0:0:0:
448,192,105612,128,0,105684:0:0:0:0:
64,192,105755,128,0,105826:0:0:0:0:
192,192,105755,128,0,105809:0:0:0:0:
320,192,105755,128,0,105791:0:0:0:0:
448,192,105755,128,0,105773:0:0:0:0:
448,192,105898,128,0,105916:0:0:0:0:
192,192,105898,128,0,105951:0:0:0:0:
320,192,105898,128,0,105934:0:0:0:0:
64,192,105898,128,0,105969:0:0:0:0:
448,192,106041,128,0,106112:0:0:0:0:
64,192,106041,128,0,106059:0:0:0:0:
320,192,106041,128,0,106094:0:0:0:0:
192,192,106041,128,0,106076:0:0:0:0:
448,192,106184,128,0,106255:0:0:0:0:
192,192,106184,128,0,106219:0:0:0:0:
64,192,106184,128,0,106201:0:0:0:0:
320,192,106184,128,0,106237:0:0:0:0:
64,192,106326,128,0,106826:0:0:0:0:
192,192,106398,128,0,106826:0:0:0:0:
320,192,106469,128,0,106826:0:0:0:0:
448,192,106541,128,0,106826:0:0:0:0:
448,192,106898,128,0,107398:0:0:0:0:
320,192,106898,128,0,107398:0:0:0:0:
192,192,106898,128,0,107398:0:0:0:0:
64,192,106898,128,0,107398:0:0:0:0:
192,192,107469,1,0,0:0:0:0:
320,192,107469,1,0,0:0:0:0:
448,192,107469,1,0,0:0:0:0:
64,192,107469,128,0,114326:0:0:0:0:
448,192,112898,128,0,114326:0:0:0:0:
320,192,113898,128,0,114326:0:0:0:0:
192,192,114326,1,0,0:0:0:0:
