osu file format v14

[General]
AudioFilename: audioBrightness220BPM.mp3
AudioLeadIn: 0
PreviewTime: 183087
Countdown: 0
SampleSet: Soft
StackLeniency: 0.5
Mode: 0
LetterboxInBreaks: 0
WidescreenStoryboard: 0

[Editor]
DistanceSpacing: 1
BeatDivisor: 8
GridSize: 4
TimelineZoom: 1.9

[Metadata]
Title:220bpm pack
TitleUnicode:220bpm pack
Artist:Various Artists
ArtistUnicode:Various Artists
Creator:Moting
Version:Light it up
Source:
Tags:
BeatmapID:1465922
BeatmapSetID:692759

[Difficulty]
HPDrainRate:6
CircleSize:4.6
OverallDifficulty:8.6
ApproachRate:9.8
SliderMultiplier:1.8
SliderTickRate:1

[Events]
//Background and Video events
0,0,"bgc.jpg",0,0
//Break Periods
//Storyboard Layer 0 (Background)
//Storyboard Layer 1 (Fail)
//Storyboard Layer 2 (Pass)
//Storyboard Layer 3 (Foreground)
//Storyboard Sound Samples

[TimingPoints]
906,272.7273,4,2,1,45,1,0
906,-166.6667,4,2,1,45,0,0
18360,-100,4,2,1,70,0,0
20269,-166.6667,4,2,1,70,0,0
20542,-100,4,2,1,70,0,0
22315,-66.66666,4,2,1,70,0,0
22724,-100,4,2,1,70,0,0
27088,-66.66666,4,2,1,70,0,0
28997,-166.6667,4,2,1,70,0,0
29270,-66.66666,4,2,1,70,0,0
31179,-166.6667,4,2,1,70,0,0
31452,-100,4,2,1,70,0,0
35815,-166.6667,4,2,1,70,0,0
36225,-166.6667,4,2,1,45,0,0
61997,-125,4,2,1,70,0,0
68269,-66.66666,4,2,1,70,0,0
68542,-125,4,2,1,70,0,0
70724,-100,4,2,1,70,0,0
76997,-66.66666,4,2,1,70,0,0
77270,-100,4,2,1,70,0,0
78633,-83.33334,4,2,1,65,0,0
78769,-83.33334,4,2,1,60,0,0
78906,-83.33334,4,2,1,55,0,0
79179,-50,4,2,1,70,0,0
79451,-125,4,2,1,70,0,0
80270,-166.6667,4,2,1,70,0,0
80542,-125,4,2,1,70,0,0
81360,-66.66666,4,2,1,70,0,0
81633,-125,4,2,1,70,0,0
82452,-125,4,2,1,55,0,0
82724,-125,4,2,1,70,0,0
83815,-100,4,2,1,70,0,0
84906,-100,4,2,1,65,0,0
85451,-100,4,2,1,60,0,0
85997,-100,4,2,1,50,0,0
87087,-100,4,2,1,70,0,0
88725,-66.66666,4,2,1,70,0,0
89406,-55.55556,4,2,1,70,0,0
89542,-100,4,2,1,70,0,0
90906,-66.66666,4,2,1,70,0,0
91451,-100,4,2,1,70,0,0
91997,-55.55556,4,2,1,70,0,0
92270,-100,4,2,1,70,0,0
93088,-66.66666,4,2,1,70,0,0
93769,-55.55556,4,2,1,70,0,0
93906,-100,4,2,1,70,0,0
95542,-66.66666,4,2,1,70,0,0
95951,-100,4,2,1,40,0,0
96088,-100,4,2,1,45,0,0
96224,-100,4,2,1,50,0,0
96361,-100,4,2,1,55,0,0
96497,-66.66666,4,2,1,60,0,0
96633,-100,4,2,1,65,0,0
96770,-100,4,2,1,70,0,0
97451,-66.66666,4,2,1,70,0,0
98133,-55.55556,4,2,1,70,0,0
98270,-100,4,2,1,70,0,0
99633,-66.66666,4,2,1,70,0,0
100179,-100,4,2,1,70,0,0
100724,-55.55556,4,2,1,70,0,0
100997,-100,4,2,1,70,0,0
101542,-83.33334,4,2,1,70,0,0
102497,-55.55556,4,2,1,70,0,0
102633,-83.33334,4,2,1,70,0,0
103452,-100,4,2,1,70,0,0
103724,-90.90909,4,2,1,70,0,0
103997,-83.33334,4,2,1,70,0,0
105633,-100,4,2,1,70,0,0
106178,-66.66666,4,2,1,70,0,0
106724,-100,4,2,1,70,0,0
108360,-66.66666,4,2,1,70,0,0
108906,-83.33334,4,2,1,70,0,0
109725,-55.55556,4,2,1,70,0,0
109997,-100,4,2,1,70,0,0
110542,-66.66666,4,2,1,70,0,0
111088,-100,4,2,1,70,0,0
114906,-66.66666,4,2,1,70,0,0
115452,-100,4,2,1,70,0,0
117088,-66.66666,4,2,1,70,0,0
117633,-83.33334,4,2,1,70,0,0
118451,-55.55556,4,2,1,70,0,0
118724,-100,4,2,1,70,0,0
121111,-66.66666,4,2,1,70,0,0
121315,-100,4,2,1,70,0,0
121656,-66.66666,4,2,1,70,0,0
121861,-100,4,2,1,70,0,0
122201,-66.66666,4,2,1,70,0,0
122406,-100,4,2,1,70,0,0
123088,-166.6667,4,2,1,50,0,0
140542,-166.6667,4,2,1,30,0,0
148451,-166.6667,4,2,1,40,0,0
148724,-166.6667,4,2,1,50,0,0
149270,-125,4,2,1,70,0,0
155543,-55.55556,4,2,1,70,0,0
155815,-125,4,2,1,70,0,0
157997,-100,4,2,1,70,0,0
164270,-66.66666,4,2,1,70,0,0
164542,-100,4,2,1,70,0,0
165633,-66.66666,4,2,1,65,0,0
165770,-66.66666,4,2,1,60,0,0
165906,-100,4,2,1,55,0,0
166452,-55.55556,4,2,1,70,0,0
166724,-125,4,2,1,70,0,0
168906,-111.1111,4,2,1,70,0,0
171087,-100,4,2,1,70,0,0
173269,-90.90909,4,2,1,70,0,0
174634,-125,4,2,1,50,0,0
174838,-125,4,2,1,60,0,0
175111,-125,4,2,1,70,0,0
175451,-100,4,2,1,70,0,0
176270,-166.6667,4,2,1,70,0,0
176543,-100,4,2,1,70,0,0
177360,-66.66666,4,2,1,70,0,0
177633,-100,4,2,1,70,0,0
178452,-100,4,2,1,55,0,0
178724,-100,4,2,1,70,0,0
181997,-100,4,2,1,55,0,0
183088,-100,4,2,1,70,0,0
184179,-83.33334,4,2,1,70,0,1
190724,-66.66666,4,2,1,70,0,1
190997,-83.33334,4,2,1,70,0,1
191815,-66.66666,4,2,1,70,0,1
192087,-83.33334,4,2,1,70,0,1
192633,-50,4,2,1,70,0,1
192906,-83.33334,4,2,1,70,0,1
199656,-55.55556,4,2,1,70,0,1
199861,-83.33334,4,2,1,70,0,1
200201,-55.55556,4,2,1,70,0,1
200406,-83.33334,4,2,1,70,0,1
200951,-83.33334,4,2,1,70,0,0
201292,-55.55556,4,2,1,70,0,0
201633,-83.33334,4,2,1,70,0,1
209269,-66.66666,4,2,1,70,0,1
209542,-83.33334,4,2,1,70,0,1
210088,-55.55556,4,2,1,70,0,1
210361,-83.33334,4,2,1,70,0,1
214725,-66.66666,4,2,1,70,0,1
215815,-55.55556,4,2,1,70,0,1
217997,-83.33334,4,2,1,70,0,1
219088,-100,4,2,1,70,0,0
225361,-66.66666,4,2,1,70,0,0
225633,-100,4,2,1,70,0,0
242815,-55.55556,4,2,1,70,0,0
243088,-100,4,2,1,70,0,0
248542,-66.66666,4,2,1,70,0,0
248815,-100,4,2,1,70,0,0
249360,-55.55556,4,2,1,70,0,0
249633,-100,4,2,1,70,0,0
251542,-166.6667,4,2,1,70,0,0
251815,-100,4,2,1,70,0,0
255906,-166.6667,4,2,1,70,0,0
256179,-100,4,2,1,70,0,0
257951,-66.66666,4,2,1,70,0,0
258361,-100,4,2,1,70,0,0
262724,-83.33334,4,2,1,70,0,0
267088,-100,4,2,1,70,0,0
270360,-100,4,2,1,55,0,0
271452,-166.6667,4,2,1,40,0,0

[HitObjects]
392,216,974,6,0,P|360:244|364:320,1,108
392,216,1519,2,0,P|349:213|298:269,1,108
392,216,2065,2,0,P|364:184|288:188,1,108
212,240,2474,1,0,0:0:0:0:
164,144,2611,1,2,0:0:0:0:
164,144,2678,2,0,L|168:108,2,27
100,204,2883,1,8,0:0:0:0:
24,108,3019,1,2,0:0:0:0:
164,144,3155,6,0,B|204:152|204:152|269:136,1,108
272,204,3701,2,0,B|206:219|206:219|166:211,1,108
168,280,4247,2,0,B|208:288|208:288|273:272,1,108
273,112,4793,2,0,B|208:96|208:96|168:104,1,108
104,192,5337,6,0,L|220:192,1,108
104,192,5883,1,2,0:0:0:0:
320,192,6156,1,8,0:0:0:0:
156,48,6429,1,2,0:0:0:0:
208,256,6702,1,8,0:0:0:0:
256,160,6838,1,0,0:0:0:0:
307,259,6974,1,2,0:0:0:0:
307,259,7042,2,0,L|335:255,2,27
256,352,7246,1,8,0:0:0:0:
208,256,7383,1,2,0:0:0:0:
256,160,7519,6,0,P|273:109|255:59,1,108
204,192,8065,2,0,P|153:175|103:193,1,108
256,243,8611,2,0,P|239:294|257:344,1,108
307,191,9156,2,0,P|358:208|408:190,1,108
256,40,9701,5,2,0:0:0:0:
256,344,9974,1,8,0:0:0:0:
363,84,10247,1,2,0:0:0:0:
148,299,10520,1,8,0:0:0:0:
148,84,10792,1,2,0:0:0:0:
363,299,11065,1,8,0:0:0:0:
456,244,11201,1,0,0:0:0:0:
488,140,11338,1,2,0:0:0:0:
488,140,11406,2,0,P|492:121|488:96,2,27
424,168,11610,1,8,0:0:0:0:
352,88,11746,1,2,0:0:0:0:
212,72,11883,6,0,L|168:68,3,27
176,136,12156,2,0,L|132:132,3,27
140,200,12429,2,0,L|96:196,3,27
116,264,12701,2,0,L|76:260,3,27
40,204,12974,5,2,0:0:0:0:
44,192,13042,1,0,0:0:0:0:
48,180,13111,1,2,0:0:0:0:
52,168,13178,1,0,0:0:0:0:
56,156,13247,1,8,0:0:0:0:
60,144,13315,1,0,0:0:0:0:
64,132,13383,1,2,0:0:0:0:
68,120,13451,1,0,0:0:0:0:
72,108,13519,1,2,0:0:0:0:
82,116,13588,1,0,0:0:0:0:
94,119,13655,1,2,0:0:0:0:
107,121,13724,1,0,0:0:0:0:
120,121,13792,1,8,0:0:0:0:
133,119,13861,1,0,0:0:0:0:
146,116,13928,1,2,0:0:0:0:
158,109,13997,1,0,0:0:0:0:
169,101,14065,6,0,L|163:55,3,27
212,164,14338,2,0,L|207:198,3,27
236,96,14610,2,0,L|232:65,3,27
288,152,14883,2,0,L|283:186,3,27
268,256,15156,5,2,0:0:0:0:
266,269,15224,1,0,0:0:0:0:
273,280,15293,1,2,0:0:0:0:
284,287,15360,1,0,0:0:0:0:
297,290,15429,1,8,0:0:0:0:
309,285,15497,1,0,0:0:0:0:
321,280,15565,1,2,0:0:0:0:
334,277,15633,1,0,0:0:0:0:
347,280,15701,2,0,P|366:282|395:292,3,27
456,324,15974,1,8,0:0:0:0:
432,208,16110,1,2,0:0:0:0:
256,192,16247,12,0,18156,0:0:0:0:
260,92,18428,6,0,P|304:104|372:92,1,90
196,64,18701,2,0,P|152:52|84:64,1,90
8,160,18974,1,4,0:0:0:0:
48,300,19111,1,0,0:0:0:0:
148,196,19247,1,0,0:0:0:0:
8,160,19383,1,0,0:0:0:0:
196,284,19520,6,0,L|304:272,1,90
428,260,19792,1,0,0:0:0:0:
340,148,19928,1,0,0:0:0:0:
285,274,20065,1,4,0:0:0:0:
228,144,20201,1,0,0:0:0:0:
369,211,20337,2,2,P|398:198|368:188,1,81
455,233,20610,6,0,P|463:189|445:148,1,90
250,312,20883,2,0,L|340:316,1,90
455,233,21156,2,0,L|365:229,1,90
280,116,21429,1,0,0:0:0:0:
212,247,21565,1,0,0:0:0:0:
120,104,21701,6,0,B|107:60|107:60|120:16,1,90
211,161,21974,2,0,B|224:205|224:205|212:248,1,90
48,200,22246,1,4,0:0:0:0:
211,161,22383,6,0,L|291:169,1,67.5
413,178,22519,2,0,L|333:186,1,67.5
220,254,22656,1,0,0:0:0:0:
220,254,22724,1,0,0:0:0:0:
220,254,22792,6,0,L|309:245,1,90
448,292,23065,2,0,P|432:332|388:368,1,90
256,332,23338,2,0,P|229:297|220:254,1,90
316,144,23611,2,0,P|359:138|401:151,1,90
344,284,23883,5,4,0:0:0:0:
476,365,24019,2,0,P|485:341|485:316,1,45
457,241,24155,2,0,P|442:220|426:205,1,45
358,155,24292,2,0,P|338:146|316:143,1,45
220,144,24428,2,0,P|168:152|128:136,1,90
244,48,24701,2,0,L|344:40,1,90
423,153,24974,6,0,L|334:161,1,90
252,280,25247,2,0,P|291:301|335:304,1,90
424,154,25520,1,4,0:0:0:0:
336,304,25656,1,0,0:0:0:0:
508,296,25793,1,0,0:0:0:0:
423,153,25929,1,0,0:0:0:0:
252,208,26065,6,0,B|184:220|148:196|148:196|164:180|180:180,1,135
252,208,26337,6,0,P|256:240|248:264,1,45
171,181,26474,2,0,P|167:149|175:125,1,45
256,80,26610,6,0,L|256:56,10,22.5
288,176,27019,6,0,L|348:168,1,45
484,252,27156,6,0,L|344:236,1,135
73,303,27429,2,0,L|208:288,1,135
260,116,27702,1,4,0:0:0:0:
208,288,27838,1,2,0:0:0:0:
260,116,27974,1,0,0:0:0:0:
416,244,28110,1,2,0:0:0:0:
452,48,28246,6,0,B|412:28|412:28|320:44,1,135
287,239,28519,2,0,B|327:259|327:259|419:243,1,135
256,96,28792,1,4,0:0:0:0:
256,96,28861,1,0,0:0:0:0:
256,96,28928,1,2,0:0:0:0:
196,276,29065,2,8,B|194:303|194:303|176:272|184:240,1,81
232,176,29338,6,0,L|372:188,1,135
181,251,29611,2,0,L|41:263,1,135
32,128,29883,1,4,0:0:0:0:
166,116,30020,1,0,0:0:0:0:
181,251,30156,1,0,0:0:0:0:
46,262,30292,1,2,0:0:0:0:
166,116,30428,6,0,P|228:100|316:132,1,135
116,176,30701,2,0,P|88:115|130:47,1,135
280,72,30974,1,4,0:0:0:0:
275,82,31043,1,0,0:0:0:0:
270,92,31110,1,2,0:0:0:0:
326,267,31247,6,2,L|380:270,1,54
390,275,31451,1,2,0:0:0:0:
400,280,31520,5,4,0:0:0:0:
396,264,31587,1,0,0:0:0:0:
393,249,31656,1,2,0:0:0:0:
390,235,31724,1,0,0:0:0:0:
387,221,31792,1,0,0:0:0:0:
384,207,31860,1,0,0:0:0:0:
381,193,31929,1,2,0:0:0:0:
379,179,31997,1,0,0:0:0:0:
376,165,32065,1,4,0:0:0:0:
373,150,32133,1,0,0:0:0:0:
370,136,32201,1,2,0:0:0:0:
367,122,32269,1,0,0:0:0:0:
364,108,32338,6,0,P|340:124|316:128,1,45
187,127,32474,2,0,P|165:121|148:108,1,45
256,40,32610,5,4,0:0:0:0:
256,60,32679,1,0,0:0:0:0:
256,80,32746,1,2,0:0:0:0:
256,100,32815,1,0,0:0:0:0:
256,120,32883,1,0,0:0:0:0:
256,140,32952,1,0,0:0:0:0:
256,160,33019,1,2,0:0:0:0:
256,180,33088,1,0,0:0:0:0:
256,200,33156,1,4,0:0:0:0:
256,220,33224,1,0,0:0:0:0:
256,240,33292,1,2,0:0:0:0:
256,260,33360,1,0,0:0:0:0:
244,284,33429,6,0,P|220:288|188:284,3,45
68,272,33701,5,0,0:0:0:0:
42,291,33769,1,0,0:0:0:0:
34,321,33838,1,0,0:0:0:0:
45,351,33906,1,0,0:0:0:0:
71,368,33974,1,0,0:0:0:0:
103,367,34042,1,0,0:0:0:0:
128,347,34111,1,0,0:0:0:0:
136,316,34178,1,0,0:0:0:0:
124,287,34247,1,0,0:0:0:0:
98,269,34315,1,0,0:0:0:0:
82,241,34383,1,0,0:0:0:0:
79,209,34451,1,0,0:0:0:0:
86,178,34519,1,0,0:0:0:0:
104,152,34588,1,0,0:0:0:0:
129,133,34655,1,0,0:0:0:0:
160,127,34724,1,0,0:0:0:0:
190,134,34792,6,0,L|216:140,6,22.5
284,160,35065,2,0,P|312:156|336:144,1,45
228,208,35201,2,0,P|217:234|215:261,1,45
300,360,35338,1,2,0:0:0:0:
432,236,35474,1,0,0:0:0:0:
284,160,35610,2,0,B|260:108|272:56|272:56|305:70,1,135
376,104,35883,5,4,0:0:0:0:
376,104,36293,1,2,0:0:0:0:
284,160,36429,2,0,P|256:169|220:160,1,54
152,92,36701,2,0,P|158:63|184:36,1,54
276,12,36974,2,0,P|297:31|308:67,1,54
284,160,37247,2,0,P|255:166|220:154,1,54
158,80,37519,2,0,P|166:51|194:27,1,54
289,11,37792,2,0,P|308:31|316:68,1,54
292,188,38065,5,2,0:0:0:0:
292,188,38474,1,2,0:0:0:0:
256,280,38610,2,0,L|256:352,1,54
183,300,38883,2,0,P|181:273|188:248,1,54
323,247,39156,2,0,P|330:273|328:300,1,54
172,300,39428,2,0,P|170:273|177:248,1,54
335,247,39701,2,0,P|342:273|340:300,1,54
164,300,39974,2,0,P|162:273|169:248,1,54
256,128,40247,5,2,0:0:0:0:
256,128,40656,1,2,0:0:0:0:
356,172,40792,2,0,L|424:164,1,54
300,216,41065,2,0,L|245:209,1,54
364,240,41337,2,0,L|432:232,1,54
308,284,41610,2,0,L|240:276,1,54
376,312,41883,2,0,L|444:304,1,54
316,352,42156,2,0,L|248:344,1,54
136,272,42429,5,2,0:0:0:0:
136,272,42565,2,0,P|116:288|72:296,2,54
176,144,42974,1,2,0:0:0:0:
176,144,43110,2,0,P|172:118|187:76,2,54
277,241,43519,1,2,0:0:0:0:
277,241,43656,2,0,P|300:250|329:284,2,54
150,286,44065,1,2,0:0:0:0:
150,286,44201,1,0,0:0:0:0:
150,286,44338,1,2,0:0:0:0:
150,286,44474,1,0,0:0:0:0:
150,286,44611,6,0,L|266:280,1,108
280,176,45019,2,0,P|247:172|211:188,1,54
257,280,45292,1,2,0:0:0:0:
352,220,45428,2,0,L|340:52,1,162
256,128,45974,5,2,0:0:0:0:
192,108,46247,1,2,0:0:0:0:
124,104,46520,1,2,0:0:0:0:
60,124,46793,6,0,P|76:152|150:166,1,108
232,100,47201,2,0,B|256:88|256:88|280:100,1,54
367,167,47474,1,2,0:0:0:0:
272,288,47610,2,0,B|260:324|260:324|228:272|252:188,1,162
280,100,48156,1,2,0:0:0:0:
247,203,48429,1,2,0:0:0:0:
280,100,48702,1,2,0:0:0:0:
136,144,48974,6,0,B|100:156|100:156|28:136,1,108
196,112,49383,2,0,P|203:148|190:185,1,54
148,260,49656,1,2,0:0:0:0:
288,224,49792,2,0,B|336:208|336:208|456:228,1,162
500,320,50338,1,2,0:0:0:0:
396,348,50611,1,2,0:0:0:0:
288,344,50883,1,2,0:0:0:0:
196,288,51156,6,0,L|204:164,1,108
100,148,51565,2,0,L|89:309,1,162
204,180,52110,1,2,0:0:0:0:
204,180,52179,1,0,0:0:0:0:
204,180,52247,2,0,L|210:72,1,108
296,156,52656,2,0,P|297:201|252:262,1,108
105,226,53065,2,0,P|93:187|100:148,1,81
100,148,53338,6,0,P|124:100|180:64,1,108
261,171,53746,2,0,L|208:172,1,54
100,148,54019,1,2,0:0:0:0:
192,264,54156,2,0,P|272:284|351:249,1,162
396,160,54701,1,2,0:0:0:0:
320,84,54838,1,0,0:0:0:0:
260,176,54974,1,2,0:0:0:0:
192,264,55111,1,0,0:0:0:0:
152,164,55247,1,2,0:0:0:0:
260,176,55383,1,0,0:0:0:0:
132,328,55519,6,0,P|106:274|118:218,1,108
206,172,55928,2,0,L|260:176,1,54
328,260,56201,1,2,0:0:0:0:
452,208,56338,2,0,B|476:156|476:156|452:36,1,162
364,108,56883,1,2,0:0:0:0:
256,124,57020,1,0,0:0:0:0:
148,108,57156,1,2,0:0:0:0:
57,53,57293,1,0,0:0:0:0:
52,160,57429,1,2,0:0:0:0:
148,108,57565,1,0,0:0:0:0:
256,124,57701,6,0,L|376:116,1,108
412,216,58110,2,0,P|381:228|342:222,1,54
252,216,58383,1,2,0:0:0:0:
440,140,58519,2,0,L|432:308,1,162
336,352,59065,1,2,0:0:0:0:
340,244,59202,1,0,0:0:0:0:
432,301,59338,1,2,0:0:0:0:
336,352,59474,1,0,0:0:0:0:
228,272,59610,1,2,0:0:0:0:
116,348,59746,1,0,0:0:0:0:
72,192,59883,5,2,0:0:0:0:
256,192,59951,12,0,61520,0:0:0:0:
368,288,61792,5,12,0:0:0:0:
144,96,62065,5,4,0:0:0:0:
60,212,62201,2,0,L|68:300,1,72
240,344,62474,2,0,P|259:276|228:208,1,144
68,128,62883,1,4,0:0:0:0:
200,68,63020,2,0,B|244:56|244:56|344:76,1,144
460,156,63429,1,2,0:0:0:0:
336,228,63565,2,0,P|316:300|348:364,1,144
484,300,63974,1,2,0:0:0:0:
484,300,64042,1,0,0:0:0:0:
484,300,64110,1,2,0:0:0:0:
484,300,64179,1,0,0:0:0:0:
484,300,64246,5,4,0:0:0:0:
336,228,64383,2,0,L|252:232,1,72
40,280,64656,2,0,P|50:336|87:290,1,144
24,148,65065,2,0,P|23:112|42:82,1,72
252,24,65338,1,4,0:0:0:0:
160,136,65474,2,0,L|84:132,1,72
300,180,65747,2,0,L|452:172,1,144
328,260,66155,2,0,P|292:264|256:252,1,72
108,160,66428,5,4,0:0:0:0:
108,160,66565,2,0,P|128:204|116:252,1,72
12,88,66838,2,0,L|188:84,1,144
372,72,67247,1,4,0:0:0:0:
269,222,67383,2,0,L|126:226,1,144
24,328,67793,1,2,0:0:0:0:
163,355,67929,2,0,P|165:284|126:226,1,144
244,312,68337,6,0,B|296:342|340:320|340:320|360:312|376:336|376:336|348:356|316:340,1,202.5
303,247,68610,6,0,P|296:213|303:178,1,72
340,76,68883,1,2,0:0:0:0:
476,48,69019,2,0,B|496:96|496:96|475:185,1,144
396,308,69429,2,0,P|365:319|313:311,1,72
164,200,69702,1,4,0:0:0:0:
116,308,69838,2,0,P|146:319|198:311,1,72
256,152,70110,2,0,B|228:80|280:80|256:12,1,144
192,176,70519,1,2,0:0:0:0:
216,208,70588,1,0,0:0:0:0:
256,220,70656,1,2,0:0:0:0:
296,208,70724,1,0,0:0:0:0:
320,176,70792,6,0,P|352:156|412:168,1,90
496,256,71065,2,0,P|493:291|444:340,1,90
296,352,71338,2,0,L|184:340,2,90
368,228,71747,1,0,0:0:0:0:
304,100,71883,2,0,P|341:80|400:88,1,90
451,210,72156,2,0,P|412:231|368:228,1,90
227,187,72428,2,0,P|185:175|143:189,1,90
57,317,72701,1,0,0:0:0:0:
85,325,72770,1,0,0:0:0:0:
113,321,72837,1,2,0:0:0:0:
137,305,72906,1,0,0:0:0:0:
148,279,72974,6,0,B|143:188,1,90
20,248,73247,1,0,0:0:0:0:
224,324,73383,2,0,L|213:141,1,180
280,16,73792,1,0,0:0:0:0:
388,108,73929,1,2,0:0:0:0:
213,144,74065,2,0,L|123:131,1,90
52,288,74338,1,0,0:0:0:0:
52,288,74474,2,0,L|236:313,1,180
360,248,74883,1,0,0:0:0:0:
236,176,75019,1,0,0:0:0:0:
340,344,75156,6,0,P|377:346|432:312,1,90
464,184,75429,2,0,L|452:84,1,90
327,27,75701,2,0,P|286:11|241:13,2,90
380,164,76111,1,0,0:0:0:0:
193,235,76247,2,0,L|104:225,1,90
12,120,76519,1,0,0:0:0:0:
156,100,76655,2,0,P|184:68|120:88,1,180
156,300,77065,6,2,B|156:324|156:324|77:280|77:280|156:240,1,202.5
316,212,77338,6,0,P|358:223|401:209,1,90
480,88,77610,1,0,0:0:0:0:
316,212,77747,2,0,B|328:354|328:354|360:320,1,180
228,256,78156,2,0,P|186:247|138:260,1,90
32,356,78429,6,0,P|43:333|44:308,1,45
48,240,78565,2,0,P|41:215|26:195,1,45
112,284,78701,6,0,P|149:300|214:283,1,108
303,99,78974,2,0,P|353:82|403:99,1,108
379,332,79247,6,0,P|294:301|396:280,1,270
380,332,79519,5,4,0:0:0:0:
365,343,79588,1,0,0:0:0:0:
348,350,79656,1,8,0:0:0:0:
329,348,79724,1,0,0:0:0:0:
314,337,79792,1,4,0:0:0:0:
302,323,79860,1,0,0:0:0:0:
294,306,79929,1,8,0:0:0:0:
291,288,79996,1,0,0:0:0:0:
283,271,80065,1,4,0:0:0:0:
270,257,80133,1,0,0:0:0:0:
254,247,80202,1,8,0:0:0:0:
236,244,80269,1,0,0:0:0:0:
222,246,80338,6,2,P|185:263|142:260,1,81
83,235,80610,5,4,0:0:0:0:
58,218,80679,1,0,0:0:0:0:
47,191,80746,1,8,0:0:0:0:
49,162,80815,1,0,0:0:0:0:
63,137,80883,1,4,0:0:0:0:
90,127,80951,1,0,0:0:0:0:
118,132,81019,1,8,0:0:0:0:
144,142,81088,1,0,0:0:0:0:
172,140,81156,1,4,0:0:0:0:
198,129,81224,1,0,0:0:0:0:
216,106,81292,1,8,0:0:0:0:
216,77,81361,1,0,0:0:0:0:
192,60,81428,6,0,P|161:60|173:76,1,67.5
316,112,81565,2,0,P|344:104|315:98,1,67.5
289,183,81701,5,4,0:0:0:0:
290,219,81769,1,0,0:0:0:0:
306,250,81838,1,8,0:0:0:0:
333,273,81905,1,0,0:0:0:0:
367,282,81974,1,4,0:0:0:0:
402,276,82042,1,0,0:0:0:0:
429,252,82111,1,8,0:0:0:0:
438,217,82178,1,0,0:0:0:0:
423,184,82247,1,4,0:0:0:0:
393,162,82315,1,0,0:0:0:0:
356,160,82383,1,8,0:0:0:0:
328,182,82451,1,0,0:0:0:0:
340,228,82520,5,2,0:0:0:0:
340,228,82588,1,2,0:0:0:0:
340,228,82656,1,2,0:0:0:0:
340,228,82724,1,2,0:0:0:0:
360,257,82792,5,4,0:0:0:0:
365,292,82860,1,0,0:0:0:0:
344,321,82928,1,8,0:0:0:0:
309,331,82997,1,0,0:0:0:0:
276,316,83065,1,4,0:0:0:0:
258,284,83133,1,0,0:0:0:0:
261,248,83201,1,8,0:0:0:0:
271,213,83270,1,0,0:0:0:0:
284,180,83337,6,0,P|292:120|272:68,2,108
192,252,83883,5,4,0:0:0:0:
228,220,83951,1,0,0:0:0:0:
271,213,84020,1,0,0:0:0:0:
309,234,84087,1,0,0:0:0:0:
324,276,84156,1,4,0:0:0:0:
304,314,84224,1,0,0:0:0:0:
260,327,84292,1,0,0:0:0:0:
220,305,84360,1,0,0:0:0:0:
207,261,84429,1,4,0:0:0:0:
228,220,84497,1,0,0:0:0:0:
252,183,84565,1,0,0:0:0:0:
261,137,84633,1,0,0:0:0:0:
242,94,84701,1,4,0:0:0:0:
202,72,84769,1,0,0:0:0:0:
159,82,84838,1,0,0:0:0:0:
130,116,84906,1,0,0:0:0:0:
130,161,84974,5,4,0:0:0:0:
108,205,85042,1,0,0:0:0:0:
60,213,85110,1,0,0:0:0:0:
19,183,85179,1,0,0:0:0:0:
12,135,85246,1,4,0:0:0:0:
44,96,85315,1,0,0:0:0:0:
92,86,85383,1,0,0:0:0:0:
130,116,85452,1,0,0:0:0:0:
156,157,85519,1,4,0:0:0:0:
197,183,85588,1,0,0:0:0:0:
245,193,85656,1,0,0:0:0:0:
293,192,85724,1,0,0:0:0:0:
328,159,85792,1,0,0:0:0:0:
331,110,85860,1,0,0:0:0:0:
300,73,85928,1,0,0:0:0:0:
251,63,85996,1,0,0:0:0:0:
206,82,86065,6,0,P|200:96|200:112,7,22.5
132,96,86338,2,0,P|131:111|136:126,7,22.5
68,136,86611,2,0,P|72:150|82:162,7,22.5
24,196,86883,2,0,P|33:208|46:216,7,22.5
116,220,87155,5,4,0:0:0:0:
344,296,88247,5,4,0:0:0:0:
408,168,88383,1,0,0:0:0:0:
268,128,88520,2,0,B|240:124|240:124|148:148,1,90
140,296,88793,6,0,P|205:309|269:290,1,135
141,296,88997,2,0,P|75:282|11:301,1,135
116,204,89201,1,2,0:0:0:0:
36,72,89337,5,4,0:0:0:0:
168,112,89474,2,2,P|199:98|170:81,1,81
104,88,89610,1,4,0:0:0:0:
228,168,89747,1,2,0:0:0:0:
296,292,89883,2,0,P|320:312|356:320,1,45
404,328,90019,1,2,0:0:0:0:
404,328,90088,2,0,P|448:316|488:264,1,90
484,212,90292,1,2,0:0:0:0:
388,60,90429,5,4,0:0:0:0:
304,176,90565,1,0,0:0:0:0:
190,87,90702,2,0,P|150:79|98:95,1,90
16,292,90974,6,0,B|60:316|60:316|148:296,1,135
252,272,91179,2,0,B|334:253|334:253|378:277,1,135
472,332,91383,1,2,0:0:0:0:
264,332,91519,5,4,0:0:0:0:
260,312,91588,1,0,0:0:0:0:
256,292,91656,1,2,0:0:0:0:
252,272,91724,1,0,0:0:0:0:
248,252,91792,2,0,L|268:104,1,135
352,92,92065,6,0,P|356:133|336:176,1,81
177,150,92201,2,0,P|171:110|184:72,1,81
256,208,92405,1,2,0:0:0:0:
256,208,92474,1,2,0:0:0:0:
52,284,92611,5,4,0:0:0:0:
180,348,92747,1,0,0:0:0:0:
144,208,92883,2,0,L|48:200,1,90
180,348,93156,6,0,L|320:336,1,135
224,268,93360,2,0,L|89:279,1,135
180,348,93565,1,2,0:0:0:0:
388,204,93701,5,4,0:0:0:0:
216,72,93837,2,2,P|181:65|193:94,1,81
252,136,93974,1,4,0:0:0:0:
380,68,94110,1,0,0:0:0:0:
192,94,94247,2,0,L|144:88,1,45
252,136,94383,1,2,0:0:0:0:
252,136,94451,2,0,L|344:124,1,90
396,172,94656,1,2,0:0:0:0:
184,300,94792,5,0,0:0:0:0:
328,300,94929,1,4,0:0:0:0:
92,188,95065,1,4,0:0:0:0:
252,136,95201,2,0,L|248:180,1,45
184,300,95338,1,4,0:0:0:0:
184,300,95406,2,0,B|191:210,1,90
108,301,95610,6,0,P|115:334|137:360,1,67.5
229,361,95746,2,0,P|249:345|259:303,1,67.5
191,210,95883,5,4,0:0:0:0:
268,88,96019,1,0,0:0:0:0:
315,225,96156,1,2,0:0:0:0:
364,72,96292,2,0,B|384:60|407:58|407:58|412:80|392:116,1,90
315,225,96565,6,0,B|284:252|284:280|284:280|308:320|356:312,1,135
500,236,96838,1,2,0:0:0:0:
316,140,96974,5,4,0:0:0:0:
228,252,97111,1,0,0:0:0:0:
96,172,97247,2,0,P|84:128|97:86,1,90
152,256,97519,6,0,L|12:256,1,135
84,340,97724,2,0,L|224:340,1,135
17,256,97928,1,2,0:0:0:0:
219,340,98065,5,4,0:0:0:0:
276,176,98201,2,2,B|296:168|296:168|276:136|276:136|254:145,1,81
204,192,98338,1,0,0:0:0:0:
320,280,98474,1,0,0:0:0:0:
428,184,98610,2,0,P|452:180|484:196,1,45
372,224,98747,1,2,0:0:0:0:
372,224,98815,2,0,L|376:132,1,90
344,68,99020,1,2,0:0:0:0:
256,184,99156,5,4,0:0:0:0:
168,68,99293,1,0,0:0:0:0:
64,172,99429,2,0,B|96:184|96:184|154:172,1,90
292,256,99701,6,0,P|271:289|184:328,1,135
282,128,99906,2,0,P|305:190|292:256,1,135
186,327,100110,1,2,0:0:0:0:
64,216,100247,5,4,0:0:0:0:
86,220,100315,1,0,0:0:0:0:
90,242,100383,1,2,0:0:0:0:
69,252,100451,1,0,0:0:0:0:
52,236,100519,2,0,P|66:145|52:96,1,135
136,172,100792,6,0,B|180:180|180:180|216:172,1,81
376,172,100929,2,0,B|332:180|332:180|296:172,1,81
256,12,101133,1,2,0:0:0:0:
256,20,101202,1,2,0:0:0:0:
256,276,101338,2,0,P|252:296|236:320,1,45
276,211,101474,2,0,P|282:190|296:172,1,45
421,196,101610,6,0,P|438:247|403:316,1,108
92,296,101883,2,0,P|76:246|93:196,1,108
160,132,102088,1,0,0:0:0:0:
160,132,102156,2,0,P|210:115|260:132,1,108
371,247,102428,1,4,0:0:0:0:
232,352,102565,2,2,P|191:355|154:342,1,81
92,296,102701,1,0,0:0:0:0:
72,124,102838,1,0,0:0:0:0:
260,132,102974,2,0,L|320:128,1,54
380,76,103111,1,0,0:0:0:0:
380,76,103178,2,0,P|368:132|392:196,1,108
432,248,103383,1,2,0:0:0:0:
280,336,103520,6,0,L|304:296,1,45
381,179,103656,2,0,L|357:217,1,45
256,340,103792,6,0,L|284:292,1,49.5
360,152,103928,2,0,L|327:205,1,49.5
232,344,104065,6,0,L|260:296,1,54
344,132,104201,2,0,L|316:178,1,54
208,348,104337,5,0,0:0:0:0:
176,344,104406,1,0,0:0:0:0:
144,340,104474,1,2,0:0:0:0:
112,336,104543,1,0,0:0:0:0:
80,332,104610,5,4,0:0:0:0:
76,87,105701,6,0,P|116:64|160:64,1,90
296,112,105974,1,0,0:0:0:0:
245,246,106110,1,0,0:0:0:0:
76,87,106246,6,0,P|46:125|51:212,1,135
128,284,106452,2,0,P|194:287|246:246,1,135
208,132,106656,1,2,0:0:0:0:
352,56,106792,5,4,0:0:0:0:
378,39,106860,1,0,0:0:0:0:
409,39,106929,1,0,0:0:0:0:
433,58,106996,1,0,0:0:0:0:
438,89,107065,1,0,0:0:0:0:
424,117,107133,1,0,0:0:0:0:
415,147,107201,1,0,0:0:0:0:
407,177,107269,1,0,0:0:0:0:
410,208,107338,1,4,0:0:0:0:
425,235,107406,1,0,0:0:0:0:
452,250,107474,2,0,P|469:232|475:206,3,45
481,141,107747,1,2,0:0:0:0:
296,96,107883,6,0,L|305:204,1,90
316,328,108155,1,0,0:0:0:0:
176,288,108292,1,0,0:0:0:0:
304,186,108428,6,0,L|293:46,1,135
220,4,108633,2,0,P|205:44|222:134,1,135
304,186,108838,1,2,0:0:0:0:
140,94,108974,6,0,L|84:90,1,54
221,132,109110,2,0,L|274:127,1,54
142,188,109247,1,0,0:0:0:0:
156,328,109383,1,2,0:0:0:0:
221,132,109520,1,4,0:0:0:0:
26,198,109656,1,2,0:0:0:0:
156,328,109793,6,0,B|232:360|232:304|316:332,1,162
191,207,110065,6,0,B|175:167|186:141|186:141|192:148|202:155,1,90
324,232,110337,1,0,0:0:0:0:
352,96,110474,1,0,0:0:0:0:
203,155,110610,6,0,L|49:144,1,135
168,84,110815,2,0,L|304:72,1,135
400,120,111019,1,2,0:0:0:0:
248,292,111156,5,4,0:0:0:0:
221,309,111224,1,0,0:0:0:0:
189,310,111292,1,0,0:0:0:0:
159,299,111360,1,0,0:0:0:0:
136,276,111429,1,0,0:0:0:0:
126,245,111496,1,0,0:0:0:0:
134,214,111565,1,0,0:0:0:0:
157,192,111633,1,0,0:0:0:0:
188,187,111702,1,4,0:0:0:0:
217,195,111769,1,0,0:0:0:0:
248,205,111838,2,0,P|267:211|300:212,3,45
355,192,112110,1,2,0:0:0:0:
444,56,112246,5,4,0:0:0:0:
504,188,112383,1,0,0:0:0:0:
354,274,112519,2,0,P|339:233|355:192,1,90
444,56,112792,2,0,P|415:89|372:97,1,90
210,89,113065,2,0,P|253:96|281:130,1,90
355,275,113338,5,4,0:0:0:0:
216,236,113474,1,0,0:0:0:0:
76,268,113611,2,0,B|64:240|64:240|76:160,1,90
216,236,113883,2,0,B|228:264|228:264|216:344,1,90
168,156,114156,2,0,L|272:148,1,90
301,222,114360,1,2,0:0:0:0:
301,222,114428,6,0,P|260:239|216:236,1,90
76,160,114701,1,0,0:0:0:0:
184,68,114837,1,0,0:0:0:0:
344,152,114974,6,0,P|384:172|496:148,1,135
480,80,115179,2,0,P|417:55|352:68,1,135
276,104,115383,1,2,0:0:0:0:
312,292,115520,5,4,0:0:0:0:
340,308,115587,1,0,0:0:0:0:
368,324,115656,1,0,0:0:0:0:
396,340,115724,1,0,0:0:0:0:
424,356,115792,1,0,0:0:0:0:
428,324,115860,1,0,0:0:0:0:
428,292,115929,1,0,0:0:0:0:
428,260,115997,1,0,0:0:0:0:
428,228,116065,1,4,0:0:0:0:
428,196,116133,1,0,0:0:0:0:
428,164,116201,2,0,L|360:184,3,45
320,196,116474,1,2,0:0:0:0:
152,132,116610,6,0,L|156:40,1,90
228,168,116883,1,0,0:0:0:0:
168,300,117019,1,0,0:0:0:0:
21,136,117156,6,0,P|86:119|152:132,1,135
228,168,117360,2,0,P|293:180|358:163,1,135
424,112,117565,1,2,0:0:0:0:
472,244,117701,6,0,L|468:312,1,54
400,268,117838,2,0,L|364:328,1,54
316,264,117974,1,0,0:0:0:0:
144,168,118111,1,0,0:0:0:0:
312,68,118247,1,4,0:0:0:0:
316,264,118383,1,0,0:0:0:0:
144,168,118519,6,0,B|170:137|170:137|169:177,1,81
140,304,118655,2,0,B|113:337|113:337|114:298,1,81
240,248,118792,6,0,P|271:266|240:268,1,90
100,228,119065,1,0,0:0:0:0:
256,168,119201,5,2,0:0:0:0:
256,168,119270,1,2,0:0:0:0:
256,168,119338,1,4,0:0:0:0:
392,284,119474,2,0,L|448:272,1,45
504,252,119610,1,0,0:0:0:0:
428,120,119747,5,2,0:0:0:0:
428,120,119815,1,2,0:0:0:0:
428,120,119883,1,4,0:0:0:0:
256,168,120020,2,0,L|192:156,1,45
144,140,120156,1,0,0:0:0:0:
248,16,120293,5,2,0:0:0:0:
248,16,120360,1,2,0:0:0:0:
248,16,120429,1,4,0:0:0:0:
400,108,120565,2,0,L|464:96,1,45
512,80,120701,1,0,0:0:0:0:
464,240,120837,5,2,0:0:0:0:
464,240,120906,1,2,0:0:0:0:
464,240,120974,2,0,P|452:284|484:344,1,90
384,288,121179,6,0,P|350:283|306:293,1,67.5
128,332,121383,6,0,P|160:336|188:328,1,45
224,260,121519,2,0,B|232:216|232:216|216:152,1,90
144,120,121724,6,0,P|132:144|132:192,1,67.5
311,161,121929,6,0,P|306:139|296:120,1,45
221,172,122065,2,0,B|213:216|213:216|223:259,1,90
300,304,122269,6,0,L|368:300,1,67.5
212,80,122474,6,0,L|168:77,1,45
76,68,122610,2,0,L|52:44,14,22.5
112,148,123156,6,0,P|128:204|100:260,1,108
44,332,123565,2,0,L|116:328,1,54
208,320,123838,1,2,0:0:0:0:
316,240,123974,2,0,B|332:192|332:192|308:68,1,162
224,32,124520,1,2,0:0:0:0:
224,132,124792,1,2,0:0:0:0:
311,83,125065,1,2,0:0:0:0:
224,32,125337,6,0,P|172:21|122:36,1,108
148,144,125747,2,0,P|172:132|197:139,1,54
296,188,126020,1,2,0:0:0:0:
198,299,126156,2,0,B|170:327|170:327|178:205,1,162
196,100,126701,1,2,0:0:0:0:
256,160,126974,1,2,0:0:0:0:
316,100,127246,1,2,0:0:0:0:
388,152,127519,6,0,P|404:93|376:36,1,108
347,208,127929,2,0,P|345:234|350:261,1,54
312,144,128201,1,2,0:0:0:0:
208,176,128338,2,0,B|164:184|136:196|136:196|104:184|64:176|64:176|88:164,1,162
160,100,128883,1,2,0:0:0:0:
208,176,129155,1,2,0:0:0:0:
176,260,129428,1,2,0:0:0:0:
324,228,129701,6,0,P|372:208|436:232,1,108
288,312,130110,2,0,L|277:151,1,162
192,248,130656,1,2,0:0:0:0:
192,248,130724,1,0,0:0:0:0:
192,248,130793,2,0,L|199:355,1,108
376,352,131201,2,0,L|368:244,1,108
380,136,131610,2,0,P|399:99|431:77,1,81
431,77,131883,6,0,P|376:88|312:72,1,108
228,32,132292,2,0,P|201:27|175:33,1,54
100,112,132565,1,2,0:0:0:0:
191,210,132702,2,0,B|214:233|214:233|204:104,1,162
128,180,133246,1,2,0:0:0:0:
122,288,133383,1,0,0:0:0:0:
215,233,133519,1,2,0:0:0:0:
316,268,133656,1,0,0:0:0:0:
236,340,133792,1,2,0:0:0:0:
215,233,133928,1,0,0:0:0:0:
323,152,134065,6,0,P|374:135|425:151,1,108
476,248,134474,2,0,L|468:308,1,54
364,336,134747,1,2,0:0:0:0:
228,284,134883,2,0,B|172:268|172:268|56:284,1,162
8,372,135428,1,2,0:0:0:0:
69,282,135565,1,0,0:0:0:0:
100,180,135701,1,2,0:0:0:0:
68,76,135837,1,2,0:0:0:0:
180,116,135974,1,2,0:0:0:0:
300,68,136110,1,2,0:0:0:0:
416,180,136247,6,0,P|376:215|308:223,1,108
191,167,136656,2,0,P|180:142|180:116,1,54
228,20,136929,1,2,0:0:0:0:
364,112,137065,2,0,B|387:132|387:132|255:124,1,162
180,204,137610,1,2,0:0:0:0:
284,236,137746,1,0,0:0:0:0:
255,124,137883,1,2,0:0:0:0:
128,80,138019,1,0,0:0:0:0:
180,204,138156,1,2,0:0:0:0:
328,176,138292,1,0,0:0:0:0:
296,320,138429,6,0,L|180:308,1,108
129,221,138838,2,0,P|153:208|180:204,1,54
284,236,139111,1,2,0:0:0:0:
262,103,139247,1,2,0:0:0:0:
256,192,139315,12,0,140338,0:0:0:0:
96,80,140610,5,2,0:0:0:0:
176,120,141020,1,2,0:0:0:0:
100,168,141429,1,2,0:0:0:0:
164,176,142792,5,2,0:0:0:0:
348,208,143202,1,2,0:0:0:0:
348,208,143883,5,2,0:0:0:0:
112,336,144292,1,2,0:0:0:0:
308,80,144701,1,0,0:0:0:0:
348,292,144974,5,2,0:0:0:0:
260,270,145383,1,2,0:0:0:0:
278,359,145792,1,2,0:0:0:0:
278,359,147156,5,2,0:0:0:0:
234,25,147565,1,2,0:0:0:0:
256,192,147701,12,8,149065,0:0:0:0:
344,92,149338,5,4,0:0:0:0:
392,228,149474,2,0,P|403:261|395:296,1,72
256,332,149747,2,0,P|275:264|244:196,1,144
102,112,150155,1,4,0:0:0:0:
60,276,150292,2,0,P|89:340|156:372,1,144
256,272,150701,1,2,0:0:0:0:
359,372,150838,2,0,P|422:340|452:276,1,144
388,108,151247,1,2,0:0:0:0:
382,105,151315,1,0,0:0:0:0:
377,103,151383,1,2,0:0:0:0:
372,100,151451,1,0,0:0:0:0:
367,98,151520,5,4,0:0:0:0:
232,48,151656,2,0,L|144:56,1,72
72,212,151929,2,0,P|133:243|214:220,1,144
80,304,152337,2,0,P|40:284|16:256,1,72
152,120,152610,1,4,0:0:0:0:
272,200,152747,2,0,L|264:284,1,72
424,296,153019,2,0,L|409:152,1,144
272,200,153429,2,0,P|236:204|200:192,1,72
68,72,153702,5,4,0:0:0:0:
208,40,153838,2,0,P|244:36|280:48,1,72
356,212,154110,2,0,B|355:284|355:284|312:259|312:259|332:248,1,144
508,208,154519,1,4,0:0:0:0:
424,332,154656,2,0,P|349:366|288:328,1,144
216,220,155065,1,2,0:0:0:0:
96,300,155201,2,0,B|80:320|80:320|72:184,1,144
72,63,155611,6,2,P|159:82|73:104,1,243
72,63,155883,5,4,0:0:0:0:
212,132,156020,2,0,P|192:163|161:182,1,72
296,48,156292,2,0,L|280:224,1,144
188,300,156701,2,0,B|160:272|160:272|192:272,1,72
368,240,156974,1,4,0:0:0:0:
368,240,157110,2,0,P|379:210|371:158,1,72
228,68,157383,2,0,B|184:64|184:64|136:80|136:80|80:72,1,144
4,196,157792,1,2,0:0:0:0:
12,232,157860,1,0,0:0:0:0:
20,268,157929,1,2,0:0:0:0:
28,304,157997,1,0,0:0:0:0:
36,340,158065,6,0,L|52:252,1,90
132,148,158338,2,0,L|148:236,1,90
271,347,158610,2,0,P|315:357|358:347,2,90
140,288,159019,1,0,0:0:0:0:
272,228,159156,2,0,P|304:220|360:229,1,90
488,328,159429,2,0,P|465:304|444:251,1,90
468,92,159701,2,0,P|458:123|423:167,1,90
236,216,159974,1,0,0:0:0:0:
204,208,160042,1,0,0:0:0:0:
172,200,160111,1,2,0:0:0:0:
140,192,160178,1,0,0:0:0:0:
108,184,160247,6,0,B|72:156|72:156|56:104,1,90
160,12,160519,1,0,0:0:0:0:
350,79,160655,2,0,B|342:163|342:163|268:224,1,180
116,164,161065,1,0,0:0:0:0:
244,60,161201,1,0,0:0:0:0:
268,224,161338,2,0,P|234:236|184:224,1,90
68,136,161610,1,0,0:0:0:0:
151,295,161747,2,0,P|249:315|327:279,1,180
464,208,162156,1,0,0:0:0:0:
324,124,162293,1,0,0:0:0:0:
320,285,162429,6,0,L|331:374,1,90
363,203,162701,2,0,L|376:112,1,90
272,216,162974,2,0,B|232:224|232:224|168:212,2,90
236,76,163383,1,0,0:0:0:0:
128,172,163519,2,0,L|133:270,1,90
28,360,163792,1,0,0:0:0:0:
19,196,163929,2,0,B|3:148|3:148|64:182|128:172,1,180
380,148,164338,6,2,B|420:140|460:156|460:156|403:239|403:239|395:213,1,202.5
380,148,164610,6,0,P|384:103|363:65,1,90
220,16,164883,1,0,0:0:0:0:
293,231,165019,2,0,B|308:288|300:346|300:346|248:308,1,180
108,268,165428,2,0,P|74:260|16:280,1,90
248,308,165701,6,0,P|281:316|314:309,1,67.5
380,268,165838,2,0,P|392:248|384:192,1,67.5
352,144,165974,1,8,0:0:0:0:
248,308,166111,1,2,0:0:0:0:
308,116,166247,1,8,0:0:0:0:
196,308,166383,1,2,0:0:0:0:
240,84,166520,6,0,B|238:46|238:46|146:96|146:96|237:138,1,243
308,116,166792,5,4,0:0:0:0:
88,52,166928,1,2,0:0:0:0:
88,52,166997,1,0,0:0:0:0:
88,52,167065,2,0,P|75:80|94:143,1,72
144,248,167337,5,4,0:0:0:0:
315,123,167474,1,2,0:0:0:0:
315,123,167543,1,0,0:0:0:0:
315,123,167610,2,0,B|350:113|350:113|403:127,1,72
500,192,167883,5,4,0:0:0:0:
344,316,168020,1,2,0:0:0:0:
344,316,168087,1,0,0:0:0:0:
344,316,168156,2,0,B|315:327|315:327|248:320,1,72
140,272,168429,5,4,0:0:0:0:
248,176,168565,2,0,L|244:144,4,18
274,322,168838,1,0,0:0:0:0:
420,164,168974,5,4,0:0:0:0:
332,52,169110,1,2,0:0:0:0:
332,52,169179,1,0,0:0:0:0:
332,52,169246,2,0,B|352:20|352:20|360:36|344:68,1,81
256,192,169519,5,4,0:0:0:0:
96,196,169656,1,2,0:0:0:0:
96,196,169724,1,0,0:0:0:0:
96,196,169792,2,0,B|59:194|59:194|68:179|104:176,1,81
256,192,170065,5,4,0:0:0:0:
339,327,170201,1,2,0:0:0:0:
339,327,170269,1,0,0:0:0:0:
339,327,170338,2,0,B|356:361|356:361|339:360|320:336,1,81
217,136,170611,2,0,P|255:124|293:135,1,81
141,196,170883,2,2,B|145:180|145:180|141:168|141:168|145:156|145:156|141:144|141:144|149:136|149:136|145:124|145:124|149:112|149:112|145:96|145:96|150:76,1,121.5
84,24,171155,5,4,0:0:0:0:
48,188,171292,2,0,L|52:244,1,45
147,285,171428,2,0,L|141:196,1,90
96,40,171701,5,4,0:0:0:0:
264,112,171838,2,0,P|284:125|320:136,1,45
392,124,171974,2,0,P|427:98|450:50,1,90
332,0,172247,5,4,0:0:0:0:
368,196,172383,2,0,L|376:264,1,45
236,324,172520,2,0,L|248:232,1,90
248,92,172793,5,4,0:0:0:0:
124,160,172929,2,0,L|88:152,4,22.5
247,234,173201,1,2,0:0:0:0:
436,152,173337,5,4,0:0:0:0:
408,296,173474,2,0,B|396:316|396:316|372:332,1,49.5
268,344,173610,2,0,L|164:336,1,99
36,248,173883,5,4,0:0:0:0:
192,260,174019,2,0,L|241:263,1,49.5
169,336,174156,2,0,L|69:328,1,99
144,188,174429,5,4,0:0:0:0:
107,47,174565,2,0,P|83:43|59:47,1,49.5
172,92,174702,6,0,B|224:112|264:104|264:104|320:92|320:60|288:60|264:104|264:104|256:152|276:184,1,288
376,244,175383,1,2,0:0:0:0:
341,19,175519,5,4,0:0:0:0:
325,9,175588,1,0,0:0:0:0:
307,4,175656,1,8,0:0:0:0:
289,5,175724,1,0,0:0:0:0:
271,10,175792,1,4,0:0:0:0:
254,17,175861,1,0,0:0:0:0:
239,28,175928,1,8,0:0:0:0:
231,44,175997,1,0,0:0:0:0:
232,60,176065,1,4,0:0:0:0:
236,76,176133,1,0,0:0:0:0:
240,92,176201,1,8,0:0:0:0:
244,108,176269,1,0,0:0:0:0:
248,124,176338,6,2,P|256:164|232:216,1,81
160,236,176611,5,4,0:0:0:0:
132,232,176678,1,0,0:0:0:0:
104,224,176747,1,8,0:0:0:0:
77,219,176815,1,0,0:0:0:0:
50,224,176883,1,0,0:0:0:0:
31,242,176951,1,0,0:0:0:0:
23,267,177020,1,0,0:0:0:0:
30,293,177087,1,0,0:0:0:0:
49,312,177156,1,0,0:0:0:0:
74,318,177224,1,0,0:0:0:0:
100,310,177292,1,0,0:0:0:0:
118,290,177360,1,0,0:0:0:0:
127,261,177428,6,0,P|131:227|123:194,1,67.5
52,52,177565,2,0,P|48:85|56:118,1,67.5
123,194,177701,5,4,0:0:0:0:
157,205,177770,1,0,0:0:0:0:
192,200,177837,1,8,0:0:0:0:
219,176,177906,1,0,0:0:0:0:
236,144,177974,1,4,0:0:0:0:
233,107,178043,1,0,0:0:0:0:
215,76,178110,1,8,0:0:0:0:
202,42,178179,1,0,0:0:0:0:
222,12,178247,1,4,0:0:0:0:
256,4,178315,1,0,0:0:0:0:
290,12,178383,1,8,0:0:0:0:
310,42,178451,1,0,0:0:0:0:
332,64,178520,5,2,0:0:0:0:
339,68,178587,1,2,0:0:0:0:
347,68,178656,1,2,0:0:0:0:
354,64,178724,1,2,0:0:0:0:
384,44,178792,5,4,0:0:0:0:
388,80,178860,1,0,0:0:0:0:
392,116,178929,1,0,0:0:0:0:
396,152,178997,1,0,0:0:0:0:
400,188,179065,1,4,0:0:0:0:
404,224,179133,1,0,0:0:0:0:
408,260,179201,1,0,0:0:0:0:
412,296,179269,1,0,0:0:0:0:
416,332,179338,6,0,B|476:296|476:296|472:220,2,135
257,229,179883,5,0,0:0:0:0:
215,211,179952,1,0,0:0:0:0:
171,219,180019,1,0,0:0:0:0:
143,254,180088,1,0,0:0:0:0:
134,298,180156,1,0,0:0:0:0:
111,336,180224,1,0,0:0:0:0:
67,348,180292,1,0,0:0:0:0:
24,333,180360,1,0,0:0:0:0:
4,292,180429,1,0,0:0:0:0:
17,249,180496,1,0,0:0:0:0:
49,217,180565,1,0,0:0:0:0:
76,181,180633,1,0,0:0:0:0:
93,135,180701,1,0,0:0:0:0:
84,87,180769,1,0,0:0:0:0:
38,69,180838,1,0,0:0:0:0:
0,101,180906,1,0,0:0:0:0:
9,150,180974,5,0,0:0:0:0:
55,167,181042,1,0,0:0:0:0:
93,135,181111,1,0,0:0:0:0:
140,123,181178,1,0,0:0:0:0:
188,133,181247,1,0,0:0:0:0:
226,164,181315,1,0,0:0:0:0:
241,211,181383,1,0,0:0:0:0:
230,259,181451,1,0,0:0:0:0:
206,302,181519,1,0,0:0:0:0:
214,350,181588,1,0,0:0:0:0:
257,371,181655,1,0,0:0:0:0:
298,350,181724,1,0,0:0:0:0:
306,302,181792,1,0,0:0:0:0:
282,259,181861,1,0,0:0:0:0:
298,212,181928,1,0,0:0:0:0:
338,183,181997,1,0,0:0:0:0:
384,196,182065,6,0,P|395:199|406:196,7,22.5
350,254,182338,2,0,P|359:260|370:261,7,22.5
299,296,182610,2,0,P|305:305|315:309,7,22.5
236,320,182883,2,0,P|239:330|247:338,7,22.5
244,240,183156,5,4,0:0:0:0:
244,240,184247,6,0,B|248:176,1,54
328,128,184383,1,2,0:0:0:0:
328,128,184451,1,0,0:0:0:0:
328,128,184519,2,0,P|347:187|325:248,1,108
248,364,184792,1,4,0:0:0:0:
175,230,184929,1,2,0:0:0:0:
175,230,184996,1,0,0:0:0:0:
175,230,185065,2,0,P|165:177|184:128,1,108
340,44,185338,6,0,B|424:48,1,54
480,128,185474,1,2,0:0:0:0:
480,128,185542,1,0,0:0:0:0:
480,128,185610,2,0,L|372:122,1,108
228,196,185883,1,4,0:0:0:0:
364,288,186019,1,2,0:0:0:0:
364,288,186088,1,0,0:0:0:0:
364,288,186156,2,0,L|372:216,2,54
176,320,186428,6,0,P|168:284|180:248,1,54
232,372,186565,1,2,0:0:0:0:
232,372,186633,1,0,0:0:0:0:
232,372,186701,2,0,L|124:360,1,108
8,248,186974,1,4,0:0:0:0:
140,152,187111,2,0,P|152:120|140:84,1,54
31,79,187247,1,0,0:0:0:0:
31,79,187315,2,0,P|46:101|71:113,1,54
260,116,187520,6,0,B|332:112,1,54
196,188,187656,1,2,0:0:0:0:
216,188,187724,1,0,0:0:0:0:
236,188,187792,2,0,L|356:181,1,108
456,64,188065,1,4,0:0:0:0:
328,256,188201,2,0,P|323:285|335:330,1,54
412,288,188337,1,0,0:0:0:0:
412,288,188406,1,0,0:0:0:0:
412,288,188474,2,0,P|417:259|405:214,1,54
344,182,188610,6,0,B|286:185,1,54
152,110,188747,1,2,0:0:0:0:
152,110,188815,1,0,0:0:0:0:
152,110,188883,2,0,L|259:115,1,108
424,124,189156,1,4,0:0:0:0:
335,263,189292,1,2,0:0:0:0:
335,263,189360,1,0,0:0:0:0:
335,263,189429,2,0,P|280:280|224:272,1,108
100,180,189701,6,0,P|86:154|82:126,1,54
172,48,189838,1,2,0:0:0:0:
180,64,189906,1,0,0:0:0:0:
188,80,189974,2,0,L|184:212,1,108
172,348,190246,1,4,0:0:0:0:
56,260,190383,1,2,0:0:0:0:
56,260,190452,1,0,0:0:0:0:
56,260,190519,2,0,P|31:253|4:256,2,54
172,348,190792,6,0,B|204:358|204:358|238:350,1,67.5
332,304,190929,2,0,B|364:296|364:296|397:303,1,67.5
264,284,191065,6,0,P|252:236|284:152,1,108
372,56,191338,1,4,0:0:0:0:
411,36,191406,1,0,0:0:0:0:
442,66,191474,1,2,0:0:0:0:
421,105,191542,1,0,0:0:0:0:
379,98,191611,1,0,0:0:0:0:
343,71,191678,2,0,P|317:66|291:72,1,54
180,244,191883,6,0,L|188:332,1,67.5
325,311,192019,2,0,L|332:244,1,67.5
156,176,192155,6,0,P|120:204|122:284,1,108
348,380,192428,2,0,P|384:352|382:272,1,108
232,72,192701,6,0,B|198:37|116:64|116:64|155:130|244:124,1,270
372,92,192974,6,0,P|400:84|428:88,1,54
492,184,193110,1,2,0:0:0:0:
492,184,193178,1,0,0:0:0:0:
492,184,193247,2,0,L|372:180,1,108
224,204,193520,1,4,0:0:0:0:
376,304,193656,1,2,0:0:0:0:
376,304,193724,1,0,0:0:0:0:
376,304,193793,2,0,L|488:300,1,108
340,236,194065,6,0,P|314:254|306:286,1,54
268,360,194201,1,2,0:0:0:0:
268,360,194270,1,0,0:0:0:0:
268,360,194337,2,0,P|221:315|220:247,1,108
260,120,194610,1,4,0:0:0:0:
416,76,194747,2,0,L|469:78,1,54
488,184,194883,2,0,L|435:182,1,54
320,128,195019,1,0,0:0:0:0:
184,35,195156,6,0,P|178:62|183:88,1,54
224,184,195292,1,2,0:0:0:0:
232,200,195360,1,0,0:0:0:0:
240,216,195429,2,0,P|256:266|240:317,1,108
68,248,195702,1,4,0:0:0:0:
320,128,195838,2,0,P|325:103|315:73,1,54
320,200,195974,1,0,0:0:0:0:
320,200,196042,2,0,P|314:227|319:256,1,54
488,352,196246,6,0,P|495:326|492:299,1,54
404,230,196383,1,2,0:0:0:0:
404,230,196451,1,0,0:0:0:0:
404,230,196519,2,0,L|296:236,1,108
136,248,196792,1,4,0:0:0:0:
240,372,196928,2,0,P|267:352|279:330,1,54
296,236,197065,1,0,0:0:0:0:
296,236,197133,1,0,0:0:0:0:
296,236,197201,2,0,L|292:172,1,54
220,40,197338,6,0,B|200:88|200:88|220:140,1,108
292,182,197542,2,0,B|320:184|320:184|364:172,1,54
408,28,197747,5,4,0:0:0:0:
408,28,197815,1,2,0:0:0:0:
408,28,197883,1,2,0:0:0:0:
212,216,198020,2,0,B|188:232|188:232|152:240,1,54
84,240,198156,1,4,0:0:0:0:
104,28,198292,5,4,0:0:0:0:
104,28,198360,1,2,0:0:0:0:
104,28,198428,1,4,0:0:0:0:
300,216,198565,2,0,B|324:232|324:232|360:240,1,54
428,240,198701,1,2,0:0:0:0:
256,32,198837,5,4,0:0:0:0:
256,44,198906,1,0,0:0:0:0:
256,56,198974,1,2,0:0:0:0:
256,68,199043,1,4,0:0:0:0:
256,80,199110,2,0,B|260:112|252:112|256:136,1,54
300,216,199247,1,4,0:0:0:0:
116,324,199383,5,4,0:0:0:0:
116,324,199451,1,0,0:0:0:0:
116,324,199520,2,0,P|72:336|12:304,1,90
180,300,199724,6,0,P|217:291|260:299,1,81
112,144,199929,6,0,P|105:117|112:91,1,54
227,94,200065,2,0,B|255:110|255:110|180:118,1,108
168,36,200269,6,0,P|192:18|249:14,1,81
413,84,200474,6,0,L|409:144,1,54
368,244,200610,6,0,P|351:249|331:246,1,27
351,232,200679,2,0,P|332:232|314:222,1,27
331,212,200746,2,0,P|313:205|299:190,1,27
324,176,200815,6,0,P|285:148|320:136,1,108
192,236,201019,2,0,P|160:144|212:68,1,162
256,280,201292,5,2,0:0:0:0:
216,304,201360,2,0,L|52:296,1,162
316,344,201565,2,0,L|400:340,1,81
428,208,201701,6,0,P|392:204|364:212,1,54
480,264,201838,1,2,0:0:0:0:
480,264,201906,1,0,0:0:0:0:
480,264,201974,2,0,L|468:144,1,108
380,20,202247,1,4,0:0:0:0:
248,116,202383,1,2,0:0:0:0:
248,116,202451,1,0,0:0:0:0:
248,116,202519,2,0,B|208:128|208:128|140:116,1,108
308,88,202792,6,0,P|314:114|307:148,1,54
268,244,202928,1,2,0:0:0:0:
268,244,202997,1,0,0:0:0:0:
267,244,203065,2,0,P|255:295|274:345,1,108
440,292,203338,1,4,0:0:0:0:
252,172,203474,1,2,0:0:0:0:
224,176,203542,1,0,0:0:0:0:
196,180,203610,1,0,0:0:0:0:
168,184,203678,2,0,L|96:176,1,54
448,208,203883,6,0,P|446:234|434:259,1,54
312,256,204020,2,0,P|300:231|298:204,1,54
368,104,204156,2,0,L|374:211,1,108
288,352,204429,1,4,0:0:0:0:
140,228,204565,2,0,P|133:201|138:175,1,54
181,287,204701,1,0,0:0:0:0:
181,287,204770,2,0,P|185:313|179:339,1,54
64,76,204974,6,0,B|128:72,1,54
145,182,205110,1,2,0:0:0:0:
145,182,205179,1,0,0:0:0:0:
145,182,205247,2,0,L|25:174,1,108
200,112,205519,5,4,0:0:0:0:
316,304,205656,2,0,P|336:299|316:277,1,54
187,275,205792,1,0,0:0:0:0:
187,275,205860,1,0,0:0:0:0:
187,275,205929,2,0,P|174:294|196:303,1,54
256,180,206065,6,0,B|250:118,1,54
328,48,206202,1,2,0:0:0:0:
328,48,206269,1,0,0:0:0:0:
328,48,206338,2,0,P|358:98|354:161,1,108
316,304,206610,1,4,0:0:0:0:
136,228,206746,1,2,0:0:0:0:
128,212,206815,1,0,0:0:0:0:
120,196,206883,2,0,B|99:147|99:147|117:95,1,108
156,308,207156,6,0,B|100:296,1,54
220,256,207292,1,2,0:0:0:0:
220,256,207361,1,0,0:0:0:0:
220,256,207428,2,0,L|340:228,1,108
464,148,207701,1,4,0:0:0:0:
296,68,207838,1,2,0:0:0:0:
296,68,207905,1,0,0:0:0:0:
296,68,207974,2,0,P|288:36|300:-8,2,54
408,268,208247,6,0,P|407:297|392:328,1,54
320,368,208383,2,0,P|291:367|260:352,1,54
254,180,208520,2,0,L|312:272,1,108
136,188,208792,1,4,0:0:0:0:
150,165,208860,1,0,0:0:0:0:
165,142,208928,1,2,0:0:0:0:
179,119,208997,1,0,0:0:0:0:
193,96,209065,1,0,0:0:0:0:
208,72,209133,2,0,P|216:44|212:16,1,54
116,260,209337,6,0,L|196:248,1,67.5
396,260,209474,2,0,L|316:248,1,67.5
60,304,209610,6,0,P|90:327|176:296,1,108
452,80,209883,2,0,P|422:57|336:88,1,108
272,296,210156,6,0,B|296:348|296:348|324:296|324:296|308:200|308:200|320:152,1,243
408,116,210429,6,0,P|427:167|414:221,1,108
272,296,210701,5,0,0:0:0:0:
240,288,210769,1,0,0:0:0:0:
208,280,210838,1,0,0:0:0:0:
176,272,210906,1,0,0:0:0:0:
144,264,210974,1,4,0:0:0:0:
112,272,211042,1,0,0:0:0:0:
80,280,211110,1,0,0:0:0:0:
48,288,211179,1,0,0:0:0:0:
20,304,211246,1,0,0:0:0:0:
28,272,211315,1,0,0:0:0:0:
36,240,211383,1,0,0:0:0:0:
44,208,211452,1,0,0:0:0:0:
68,176,211519,5,4,0:0:0:0:
77,145,211588,1,0,0:0:0:0:
82,112,211656,1,0,0:0:0:0:
75,80,211724,1,0,0:0:0:0:
49,59,211792,1,0,0:0:0:0:
18,69,211860,1,0,0:0:0:0:
24,100,211929,1,0,0:0:0:0:
50,118,211996,1,0,0:0:0:0:
82,112,212065,1,4,0:0:0:0:
114,107,212133,1,0,0:0:0:0:
146,105,212201,1,0,0:0:0:0:
177,111,212269,1,0,0:0:0:0:
205,126,212338,1,0,0:0:0:0:
220,154,212406,1,0,0:0:0:0:
221,186,212474,1,0,0:0:0:0:
204,214,212542,1,0,0:0:0:0:
175,230,212611,6,0,P|148:236|121:230,1,54
220,154,212747,2,0,P|247:148|274:154,1,54
352,208,212883,5,0,0:0:0:0:
348,252,212951,1,0,0:0:0:0:
344,296,213019,1,0,0:0:0:0:
340,340,213088,1,0,0:0:0:0:
356,380,213155,1,4,0:0:0:0:
400,380,213224,1,0,0:0:0:0:
436,356,213292,1,0,0:0:0:0:
472,332,213361,1,0,0:0:0:0:
468,288,213428,1,0,0:0:0:0:
432,264,213497,1,0,0:0:0:0:
392,248,213565,1,0,0:0:0:0:
348,252,213633,1,0,0:0:0:0:
304,260,213701,5,4,0:0:0:0:
260,254,213770,1,0,0:0:0:0:
229,223,213838,1,0,0:0:0:0:
227,180,213906,1,0,0:0:0:0:
252,145,213974,1,0,0:0:0:0:
294,139,214042,1,0,0:0:0:0:
334,154,214110,1,0,0:0:0:0:
375,144,214178,1,0,0:0:0:0:
403,110,214247,1,4,0:0:0:0:
406,68,214315,1,0,0:0:0:0:
383,30,214383,1,0,0:0:0:0:
343,14,214451,1,0,0:0:0:0:
301,25,214520,1,0,0:0:0:0:
273,58,214587,1,0,0:0:0:0:
271,101,214656,1,0,0:0:0:0:
294,139,214724,1,0,0:0:0:0:
311,190,214793,6,0,P|317:223|308:264,1,67.5
181,248,214929,2,0,P|175:215|182:182,1,67.5
271,101,215065,5,0,0:0:0:0:
319,124,215133,1,0,0:0:0:0:
372,133,215201,1,0,0:0:0:0:
421,111,215270,1,0,0:0:0:0:
416,57,215337,1,4,0:0:0:0:
363,43,215406,1,0,0:0:0:0:
338,91,215474,1,0,0:0:0:0:
372,133,215542,1,0,0:0:0:0:
367,186,215610,1,0,0:0:0:0:
337,231,215679,1,0,0:0:0:0:
285,248,215747,1,0,0:0:0:0:
232,235,215815,1,0,0:0:0:0:
185,209,215883,6,0,L|188:120,1,81
268,20,216019,2,0,L|271:100,1,81
336,185,216156,5,0,0:0:0:0:
387,208,216224,1,0,0:0:0:0:
442,214,216292,1,0,0:0:0:0:
495,194,216360,1,0,0:0:0:0:
508,138,216429,1,0,0:0:0:0:
465,101,216496,1,0,0:0:0:0:
408,92,216565,1,0,0:0:0:0:
354,111,216633,1,0,0:0:0:0:
303,137,216702,1,0,0:0:0:0:
246,133,216769,1,0,0:0:0:0:
194,108,216838,1,0,0:0:0:0:
163,60,216906,1,0,0:0:0:0:
121,98,216974,5,0,0:0:0:0:
66,133,217042,1,0,0:0:0:0:
9,98,217110,1,0,0:0:0:0:
9,33,217179,1,0,0:0:0:0:
65,3,217246,1,0,0:0:0:0:
122,34,217315,1,0,0:0:0:0:
121,98,217383,1,0,0:0:0:0:
108,160,217451,1,0,0:0:0:0:
94,223,217519,1,0,0:0:0:0:
110,285,217588,1,0,0:0:0:0:
162,323,217656,1,0,0:0:0:0:
226,322,217724,1,0,0:0:0:0:
275,280,217792,1,0,0:0:0:0:
297,218,217861,1,0,0:0:0:0:
286,154,217928,1,0,0:0:0:0:
230,120,217997,1,0,0:0:0:0:
164,144,218065,6,0,B|104:172|48:108|48:108|84:80|188:12|268:96|279:174|204:220|132:220|132:220|230:238|255:338|159:408|74:363|79:277,1,810
144,294,219156,6,0,P|189:306|239:291,1,90
384,240,219428,2,0,P|427:230|470:242,1,90
308,268,219701,2,0,L|312:172,2,90
160,200,220110,1,0,0:0:0:0:
286,97,220247,2,0,P|325:94|381:127,1,90
188,120,220520,2,0,P|148:122|92:89,1,90
252,168,220792,2,0,B|260:204|260:204|244:264,1,90
132,372,221065,1,0,0:0:0:0:
120,348,221133,1,0,0:0:0:0:
108,324,221201,1,2,0:0:0:0:
96,300,221269,1,0,0:0:0:0:
84,276,221338,6,0,P|76:228|108:176,1,90
212,80,221610,1,0,0:0:0:0:
35,319,221746,2,0,P|10:236|42:152,1,180
212,80,222156,1,0,0:0:0:0:
256,236,222292,1,0,0:0:0:0:
300,79,222429,2,0,P|341:64|383:76,1,90
480,208,222701,1,0,0:0:0:0:
249,297,222838,2,0,P|187:260|256:236,1,180
412,284,223247,1,0,0:0:0:0:
250,297,223383,1,0,0:0:0:0:
484,316,223519,6,0,L|472:212,1,90
384,76,223792,2,0,L|373:165,1,90
284,300,224065,2,0,P|241:312|198:299,2,90
373,165,224474,1,0,0:0:0:0:
236,80,224610,2,0,B|192:72|192:72|136:88,1,90
20,184,224883,1,0,0:0:0:0:
196,276,225020,2,0,B|224:296|224:296|196:227|196:153,1,180
296,12,225429,6,2,P|366:46|292:56,1,202.5
432,12,225701,6,0,L|440:112,1,90
452,264,225974,1,0,0:0:0:0:
271,119,226110,2,0,B|283:271|283:271|251:259,1,180
100,220,226519,2,0,P|60:212|16:236,1,90
108,372,226792,1,4,0:0:0:0:
183,224,226929,2,0,P|227:230|258:262,1,90
145,160,227202,2,0,B|149:36|149:36|165:56|165:56|193:76,1,180
372,72,227610,1,0,0:0:0:0:
406,60,227679,1,0,0:0:0:0:
406,24,227746,1,2,0:0:0:0:
372,13,227815,1,0,0:0:0:0:
350,42,227883,6,0,P|324:64|264:72,1,90
112,36,228156,2,0,P|144:47|180:95,1,90
216,248,228428,2,0,L|208:344,2,90
360,172,228838,1,0,0:0:0:0:
436,316,228974,2,0,P|396:336|351:334,1,90
216,248,229247,2,0,P|176:246|120:279,1,90
296,276,229520,2,0,B|288:180,1,90
188,36,229792,1,0,0:0:0:0:
186,58,229860,1,0,0:0:0:0:
184,80,229928,1,2,0:0:0:0:
182,103,229997,1,0,0:0:0:0:
180,126,230065,6,0,L|192:228,1,90
308,328,230337,1,0,0:0:0:0:
463,186,230474,2,0,B|415:166|415:166|288:185,1,180
128,216,230883,1,0,0:0:0:0:
182,63,231020,1,0,0:0:0:0:
288,185,231156,6,0,P|300:227|288:270,1,90
172,384,231429,1,0,0:0:0:0:
48,256,231565,2,0,P|23:173|55:89,1,180
208,24,231974,2,0,L|208:0,6,22.5
268,144,232246,6,0,B|312:156|312:156|360:144,1,90
192,156,232519,2,0,B|214:195|214:195|257:221,1,90
312,68,232792,1,4,0:0:0:0:
312,68,232860,1,0,0:0:0:0:
312,68,232929,1,0,0:0:0:0:
132,112,233065,2,0,B|120:156|120:156|131:204,1,90
260,296,233338,2,0,L|362:291,1,90
221,194,233611,2,0,L|131:198,1,90
260,296,233883,1,4,0:0:0:0:
316,80,234019,1,4,0:0:0:0:
99,134,234155,1,0,0:0:0:0:
107,150,234224,1,0,0:0:0:0:
115,166,234292,1,0,0:0:0:0:
123,182,234361,1,0,0:0:0:0:
131,198,234428,5,4,0:0:0:0:
440,192,234633,1,4,0:0:0:0:
164,336,234838,1,4,0:0:0:0:
164,336,235110,5,4,0:0:0:0:
256,40,235315,1,4,0:0:0:0:
348,336,235520,1,4,0:0:0:0:
72,192,235724,1,4,0:0:0:0:
440,192,235929,1,4,0:0:0:0:
440,192,236201,1,0,0:0:0:0:
256,312,236337,5,0,0:0:0:0:
256,276,236406,1,0,0:0:0:0:
256,240,236474,1,0,0:0:0:0:
256,204,236542,1,0,0:0:0:0:
256,168,236610,6,0,P|211:156|161:171,1,90
328,204,236883,2,0,P|371:214|414:202,1,90
372,44,237156,1,4,0:0:0:0:
216,92,237292,1,0,0:0:0:0:
328,204,237429,2,0,P|344:248|336:300,1,90
172,290,237702,6,0,P|168:245|184:204,1,90
339,290,237974,2,0,P|379:292|435:259,1,90
173,290,238246,2,0,P|133:292|77:259,1,90
28,120,238519,1,0,0:0:0:0:
36,99,238588,1,0,0:0:0:0:
49,80,238656,1,2,0:0:0:0:
66,66,238724,1,0,0:0:0:0:
86,56,238792,6,0,P|128:44|210:64,1,90
256,188,239065,2,0,L|244:308,1,90
100,204,239338,1,4,0:0:0:0:
128,44,239474,1,0,0:0:0:0:
256,188,239611,2,0,B|289:198|289:198|365:178,1,90
188,144,239883,6,0,P|175:187|192:237,1,90
331,157,240156,2,0,P|300:124|249:114,1,90
248,274,240428,2,0,P|292:264|326:224,1,90
128,112,240701,1,0,0:0:0:0:
252,344,240837,1,0,0:0:0:0:
380,112,240974,6,0,P|424:104|476:116,1,90
467,271,241247,2,0,P|424:279|380:272,1,90
236,192,241520,1,4,0:0:0:0:
380,112,241656,1,0,0:0:0:0:
276,276,241792,2,0,L|160:272,1,90
36,192,242065,6,0,L|132:188,1,90
268,92,242338,2,0,L|168:88,1,90
36,192,242610,1,4,0:0:0:0:
160,316,242746,1,0,0:0:0:0:
388,177,242883,6,2,B|483:167|483:167|468:232|468:232|388:241,1,243
324,196,243156,6,0,P|312:151|327:101,1,90
388,241,243429,2,0,B|400:288|400:288|388:328,1,90
224,324,243701,1,4,0:0:0:0:
324,196,243838,1,0,0:0:0:0:
176,128,243974,2,0,P|160:80|180:32,1,90
220,198,244247,6,0,P|169:212|121:188,1,90
292,158,244519,2,0,P|304:200|289:242,1,90
248,86,244792,1,4,0:0:0:0:
424,124,244928,1,0,0:0:0:0:
305,234,245065,1,0,0:0:0:0:
297,238,245133,1,2,0:0:0:0:
289,242,245201,1,2,0:0:0:0:
132,196,245338,6,0,B|100:188|100:188|32:200,1,90
96,352,245610,1,2,0:0:0:0:
207,234,245747,5,2,0:0:0:0:
215,238,245815,1,2,0:0:0:0:
223,242,245883,1,2,0:0:0:0:
416,352,246020,2,0,B|438:354|438:354|459:345,1,45
504,276,246156,1,2,0:0:0:0:
364,192,246293,5,2,0:0:0:0:
356,196,246360,1,2,0:0:0:0:
348,200,246429,1,2,0:0:0:0:
131,273,246565,2,0,B|109:275|109:275|87:266,1,45
43,197,246701,1,2,0:0:0:0:
183,113,246837,5,2,0:0:0:0:
191,117,246906,1,2,0:0:0:0:
199,121,246974,1,2,0:0:0:0:
416,196,247110,2,0,B|438:198|438:198|459:189,1,45
496,116,247247,1,2,0:0:0:0:
488,88,247315,1,0,0:0:0:0:
464,72,247383,1,2,0:0:0:0:
436,68,247451,1,0,0:0:0:0:
407,72,247519,6,0,P|367:90|323:88,1,90
168,32,247792,1,2,0:0:0:0:
248,184,247929,5,2,0:0:0:0:
248,184,247996,1,2,0:0:0:0:
248,184,248065,1,2,0:0:0:0:
128,291,248202,2,0,P|123:313|127:335,1,45
196,380,248338,1,2,0:0:0:0:
336,264,248474,5,2,0:0:0:0:
336,264,248542,1,2,0:0:0:0:
335,264,248610,2,0,P|339:230|332:192,1,67.5
288,124,248746,2,0,P|271:102|231:83,1,67.5
128,164,248883,6,0,L|232:160,1,90
423,200,249156,2,0,L|319:196,1,90
112,316,249428,6,0,B|172:320|228:292|228:292|264:328|264:328|228:368|228:368|224:336,1,243
184,232,249701,5,0,0:0:0:0:
384,128,249838,1,0,0:0:0:0:
188,20,249974,1,0,0:0:0:0:
260,280,250111,5,0,0:0:0:0:
260,280,250178,1,2,0:0:0:0:
260,280,250247,1,0,0:0:0:0:
484,316,250383,1,0,0:0:0:0:
340,140,250520,1,0,0:0:0:0:
88,176,250656,5,0,0:0:0:0:
88,176,250724,1,2,0:0:0:0:
88,176,250792,1,0,0:0:0:0:
252,24,250928,1,0,0:0:0:0:
424,176,251065,1,0,0:0:0:0:
256,364,251201,5,0,0:0:0:0:
256,356,251270,1,2,0:0:0:0:
256,348,251337,1,0,0:0:0:0:
340,140,251474,1,0,0:0:0:0:
88,240,251610,6,0,P|48:220|36:168,1,81
44,120,251883,5,0,0:0:0:0:
66,91,251951,1,0,0:0:0:0:
99,78,252020,1,0,0:0:0:0:
135,80,252087,1,0,0:0:0:0:
165,97,252156,1,0,0:0:0:0:
176,131,252224,1,0,0:0:0:0:
170,166,252292,1,0,0:0:0:0:
176,201,252360,1,0,0:0:0:0:
201,226,252429,1,0,0:0:0:0:
236,229,252497,1,0,0:0:0:0:
267,211,252565,1,0,0:0:0:0:
298,194,252633,1,0,0:0:0:0:
333,187,252701,1,0,0:0:0:0:
368,194,252769,1,0,0:0:0:0:
394,219,252838,1,0,0:0:0:0:
395,254,252906,1,0,0:0:0:0:
382,288,252974,6,0,L|380:310,7,22.5
316,292,253246,2,0,L|313:314,7,22.5
248,300,253519,2,0,L|245:322,7,22.5
180,308,253792,2,0,L|177:330,7,22.5
208,232,254065,6,0,B|220:188|220:188|207:145,1,90
44,145,254338,2,0,B|32:188|32:188|44:232,1,90
207,145,254611,1,4,0:0:0:0:
44,232,254747,1,0,0:0:0:0:
128,76,254883,1,0,0:0:0:0:
208,232,255019,1,0,0:0:0:0:
332,104,255155,6,0,B|364:96|364:96|452:108,1,90
368,256,255428,1,0,0:0:0:0:
208,232,255565,1,0,0:0:0:0:
52,268,255701,1,4,0:0:0:0:
56,248,255770,1,0,0:0:0:0:
60,228,255838,1,2,0:0:0:0:
64,208,255906,1,0,0:0:0:0:
68,188,255974,2,2,L|48:84,1,81
144,152,256247,6,0,P|187:163|230:151,1,90
336,28,256520,2,0,P|304:59|293:102,1,90
348,256,256793,2,0,P|336:213|304:181,1,90
144,152,257065,1,0,0:0:0:0:
176,312,257201,1,0,0:0:0:0:
348,256,257337,6,0,B|392:243|392:243|436:256,1,90
280,300,257610,2,0,P|265:257|280:212,1,90
372,84,257883,1,4,0:0:0:0:
192,140,258019,6,0,B|176:144|176:144|124:133,1,67.5
240,88,258156,2,0,B|251:99|251:99|267:149,1,67.5
172,72,258292,1,2,0:0:0:0:
172,72,258360,1,2,0:0:0:0:
172,71,258429,2,0,P|194:33|235:18,1,90
388,76,258702,2,0,L|380:180,1,90
224,200,258974,2,0,P|218:156|231:114,1,90
364,208,259246,2,0,P|329:235|286:244,1,90
136,180,259519,5,4,0:0:0:0:
192,316,259656,2,0,P|200:340|196:364,1,45
127,346,259792,2,0,P|103:353|78:349,1,45
100,280,259928,2,0,P|92:256|96:231,1,45
164,248,260065,1,4,0:0:0:0:
185,240,260133,1,0,0:0:0:0:
207,242,260201,1,0,0:0:0:0:
288,156,260338,2,0,P|326:150|319:188,1,90
160,160,260611,6,0,L|180:40,1,90
319,188,260883,2,0,L|299:308,1,90
160,160,261156,1,4,0:0:0:0:
316,116,261292,1,0,0:0:0:0:
304,276,261428,1,0,0:0:0:0:
148,320,261565,1,0,0:0:0:0:
160,160,261701,6,0,P|108:128|128:200,1,180
288,172,262110,2,0,P|316:168|344:172,1,45
268,236,262247,2,0,B|252:250|252:250|264:108|264:108|228:128,1,180
128,199,262656,1,0,0:0:0:0:
228,324,262792,6,0,P|272:326|320:288,1,108
276,48,263065,2,0,P|232:46|184:84,1,108
92,228,263338,1,4,0:0:0:0:
416,180,263474,1,2,0:0:0:0:
104,216,263610,1,0,0:0:0:0:
420,156,263746,1,2,0:0:0:0:
92,228,263883,6,0,B|128:240|128:240|200:228,1,108
420,156,264156,2,0,B|384:144|384:144|312:156,1,108
256,316,264429,1,4,0:0:0:0:
256,316,264496,1,0,0:0:0:0:
256,316,264565,1,0,0:0:0:0:
468,204,264701,2,0,B|460:92,1,108
280,32,264974,6,0,P|237:20|176:40,1,108
84,148,265247,2,0,P|72:190|101:255,1,108
193,354,265519,1,4,0:0:0:0:
252,132,265655,1,2,0:0:0:0:
319,354,265792,1,0,0:0:0:0:
148,192,265928,1,2,0:0:0:0:
364,192,266065,6,0,B|445:198|445:198|422:168,1,108
328,52,266338,2,0,B|248:47|248:47|267:67,1,108
371,199,266610,1,4,0:0:0:0:
371,199,266678,1,2,0:0:0:0:
371,199,266747,2,0,P|375:231|364:276,1,54
308,304,266883,2,0,B|280:312|280:312|188:300,1,108
136,296,267087,1,2,0:0:0:0:
136,296,267156,5,4,0:0:0:0:
141,308,267224,1,0,0:0:0:0:
139,321,267293,1,8,0:0:0:0:
130,331,267360,1,0,0:0:0:0:
117,336,267429,1,4,0:0:0:0:
103,334,267497,1,0,0:0:0:0:
91,326,267565,1,8,0:0:0:0:
86,313,267633,1,0,0:0:0:0:
89,299,267701,1,4,0:0:0:0:
95,287,267770,1,0,0:0:0:0:
102,275,267837,1,8,0:0:0:0:
103,261,267906,1,0,0:0:0:0:
100,247,267974,6,0,P|93:225|80:207,1,45
48,128,268110,2,0,P|67:136|90:137,1,45
165,108,268247,5,4,0:0:0:0:
179,97,268315,1,0,0:0:0:0:
190,82,268383,1,8,0:0:0:0:
202,68,268451,1,0,0:0:0:0:
219,63,268519,1,4,0:0:0:0:
236,67,268588,1,0,0:0:0:0:
248,80,268656,1,8,0:0:0:0:
256,95,268724,1,0,0:0:0:0:
256,112,268792,1,4,0:0:0:0:
252,129,268860,1,0,0:0:0:0:
251,147,268929,1,8,0:0:0:0:
255,164,268996,1,0,0:0:0:0:
261,180,269065,5,2,0:0:0:0:
432,240,269202,1,2,0:0:0:0:
400,64,269338,5,0,0:0:0:0:
376,72,269406,1,0,0:0:0:0:
352,80,269474,1,0,0:0:0:0:
328,88,269542,1,0,0:0:0:0:
304,96,269610,1,0,0:0:0:0:
280,104,269679,1,0,0:0:0:0:
256,112,269746,1,0,0:0:0:0:
232,120,269815,1,0,0:0:0:0:
208,128,269883,1,0,0:0:0:0:
181,129,269951,1,0,0:0:0:0:
157,114,270019,1,0,0:0:0:0:
130,108,270088,1,0,0:0:0:0:
106,121,270156,1,0,0:0:0:0:
98,146,270224,1,0,0:0:0:0:
110,170,270292,1,0,0:0:0:0:
135,180,270361,1,0,0:0:0:0:
161,174,270428,6,0,L|187:182,30,22.5
40,212,271520,5,6,0:0:0:0:
208,344,271792,1,8,0:0:0:0:
380,212,272065,1,2,0:0:0:0:
208,80,272337,1,8,0:0:0:0:
232,184,272474,1,0,0:0:0:0:
232,184,272543,1,0,0:0:0:0:
232,184,272610,5,2,0:0:0:0:
441,121,272883,1,8,0:0:0:0:
383,185,273020,1,2,0:0:0:0:
300,164,273156,1,0,0:0:0:0:
361,104,273292,1,2,0:0:0:0:
387,260,273429,1,10,0:0:0:0:
244,208,273565,1,2,0:0:0:0:
361,104,273701,5,2,0:0:0:0:
172,4,273974,1,8,0:0:0:0:
244,208,274246,1,2,0:0:0:0:
56,104,274519,1,8,0:0:0:0:
164,116,274656,1,0,0:0:0:0:
164,116,274724,1,0,0:0:0:0:
164,116,274792,5,2,0:0:0:0:
108,324,275065,1,8,0:0:0:0:
256,168,275338,1,2,0:0:0:0:
404,324,275611,1,8,0:0:0:0:
316,264,275747,1,0,0:0:0:0:
316,264,275815,1,0,0:0:0:0:
316,264,275883,5,2,0:0:0:0:
108,324,276155,1,8,0:0:0:0:
256,168,276428,1,2,0:0:0:0:
44,204,276701,1,8,0:0:0:0:
100,112,276838,1,0,0:0:0:0:
100,112,276906,1,0,0:0:0:0:
100,112,276974,5,2,0:0:0:0:
304,44,277247,1,8,0:0:0:0:
358,101,277383,1,2,0:0:0:0:
279,120,277520,1,0,0:0:0:0:
420,164,277656,1,2,0:0:0:0:
243,203,277793,2,0,B|168:196,1,54
104,132,278065,5,2,0:0:0:0:
80,348,278337,1,8,0:0:0:0:
243,203,278610,1,2,0:0:0:0:
412,336,278883,1,8,0:0:0:0:
196,340,279156,1,2,0:0:0:0:
268,136,279429,1,0,0:0:0:0:
376,120,279565,2,0,P|378:133|377:146,4,27
304,36,279974,1,0,0:0:0:0:
112,140,280246,6,0,P|99:192|112:244,1,108
