osu file format v14

[General]
AudioFilename: Yooh Ice AngelSaint220BPM.mp3
AudioLeadIn: 0
PreviewTime: 168655
Countdown: 0
SampleSet: Soft
StackLeniency: 0.7
Mode: 0
LetterboxInBreaks: 0
WidescreenStoryboard: 0

[Editor]
DistanceSpacing: 1
BeatDivisor: 4
GridSize: 8
TimelineZoom: 2

[Metadata]
Title:220bpm pack
TitleUnicode:220bpm pack
Artist:Various Artists
ArtistUnicode:Various Artists
Creator:Moting
Version:Ice Angel
Source:
Tags:
BeatmapID:1465921
BeatmapSetID:692759

[Difficulty]
HPDrainRate:6
CircleSize:5
OverallDifficulty:8.7
ApproachRate:9.8
SliderMultiplier:1.8
SliderTickRate:2

[Events]
//Background and Video events
0,0,"The BG.jpg",0,0
//Break Periods
2,112196,113510
//Storyboard Layer 0 (Background)
//Storyboard Layer 1 (Fail)
//Storyboard Layer 2 (Pass)
//Storyboard Layer 3 (Foreground)
//Storyboard Sound Samples

[TimingPoints]
655,272.7273,4,2,1,5,1,0
2700,-100,4,2,1,60,0,0
19200,-166.6667,4,2,1,60,0,0
19746,-100,4,2,1,60,0,0
20292,-100,4,2,1,70,0,0
33383,-100,4,2,2,70,0,0
35564,-100,4,2,1,70,0,0
37746,-100,4,2,1,80,0,1
70473,-100,4,2,2,80,0,1
72655,-100,4,2,1,60,0,0
85746,-100,4,2,2,60,0,0
87928,-100,4,2,1,70,0,0
90109,-100,4,2,1,80,0,1
107564,-100,4,2,1,80,0,0
114110,-200,4,2,1,60,0,0
133746,-200,4,2,1,65,0,0
149019,-200,4,2,0,65,0,0
151200,-100,4,2,1,70,0,0
159928,-100,4,1,1,70,0,0
168655,-100,4,2,1,80,0,1
186110,-90.90909,4,2,1,85,0,1
199200,-90.90909,4,2,2,85,0,1
201383,-90.90909,4,2,1,85,0,1
203292,-90.90909,4,2,1,70,0,0
203564,-83.33334,4,2,1,90,0,1
238473,-100,4,2,1,70,0,0
264655,-200,4,2,1,60,0,0

[HitObjects]
256,192,723,12,0,2632,0:0:0:0:
32,231,2768,5,4,0:0:0:0:
51,319,2905,1,4,0:0:0:0:
81,326,2973,1,0,0:0:0:0:
112,328,3041,1,0,0:0:0:0:
143,324,3109,1,0,0:0:0:0:
172,313,3178,1,2,0:0:0:0:
202,305,3247,1,0,0:0:0:0:
233,301,3314,1,0,0:0:0:0:
264,303,3382,1,0,0:0:0:0:
294,310,3450,1,2,0:0:0:0:
279,282,3518,1,0,0:0:0:0:
278,250,3586,1,0,0:0:0:0:
290,220,3655,1,0,0:0:0:0:
313,198,3723,1,2,0:0:0:0:
344,194,3791,1,0,0:0:0:0:
375,198,3860,1,0,0:0:0:0:
398,218,3928,1,0,0:0:0:0:
418,242,3996,5,2,0:0:0:0:
442,223,4064,1,0,0:0:0:0:
455,194,4132,1,0,0:0:0:0:
459,162,4200,1,0,0:0:0:0:
450,131,4268,1,2,0:0:0:0:
431,105,4337,1,0,0:0:0:0:
403,89,4405,1,0,0:0:0:0:
372,80,4473,1,0,0:0:0:0:
340,84,4541,1,2,0:0:0:0:
321,110,4610,1,0,0:0:0:0:
293,124,4678,1,0,0:0:0:0:
262,130,4746,1,0,0:0:0:0:
230,129,4814,1,2,0:0:0:0:
198,126,4883,1,0,0:0:0:0:
167,132,4951,1,0,0:0:0:0:
139,146,5019,1,0,0:0:0:0:
120,172,5087,6,0,L|112:229,3,45
140,199,5360,2,0,L|132:256,3,45
159,225,5632,2,0,L|151:282,3,45
179,252,5905,2,0,L|171:309,3,45
199,279,6177,2,0,L|191:336,3,45
216,303,6450,2,0,L|208:360,3,45
234,367,6723,5,0,0:0:0:0:
277,357,6791,1,0,0:0:0:0:
320,347,6859,1,0,0:0:0:0:
363,337,6927,1,0,0:0:0:0:
382,296,6996,5,2,0:0:0:0:
339,286,7064,1,2,0:0:0:0:
296,276,7132,1,2,0:0:0:0:
253,266,7200,1,0,0:0:0:0:
235,224,7269,5,2,0:0:0:0:
251,197,7337,1,0,0:0:0:0:
278,181,7405,1,0,0:0:0:0:
309,177,7473,1,0,0:0:0:0:
338,186,7541,1,0,0:0:0:0:
367,195,7609,1,0,0:0:0:0:
398,191,7678,1,0,0:0:0:0:
425,175,7746,1,0,0:0:0:0:
441,148,7814,2,0,L|436:99,3,45
411,84,8086,2,0,L|406:35,3,45
376,28,8359,5,2,0:0:0:0:
349,44,8427,1,0,0:0:0:0:
333,71,8495,1,0,0:0:0:0:
329,102,8564,1,0,0:0:0:0:
338,131,8632,1,0,0:0:0:0:
347,160,8700,1,0,0:0:0:0:
343,191,8768,1,0,0:0:0:0:
327,218,8836,1,0,0:0:0:0:
300,234,8905,2,0,L|251:229,3,45
236,204,9178,2,0,L|187:199,3,45
170,174,9450,5,2,0:0:0:0:
187,147,9518,1,0,0:0:0:0:
204,120,9587,1,0,0:0:0:0:
221,93,9655,1,0,0:0:0:0:
239,67,9723,2,0,L|295:67,3,45
315,67,9996,1,2,0:0:0:0:
332,94,10064,1,0,0:0:0:0:
349,121,10132,1,0,0:0:0:0:
366,148,10200,1,0,0:0:0:0:
384,174,10268,2,0,L|440:174,3,45
461,174,10542,6,0,L|437:240,3,45
421,236,10814,2,0,L|397:302,3,45
380,297,11087,5,2,0:0:0:0:
336,287,11155,1,2,0:0:0:0:
292,277,11223,1,2,0:0:0:0:
247,267,11291,1,0,0:0:0:0:
222,229,11359,5,2,0:0:0:0:
266,219,11427,1,2,0:0:0:0:
310,209,11495,1,2,0:0:0:0:
355,199,11564,1,0,0:0:0:0:
378,160,11632,5,2,0:0:0:0:
375,128,11700,1,0,0:0:0:0:
364,99,11768,1,0,0:0:0:0:
347,72,11836,1,0,0:0:0:0:
324,51,11905,1,2,0:0:0:0:
297,35,11973,1,0,0:0:0:0:
267,27,12041,1,0,0:0:0:0:
235,26,12109,1,0,0:0:0:0:
205,33,12177,1,2,0:0:0:0:
176,46,12245,1,0,0:0:0:0:
152,67,12313,1,0,0:0:0:0:
134,92,12382,1,0,0:0:0:0:
120,121,12451,1,2,0:0:0:0:
151,118,12519,1,0,0:0:0:0:
182,121,12587,1,0,0:0:0:0:
208,137,12655,1,0,0:0:0:0:
229,160,12723,5,2,0:0:0:0:
258,149,12791,1,0,0:0:0:0:
289,145,12859,1,0,0:0:0:0:
320,147,12928,1,0,0:0:0:0:
348,159,12996,1,2,0:0:0:0:
375,173,13064,1,0,0:0:0:0:
406,175,13133,1,0,0:0:0:0:
437,171,13201,1,0,0:0:0:0:
466,160,13268,1,2,0:0:0:0:
453,188,13336,1,0,0:0:0:0:
447,219,13405,1,0,0:0:0:0:
446,250,13473,1,0,0:0:0:0:
455,279,13541,1,2,0:0:0:0:
428,296,13609,1,0,0:0:0:0:
397,303,13678,1,0,0:0:0:0:
365,299,13746,1,0,0:0:0:0:
337,283,13814,6,0,L|325:235,3,45
303,261,14086,2,0,L|291:213,3,45
269,240,14360,2,0,L|257:192,3,45
235,218,14632,2,0,L|223:170,3,45
201,196,14905,2,0,L|189:148,3,45
167,174,15178,2,0,L|155:126,3,45
128,114,15450,5,2,0:0:0:0:
166,91,15518,1,0,0:0:0:0:
210,80,15587,1,0,0:0:0:0:
254,86,15655,1,0,0:0:0:0:
255,130,15723,5,2,0:0:0:0:
293,153,15791,1,2,0:0:0:0:
337,164,15860,1,2,0:0:0:0:
381,158,15927,1,0,0:0:0:0:
387,113,15995,6,0,L|376:63,3,45
359,42,16269,1,0,0:0:0:0:
330,28,16337,1,0,0:0:0:0:
299,22,16405,1,0,0:0:0:0:
267,24,16473,1,0,0:0:0:0:
237,36,16541,2,0,L|226:86,3,45
209,107,16815,1,0,0:0:0:0:
180,121,16883,1,0,0:0:0:0:
149,127,16951,1,0,0:0:0:0:
117,125,17019,1,0,0:0:0:0:
86,117,17087,6,0,L|96:186,3,45
100,192,17359,1,0,0:0:0:0:
101,223,17427,1,0,0:0:0:0:
96,254,17496,1,0,0:0:0:0:
85,283,17564,1,0,0:0:0:0:
72,311,17632,2,0,L|141:321,3,45
147,325,17905,1,0,0:0:0:0:
178,326,17972,1,0,0:0:0:0:
209,321,18041,1,0,0:0:0:0:
238,310,18109,1,0,0:0:0:0:
262,289,18178,5,2,0:0:0:0:
272,259,18246,1,0,0:0:0:0:
282,229,18314,1,0,0:0:0:0:
292,199,18382,1,0,0:0:0:0:
301,168,18451,1,0,0:0:0:0:
311,198,18518,1,0,0:0:0:0:
321,228,18586,1,0,0:0:0:0:
331,258,18654,1,0,0:0:0:0:
343,287,18723,1,0,0:0:0:0:
353,257,18791,1,0,0:0:0:0:
363,227,18859,1,0,0:0:0:0:
373,197,18927,1,0,0:0:0:0:
382,166,18996,1,0,0:0:0:0:
392,196,19064,1,0,0:0:0:0:
402,226,19132,1,0,0:0:0:0:
412,256,19200,1,0,0:0:0:0:
422,286,19268,6,0,P|488:264|481:172,1,162
407,94,19814,5,2,0:0:0:0:
369,71,19882,1,2,0:0:0:0:
325,60,19950,1,2,0:0:0:0:
281,66,20018,1,0,0:0:0:0:
280,110,20086,5,2,0:0:0:0:
234,138,20154,1,2,0:0:0:0:
180,146,20223,1,2,0:0:0:0:
128,129,20291,1,2,0:0:0:0:
93,86,20360,5,4,0:0:0:0:
68,112,20428,1,0,0:0:0:0:
52,144,20496,1,0,0:0:0:0:
48,180,20564,1,0,0:0:0:0:
62,212,20632,1,10,0:0:0:0:
67,247,20700,1,0,0:0:0:0:
63,283,20769,1,0,0:0:0:0:
47,315,20837,1,0,0:0:0:0:
22,341,20905,1,2,0:0:0:0:
57,335,20973,1,0,0:0:0:0:
93,334,21042,1,0,0:0:0:0:
128,340,21110,1,0,0:0:0:0:
162,351,21177,1,10,0:0:0:0:
193,368,21245,1,0,0:0:0:0:
228,374,21313,1,0,0:0:0:0:
264,373,21382,1,0,0:0:0:0:
299,367,21450,5,2,0:0:0:0:
280,335,21519,1,0,0:0:0:0:
282,299,21587,1,0,0:0:0:0:
295,265,21655,1,0,0:0:0:0:
324,244,21723,1,10,0:0:0:0:
360,240,21791,1,0,0:0:0:0:
394,249,21859,1,0,0:0:0:0:
420,272,21927,1,0,0:0:0:0:
432,305,21996,1,2,0:0:0:0:
454,277,22064,1,0,0:0:0:0:
468,244,22132,1,0,0:0:0:0:
475,208,22200,1,0,0:0:0:0:
473,171,22269,1,10,0:0:0:0:
463,136,22337,1,0,0:0:0:0:
442,106,22405,1,0,0:0:0:0:
412,85,22473,1,0,0:0:0:0:
377,76,22541,6,0,L|327:82,3,45
296,86,22814,1,10,0:0:0:0:
260,89,22882,1,0,0:0:0:0:
225,78,22951,1,0,0:0:0:0:
197,54,23019,1,0,0:0:0:0:
175,25,23087,1,2,0:0:0:0:
151,53,23155,1,0,0:0:0:0:
136,86,23223,1,0,0:0:0:0:
139,121,23291,1,0,0:0:0:0:
152,154,23360,2,0,L|196:173,3,45
227,184,23632,5,2,0:0:0:0:
246,208,23700,1,0,0:0:0:0:
256,238,23768,1,0,0:0:0:0:
257,269,23836,1,0,0:0:0:0:
249,300,23904,1,10,0:0:0:0:
233,326,23972,1,0,0:0:0:0:
209,346,24040,1,0,0:0:0:0:
180,358,24108,1,0,0:0:0:0:
148,361,24177,5,2,0:0:0:0:
137,317,24246,1,0,0:0:0:0:
125,273,24314,1,0,0:0:0:0:
113,229,24382,1,0,0:0:0:0:
72,209,24450,5,10,0:0:0:0:
84,164,24519,1,2,0:0:0:0:
96,120,24587,1,2,0:0:0:0:
108,76,24656,1,0,0:0:0:0:
146,54,24723,5,2,0:0:0:0:
170,80,24791,1,0,0:0:0:0:
203,92,24860,1,0,0:0:0:0:
238,93,24928,1,0,0:0:0:0:
272,81,24996,1,8,0:0:0:0:
344,27,25132,1,2,0:0:0:0:
414,82,25268,1,0,0:0:0:0:
393,112,25337,1,0,0:0:0:0:
384,146,25405,1,0,0:0:0:0:
389,181,25473,1,0,0:0:0:0:
411,208,25541,1,10,0:0:0:0:
407,298,25678,1,0,0:0:0:0:
317,304,25814,5,0,0:0:0:0:
287,283,25882,1,0,0:0:0:0:
251,279,25950,1,2,0:0:0:0:
215,282,26018,1,0,0:0:0:0:
184,301,26087,1,8,0:0:0:0:
99,269,26223,1,0,0:0:0:0:
135,186,26360,1,2,0:0:0:0:
156,156,26427,1,0,0:0:0:0:
158,120,26495,1,0,0:0:0:0:
148,85,26563,1,0,0:0:0:0:
121,60,26632,1,8,0:0:0:0:
195,9,26769,1,0,0:0:0:0:
267,63,26905,5,2,0:0:0:0:
273,98,26973,1,0,0:0:0:0:
279,133,27041,1,0,0:0:0:0:
286,168,27109,1,0,0:0:0:0:
293,203,27177,2,0,L|392:180,1,90
461,223,27450,1,2,0:0:0:0:
455,258,27518,1,0,0:0:0:0:
449,293,27587,1,0,0:0:0:0:
442,328,27655,1,0,0:0:0:0:
435,363,27723,2,0,L|336:340,1,90
259,319,27996,5,2,0:0:0:0:
223,311,28064,1,0,0:0:0:0:
187,316,28132,1,0,0:0:0:0:
154,333,28201,1,0,0:0:0:0:
126,357,28269,1,8,0:0:0:0:
37,368,28405,1,0,0:0:0:0:
43,278,28541,5,2,0:0:0:0:
83,258,28609,1,2,0:0:0:0:
123,238,28678,1,2,0:0:0:0:
163,218,28746,1,0,0:0:0:0:
184,178,28814,5,10,0:0:0:0:
144,158,28882,1,2,0:0:0:0:
104,138,28951,1,2,0:0:0:0:
64,118,29018,1,0,0:0:0:0:
45,77,29086,5,2,0:0:0:0:
73,54,29155,1,0,0:0:0:0:
108,50,29223,1,0,0:0:0:0:
143,53,29291,1,0,0:0:0:0:
172,73,29359,1,10,0:0:0:0:
202,91,29427,1,0,0:0:0:0:
237,94,29495,1,0,0:0:0:0:
272,90,29563,1,0,0:0:0:0:
300,67,29632,1,2,0:0:0:0:
313,100,29700,1,0,0:0:0:0:
319,135,29768,1,0,0:0:0:0:
318,170,29836,1,0,0:0:0:0:
302,202,29905,1,10,0:0:0:0:
291,236,29974,1,0,0:0:0:0:
290,271,30042,1,0,0:0:0:0:
296,306,30110,1,0,0:0:0:0:
309,339,30178,5,2,0:0:0:0:
344,343,30246,1,0,0:0:0:0:
376,328,30314,1,0,0:0:0:0:
394,296,30382,1,0,0:0:0:0:
388,260,30450,1,10,0:0:0:0:
362,234,30518,1,0,0:0:0:0:
328,219,30587,1,0,0:0:0:0:
302,193,30655,1,0,0:0:0:0:
296,157,30723,1,2,0:0:0:0:
314,125,30792,1,0,0:0:0:0:
346,110,30860,1,0,0:0:0:0:
381,114,30927,1,0,0:0:0:0:
413,129,30996,1,10,0:0:0:0:
428,96,31064,1,0,0:0:0:0:
424,60,31132,1,0,0:0:0:0:
400,33,31200,1,0,0:0:0:0:
365,22,31268,5,2,0:0:0:0:
329,30,31337,1,0,0:0:0:0:
294,38,31405,1,0,0:0:0:0:
259,46,31473,1,0,0:0:0:0:
223,54,31542,2,0,L|157:71,3,45
179,101,31814,1,2,0:0:0:0:
215,109,31883,1,0,0:0:0:0:
250,117,31951,1,0,0:0:0:0:
285,125,32019,1,0,0:0:0:0:
321,133,32088,2,0,L|387:150,3,45
399,152,32359,5,2,0:0:0:0:
376,179,32427,1,0,0:0:0:0:
364,213,32496,1,0,0:0:0:0:
361,248,32564,1,0,0:0:0:0:
372,281,32632,1,10,0:0:0:0:
336,274,32700,1,0,0:0:0:0:
300,280,32769,1,0,0:0:0:0:
270,300,32837,1,0,0:0:0:0:
253,331,32905,5,2,0:0:0:0:
208,325,32973,1,0,0:0:0:0:
163,319,33041,1,0,0:0:0:0:
118,313,33109,1,0,0:0:0:0:
96,273,33177,5,10,0:0:0:0:
141,267,33246,1,2,0:0:0:0:
186,261,33314,1,2,0:0:0:0:
231,255,33382,1,2,0:0:0:0:
253,215,33451,5,2,0:0:0:0:
273,185,33519,1,8,0:0:0:0:
282,150,33587,1,8,0:0:0:0:
278,115,33655,1,8,0:0:0:0:
263,82,33723,1,10,0:0:0:0:
238,57,33791,1,8,0:0:0:0:
205,42,33859,1,10,0:0:0:0:
170,39,33928,1,8,0:0:0:0:
135,48,33996,1,8,0:0:0:0:
106,69,34064,1,8,0:0:0:0:
85,98,34132,1,8,0:0:0:0:
75,133,34201,1,8,0:0:0:0:
75,168,34268,1,10,0:0:0:0:
108,154,34336,1,8,0:0:0:0:
144,154,34405,1,8,0:0:0:0:
179,161,34473,1,8,0:0:0:0:
208,181,34541,5,8,0:0:0:0:
241,203,34609,1,8,0:0:0:0:
281,209,34678,1,10,0:0:0:0:
321,205,34746,1,8,0:0:0:0:
356,186,34814,1,8,0:0:0:0:
381,154,34882,1,8,0:0:0:0:
386,113,34950,1,8,0:0:0:0:
377,73,35018,1,8,0:0:0:0:
345,47,35086,1,10,0:0:0:0:
313,72,35155,1,8,0:0:0:0:
275,87,35223,1,8,0:0:0:0:
234,85,35291,1,8,0:0:0:0:
198,64,35360,1,8,0:0:0:0:
159,50,35428,1,8,0:0:0:0:
118,48,35496,1,8,0:0:0:0:
80,63,35564,1,8,0:0:0:0:
48,88,35633,5,10,0:0:0:0:
76,122,35700,1,8,0:0:0:0:
93,163,35768,1,8,0:0:0:0:
94,208,35837,1,10,0:0:0:0:
78,249,35905,1,8,0:0:0:0:
120,233,35973,1,8,0:0:0:0:
164,231,36041,1,10,0:0:0:0:
207,243,36110,1,8,0:0:0:0:
242,270,36178,1,10,0:0:0:0:
278,295,36246,1,8,0:0:0:0:
321,307,36314,1,8,0:0:0:0:
365,305,36382,1,8,0:0:0:0:
407,289,36450,1,8,0:0:0:0:
429,250,36518,1,8,0:0:0:0:
425,204,36587,1,8,0:0:0:0:
394,170,36655,1,8,0:0:0:0:
349,161,36723,5,2,0:0:0:0:
216,137,36927,1,2,0:0:0:0:
303,34,37132,1,0,0:0:0:0:
272,208,37269,5,2,0:0:0:0:
227,215,37337,1,2,0:0:0:0:
182,223,37405,1,2,0:0:0:0:
137,231,37473,1,0,0:0:0:0:
112,268,37541,5,2,0:0:0:0:
157,275,37609,1,2,0:0:0:0:
202,283,37677,1,2,0:0:0:0:
247,291,37745,1,0,0:0:0:0:
273,327,37814,6,0,L|426:304,2,135
184,344,38359,1,0,0:0:0:0:
119,225,38564,1,2,0:0:0:0:
254,228,38769,1,0,0:0:0:0:
239,57,38905,6,0,L|86:80,2,135
328,40,39450,1,0,0:0:0:0:
393,159,39654,1,2,0:0:0:0:
258,156,39859,1,0,0:0:0:0:
192,329,39996,6,0,L|343:344,2,135
103,346,40541,1,0,0:0:0:0:
165,226,40746,1,2,0:0:0:0:
108,103,40950,1,0,0:0:0:0:
173,41,41087,6,0,L|265:49,1,90
211,122,41291,2,0,L|303:130,1,90
244,200,41496,2,0,L|463:219,1,180
426,307,41905,1,2,0:0:0:0:
381,311,41973,1,0,0:0:0:0:
336,315,42041,1,0,0:0:0:0:
291,319,42109,1,0,0:0:0:0:
246,323,42177,5,2,0:0:0:0:
115,288,42382,1,2,0:0:0:0:
210,192,42587,1,2,0:0:0:0:
189,279,42723,1,0,0:0:0:0:
58,244,42927,1,2,0:0:0:0:
153,148,43132,1,0,0:0:0:0:
266,323,43269,5,2,0:0:0:0:
397,288,43473,1,2,0:0:0:0:
302,192,43678,1,0,0:0:0:0:
323,279,43814,1,0,0:0:0:0:
359,148,44019,1,2,0:0:0:0:
228,183,44223,1,2,0:0:0:0:
154,27,44359,5,2,0:0:0:0:
256,116,44564,1,2,0:0:0:0:
128,160,44768,1,0,0:0:0:0:
214,186,44905,1,0,0:0:0:0:
112,275,45110,1,2,0:0:0:0:
240,319,45314,1,0,0:0:0:0:
327,216,45450,6,0,L|337:78,2,135
382,286,45996,1,2,0:0:0:0:
230,264,46132,1,0,0:0:0:0:
230,264,46200,1,2,0:0:0:0:
230,264,46268,1,0,0:0:0:0:
111,361,46405,1,2,0:0:0:0:
55,238,46541,6,0,L|63:76,1,135
35,65,46814,2,0,P|85:64|128:47,1,90
207,20,47087,1,0,0:0:0:0:
193,108,47223,1,0,0:0:0:0:
193,108,47292,1,2,0:0:0:0:
193,108,47360,1,0,0:0:0:0:
261,165,47495,1,0,0:0:0:0:
296,171,47564,1,0,0:0:0:0:
331,177,47632,6,0,L|313:327,1,135
338,349,47905,2,0,P|281:341|237:345,1,90
174,292,48177,1,0,0:0:0:0:
217,212,48314,1,0,0:0:0:0:
217,212,48382,1,2,0:0:0:0:
217,212,48450,1,0,0:0:0:0:
139,166,48587,1,0,0:0:0:0:
104,160,48655,1,0,0:0:0:0:
69,154,48723,6,0,L|87:4,2,135
19,229,49269,1,0,0:0:0:0:
36,260,49337,1,0,0:0:0:0:
43,295,49405,1,0,0:0:0:0:
35,330,49473,1,2,0:0:0:0:
17,361,49541,1,0,0:0:0:0:
107,359,49678,1,0,0:0:0:0:
196,368,49814,5,2,0:0:0:0:
282,341,49951,1,0,0:0:0:0:
282,341,50018,1,2,0:0:0:0:
214,280,50155,1,0,0:0:0:0:
214,280,50223,2,0,P|227:237|251:200,1,90
321,143,50496,1,0,0:0:0:0:
297,55,50632,1,2,0:0:0:0:
252,50,50700,1,0,0:0:0:0:
207,45,50768,1,0,0:0:0:0:
162,40,50836,1,0,0:0:0:0:
116,35,50905,6,0,L|131:136,1,90
135,168,51110,2,0,P|83:183|12:115,1,135
253,138,51450,2,0,L|238:239,1,90
235,272,51655,2,0,P|287:287|359:222,1,135
410,154,51996,6,0,P|409:97|434:50,1,90
446,29,52200,2,0,L|327:38,1,90
321,64,52405,2,0,L|273:53,1,45
163,62,52542,6,0,P|164:119|139:166,1,90
93,183,52746,2,0,L|102:302,1,90
148,320,52951,2,0,L|196:331,1,45
258,342,53087,5,2,0:0:0:0:
291,328,53155,1,0,0:0:0:0:
326,324,53223,1,0,0:0:0:0:
360,334,53291,1,2,0:0:0:0:
350,299,53359,1,0,0:0:0:0:
357,263,53427,1,0,0:0:0:0:
381,236,53496,2,0,L|436:225,1,45
483,159,53632,5,0,0:0:0:0:
450,145,53700,1,0,0:0:0:0:
415,141,53768,1,0,0:0:0:0:
381,151,53837,1,2,0:0:0:0:
391,116,53905,1,0,0:0:0:0:
384,80,53973,1,0,0:0:0:0:
360,53,54041,2,0,L|305:42,1,45
227,27,54177,5,0,0:0:0:0:
210,59,54246,1,0,0:0:0:0:
210,94,54314,1,0,0:0:0:0:
220,128,54382,1,2,0:0:0:0:
184,122,54451,1,0,0:0:0:0:
151,136,54519,1,0,0:0:0:0:
126,162,54587,2,0,L|121:219,1,45
115,297,54723,5,2,0:0:0:0:
159,288,54791,1,2,0:0:0:0:
203,279,54859,1,2,0:0:0:0:
247,270,54928,1,0,0:0:0:0:
274,305,54996,5,2,0:0:0:0:
318,314,55064,1,2,0:0:0:0:
362,323,55132,1,2,0:0:0:0:
406,332,55201,1,0,0:0:0:0:
441,305,55268,5,4,0:0:0:0:
392,228,55405,1,0,0:0:0:0:
392,228,55473,1,2,0:0:0:0:
392,228,55541,1,0,0:0:0:0:
459,167,55678,1,0,0:0:0:0:
423,84,55814,2,0,L|330:93,1,90
313,133,56018,2,0,L|220:124,1,90
197,86,56223,2,0,L|125:93,1,45
71,79,56360,5,2,0:0:0:0:
120,156,56496,1,0,0:0:0:0:
120,156,56564,1,2,0:0:0:0:
120,156,56632,1,0,0:0:0:0:
53,217,56769,1,0,0:0:0:0:
89,300,56905,2,0,L|182:291,1,90
199,251,57110,2,0,L|292:260,1,90
315,298,57314,2,0,L|387:291,1,45
483,113,57450,6,0,P|432:123|394:156,1,90
384,187,57655,2,0,L|242:171,1,135
222,85,57995,1,0,0:0:0:0:
257,89,58063,1,0,0:0:0:0:
293,93,58131,1,0,0:0:0:0:
329,97,58199,1,2,0:0:0:0:
429,275,58337,1,0,0:0:0:0:
429,275,58405,1,0,0:0:0:0:
365,339,58541,6,0,L|273:331,1,90
326,257,58745,2,0,L|234:249,1,90
293,178,58950,2,0,L|74:159,1,180
82,77,59359,1,2,0:0:0:0:
126,80,59427,1,0,0:0:0:0:
171,84,59495,1,0,0:0:0:0:
216,88,59563,1,0,0:0:0:0:
261,92,59632,6,0,L|391:79,1,90
395,81,59837,2,0,B|379:159|439:223,1,135
391,291,60178,1,0,0:0:0:0:
358,276,60246,1,0,0:0:0:0:
322,273,60314,1,0,0:0:0:0:
287,282,60382,1,2,0:0:0:0:
223,345,60518,1,0,0:0:0:0:
188,336,60586,1,0,0:0:0:0:
45,366,60723,6,0,L|53:251,1,90
55,240,60928,1,2,0:0:0:0:
58,204,60996,1,0,0:0:0:0:
90,218,61064,1,0,0:0:0:0:
126,220,61132,1,0,0:0:0:0:
161,216,61200,1,0,0:0:0:0:
194,202,61268,1,2,0:0:0:0:
271,156,61404,1,0,0:0:0:0:
305,144,61473,1,2,0:0:0:0:
340,145,61541,1,0,0:0:0:0:
347,109,61610,1,0,0:0:0:0:
330,77,61678,1,0,0:0:0:0:
302,53,61746,1,0,0:0:0:0:
266,48,61814,6,0,L|154:59,1,90
132,66,62018,2,0,P|119:122|198:146,1,135
250,209,62360,1,0,0:0:0:0:
262,242,62428,1,0,0:0:0:0:
260,277,62496,1,0,0:0:0:0:
239,306,62564,2,0,P|287:316|318:344,1,90
332,374,62768,1,0,0:0:0:0:
470,249,62905,5,2,0:0:0:0:
437,232,62973,1,0,0:0:0:0:
422,198,63042,1,0,0:0:0:0:
425,162,63110,1,2,0:0:0:0:
391,174,63177,1,0,0:0:0:0:
356,164,63245,1,0,0:0:0:0:
331,136,63314,2,0,L|324:84,1,45
254,35,63450,5,2,0:0:0:0:
208,59,63518,1,2,0:0:0:0:
185,110,63587,1,2,0:0:0:0:
189,163,63655,1,2,0:0:0:0:
139,145,63723,1,2,0:0:0:0:
88,159,63791,1,2,0:0:0:0:
51,201,63859,2,0,L|40:277,1,45
37,335,63996,5,4,0:0:0:0:
71,324,64064,1,0,0:0:0:0:
106,326,64132,1,0,0:0:0:0:
136,344,64200,2,0,P|181:359|234:348,1,90
254,336,64405,1,0,0:0:0:0:
314,268,64541,2,0,P|359:253|412:264,1,90
432,275,64746,2,0,L|419:179,1,90
440,156,64951,1,0,0:0:0:0:
475,49,65087,5,2,0:0:0:0:
441,60,65155,1,0,0:0:0:0:
406,58,65222,1,0,0:0:0:0:
376,40,65291,2,0,P|331:25|278:36,1,90
258,48,65495,1,0,0:0:0:0:
198,116,65632,2,0,P|153:131|100:120,1,90
80,109,65836,2,0,L|93:205,1,90
72,228,66041,1,0,0:0:0:0:
231,359,66178,6,0,L|218:263,1,90
244,244,66382,2,0,P|288:252|334:233,1,90
351,207,66586,1,0,0:0:0:0:
380,121,66723,1,0,0:0:0:0:
414,129,66791,1,0,0:0:0:0:
441,152,66860,1,0,0:0:0:0:
451,186,66928,1,2,0:0:0:0:
438,274,67064,1,0,0:0:0:0:
405,289,67132,1,0,0:0:0:0:
224,328,67268,5,2,0:0:0:0:
138,301,67405,1,0,0:0:0:0:
138,301,67473,1,2,0:0:0:0:
206,240,67610,1,0,0:0:0:0:
206,240,67678,2,0,P|174:203|126:185,1,90
47,178,67950,1,0,0:0:0:0:
28,90,68087,1,2,0:0:0:0:
72,94,68155,1,0,0:0:0:0:
117,98,68223,1,0,0:0:0:0:
162,102,68291,1,0,0:0:0:0:
207,106,68360,5,4,0:0:0:0:
270,42,68495,1,0,0:0:0:0:
333,105,68632,1,0,0:0:0:0:
270,170,68769,1,2,0:0:0:0:
244,195,68837,1,0,0:0:0:0:
218,220,68905,1,0,0:0:0:0:
155,156,69041,1,0,0:0:0:0:
92,219,69177,1,0,0:0:0:0:
155,284,69314,1,2,0:0:0:0:
181,309,69382,1,0,0:0:0:0:
207,332,69450,5,4,0:0:0:0:
283,284,69587,1,0,0:0:0:0:
372,292,69723,1,0,0:0:0:0:
443,345,69859,1,0,0:0:0:0:
458,312,69927,1,0,0:0:0:0:
460,275,69996,5,2,0:0:0:0:
275,191,70201,1,2,0:0:0:0:
439,73,70405,1,2,0:0:0:0:
439,73,70473,1,0,0:0:0:0:
439,73,70541,5,4,0:0:0:0:
401,98,70609,1,8,0:0:0:0:
355,100,70678,1,8,0:0:0:0:
312,85,70746,1,10,0:0:0:0:
325,127,70814,1,8,0:0:0:0:
325,171,70882,1,8,0:0:0:0:
298,208,70951,1,8,0:0:0:0:
342,212,71018,1,8,0:0:0:0:
376,241,71086,5,4,0:0:0:0:
388,284,71155,1,8,0:0:0:0:
381,328,71223,1,8,0:0:0:0:
344,354,71291,1,10,0:0:0:0:
309,325,71359,1,8,0:0:0:0:
264,317,71428,1,8,0:0:0:0:
221,331,71496,1,8,0:0:0:0:
226,286,71564,1,8,0:0:0:0:
208,244,71632,5,0,0:0:0:0:
201,222,71700,1,0,0:0:0:0:
195,200,71768,1,0,0:0:0:0:
189,178,71836,1,0,0:0:0:0:
183,156,71905,1,0,0:0:0:0:
177,134,71973,1,0,0:0:0:0:
171,112,72041,1,0,0:0:0:0:
165,90,72109,1,0,0:0:0:0:
159,68,72178,5,2,0:0:0:0:
203,73,72246,1,2,0:0:0:0:
247,79,72314,1,2,0:0:0:0:
291,85,72382,1,0,0:0:0:0:
318,120,72450,5,2,0:0:0:0:
371,114,72518,1,2,0:0:0:0:
424,107,72586,1,2,0:0:0:0:
469,103,72655,1,2,0:0:0:0:
499,135,72723,6,0,L|491:190,3,45
463,192,72996,2,0,L|455:247,3,45
428,251,73268,2,0,L|420:306,3,45
392,307,73541,2,0,L|384:362,3,45
354,359,73814,5,2,0:0:0:0:
323,366,73882,1,0,0:0:0:0:
292,362,73950,1,0,0:0:0:0:
264,348,74018,1,0,0:0:0:0:
243,324,74087,1,0,0:0:0:0:
232,295,74155,1,0,0:0:0:0:
231,264,74223,1,0,0:0:0:0:
242,234,74291,1,0,0:0:0:0:
262,211,74359,1,2,0:0:0:0:
245,184,74427,1,0,0:0:0:0:
217,168,74496,1,0,0:0:0:0:
185,165,74564,1,0,0:0:0:0:
156,178,74632,1,0,0:0:0:0:
126,188,74700,1,0,0:0:0:0:
94,185,74768,1,0,0:0:0:0:
66,169,74837,1,0,0:0:0:0:
49,142,74905,5,2,0:0:0:0:
49,110,74973,1,0,0:0:0:0:
62,81,75041,1,0,0:0:0:0:
86,61,75109,1,0,0:0:0:0:
117,58,75177,1,0,0:0:0:0:
143,75,75246,1,0,0:0:0:0:
173,81,75314,1,0,0:0:0:0:
204,79,75382,1,0,0:0:0:0:
233,67,75451,1,0,0:0:0:0:
261,52,75519,1,0,0:0:0:0:
292,50,75587,1,0,0:0:0:0:
322,56,75655,1,0,0:0:0:0:
348,73,75724,1,0,0:0:0:0:
362,100,75791,1,0,0:0:0:0:
365,131,75859,1,0,0:0:0:0:
350,159,75928,1,0,0:0:0:0:
323,176,75996,6,0,L|268:171,3,45
252,190,76268,2,0,L|197:185,3,45
175,217,76541,5,0,0:0:0:0:
191,258,76609,1,0,0:0:0:0:
230,280,76678,1,0,0:0:0:0:
274,284,76746,1,0,0:0:0:0:
306,253,76814,5,2,0:0:0:0:
350,257,76882,1,2,0:0:0:0:
389,279,76950,1,2,0:0:0:0:
405,320,77018,1,0,0:0:0:0:
449,330,77086,5,2,0:0:0:0:
468,305,77155,1,0,0:0:0:0:
477,274,77223,1,0,0:0:0:0:
478,242,77291,1,0,0:0:0:0:
465,212,77360,1,0,0:0:0:0:
448,184,77428,1,0,0:0:0:0:
449,152,77496,1,0,0:0:0:0:
458,121,77564,1,0,0:0:0:0:
477,96,77633,1,0,0:0:0:0:
450,80,77700,1,0,0:0:0:0:
419,73,77768,1,0,0:0:0:0:
387,73,77837,1,0,0:0:0:0:
357,84,77905,1,0,0:0:0:0:
332,104,77973,1,0,0:0:0:0:
316,131,78041,1,0,0:0:0:0:
310,162,78110,1,0,0:0:0:0:
314,193,78178,5,2,0:0:0:0:
283,200,78246,1,0,0:0:0:0:
251,200,78314,1,0,0:0:0:0:
222,187,78382,1,0,0:0:0:0:
202,162,78450,1,0,0:0:0:0:
194,131,78518,1,0,0:0:0:0:
194,99,78587,1,0,0:0:0:0:
205,69,78655,1,0,0:0:0:0:
217,40,78723,1,2,0:0:0:0:
186,33,78791,1,0,0:0:0:0:
154,33,78860,1,0,0:0:0:0:
125,46,78927,1,0,0:0:0:0:
105,71,78995,1,0,0:0:0:0:
97,102,79063,1,0,0:0:0:0:
97,134,79132,1,0,0:0:0:0:
108,164,79200,1,0,0:0:0:0:
132,184,79269,6,0,L|112:246,3,45
148,217,79541,2,0,L|128:279,3,45
164,250,79814,2,0,L|144:312,3,45
181,285,80087,2,0,L|161:347,3,45
197,317,80359,5,2,0:0:0:0:
197,317,80905,1,2,0:0:0:0:
242,313,80973,1,2,0:0:0:0:
286,309,81041,1,2,0:0:0:0:
330,305,81109,1,0,0:0:0:0:
350,264,81178,5,2,0:0:0:0:
305,260,81247,1,2,0:0:0:0:
261,256,81315,1,2,0:0:0:0:
217,252,81383,1,0,0:0:0:0:
195,212,81451,5,2,0:0:0:0:
212,186,81518,1,0,0:0:0:0:
221,156,81586,1,0,0:0:0:0:
218,124,81654,1,0,0:0:0:0:
206,96,81723,1,8,0:0:0:0:
184,73,81791,1,0,0:0:0:0:
157,58,81859,1,0,0:0:0:0:
126,54,81927,1,0,0:0:0:0:
95,61,81996,1,0,0:0:0:0:
68,77,82064,1,0,0:0:0:0:
48,101,82132,1,0,0:0:0:0:
38,131,82200,1,0,0:0:0:0:
34,162,82268,1,8,0:0:0:0:
46,190,82336,1,0,0:0:0:0:
66,214,82405,1,0,0:0:0:0:
94,227,82473,1,0,0:0:0:0:
125,230,82541,5,2,0:0:0:0:
140,202,82610,1,0,0:0:0:0:
166,185,82678,1,0,0:0:0:0:
196,178,82746,1,0,0:0:0:0:
227,179,82814,1,8,0:0:0:0:
258,180,82882,1,0,0:0:0:0:
288,173,82950,1,0,0:0:0:0:
314,156,83018,1,0,0:0:0:0:
329,128,83086,1,2,0:0:0:0:
360,129,83155,1,0,0:0:0:0:
387,144,83223,1,0,0:0:0:0:
405,169,83291,1,0,0:0:0:0:
410,200,83360,1,8,0:0:0:0:
415,231,83428,1,0,0:0:0:0:
433,256,83496,1,0,0:0:0:0:
460,271,83564,1,0,0:0:0:0:
491,272,83633,5,2,0:0:0:0:
486,302,83700,1,0,0:0:0:0:
464,324,83768,1,0,0:0:0:0:
433,332,83837,1,0,0:0:0:0:
402,324,83905,1,8,0:0:0:0:
371,316,83973,1,0,0:0:0:0:
340,324,84042,1,0,0:0:0:0:
318,346,84110,1,0,0:0:0:0:
313,376,84177,1,0,0:0:0:0:
281,377,84245,1,0,0:0:0:0:
249,371,84314,1,0,0:0:0:0:
224,351,84382,1,0,0:0:0:0:
209,322,84450,1,8,0:0:0:0:
209,290,84519,1,0,0:0:0:0:
221,261,84587,1,0,0:0:0:0:
241,237,84655,1,0,0:0:0:0:
270,225,84723,5,2,0:0:0:0:
262,194,84791,1,0,0:0:0:0:
247,166,84859,1,0,0:0:0:0:
221,147,84927,1,0,0:0:0:0:
191,134,84996,1,8,0:0:0:0:
159,132,85064,1,0,0:0:0:0:
128,140,85132,1,0,0:0:0:0:
101,156,85200,1,0,0:0:0:0:
83,182,85269,5,0,0:0:0:0:
70,225,85337,1,0,0:0:0:0:
73,269,85405,1,0,0:0:0:0:
93,309,85473,1,0,0:0:0:0:
85,353,85541,5,2,0:0:0:0:
128,340,85609,1,2,0:0:0:0:
172,343,85677,1,2,0:0:0:0:
212,363,85746,1,2,0:0:0:0:
253,346,85814,5,10,0:0:0:0:
269,319,85882,1,8,0:0:0:0:
274,287,85951,1,8,0:0:0:0:
269,255,86019,1,8,0:0:0:0:
250,229,86087,1,8,0:0:0:0:
223,212,86155,1,8,0:0:0:0:
191,207,86223,1,8,0:0:0:0:
160,212,86291,1,8,0:0:0:0:
134,229,86359,1,8,0:0:0:0:
118,202,86427,1,8,0:0:0:0:
113,170,86496,1,8,0:0:0:0:
118,138,86564,1,8,0:0:0:0:
137,112,86632,1,8,0:0:0:0:
164,95,86700,1,8,0:0:0:0:
196,90,86768,1,8,0:0:0:0:
227,95,86836,1,8,0:0:0:0:
252,112,86904,5,10,0:0:0:0:
282,131,86973,1,8,0:0:0:0:
316,139,87041,1,8,0:0:0:0:
351,143,87109,1,8,0:0:0:0:
387,139,87178,1,8,0:0:0:0:
420,127,87246,1,8,0:0:0:0:
449,106,87314,1,8,0:0:0:0:
472,78,87382,1,8,0:0:0:0:
486,45,87450,1,10,0:0:0:0:
499,78,87518,1,8,0:0:0:0:
503,113,87586,1,8,0:0:0:0:
499,149,87655,1,8,0:0:0:0:
480,179,87723,1,8,0:0:0:0:
457,206,87791,1,8,0:0:0:0:
453,242,87860,1,8,0:0:0:0:
457,277,87928,1,8,0:0:0:0:
470,310,87996,5,10,0:0:0:0:
429,306,88064,1,8,0:0:0:0:
389,317,88132,1,8,0:0:0:0:
359,344,88200,1,10,0:0:0:0:
348,304,88268,1,8,0:0:0:0:
317,277,88337,1,8,0:0:0:0:
278,266,88405,2,8,L|226:286,1,45
143,266,88541,5,10,0:0:0:0:
139,225,88609,1,8,0:0:0:0:
150,185,88678,1,8,0:0:0:0:
177,155,88746,1,10,0:0:0:0:
137,144,88814,1,8,0:0:0:0:
110,113,88882,1,8,0:0:0:0:
99,74,88950,1,10,0:0:0:0:
108,30,89018,1,8,0:0:0:0:
147,7,89087,5,4,0:0:0:0:
212,67,89223,2,0,L|239:61,4,22.5
269,136,89495,2,0,L|296:130,3,22.5
313,127,89632,1,2,0:0:0:0:
346,157,89700,1,2,0:0:0:0:
352,201,89769,1,2,0:0:0:0:
335,242,89837,1,2,0:0:0:0:
295,263,89905,2,0,L|268:257,6,22.5
324,332,90177,6,0,L|417:323,1,90
449,295,90382,2,0,P|461:251|441:182,1,90
430,169,90587,1,0,0:0:0:0:
362,109,90723,1,0,0:0:0:0:
277,137,90859,1,0,0:0:0:0:
268,171,90927,1,2,0:0:0:0:
195,224,91064,1,0,0:0:0:0:
186,258,91132,1,0,0:0:0:0:
186,348,91269,6,0,L|93:339,1,90
61,311,91473,2,0,P|49:267|69:198,1,90
80,185,91678,1,0,0:0:0:0:
148,125,91815,1,2,0:0:0:0:
233,153,91951,1,0,0:0:0:0:
242,187,92018,1,2,0:0:0:0:
315,240,92155,1,0,0:0:0:0:
324,274,92223,1,0,0:0:0:0:
447,340,92359,6,0,L|461:231,1,90
464,214,92564,1,2,0:0:0:0:
361,71,92700,1,0,0:0:0:0:
361,71,92768,2,0,P|378:112|415:138,1,90
324,274,93041,1,0,0:0:0:0:
288,264,93110,1,2,0:0:0:0:
204,297,93246,1,0,0:0:0:0:
168,287,93314,1,0,0:0:0:0:
65,340,93450,6,0,L|51:231,1,90
48,214,93655,1,2,0:0:0:0:
151,71,93791,1,0,0:0:0:0:
151,71,93860,2,0,P|134:112|97:138,1,90
188,274,94132,1,0,0:0:0:0:
224,264,94201,1,0,0:0:0:0:
258,254,94268,1,2,0:0:0:0:
302,264,94337,1,2,0:0:0:0:
345,274,94405,1,2,0:0:0:0:
388,283,94473,1,0,0:0:0:0:
432,293,94542,6,0,P|446:250|432:202,1,90
406,173,94745,2,0,L|428:51,1,90
405,42,94950,1,0,0:0:0:0:
270,69,95087,2,0,P|257:115|269:164,1,90
287,194,95291,2,0,P|294:237|281:280,1,90
248,311,95496,1,0,0:0:0:0:
37,350,95632,6,0,P|45:304|93:279,1,90
123,271,95837,2,0,P|158:245|164:201,1,90
146,159,96041,1,0,0:0:0:0:
69,112,96177,1,2,0:0:0:0:
90,82,96246,1,0,0:0:0:0:
121,64,96314,1,0,0:0:0:0:
155,54,96382,2,0,P|192:63|253:56,1,90
274,40,96587,1,2,0:0:0:0:
474,118,96723,6,2,L|379:114,1,90
363,154,96928,2,0,L|452:157,1,90
464,201,97132,2,0,L|383:197,1,45
351,276,97268,2,0,L|446:272,1,90
462,312,97473,2,0,L|372:315,1,90
361,359,97677,2,0,L|441:355,1,45
351,276,97814,6,0,L|261:279,1,90
224,282,98018,1,2,0:0:0:0:
168,353,98155,1,0,0:0:0:0:
205,355,98223,1,0,0:0:0:0:
364,189,98360,5,2,0:0:0:0:
320,191,98428,1,2,0:0:0:0:
275,192,98496,1,2,0:0:0:0:
230,193,98564,1,0,0:0:0:0:
197,224,98632,5,2,0:0:0:0:
153,222,98700,1,2,0:0:0:0:
108,221,98768,1,2,0:0:0:0:
63,220,98836,1,0,0:0:0:0:
38,181,98905,5,4,0:0:0:0:
62,154,98973,1,0,0:0:0:0:
70,119,99041,1,0,0:0:0:0:
61,83,99110,1,2,0:0:0:0:
94,94,99178,1,0,0:0:0:0:
129,93,99246,1,0,0:0:0:0:
162,79,99314,1,0,0:0:0:0:
257,29,99450,1,0,0:0:0:0:
281,56,99518,1,0,0:0:0:0:
289,91,99586,1,0,0:0:0:0:
280,127,99655,1,2,0:0:0:0:
313,116,99723,1,0,0:0:0:0:
348,117,99791,1,0,0:0:0:0:
381,131,99860,1,0,0:0:0:0:
418,232,99995,5,2,0:0:0:0:
428,266,100064,1,0,0:0:0:0:
419,300,100132,1,0,0:0:0:0:
392,324,100200,1,2,0:0:0:0:
359,308,100269,1,0,0:0:0:0:
323,306,100337,1,0,0:0:0:0:
292,324,100405,1,0,0:0:0:0:
183,318,100541,1,2,0:0:0:0:
193,284,100610,1,0,0:0:0:0:
184,250,100678,1,0,0:0:0:0:
157,226,100746,1,2,0:0:0:0:
124,242,100815,1,0,0:0:0:0:
88,244,100883,1,0,0:0:0:0:
57,226,100951,1,0,0:0:0:0:
21,41,101087,5,4,0:0:0:0:
56,45,101155,1,0,0:0:0:0:
92,49,101223,1,0,0:0:0:0:
113,77,101291,1,2,0:0:0:0:
148,73,101359,1,0,0:0:0:0:
184,69,101428,1,0,0:0:0:0:
207,41,101496,1,0,0:0:0:0:
261,163,101632,1,0,0:0:0:0:
226,167,101700,1,0,0:0:0:0:
190,171,101769,1,0,0:0:0:0:
169,199,101837,1,2,0:0:0:0:
134,195,101905,1,0,0:0:0:0:
98,191,101973,1,0,0:0:0:0:
75,163,102041,1,0,0:0:0:0:
51,312,102178,5,2,0:0:0:0:
80,332,102246,1,0,0:0:0:0:
115,337,102314,1,0,0:0:0:0:
150,332,102382,1,2,0:0:0:0:
185,328,102450,1,0,0:0:0:0:
220,333,102518,1,0,0:0:0:0:
249,353,102586,1,0,0:0:0:0:
368,223,102723,1,2,0:0:0:0:
339,203,102791,1,0,0:0:0:0:
304,198,102859,1,0,0:0:0:0:
269,203,102927,1,2,0:0:0:0:
234,207,102995,1,2,0:0:0:0:
199,202,103063,1,2,0:0:0:0:
170,182,103132,1,2,0:0:0:0:
42,52,103268,5,4,0:0:0:0:
128,25,103405,1,0,0:0:0:0:
217,28,103541,1,0,0:0:0:0:
301,60,103678,1,0,0:0:0:0:
349,135,103814,1,0,0:0:0:0:
353,170,103882,1,0,0:0:0:0:
358,205,103950,1,0,0:0:0:0:
393,206,104018,1,2,0:0:0:0:
389,241,104087,1,0,0:0:0:0:
384,276,104155,1,0,0:0:0:0:
348,283,104223,1,2,0:0:0:0:
352,318,104292,1,0,0:0:0:0:
357,353,104360,5,4,0:0:0:0:
270,327,104496,1,0,0:0:0:0:
179,323,104632,1,0,0:0:0:0:
91,344,104768,1,0,0:0:0:0:
40,269,104905,1,2,0:0:0:0:
44,234,104974,1,0,0:0:0:0:
49,199,105042,1,0,0:0:0:0:
84,198,105110,1,2,0:0:0:0:
80,163,105178,1,0,0:0:0:0:
75,128,105246,1,0,0:0:0:0:
39,121,105314,1,2,0:0:0:0:
43,86,105383,1,0,0:0:0:0:
48,51,105450,5,4,0:0:0:0:
83,56,105519,1,0,0:0:0:0:
118,53,105587,1,0,0:0:0:0:
152,44,105655,2,0,L|170:27,2,22.5
145,79,105791,1,0,0:0:0:0:
147,114,105859,1,2,0:0:0:0:
160,147,105927,1,0,0:0:0:0:
184,173,105996,1,4,0:0:0:0:
208,200,106065,1,0,0:0:0:0:
221,233,106132,1,0,0:0:0:0:
223,268,106200,2,0,L|216:309,2,22.5
257,257,106337,1,0,0:0:0:0:
292,258,106405,1,2,0:0:0:0:
326,268,106473,1,0,0:0:0:0:
355,288,106541,5,2,0:0:0:0:
442,267,106677,1,2,0:0:0:0:
256,81,106882,1,2,0:0:0:0:
296,340,107087,1,2,0:0:0:0:
415,106,107291,1,2,0:0:0:0:
181,225,107496,1,2,0:0:0:0:
324,218,107632,5,4,0:0:0:0:
256,192,107701,12,0,111996,0:0:0:0:
74,218,114178,5,0,0:0:0:0:
205,186,114587,1,0,0:0:0:0:
92,153,114996,1,0,0:0:0:0:
186,250,115405,1,2,0:0:0:0:
158,137,115814,1,0,0:0:0:0:
120,266,116359,6,0,P|240:363|431:300,1,360
391,117,118541,6,0,P|250:16|87:75,1,360
59,161,120178,1,0,0:0:0:0:
99,241,120723,5,0,0:0:0:0:
181,204,121269,1,2,0:0:0:0:
270,193,121814,1,2,0:0:0:0:
354,222,122359,1,0,0:0:0:0:
413,289,122905,6,0,P|345:336|250:325,1,180
212,245,123996,2,0,P|124:233|50:282,1,180
24,110,125087,6,0,P|190:155|325:42,1,360
488,274,127269,6,0,P|322:229|187:342,1,360
102,312,128905,1,0,0:0:0:0:
48,240,129450,6,0,B|56:152|56:152|160:112,1,180
229,137,130541,2,0,B|237:225|237:225|341:265,1,180
411,269,131632,6,0,P|438:207|412:142,2,135
333,315,132723,1,0,0:0:0:0:
295,289,132859,2,0,P|247:268|156:275,1,135
94,326,133541,1,2,0:0:0:0:
34,258,133814,6,0,P|135:182|104:44,1,270
194,14,134905,2,0,P|270:115|408:84,1,270
461,28,135996,6,0,P|489:107|428:180,2,180
461,28,137905,1,2,0:0:0:0:
461,28,138177,5,2,0:0:0:0:
294,97,138723,1,2,0:0:0:0:
338,271,139268,1,2,0:0:0:0:
171,202,139814,1,0,0:0:0:0:
221,374,140360,5,2,0:0:0:0:
171,202,140905,1,2,0:0:0:0:
338,271,141450,1,2,0:0:0:0:
294,97,141995,1,2,0:0:0:0:
461,28,142541,6,0,P|483:154|383:264,1,270
310,279,143632,2,0,L|39:268,1,270
40,177,144723,6,0,L|228:169,2,180
40,177,146360,1,2,0:0:0:0:
80,352,146905,6,0,L|136:343,3,45
153,310,147450,2,0,L|209:301,3,45
224,266,147996,2,0,L|280:257,3,45
297,224,148541,2,0,L|353:215,3,45
373,184,149087,6,0,P|338:64|205:87,1,270
156,145,150178,2,0,P|101:181|42:100,1,180
55,63,150860,1,0,0:0:0:0:
91,37,150996,1,0,0:0:0:0:
102,37,151064,1,0,0:0:0:0:
113,37,151132,1,0,0:0:0:0:
124,37,151200,1,0,0:0:0:0:
135,37,151268,6,0,L|192:38,3,45
202,60,151541,2,0,L|259:61,3,45
269,83,151814,2,0,L|326:84,3,45
336,106,152087,2,0,L|393:107,3,45
380,138,152360,6,0,L|323:139,3,45
313,161,152632,2,0,L|256:162,3,45
246,184,152906,2,0,L|189:185,3,45
179,207,153178,2,0,L|122:208,3,45
111,229,153450,5,0,0:0:0:0:
96,257,153519,1,0,0:0:0:0:
96,288,153587,1,0,0:0:0:0:
107,317,153655,1,0,0:0:0:0:
131,336,153723,1,2,0:0:0:0:
161,344,153791,1,0,0:0:0:0:
192,340,153859,1,0,0:0:0:0:
219,324,153927,1,0,0:0:0:0:
238,299,153996,1,2,0:0:0:0:
255,272,154065,1,0,0:0:0:0:
282,256,154133,1,0,0:0:0:0:
313,252,154201,1,0,0:0:0:0:
343,260,154269,1,2,0:0:0:0:
367,279,154337,1,0,0:0:0:0:
378,308,154405,1,0,0:0:0:0:
378,339,154473,1,0,0:0:0:0:
363,367,154542,5,2,0:0:0:0:
393,372,154609,1,0,0:0:0:0:
424,368,154678,1,0,0:0:0:0:
453,356,154746,1,0,0:0:0:0:
477,335,154814,1,2,0:0:0:0:
491,307,154882,1,0,0:0:0:0:
499,276,154951,1,0,0:0:0:0:
496,244,155018,1,0,0:0:0:0:
480,216,155086,5,2,0:0:0:0:
435,208,155155,1,0,0:0:0:0:
390,202,155223,1,0,0:0:0:0:
345,196,155291,1,0,0:0:0:0:
300,190,155360,2,0,L|259:185,6,22.5
324,170,155632,5,0,0:0:0:0:
334,140,155700,1,0,0:0:0:0:
335,108,155768,1,0,0:0:0:0:
325,78,155836,1,0,0:0:0:0:
305,52,155905,1,2,0:0:0:0:
277,37,155973,1,0,0:0:0:0:
246,31,156041,1,0,0:0:0:0:
214,32,156110,1,0,0:0:0:0:
186,48,156178,1,2,0:0:0:0:
196,78,156246,1,0,0:0:0:0:
197,110,156314,1,0,0:0:0:0:
187,140,156382,1,0,0:0:0:0:
167,166,156450,1,2,0:0:0:0:
139,181,156518,1,0,0:0:0:0:
108,187,156586,1,0,0:0:0:0:
76,186,156655,1,0,0:0:0:0:
45,177,156723,5,2,0:0:0:0:
35,207,156791,1,0,0:0:0:0:
34,239,156859,1,0,0:0:0:0:
44,269,156927,1,0,0:0:0:0:
64,295,156996,1,2,0:0:0:0:
92,310,157064,1,0,0:0:0:0:
123,316,157131,1,0,0:0:0:0:
155,315,157200,1,0,0:0:0:0:
183,299,157268,1,2,0:0:0:0:
173,269,157336,1,0,0:0:0:0:
172,237,157404,1,0,0:0:0:0:
182,207,157472,1,0,0:0:0:0:
202,181,157541,1,2,0:0:0:0:
230,166,157609,1,0,0:0:0:0:
261,160,157677,1,0,0:0:0:0:
293,161,157745,1,0,0:0:0:0:
321,176,157814,5,0,0:0:0:0:
300,199,157882,1,0,0:0:0:0:
288,228,157950,1,0,0:0:0:0:
284,259,158018,1,0,0:0:0:0:
291,290,158087,1,2,0:0:0:0:
306,317,158155,1,0,0:0:0:0:
329,339,158223,1,0,0:0:0:0:
357,353,158291,1,0,0:0:0:0:
388,358,158359,1,2,0:0:0:0:
419,353,158427,1,0,0:0:0:0:
447,339,158495,1,0,0:0:0:0:
469,317,158564,1,0,0:0:0:0:
481,288,158632,1,2,0:0:0:0:
480,256,158700,1,0,0:0:0:0:
466,227,158769,1,0,0:0:0:0:
444,203,158837,1,0,0:0:0:0:
413,193,158905,5,0,0:0:0:0:
403,162,158973,1,0,0:0:0:0:
405,130,159041,1,0,0:0:0:0:
418,101,159109,1,0,0:0:0:0:
440,79,159177,1,2,0:0:0:0:
408,78,159246,1,0,0:0:0:0:
377,69,159314,1,0,0:0:0:0:
351,50,159382,1,0,0:0:0:0:
329,26,159451,5,2,0:0:0:0:
284,31,159519,1,2,0:0:0:0:
239,36,159587,1,2,0:0:0:0:
194,42,159655,1,0,0:0:0:0:
174,82,159723,5,2,0:0:0:0:
219,87,159791,1,2,0:0:0:0:
264,92,159859,1,2,0:0:0:0:
309,98,159927,1,0,0:0:0:0:
334,135,159996,6,0,L|469:121,2,135
176,223,160541,2,0,L|41:209,2,135
299,336,161086,5,4,0:0:0:0:
433,346,161291,1,2,0:0:0:0:
374,224,161496,1,0,0:0:0:0:
213,336,161632,1,0,0:0:0:0:
79,346,161837,1,2,0:0:0:0:
138,224,162042,1,0,0:0:0:0:
167,212,162110,1,0,0:0:0:0:
196,201,162178,6,0,P|197:148|160:114,1,90
130,111,162382,2,0,L|40:121,1,90
9,87,162587,1,0,0:0:0:0:
174,19,162723,1,0,0:0:0:0:
248,70,162860,1,0,0:0:0:0:
248,70,162927,2,0,P|304:86|376:67,1,135
489,229,163269,6,0,L|360:217,1,90
354,218,163473,2,0,L|375:329,1,90
338,338,163677,1,0,0:0:0:0:
250,356,163814,2,0,P|188:357|111:309,1,135
106,282,164087,1,2,0:0:0:0:
115,238,164155,1,2,0:0:0:0:
124,193,164223,1,2,0:0:0:0:
133,149,164291,1,2,0:0:0:0:
142,105,164359,5,4,0:0:0:0:
219,151,164496,1,0,0:0:0:0:
221,61,164632,1,0,0:0:0:0:
297,108,164769,1,2,0:0:0:0:
452,194,164905,5,4,0:0:0:0:
375,240,165041,1,0,0:0:0:0:
373,150,165177,1,0,0:0:0:0:
297,197,165314,1,2,0:0:0:0:
299,287,165451,5,4,0:0:0:0:
280,312,165518,1,0,0:0:0:0:
255,331,165586,1,0,0:0:0:0:
225,341,165655,1,0,0:0:0:0:
193,345,165723,1,0,0:0:0:0:
161,341,165791,1,0,0:0:0:0:
131,329,165859,1,0,0:0:0:0:
106,308,165928,1,0,0:0:0:0:
90,280,165996,1,4,0:0:0:0:
120,247,166064,1,0,0:0:0:0:
138,205,166132,1,0,0:0:0:0:
135,160,166200,1,2,0:0:0:0:
114,120,166268,2,0,L|97:97,6,22.5
159,121,166541,5,0,0:0:0:0:
345,58,166950,1,0,0:0:0:0:
236,219,167360,1,0,0:0:0:0:
226,15,167768,1,2,0:0:0:0:
357,184,168177,1,0,0:0:0:0:
357,184,168450,1,0,0:0:0:0:
354,206,168519,1,0,0:0:0:0:
351,228,168587,1,0,0:0:0:0:
349,250,168655,1,0,0:0:0:0:
347,272,168723,6,0,L|228:297,1,90
214,297,168927,2,0,P|210:252|230:193,1,90
254,177,169132,1,2,0:0:0:0:
201,103,169269,2,0,L|82:78,1,90
68,78,169473,2,0,P|64:123|84:182,1,90
108,198,169678,1,2,0:0:0:0:
215,297,169814,6,0,L|323:289,1,90
348,300,170019,2,0,P|354:255|348:200,1,90
313,184,170223,1,2,0:0:0:0:
223,193,170359,1,2,0:0:0:0:
261,111,170496,1,0,0:0:0:0:
341,70,170632,1,0,0:0:0:0:
431,71,170768,1,0,0:0:0:0:
503,125,170905,6,0,L|496:235,1,90
473,252,171109,2,0,P|428:252|384:233,1,90
344,251,171314,2,0,L|354:309,1,45
286,358,171450,6,0,L|176:351,1,90
159,328,171654,2,0,P|159:283|178:239,1,90
160,199,171859,2,0,L|102:209,1,45
34,165,171996,5,2,0:0:0:0:
73,83,172132,1,0,0:0:0:0:
108,76,172200,1,2,0:0:0:0:
184,124,172337,1,0,0:0:0:0:
219,130,172405,1,2,0:0:0:0:
285,69,172541,1,2,0:0:0:0:
349,131,172678,1,0,0:0:0:0:
352,145,172723,1,0,0:0:0:0:
356,159,172768,1,0,0:0:0:0:
360,173,172814,2,0,L|369:222,1,45
418,274,172950,2,0,L|427:323,1,45
357,353,173087,6,0,L|191:345,1,135
180,365,173360,1,0,0:0:0:0:
151,279,173495,1,2,0:0:0:0:
219,219,173632,2,0,L|385:211,1,135
396,231,173905,1,0,0:0:0:0:
425,145,174041,1,2,0:0:0:0:
374,70,174177,6,0,P|315:69|274:97,1,90
258,116,174382,2,0,L|162:96,1,90
127,114,174587,2,0,L|141:177,1,45
31,229,174723,6,0,P|90:228|131:256,1,90
165,301,174928,2,0,L|261:281,1,90
321,318,175133,2,0,L|307:381,1,45
463,262,175269,6,0,P|446:219|452:160,1,90
466,134,175473,2,0,L|370:95,1,90
375,55,175678,1,2,0:0:0:0:
311,216,175814,1,2,0:0:0:0:
276,225,175882,1,0,0:0:0:0:
239,224,175951,1,0,0:0:0:0:
207,205,176018,2,0,P|186:157|190:111,1,90
199,86,176223,1,2,0:0:0:0:
45,29,176359,6,0,L|52:142,1,90
82,150,176564,2,0,L|89:263,1,90
119,271,176768,1,2,0:0:0:0:
85,354,176905,2,0,L|131:361,1,45
197,326,177041,2,0,L|243:333,1,45
310,297,177178,1,2,0:0:0:0:
345,303,177246,1,0,0:0:0:0:
380,309,177314,1,2,0:0:0:0:
415,316,177382,1,0,0:0:0:0:
450,323,177450,6,0,L|426:214,1,90
446,202,177655,2,0,P|390:212|323:135,1,135
319,132,177928,1,0,0:0:0:0:
327,97,177996,2,0,L|218:121,1,90
206,101,178200,2,0,P|216:157|139:224,1,135
136,228,178473,1,0,0:0:0:0:
99,224,178542,6,0,L|79:130,1,90
52,113,178745,2,0,P|99:110|161:27,1,135
184,24,179019,1,0,0:0:0:0:
219,16,179087,1,2,0:0:0:0:
308,17,179223,1,0,0:0:0:0:
380,71,179359,1,2,0:0:0:0:
402,99,179427,1,0,0:0:0:0:
437,104,179496,1,0,0:0:0:0:
415,217,179632,6,0,L|259:231,1,135
244,231,179905,2,0,L|262:134,1,90
244,109,180109,1,0,0:0:0:0:
228,76,180177,2,0,L|72:62,1,135
57,62,180450,2,0,L|75:159,1,90
57,184,180655,1,0,0:0:0:0:
40,216,180723,6,0,L|191:206,1,135
192,237,180996,2,0,P|197:280|175:337,1,90
99,356,181268,1,2,0:0:0:0:
290,288,181405,1,0,0:0:0:0:
304,290,181450,1,0,0:0:0:0:
318,293,181496,1,0,0:0:0:0:
332,296,181541,2,0,L|381:306,1,45
420,241,181678,2,0,L|375:232,1,45
335,167,181814,6,0,P|332:111|388:27,1,135
328,21,182086,2,0,L|230:33,1,90
103,19,182360,2,0,P|106:75|50:159,1,135
110,165,182632,2,0,L|208:153,1,90
307,344,182905,6,0,L|209:332,1,90
189,297,183110,2,0,P|215:259|269:250,1,90
299,258,183314,2,0,L|305:193,1,45
246,143,183450,6,0,L|344:131,1,90
364,96,183655,2,0,P|338:58|284:49,1,90
254,57,183860,2,0,L|248:-8,1,45
160,20,183995,6,0,L|168:119,1,90
185,151,184200,2,0,P|134:146|80:169,1,90
71,194,184405,2,0,L|59:264,1,45
102,320,184541,1,2,0:0:0:0:
134,305,184609,1,0,0:0:0:0:
169,303,184677,1,0,0:0:0:0:
204,312,184746,2,0,P|270:326|320:316,1,90
330,301,184950,2,0,L|339:235,1,45
279,185,185087,6,0,P|323:167|386:181,1,90
406,186,185291,1,2,0:0:0:0:
436,101,185427,1,0,0:0:0:0:
415,71,185496,1,2,0:0:0:0:
381,58,185564,1,0,0:0:0:0:
336,57,185632,1,2,0:0:0:0:
291,64,185701,1,2,0:0:0:0:
246,71,185769,1,2,0:0:0:0:
201,79,185837,1,2,0:0:0:0:
156,87,185905,2,0,L|147:148,1,45
189,197,186041,2,0,L|180:258,1,45
105,276,186178,6,0,P|140:298|174:359,1,99
219,355,186382,2,0,L|328:348,1,99
362,370,186586,1,2,0:0:0:0:
425,293,186723,1,2,0:0:0:0:
409,256,186791,1,0,0:0:0:0:
411,216,186859,1,0,0:0:0:0:
433,183,186928,1,2,0:0:0:0:
407,87,187064,1,0,0:0:0:0:
407,87,187132,1,2,0:0:0:0:
318,43,187268,6,0,L|203:33,1,99
185,71,187473,2,0,P|170:120|188:177,1,99
206,207,187678,2,0,L|184:266,1,49.5
168,298,187814,1,2,0:0:0:0:
261,329,187950,1,0,0:0:0:0:
360,324,188087,1,2,0:0:0:0:
397,310,188155,1,0,0:0:0:0:
425,283,188223,1,0,0:0:0:0:
444,248,188291,1,0,0:0:0:0:
451,208,188360,5,2,0:0:0:0:
399,123,188496,1,0,0:0:0:0:
399,123,188564,1,2,0:0:0:0:
399,123,188632,1,0,0:0:0:0:
497,120,188768,1,2,0:0:0:0:
248,39,188905,1,2,0:0:0:0:
300,124,189041,1,0,0:0:0:0:
300,124,189110,1,2,0:0:0:0:
300,124,189177,1,0,0:0:0:0:
202,127,189313,1,2,0:0:0:0:
451,208,189450,6,0,P|397:218|351:251,1,99
338,275,189655,1,2,0:0:0:0:
322,311,189723,1,0,0:0:0:0:
230,349,189859,1,0,0:0:0:0:
133,326,189996,1,0,0:0:0:0:
85,239,190132,1,0,0:0:0:0:
88,222,190178,1,0,0:0:0:0:
89,205,190223,1,0,0:0:0:0:
88,188,190269,2,0,L|59:123,1,49.5
137,119,190405,2,0,L|108:54,1,49.5
169,20,190541,6,0,L|274:37,1,99
305,43,190746,1,2,0:0:0:0:
304,141,190882,1,0,0:0:0:0:
267,157,190951,1,2,0:0:0:0:
283,192,191019,1,0,0:0:0:0:
276,230,191087,2,0,P|265:275|286:338,1,99
306,352,191291,1,2,0:0:0:0:
404,367,191428,1,0,0:0:0:0:
440,351,191496,1,2,0:0:0:0:
418,317,191564,1,0,0:0:0:0:
420,277,191632,6,0,L|443:177,1,99
452,142,191836,1,2,0:0:0:0:
463,103,191905,1,0,0:0:0:0:
424,113,191973,1,0,0:0:0:0:
384,110,192041,1,2,0:0:0:0:
347,94,192109,1,0,0:0:0:0:
321,63,192178,6,0,L|221:86,1,99
175,92,192382,1,2,0:0:0:0:
129,72,192451,1,0,0:0:0:0:
144,118,192519,1,0,0:0:0:0:
143,167,192587,1,2,0:0:0:0:
125,212,192655,1,0,0:0:0:0:
85,242,192723,6,0,L|109:353,1,99
144,350,192928,2,0,P|193:330|258:340,1,99
270,309,193132,1,2,0:0:0:0:
260,270,193200,1,0,0:0:0:0:
274,233,193268,2,0,L|298:122,1,99
333,125,193473,2,0,P|382:145|447:135,1,99
459,166,193678,1,2,0:0:0:0:
449,205,193746,1,0,0:0:0:0:
471,237,193814,5,2,0:0:0:0:
422,322,193950,1,0,0:0:0:0:
383,332,194018,1,2,0:0:0:0:
298,280,194155,1,0,0:0:0:0:
260,270,194223,1,2,0:0:0:0:
179,328,194360,1,2,0:0:0:0:
163,281,194427,1,2,0:0:0:0:
147,234,194495,1,2,0:0:0:0:
130,186,194564,1,2,0:0:0:0:
115,138,194632,2,0,L|182:153,1,49.5
241,115,194769,2,0,L|308:130,1,49.5
367,94,194905,6,0,L|386:195,1,99
393,230,195109,1,2,0:0:0:0:
353,227,195177,1,0,0:0:0:0:
314,236,195246,1,0,0:0:0:0:
284,262,195314,2,0,L|278:319,1,49.5
205,351,195450,2,0,L|186:250,1,99
179,214,195655,1,2,0:0:0:0:
139,217,195723,1,0,0:0:0:0:
100,208,195791,1,0,0:0:0:0:
70,182,195859,2,0,L|64:125,1,49.5
55,48,195996,6,0,L|165:61,1,99
192,64,196201,1,2,0:0:0:0:
199,102,196269,1,0,0:0:0:0:
189,140,196337,1,0,0:0:0:0:
179,178,196405,2,0,L|196:225,1,49.5
233,289,196541,1,2,0:0:0:0:
311,228,196678,1,0,0:0:0:0:
409,228,196814,1,2,0:0:0:0:
501,264,196951,1,0,0:0:0:0:
480,99,197086,6,0,L|372:86,1,99
342,81,197291,1,2,0:0:0:0:
350,119,197359,1,0,0:0:0:0:
343,158,197428,1,0,0:0:0:0:
323,192,197496,1,2,0:0:0:0:
291,215,197564,1,0,0:0:0:0:
252,226,197632,6,0,L|144:239,1,99
114,244,197837,1,2,0:0:0:0:
122,206,197905,1,0,0:0:0:0:
115,167,197974,1,0,0:0:0:0:
95,133,198042,1,2,0:0:0:0:
63,110,198110,1,0,0:0:0:0:
23,107,198178,5,2,0:0:0:0:
86,32,198314,1,0,0:0:0:0:
122,48,198382,1,2,0:0:0:0:
160,54,198450,1,0,0:0:0:0:
199,49,198518,1,0,0:0:0:0:
237,37,198587,1,2,0:0:0:0:
319,90,198723,1,2,0:0:0:0:
269,175,198860,1,0,0:0:0:0:
270,191,198905,1,0,0:0:0:0:
271,207,198950,1,0,0:0:0:0:
272,223,198996,2,0,L|277:299,1,49.5
354,301,199132,2,0,L|350:251,1,49.5
412,194,199268,5,4,0:0:0:0:
384,165,199337,1,8,0:0:0:0:
369,128,199405,1,8,0:0:0:0:
364,88,199473,1,10,0:0:0:0:
373,49,199542,1,8,0:0:0:0:
337,67,199610,1,8,0:0:0:0:
297,70,199677,1,10,0:0:0:0:
257,66,199745,1,8,0:0:0:0:
219,52,199814,1,10,0:0:0:0:
182,36,199883,1,8,0:0:0:0:
142,32,199951,1,8,0:0:0:0:
102,35,200019,1,10,0:0:0:0:
66,53,200087,1,8,0:0:0:0:
45,86,200155,1,8,0:0:0:0:
38,124,200223,1,10,0:0:0:0:
54,160,200291,1,8,0:0:0:0:
86,183,200359,5,4,0:0:0:0:
123,194,200427,1,8,0:0:0:0:
162,195,200496,1,8,0:0:0:0:
199,183,200564,1,10,0:0:0:0:
232,162,200632,1,8,0:0:0:0:
267,144,200700,1,8,0:0:0:0:
304,132,200768,1,10,0:0:0:0:
343,133,200837,1,8,0:0:0:0:
380,144,200905,1,10,0:0:0:0:
362,179,200973,1,8,0:0:0:0:
359,218,201041,1,8,0:0:0:0:
368,256,201109,1,10,0:0:0:0:
396,283,201177,1,8,0:0:0:0:
356,287,201246,1,8,0:0:0:0:
318,298,201314,1,10,0:0:0:0:
289,325,201382,1,8,0:0:0:0:
274,362,201451,5,4,0:0:0:0:
259,325,201519,1,8,0:0:0:0:
232,296,201587,1,8,0:0:0:0:
197,277,201655,1,10,0:0:0:0:
157,271,201723,1,8,0:0:0:0:
117,272,201791,1,8,0:0:0:0:
79,283,201859,1,10,0:0:0:0:
48,308,201928,1,8,0:0:0:0:
21,336,201996,1,4,0:0:0:0:
12,297,202064,1,8,0:0:0:0:
20,258,202132,1,8,0:0:0:0:
40,223,202201,1,10,0:0:0:0:
71,198,202268,1,10,0:0:0:0:
107,182,202336,1,8,0:0:0:0:
146,176,202405,1,10,0:0:0:0:
184,183,202473,1,8,0:0:0:0:
219,200,202541,5,4,0:0:0:0:
291,267,202678,2,0,L|332:274,4,24.75
358,193,202950,2,0,L|399:200,3,24.75
407,195,203086,1,2,0:0:0:0:
447,166,203155,1,2,0:0:0:0:
459,118,203223,1,2,0:0:0:0:
439,70,203291,1,2,0:0:0:0:
394,49,203360,2,0,L|408:20,6,24.75
351,37,203632,6,0,P|303:33|241:49,1,108
210,72,203837,1,0,0:0:0:0:
187,108,203905,1,0,0:0:0:0:
182,150,203973,1,0,0:0:0:0:
199,189,204041,1,0,0:0:0:0:
156,181,204110,1,0,0:0:0:0:
114,193,204178,1,0,0:0:0:0:
86,225,204246,1,0,0:0:0:0:
77,267,204314,1,0,0:0:0:0:
100,303,204382,1,0,0:0:0:0:
138,322,204450,1,2,0:0:0:0:
173,297,204518,1,0,0:0:0:0:
215,290,204587,1,0,0:0:0:0:
256,300,204655,1,0,0:0:0:0:
290,325,204723,6,0,P|340:338|412:329,1,108
434,313,204927,1,0,0:0:0:0:
407,278,204995,1,0,0:0:0:0:
400,234,205064,1,0,0:0:0:0:
410,192,205132,1,0,0:0:0:0:
369,207,205200,1,0,0:0:0:0:
325,202,205269,1,2,0:0:0:0:
288,179,205337,1,0,0:0:0:0:
270,139,205405,1,0,0:0:0:0:
280,97,205473,1,0,0:0:0:0:
314,70,205541,1,2,0:0:0:0:
277,46,205609,1,0,0:0:0:0:
234,38,205677,1,0,0:0:0:0:
191,45,205746,1,0,0:0:0:0:
156,70,205814,6,0,L|143:187,1,108
137,220,206019,1,0,0:0:0:0:
131,262,206087,1,0,0:0:0:0:
173,252,206155,1,0,0:0:0:0:
216,255,206223,1,0,0:0:0:0:
255,272,206291,1,0,0:0:0:0:
277,308,206359,2,0,L|264:191,1,108
258,158,206564,1,0,0:0:0:0:
252,116,206632,1,0,0:0:0:0:
294,126,206700,1,0,0:0:0:0:
337,123,206769,1,0,0:0:0:0:
376,106,206837,1,0,0:0:0:0:
401,72,206905,5,2,0:0:0:0:
424,108,206973,1,0,0:0:0:0:
433,150,207041,1,0,0:0:0:0:
428,192,207109,1,0,0:0:0:0:
402,227,207178,1,0,0:0:0:0:
361,242,207246,1,0,0:0:0:0:
317,242,207314,1,0,0:0:0:0:
280,219,207382,1,0,0:0:0:0:
241,198,207451,1,2,0:0:0:0:
198,191,207518,1,0,0:0:0:0:
154,191,207586,1,2,0:0:0:0:
114,209,207655,1,0,0:0:0:0:
88,243,207723,2,0,L|25:237,1,54
31,146,207859,2,0,L|94:140,1,54
154,79,207996,5,2,0:0:0:0:
190,101,208064,1,0,0:0:0:0:
232,111,208132,1,0,0:0:0:0:
274,103,208200,1,0,0:0:0:0:
311,82,208268,1,0,0:0:0:0:
345,55,208336,1,0,0:0:0:0:
387,47,208404,1,0,0:0:0:0:
429,57,208473,1,0,0:0:0:0:
465,79,208541,1,2,0:0:0:0:
445,118,208610,1,0,0:0:0:0:
429,158,208678,1,0,0:0:0:0:
433,200,208746,1,0,0:0:0:0:
459,233,208814,1,0,0:0:0:0:
420,253,208882,1,0,0:0:0:0:
377,257,208950,1,0,0:0:0:0:
336,243,209018,1,0,0:0:0:0:
297,223,209087,5,2,0:0:0:0:
259,201,209155,1,0,0:0:0:0:
216,194,209223,1,0,0:0:0:0:
173,199,209291,1,0,0:0:0:0:
136,221,209360,1,0,0:0:0:0:
114,258,209428,1,0,0:0:0:0:
104,299,209496,1,0,0:0:0:0:
112,341,209564,1,0,0:0:0:0:
142,370,209632,1,2,0:0:0:0:
170,337,209700,1,0,0:0:0:0:
211,325,209768,1,0,0:0:0:0:
254,327,209837,1,0,0:0:0:0:
293,343,209905,1,0,0:0:0:0:
332,359,209973,1,0,0:0:0:0:
375,361,210042,1,0,0:0:0:0:
416,349,210110,1,0,0:0:0:0:
444,316,210177,5,2,0:0:0:0:
418,281,210245,1,0,0:0:0:0:
405,239,210314,1,0,0:0:0:0:
411,196,210382,1,0,0:0:0:0:
437,161,210450,1,0,0:0:0:0:
464,127,210518,1,0,0:0:0:0:
470,84,210586,1,2,0:0:0:0:
457,42,210655,1,0,0:0:0:0:
431,7,210723,1,2,0:0:0:0:
401,38,210791,1,0,0:0:0:0:
362,56,210859,1,0,0:0:0:0:
319,63,210927,1,0,0:0:0:0:
276,53,210996,1,0,0:0:0:0:
233,42,211065,1,0,0:0:0:0:
190,49,211133,1,2,0:0:0:0:
151,67,211201,1,0,0:0:0:0:
121,98,211269,5,2,0:0:0:0:
140,136,211337,1,0,0:0:0:0:
150,177,211405,1,0,0:0:0:0:
142,219,211473,1,0,0:0:0:0:
115,252,211541,1,0,0:0:0:0:
157,248,211609,1,0,0:0:0:0:
196,264,211677,1,0,0:0:0:0:
228,292,211746,1,0,0:0:0:0:
247,330,211814,5,2,0:0:0:0:
300,321,211882,1,2,0:0:0:0:
353,312,211951,1,2,0:0:0:0:
406,304,212019,1,2,0:0:0:0:
431,256,212087,5,2,0:0:0:0:
378,247,212155,1,2,0:0:0:0:
325,238,212223,1,2,0:0:0:0:
272,230,212291,1,0,0:0:0:0:
242,185,212359,6,0,P|233:142|250:76,1,108
276,48,212564,1,0,0:0:0:0:
317,37,212632,1,0,0:0:0:0:
360,42,212701,1,0,0:0:0:0:
398,60,212768,1,0,0:0:0:0:
426,91,212836,1,0,0:0:0:0:
440,132,212905,1,0,0:0:0:0:
401,152,212973,1,0,0:0:0:0:
381,190,213041,1,0,0:0:0:0:
385,232,213109,1,0,0:0:0:0:
418,259,213178,1,2,0:0:0:0:
402,298,213246,1,0,0:0:0:0:
364,319,213314,1,0,0:0:0:0:
320,324,213382,1,0,0:0:0:0:
282,302,213450,6,0,P|246:287|166:295,1,108
135,300,213655,1,0,0:0:0:0:
101,326,213723,1,0,0:0:0:0:
90,284,213791,1,0,0:0:0:0:
95,240,213860,1,0,0:0:0:0:
118,204,213928,1,0,0:0:0:0:
153,180,213996,1,0,0:0:0:0:
194,167,214064,1,0,0:0:0:0:
217,131,214132,1,0,0:0:0:0:
222,87,214200,1,0,0:0:0:0:
211,45,214268,1,2,0:0:0:0:
254,50,214337,1,0,0:0:0:0:
296,55,214405,1,0,0:0:0:0:
338,59,214473,1,0,0:0:0:0:
380,64,214541,6,0,L|396:189,1,108
401,214,214746,1,0,0:0:0:0:
357,207,214814,1,0,0:0:0:0:
315,220,214882,1,0,0:0:0:0:
287,253,214950,1,0,0:0:0:0:
247,235,215018,1,0,0:0:0:0:
205,221,215087,2,0,L|221:96,1,108
226,71,215292,1,0,0:0:0:0:
182,78,215360,1,0,0:0:0:0:
140,65,215428,1,0,0:0:0:0:
112,32,215496,1,0,0:0:0:0:
72,50,215564,1,0,0:0:0:0:
32,68,215633,5,2,0:0:0:0:
58,100,215700,1,0,0:0:0:0:
70,141,215769,1,0,0:0:0:0:
73,183,215837,1,0,0:0:0:0:
53,221,215905,1,0,0:0:0:0:
37,261,215973,1,0,0:0:0:0:
40,303,216041,1,0,0:0:0:0:
52,344,216109,1,0,0:0:0:0:
78,376,216177,1,2,0:0:0:0:
121,381,216246,1,0,0:0:0:0:
162,367,216314,1,0,0:0:0:0:
188,332,216382,1,0,0:0:0:0:
188,288,216450,2,0,L|177:225,1,54
262,195,216587,2,0,L|273:258,1,54
346,304,216723,5,2,0:0:0:0:
383,325,216791,1,0,0:0:0:0:
426,325,216859,1,0,0:0:0:0:
464,306,216927,1,0,0:0:0:0:
486,268,216996,1,0,0:0:0:0:
484,224,217064,1,0,0:0:0:0:
458,189,217132,1,0,0:0:0:0:
422,163,217201,1,0,0:0:0:0:
379,167,217269,1,2,0:0:0:0:
356,203,217337,1,0,0:0:0:0:
312,220,217405,1,0,0:0:0:0:
269,210,217473,1,0,0:0:0:0:
236,182,217541,1,0,0:0:0:0:
230,139,217609,1,0,0:0:0:0:
242,97,217678,1,0,0:0:0:0:
272,66,217746,1,0,0:0:0:0:
314,59,217814,5,2,0:0:0:0:
298,99,217882,1,0,0:0:0:0:
258,117,217951,1,0,0:0:0:0:
215,125,218018,1,0,0:0:0:0:
174,111,218086,1,0,0:0:0:0:
131,102,218154,1,0,0:0:0:0:
88,110,218222,1,0,0:0:0:0:
48,128,218291,1,0,0:0:0:0:
32,168,218359,1,2,0:0:0:0:
71,185,218428,1,0,0:0:0:0:
96,219,218496,1,0,0:0:0:0:
101,261,218564,1,0,0:0:0:0:
85,301,218632,1,0,0:0:0:0:
125,286,218700,1,0,0:0:0:0:
167,291,218768,1,0,0:0:0:0:
205,310,218836,1,0,0:0:0:0:
229,345,218905,5,2,0:0:0:0:
271,337,218973,1,0,0:0:0:0:
308,315,219041,1,0,0:0:0:0:
332,279,219110,1,0,0:0:0:0:
340,236,219178,1,0,0:0:0:0:
347,193,219246,1,0,0:0:0:0:
371,157,219314,1,0,0:0:0:0:
408,135,219382,1,0,0:0:0:0:
450,127,219450,1,0,0:0:0:0:
429,89,219518,1,0,0:0:0:0:
393,64,219587,1,0,0:0:0:0:
350,58,219655,1,0,0:0:0:0:
310,74,219723,1,0,0:0:0:0:
267,83,219791,1,0,0:0:0:0:
224,77,219859,1,0,0:0:0:0:
188,52,219928,1,0,0:0:0:0:
167,14,219996,5,2,0:0:0:0:
127,31,220064,1,0,0:0:0:0:
100,65,220132,1,0,0:0:0:0:
91,107,220200,1,0,0:0:0:0:
105,147,220268,1,0,0:0:0:0:
115,188,220336,1,0,0:0:0:0:
106,230,220404,1,0,0:0:0:0:
79,264,220472,1,0,0:0:0:0:
39,281,220541,5,2,0:0:0:0:
92,291,220610,1,2,0:0:0:0:
144,301,220677,1,2,0:0:0:0:
196,311,220745,1,2,0:0:0:0:
232,350,220814,5,2,0:0:0:0:
285,340,220883,1,2,0:0:0:0:
337,330,220951,1,2,0:0:0:0:
389,320,221019,1,2,0:0:0:0:
413,272,221087,5,4,0:0:0:0:
372,256,221155,1,0,0:0:0:0:
344,222,221223,1,0,0:0:0:0:
341,178,221291,1,0,0:0:0:0:
359,139,221359,1,0,0:0:0:0:
397,119,221427,1,0,0:0:0:0:
439,111,221496,1,0,0:0:0:0:
479,124,221564,1,0,0:0:0:0:
506,157,221632,1,0,0:0:0:0:
463,162,221700,1,0,0:0:0:0:
420,152,221769,1,0,0:0:0:0:
383,129,221837,1,0,0:0:0:0:
364,90,221905,1,2,0:0:0:0:
346,50,221973,1,0,0:0:0:0:
309,27,222041,1,0,0:0:0:0:
266,17,222109,1,0,0:0:0:0:
223,22,222177,5,0,0:0:0:0:
187,46,222245,1,0,0:0:0:0:
169,85,222314,1,0,0:0:0:0:
177,127,222382,1,0,0:0:0:0:
208,157,222451,1,0,0:0:0:0:
244,180,222519,1,0,0:0:0:0:
275,210,222587,1,0,0:0:0:0:
283,252,222655,1,0,0:0:0:0:
265,291,222724,1,0,0:0:0:0:
229,315,222792,1,0,0:0:0:0:
187,322,222859,1,0,0:0:0:0:
146,305,222928,1,0,0:0:0:0:
124,267,222996,1,2,0:0:0:0:
130,224,223064,1,0,0:0:0:0:
115,183,223132,1,0,0:0:0:0:
83,153,223201,1,0,0:0:0:0:
41,140,223268,6,0,L|31:67,3,54
28,43,223541,1,0,0:0:0:0:
68,56,223609,1,0,0:0:0:0:
111,59,223678,1,0,0:0:0:0:
153,56,223746,1,0,0:0:0:0:
195,46,223814,2,0,L|185:119,3,54
182,143,224086,1,0,0:0:0:0:
222,130,224154,1,0,0:0:0:0:
265,127,224223,1,0,0:0:0:0:
307,130,224291,1,0,0:0:0:0:
344,151,224360,6,0,L|327:214,3,54
294,227,224632,2,0,L|277:290,3,54
249,309,224905,1,2,0:0:0:0:
211,330,224973,1,0,0:0:0:0:
168,334,225041,1,0,0:0:0:0:
126,320,225110,1,0,0:0:0:0:
100,285,225178,2,0,L|82:211,1,54
171,193,225314,2,0,L|183:245,1,54
249,309,225450,5,2,0:0:0:0:
287,327,225518,1,0,0:0:0:0:
329,335,225587,1,0,0:0:0:0:
371,330,225655,1,0,0:0:0:0:
409,310,225723,1,0,0:0:0:0:
438,278,225792,1,0,0:0:0:0:
450,236,225860,1,0,0:0:0:0:
442,193,225927,1,0,0:0:0:0:
411,163,225995,1,2,0:0:0:0:
380,194,226064,1,0,0:0:0:0:
336,195,226132,1,0,0:0:0:0:
298,174,226200,1,0,0:0:0:0:
286,132,226269,1,0,0:0:0:0:
301,91,226337,1,0,0:0:0:0:
339,70,226405,1,0,0:0:0:0:
382,70,226473,1,0,0:0:0:0:
416,96,226541,5,2,0:0:0:0:
375,109,226609,1,0,0:0:0:0:
331,107,226677,1,0,0:0:0:0:
288,95,226746,1,0,0:0:0:0:
257,64,226814,1,0,0:0:0:0:
222,37,226882,1,0,0:0:0:0:
179,25,226951,1,0,0:0:0:0:
135,23,227019,1,0,0:0:0:0:
94,36,227087,1,2,0:0:0:0:
117,72,227155,1,0,0:0:0:0:
124,114,227223,1,0,0:0:0:0:
117,156,227291,1,0,0:0:0:0:
91,190,227359,1,0,0:0:0:0:
66,225,227427,1,0,0:0:0:0:
59,267,227495,1,0,0:0:0:0:
66,309,227564,1,0,0:0:0:0:
89,345,227632,5,2,0:0:0:0:
123,318,227701,1,0,0:0:0:0:
164,305,227769,1,0,0:0:0:0:
207,303,227837,1,0,0:0:0:0:
249,310,227905,1,0,0:0:0:0:
290,320,227972,1,0,0:0:0:0:
333,318,228040,1,2,0:0:0:0:
374,305,228108,1,0,0:0:0:0:
408,278,228177,1,2,0:0:0:0:
368,259,228246,1,0,0:0:0:0:
341,225,228314,1,0,0:0:0:0:
338,181,228382,1,0,0:0:0:0:
356,141,228451,1,0,0:0:0:0:
395,123,228518,1,0,0:0:0:0:
437,115,228586,1,2,0:0:0:0:
479,126,228655,1,0,0:0:0:0:
504,160,228723,5,2,0:0:0:0:
465,179,228791,1,0,0:0:0:0:
422,182,228859,1,0,0:0:0:0:
379,170,228928,1,0,0:0:0:0:
346,141,228996,1,0,0:0:0:0:
311,115,229064,1,0,0:0:0:0:
268,103,229132,1,0,0:0:0:0:
225,106,229200,1,0,0:0:0:0:
186,125,229268,5,2,0:0:0:0:
173,177,229336,1,2,0:0:0:0:
160,229,229405,1,2,0:0:0:0:
147,281,229473,1,2,0:0:0:0:
103,312,229541,5,2,0:0:0:0:
90,260,229609,1,2,0:0:0:0:
77,208,229678,1,2,0:0:0:0:
64,156,229746,1,2,0:0:0:0:
22,121,229814,5,4,0:0:0:0:
40,81,229882,1,0,0:0:0:0:
76,57,229950,1,0,0:0:0:0:
119,54,230018,1,0,0:0:0:0:
157,73,230087,1,0,0:0:0:0:
197,89,230156,1,0,0:0:0:0:
240,86,230224,1,0,0:0:0:0:
276,62,230292,1,0,0:0:0:0:
294,22,230360,1,0,0:0:0:0:
332,39,230428,1,0,0:0:0:0:
359,72,230496,1,0,0:0:0:0:
374,112,230564,1,0,0:0:0:0:
375,155,230632,1,2,0:0:0:0:
365,196,230700,1,0,0:0:0:0:
343,233,230768,1,0,0:0:0:0:
304,253,230837,1,0,0:0:0:0:
262,262,230905,5,0,0:0:0:0:
238,226,230973,1,0,0:0:0:0:
200,203,231042,1,0,0:0:0:0:
157,198,231110,1,0,0:0:0:0:
115,208,231177,1,0,0:0:0:0:
130,167,231245,1,0,0:0:0:0:
133,123,231314,1,0,0:0:0:0:
116,83,231382,1,0,0:0:0:0:
83,55,231450,1,0,0:0:0:0:
122,36,231519,1,0,0:0:0:0:
164,31,231587,1,0,0:0:0:0:
206,35,231655,1,0,0:0:0:0:
244,54,231723,1,2,0:0:0:0:
283,69,231791,1,0,0:0:0:0:
325,73,231859,1,0,0:0:0:0:
367,68,231927,1,0,0:0:0:0:
406,49,231995,5,4,0:0:0:0:
388,88,232064,1,0,0:0:0:0:
384,130,232132,1,0,0:0:0:0:
391,172,232200,1,0,0:0:0:0:
413,209,232269,1,0,0:0:0:0:
370,204,232337,1,0,0:0:0:0:
327,210,232405,1,0,0:0:0:0:
289,232,232473,1,0,0:0:0:0:
267,269,232541,1,2,0:0:0:0:
223,270,232609,1,0,0:0:0:0:
182,255,232677,1,0,0:0:0:0:
151,223,232746,1,0,0:0:0:0:
142,180,232814,1,0,0:0:0:0:
152,138,232882,1,0,0:0:0:0:
184,108,232951,1,0,0:0:0:0:
225,96,233019,1,0,0:0:0:0:
267,105,233087,5,2,0:0:0:0:
299,133,233155,1,0,0:0:0:0:
315,173,233223,1,0,0:0:0:0:
319,215,233291,1,0,0:0:0:0:
296,251,233359,1,0,0:0:0:0:
339,245,233428,1,0,0:0:0:0:
381,251,233496,1,0,0:0:0:0:
417,273,233564,1,0,0:0:0:0:
440,309,233632,5,2,0:0:0:0:
453,256,233701,1,2,0:0:0:0:
466,203,233768,1,2,0:0:0:0:
479,150,233836,1,2,0:0:0:0:
440,111,233905,5,2,0:0:0:0:
387,124,233974,1,2,0:0:0:0:
334,137,234042,1,2,0:0:0:0:
281,150,234110,1,2,0:0:0:0:
236,119,234178,5,4,0:0:0:0:
215,82,234246,1,0,0:0:0:0:
176,64,234314,1,0,0:0:0:0:
132,62,234382,1,0,0:0:0:0:
92,79,234450,1,0,0:0:0:0:
63,112,234518,1,0,0:0:0:0:
55,155,234586,1,0,0:0:0:0:
71,196,234655,1,0,0:0:0:0:
108,218,234723,1,2,0:0:0:0:
137,186,234791,1,0,0:0:0:0:
178,173,234860,1,0,0:0:0:0:
220,177,234928,1,0,0:0:0:0:
254,202,234996,1,0,0:0:0:0:
276,238,235064,1,0,0:0:0:0:
280,281,235132,1,2,0:0:0:0:
261,319,235200,1,0,0:0:0:0:
227,346,235268,5,4,0:0:0:0:
269,354,235336,1,0,0:0:0:0:
312,351,235404,1,0,0:0:0:0:
353,337,235472,1,0,0:0:0:0:
389,314,235541,1,0,0:0:0:0:
418,282,235609,1,0,0:0:0:0:
438,244,235677,1,0,0:0:0:0:
448,202,235746,1,0,0:0:0:0:
448,159,235814,1,2,0:0:0:0:
436,118,235881,1,0,0:0:0:0:
415,81,235949,1,0,0:0:0:0:
384,50,236018,1,0,0:0:0:0:
347,28,236086,1,0,0:0:0:0:
312,69,236154,1,0,0:0:0:0:
259,82,236223,1,0,0:0:0:0:
205,76,236291,1,0,0:0:0:0:
165,39,236360,5,4,0:0:0:0:
27,124,236564,1,2,0:0:0:0:
169,200,236769,2,0,L|145:164,4,27
224,352,237109,1,2,0:0:0:0:
329,228,237314,2,0,L|365:204,4,27
292,126,237587,2,0,L|314:89,4,27
198,71,237859,2,0,L|202:27,3,27
202,16,237996,1,2,0:0:0:0:
158,9,238064,1,2,0:0:0:0:
108,29,238132,1,2,0:0:0:0:
69,66,238201,1,2,0:0:0:0:
57,118,238269,1,2,0:0:0:0:
118,137,238337,1,2,0:0:0:0:
162,184,238405,1,2,0:0:0:0:
173,248,238473,1,2,0:0:0:0:
146,306,238541,6,0,L|-2:298,2,135
216,362,239086,2,0,L|364:354,2,135
275,215,239632,6,0,P|261:153|271:82,2,135
358,181,240178,2,0,P|372:243|362:314,2,135
420,116,240723,6,0,P|413:66|370:21,1,90
347,20,240928,2,0,L|174:27,1,135
163,101,241268,2,0,L|151:203,1,90
183,223,241473,2,0,P|128:206|42:229,1,135
35,358,241814,6,0,L|158:351,1,90
166,334,242019,2,0,P|226:321|310:350,1,135
379,306,242359,5,2,0:0:0:0:
390,262,242427,1,0,0:0:0:0:
401,218,242496,1,0,0:0:0:0:
413,174,242564,1,0,0:0:0:0:
457,176,242632,5,2,0:0:0:0:
446,132,242700,1,2,0:0:0:0:
435,88,242769,1,2,0:0:0:0:
423,44,242837,1,0,0:0:0:0:
381,27,242905,6,0,P|339:38|276:28,1,90
249,20,243109,2,0,P|231:85|286:118,1,135
318,199,243451,1,0,0:0:0:0:
282,198,243519,1,0,0:0:0:0:
248,209,243587,1,0,0:0:0:0:
219,231,243655,1,2,0:0:0:0:
186,315,243791,1,0,0:0:0:0:
188,350,243859,1,0,0:0:0:0:
60,237,243996,6,0,L|52:124,1,90
31,107,244201,2,0,P|92:117|180:80,1,135
243,58,244541,1,2,0:0:0:0:
279,57,244609,1,0,0:0:0:0:
313,68,244677,1,0,0:0:0:0:
342,90,244745,1,2,0:0:0:0:
397,161,244882,1,0,0:0:0:0:
433,156,244950,1,0,0:0:0:0:
468,238,245086,6,0,L|357:253,1,90
336,233,245291,2,0,P|286:238|244:273,1,90
233,300,245496,2,0,L|166:289,1,45
27,183,245632,2,0,L|138:168,1,90
159,188,245837,2,0,P|209:183|251:148,1,90
262,121,246042,2,0,L|329:132,1,45
461,194,246178,6,0,P|450:141|460:91,1,90
428,69,246382,2,0,L|324:53,1,90
308,21,246587,1,0,0:0:0:0:
229,64,246723,5,2,0:0:0:0:
240,108,246791,1,2,0:0:0:0:
251,152,246860,1,2,0:0:0:0:
263,196,246927,1,0,0:0:0:0:
301,218,246995,5,2,0:0:0:0:
290,262,247063,1,2,0:0:0:0:
279,306,247132,1,2,0:0:0:0:
267,350,247200,1,0,0:0:0:0:
228,374,247269,6,0,L|138:367,1,90
96,353,247473,2,0,P|71:293|88:214,1,135
108,200,247746,1,0,0:0:0:0:
140,185,247814,2,0,L|235:192,1,90
275,191,248019,2,0,P|300:131|283:52,1,135
266,35,248291,1,0,0:0:0:0:
236,15,248359,6,0,L|135:25,1,90
110,31,248564,2,0,P|83:80|124:147,1,135
151,159,248837,1,0,0:0:0:0:
186,165,248905,2,0,L|275:173,1,90
312,181,249109,2,0,P|339:239|303:294,1,135
271,309,249382,1,0,0:0:0:0:
234,312,249451,6,0,L|123:303,1,90
120,277,249655,2,0,P|114:230|149:187,1,90
168,180,249859,2,0,L|145:121,1,45
209,68,249996,6,0,L|320:77,1,90
323,103,250200,2,0,P|329:150|294:193,1,90
275,200,250404,2,0,L|298:259,1,45
228,307,250541,6,0,L|211:265,2,45
261,337,250746,2,0,P|312:347|363:333,1,90
380,322,250950,1,0,0:0:0:0:
397,290,251018,1,0,0:0:0:0:
395,253,251087,5,2,0:0:0:0:
351,241,251155,1,0,0:0:0:0:
307,229,251223,1,0,0:0:0:0:
263,217,251291,1,0,0:0:0:0:
235,180,251360,5,2,0:0:0:0:
191,192,251428,1,2,0:0:0:0:
147,204,251496,1,2,0:0:0:0:
103,216,251564,1,0,0:0:0:0:
84,257,251632,6,0,P|74:295|101:358,1,90
114,367,251837,1,2,0:0:0:0:
149,371,251905,1,0,0:0:0:0:
171,343,251973,1,0,0:0:0:0:
203,327,252042,1,2,0:0:0:0:
238,325,252110,1,0,0:0:0:0:
272,335,252177,2,0,P|314:340|367:328,1,90
386,305,252382,1,2,0:0:0:0:
406,275,252450,1,2,0:0:0:0:
408,238,252519,1,0,0:0:0:0:
396,204,252587,1,0,0:0:0:0:
369,180,252655,1,0,0:0:0:0:
334,169,252723,6,0,L|237:186,1,90
209,181,252927,1,2,0:0:0:0:
174,170,252996,1,0,0:0:0:0:
149,144,253064,1,0,0:0:0:0:
141,108,253132,1,0,0:0:0:0:
150,73,253200,1,0,0:0:0:0:
180,53,253269,2,0,L|278:61,1,90
305,65,253473,1,2,0:0:0:0:
340,70,253541,1,0,0:0:0:0:
325,102,253609,1,0,0:0:0:0:
323,137,253677,1,0,0:0:0:0:
332,172,253746,1,0,0:0:0:0:
354,200,253814,5,0,0:0:0:0:
318,203,253882,1,0,0:0:0:0:
289,226,253951,1,0,0:0:0:0:
275,259,254019,1,2,0:0:0:0:
252,231,254087,1,0,0:0:0:0:
216,223,254155,1,0,0:0:0:0:
181,232,254223,2,0,L|156:297,1,45
82,238,254359,5,0,0:0:0:0:
85,202,254427,1,0,0:0:0:0:
108,173,254496,1,0,0:0:0:0:
141,159,254564,1,2,0:0:0:0:
113,136,254632,1,0,0:0:0:0:
105,100,254700,1,0,0:0:0:0:
114,65,254768,2,0,L|179:40,1,45
243,25,254905,5,2,0:0:0:0:
243,25,255450,1,2,0:0:0:0:
251,69,255518,1,2,0:0:0:0:
259,113,255586,1,2,0:0:0:0:
267,157,255655,1,0,0:0:0:0:
302,184,255723,5,2,0:0:0:0:
294,228,255791,1,2,0:0:0:0:
286,272,255859,1,2,0:0:0:0:
278,316,255928,1,2,0:0:0:0:
304,352,255996,5,4,0:0:0:0:
334,358,256064,1,0,0:0:0:0:
365,358,256132,1,0,0:0:0:0:
395,352,256200,1,0,0:0:0:0:
423,338,256268,1,10,0:0:0:0:
445,315,256337,1,0,0:0:0:0:
458,286,256405,1,0,0:0:0:0:
460,254,256473,1,0,0:0:0:0:
445,225,256541,1,2,0:0:0:0:
415,231,256609,1,0,0:0:0:0:
384,231,256678,1,0,0:0:0:0:
354,225,256746,1,0,0:0:0:0:
326,211,256814,1,10,0:0:0:0:
304,188,256882,1,0,0:0:0:0:
291,159,256950,1,0,0:0:0:0:
289,127,257018,1,0,0:0:0:0:
300,97,257086,5,2,0:0:0:0:
270,107,257155,1,0,0:0:0:0:
238,107,257223,1,0,0:0:0:0:
207,96,257292,1,0,0:0:0:0:
182,76,257360,1,8,0:0:0:0:
181,107,257427,1,0,0:0:0:0:
170,136,257495,1,0,0:0:0:0:
148,159,257564,1,0,0:0:0:0:
119,172,257632,1,2,0:0:0:0:
143,192,257700,1,0,0:0:0:0:
160,218,257769,1,0,0:0:0:0:
165,248,257837,1,0,0:0:0:0:
158,278,257905,1,10,0:0:0:0:
188,270,257973,1,0,0:0:0:0:
219,272,258041,1,0,0:0:0:0:
249,280,258109,1,0,0:0:0:0:
272,301,258177,5,2,0:0:0:0:
282,270,258246,1,0,0:0:0:0:
292,240,258314,1,0,0:0:0:0:
302,210,258382,1,0,0:0:0:0:
312,180,258450,1,10,0:0:0:0:
322,211,258519,1,0,0:0:0:0:
332,241,258587,1,0,0:0:0:0:
342,271,258655,1,0,0:0:0:0:
353,300,258723,1,2,0:0:0:0:
363,269,258792,1,0,0:0:0:0:
373,239,258860,1,0,0:0:0:0:
383,209,258928,1,0,0:0:0:0:
393,179,258996,1,10,0:0:0:0:
403,210,259065,1,0,0:0:0:0:
413,240,259133,1,0,0:0:0:0:
423,270,259201,1,0,0:0:0:0:
433,299,259269,5,2,0:0:0:0:
455,276,259337,1,0,0:0:0:0:
472,250,259405,1,0,0:0:0:0:
482,220,259473,1,0,0:0:0:0:
488,189,259541,1,10,0:0:0:0:
485,157,259609,1,0,0:0:0:0:
473,127,259678,1,0,0:0:0:0:
454,101,259746,1,0,0:0:0:0:
428,82,259814,5,2,0:0:0:0:
390,106,259882,1,0,0:0:0:0:
344,110,259951,1,0,0:0:0:0:
301,95,260018,1,0,0:0:0:0:
270,62,260086,5,10,0:0:0:0:
232,38,260154,1,2,0:0:0:0:
186,34,260223,1,2,0:0:0:0:
143,49,260291,1,2,0:0:0:0:
111,80,260359,5,2,0:0:0:0:
107,111,260428,1,0,0:0:0:0:
103,142,260496,1,0,0:0:0:0:
99,173,260564,1,0,0:0:0:0:
96,204,260632,2,0,L|92:258,3,45
115,271,260905,1,0,0:0:0:0:
146,275,260974,1,0,0:0:0:0:
177,279,261042,1,0,0:0:0:0:
208,283,261110,1,0,0:0:0:0:
239,286,261178,2,0,L|293:290,3,45
311,274,261450,5,0,0:0:0:0:
331,250,261518,1,0,0:0:0:0:
336,218,261587,1,2,0:0:0:0:
331,186,261655,1,0,0:0:0:0:
313,159,261723,1,8,0:0:0:0:
284,144,261791,1,0,0:0:0:0:
252,138,261860,1,0,0:0:0:0:
222,147,261928,1,0,0:0:0:0:
195,163,261996,1,2,0:0:0:0:
175,139,262064,1,0,0:0:0:0:
170,107,262132,1,0,0:0:0:0:
175,75,262200,1,0,0:0:0:0:
193,48,262268,1,8,0:0:0:0:
222,33,262336,1,0,0:0:0:0:
254,27,262405,1,0,0:0:0:0:
284,36,262473,1,0,0:0:0:0:
308,55,262542,6,0,L|376:47,3,45
384,45,262814,1,8,0:0:0:0:
379,76,262882,1,0,0:0:0:0:
374,107,262950,1,0,0:0:0:0:
370,138,263019,1,0,0:0:0:0:
364,168,263087,2,0,L|296:160,3,45
288,158,263359,1,8,0:0:0:0:
293,189,263427,1,0,0:0:0:0:
298,220,263495,1,0,0:0:0:0:
302,251,263564,1,0,0:0:0:0:
308,281,263632,5,2,0:0:0:0:
277,275,263700,1,0,0:0:0:0:
245,275,263769,1,0,0:0:0:0:
214,282,263837,1,0,0:0:0:0:
187,298,263905,1,8,0:0:0:0:
160,314,263973,1,0,0:0:0:0:
129,321,264041,1,0,0:0:0:0:
97,321,264109,1,0,0:0:0:0:
66,315,264177,5,2,0:0:0:0:
73,270,264246,1,2,0:0:0:0:
80,225,264314,1,2,0:0:0:0:
88,180,264382,1,0,0:0:0:0:
132,172,264451,5,2,0:0:0:0:
125,127,264519,1,2,0:0:0:0:
118,82,264587,1,2,0:0:0:0:
110,37,264655,1,0,0:0:0:0:
149,16,264723,5,0,0:0:0:0:
170,22,264791,1,0,0:0:0:0:
191,28,264859,1,0,0:0:0:0:
212,34,264928,1,0,0:0:0:0:
233,40,264996,1,8,0:0:0:0:
254,46,265064,1,0,0:0:0:0:
275,53,265132,1,0,0:0:0:0:
296,60,265201,1,0,0:0:0:0:
317,67,265268,1,0,0:0:0:0:
306,87,265336,1,0,0:0:0:0:
303,109,265405,1,0,0:0:0:0:
303,131,265473,1,0,0:0:0:0:
308,152,265541,1,8,0:0:0:0:
319,171,265609,1,0,0:0:0:0:
337,184,265678,1,0,0:0:0:0:
358,191,265746,1,0,0:0:0:0:
380,192,265814,5,0,0:0:0:0:
389,212,265882,1,0,0:0:0:0:
394,233,265950,1,0,0:0:0:0:
392,255,266018,1,0,0:0:0:0:
384,276,266086,1,8,0:0:0:0:
377,297,266154,1,0,0:0:0:0:
375,319,266222,1,0,0:0:0:0:
380,340,266290,1,0,0:0:0:0:
389,360,266359,1,0,0:0:0:0:
366,354,266428,1,0,0:0:0:0:
343,350,266496,1,0,0:0:0:0:
320,348,266564,1,0,0:0:0:0:
297,352,266632,1,8,0:0:0:0:
274,353,266701,1,0,0:0:0:0:
251,351,266769,1,0,0:0:0:0:
228,347,266837,1,0,0:0:0:0:
205,341,266906,5,0,0:0:0:0:
186,328,266973,1,0,0:0:0:0:
174,308,267041,1,0,0:0:0:0:
169,285,267110,1,0,0:0:0:0:
172,262,267178,1,8,0:0:0:0:
182,242,267246,1,0,0:0:0:0:
199,227,267314,1,0,0:0:0:0:
220,219,267382,1,0,0:0:0:0:
242,218,267450,1,0,0:0:0:0:
242,195,267518,1,0,0:0:0:0:
237,172,267587,1,0,0:0:0:0:
227,151,267655,1,0,0:0:0:0:
211,134,267723,1,8,0:0:0:0:
192,121,267792,1,0,0:0:0:0:
170,115,267860,1,0,0:0:0:0:
147,113,267927,1,0,0:0:0:0:
125,119,267995,5,0,0:0:0:0:
128,96,268064,1,0,0:0:0:0:
137,75,268132,1,0,0:0:0:0:
151,57,268200,1,0,0:0:0:0:
169,43,268269,1,8,0:0:0:0:
190,35,268337,1,0,0:0:0:0:
211,30,268405,1,0,0:0:0:0:
233,29,268473,1,0,0:0:0:0:
255,32,268541,5,2,0:0:0:0:
284,47,268609,1,2,0:0:0:0:
317,52,268677,1,2,0:0:0:0:
351,51,268746,1,2,0:0:0:0:
383,41,268814,5,10,0:0:0:0:
368,70,268882,1,2,0:0:0:0:
363,103,268950,1,2,0:0:0:0:
364,137,269019,1,2,0:0:0:0:
375,168,269087,5,2,0:0:0:0:
371,190,269155,1,0,0:0:0:0:
367,212,269223,1,0,0:0:0:0:
363,234,269291,1,0,0:0:0:0:
359,256,269359,2,0,L|353:288,3,22.5
348,300,269632,1,0,0:0:0:0:
326,304,269700,1,0,0:0:0:0:
304,308,269769,1,0,0:0:0:0:
282,312,269837,1,0,0:0:0:0:
260,316,269905,2,0,L|228:322,3,22.5
215,323,270178,1,0,0:0:0:0:
195,314,270246,1,0,0:0:0:0:
174,304,270315,1,2,0:0:0:0:
154,295,270383,1,0,0:0:0:0:
134,286,270451,2,0,L|104:272,3,22.5
93,265,270723,1,2,0:0:0:0:
89,243,270791,1,0,0:0:0:0:
85,221,270860,1,0,0:0:0:0:
81,199,270928,1,0,0:0:0:0:
77,177,270996,2,0,L|71:145,3,22.5
69,132,271268,5,0,0:0:0:0:
90,136,271336,1,0,0:0:0:0:
112,140,271405,1,0,0:0:0:0:
134,143,271473,1,0,0:0:0:0:
156,147,271541,1,0,0:0:0:0:
178,151,271610,1,0,0:0:0:0:
200,155,271678,1,0,0:0:0:0:
222,159,271746,1,0,0:0:0:0:
244,163,271814,1,0,0:0:0:0:
266,167,271882,1,0,0:0:0:0:
288,171,271950,1,0,0:0:0:0:
310,175,272018,1,0,0:0:0:0:
332,179,272087,1,0,0:0:0:0:
354,183,272155,1,0,0:0:0:0:
376,187,272223,1,0,0:0:0:0:
398,191,272291,1,0,0:0:0:0:
420,195,272360,5,0,0:0:0:0:
411,174,272428,1,0,0:0:0:0:
402,153,272496,1,0,0:0:0:0:
393,131,272564,1,0,0:0:0:0:
384,110,272632,1,0,0:0:0:0:
375,89,272700,1,0,0:0:0:0:
366,68,272768,1,0,0:0:0:0:
358,46,272837,1,0,0:0:0:0:
349,25,272905,5,2,0:0:0:0:
313,53,272973,1,2,0:0:0:0:
269,67,273042,1,2,0:0:0:0:
224,66,273110,1,2,0:0:0:0:
184,45,273177,5,2,0:0:0:0:
139,44,273245,1,2,0:0:0:0:
95,58,273314,1,2,0:0:0:0:
59,86,273382,1,2,0:0:0:0:
