osu file format v14

[General]
AudioFilename: dreamlesswandererThis is Just a Dream220BPM.mp3
AudioLeadIn: 0
PreviewTime: 142103
Countdown: 0
SampleSet: Normal
StackLeniency: 0.2
Mode: 0
LetterboxInBreaks: 0
WidescreenStoryboard: 0

[Editor]
DistanceSpacing: 1
BeatDivisor: 4
GridSize: 32
TimelineZoom: 1.7

[Metadata]
Title:220bpm pack
TitleUnicode:220bpm pack
Artist:Various Artists
ArtistUnicode:Various Artists
Creator:Moting
Version:Dreamless Wanderer
Source:
Tags:
BeatmapID:1465919
BeatmapSetID:692759

[Difficulty]
HPDrainRate:6
CircleSize:3.5
OverallDifficulty:8.5
ApproachRate:9.8
SliderMultiplier:2.1
SliderTickRate:1

[Events]
//Background and Video events
0,0,"BG1.jpg",0,0
//Break Periods
//Storyboard Layer 0 (Background)
//Storyboard Layer 1 (Fail)
//Storyboard Layer 2 (Pass)
//Storyboard Layer 3 (Foreground)
//Storyboard Sound Samples

[TimingPoints]
98,272.7273,4,2,69,35,1,0
829,-400,4,2,69,35,0,0
18966,-400,4,2,69,5,0,0
19374,-400,4,2,69,35,0,0
19511,-400,4,2,69,5,0,0
19920,-400,4,2,69,35,0,0
20056,-400,4,2,69,5,0,0
20465,-400,4,2,69,35,0,0
20602,-400,4,2,69,5,0,0
21011,-400,4,2,69,35,0,0
21148,-400,4,2,69,5,0,0
21557,-400,4,2,69,35,0,0
21693,-400,4,2,69,5,0,0
22101,-400,4,2,69,35,0,0
22238,-400,4,2,69,5,0,0
22647,-400,4,2,69,35,0,0
23875,-400,4,2,69,5,0,0
24284,-400,4,2,69,35,0,0
24420,-400,4,2,69,5,0,0
24829,-400,4,2,69,35,0,0
24965,-400,4,2,69,5,0,0
25374,-400,4,2,69,35,0,0
25511,-400,4,2,69,5,0,0
25920,-400,4,2,69,35,0,0
26056,-400,4,2,69,5,0,0
26466,-400,4,2,69,35,0,0
26602,-400,4,2,69,5,0,0
27011,-200,4,2,69,45,0,0
35193,-200,4,1,1,30,0,0
35329,-200,4,1,1,40,0,0
35465,-200,4,1,1,50,0,0
35601,-200,4,1,1,60,0,0
35738,-83.33334,4,1,1,65,0,0
39556,-133.3333,4,1,1,65,0,0
39829,-100,4,1,1,65,0,0
40102,-83.33334,4,1,1,65,0,0
40852,-153.8462,4,1,1,65,0,0
41192,-133.3333,4,1,1,65,0,0
41465,-83.33334,4,1,1,65,0,0
43375,-200,4,1,1,65,0,0
43647,-133.3333,4,1,1,65,0,0
43920,-100,4,1,1,65,0,0
44056,-90.90909,4,1,1,65,0,0
44192,-83.33334,4,1,1,65,0,0
44329,-76.92308,4,1,1,65,0,0
44465,-83.33334,4,1,1,65,0,0
45829,-71.42857,4,1,1,65,0,0
46034,-133.3333,4,1,1,65,0,0
46511,-100,4,1,1,65,0,0
46647,-83.33334,4,1,1,65,0,0
49920,-133.3333,4,1,1,65,0,0
50466,-100,4,1,1,65,0,0
51011,-83.33334,4,1,1,65,0,0
52101,-200,4,1,1,65,0,0
52374,-133.3333,4,1,1,65,0,0
52647,-100,4,1,1,65,0,0
52784,-90.90909,4,1,1,65,0,0
52920,-83.33334,4,1,1,65,0,0
53056,-76.92308,4,1,1,65,0,0
53466,-76.92308,4,2,1,60,0,0
54692,-200,4,2,1,60,0,0
70647,-133.3333,4,3,1,60,0,0
79374,-133.3333,4,1,1,50,0,0
80466,-133.3333,4,1,1,55,0,0
81556,-133.3333,4,1,1,60,0,0
82647,-133.3333,4,1,1,65,0,0
84284,-111.1111,4,1,1,70,0,0
84829,-90.90909,4,1,1,70,0,0
85374,-83.33334,4,1,1,60,0,0
85511,-76.92308,4,1,1,60,0,0
85647,-71.42857,4,1,1,60,0,0
85784,-66.66666,4,1,1,60,0,0
86057,-200,4,2,1,60,0,0
87556,-200,4,2,1,40,0,0
87692,-200,4,2,1,50,0,0
87829,-200,4,2,1,60,0,0
87965,-200,4,2,1,70,0,0
88102,-71.42857,4,1,1,75,0,1
104329,-166.6667,4,2,1,60,0,1
104465,-166.6667,4,2,1,60,0,0
104602,-142.8571,4,2,1,60,0,0
104738,-125,4,2,1,60,0,0
104875,-111.1111,4,2,1,60,0,0
105011,-100,4,2,1,60,0,0
105147,-90.90909,4,2,1,60,0,0
105557,-71.42857,4,1,1,60,0,0
120829,-200,4,1,1,60,0,0
120897,-200,4,2,1,60,0,0
127102,-142.8571,4,2,1,60,0,0
127375,-200,4,2,1,60,0,0
131738,-200,4,1,1,50,0,0
136102,-166.6667,4,1,1,55,0,0
136647,-125,4,1,1,60,0,0
137193,-100,4,1,1,65,0,0
137738,-83.33334,4,1,1,70,0,0
138284,-71.42857,4,1,1,75,0,0
140466,-200,4,2,1,60,0,0
142102,-71.42857,4,2,1,50,0,0
142238,-71.42857,4,2,1,60,0,0
142374,-71.42857,4,2,1,70,0,0
142511,-71.42857,4,2,1,80,0,0
142647,-71.42857,4,1,1,80,0,1
177556,-71.42857,4,1,1,70,0,0
192829,-200,4,2,1,60,0,0
195011,-83.33334,4,1,1,65,0,0
198829,-133.3333,4,1,1,60,0,0
199102,-100,4,1,1,60,0,0
199920,-83.33334,4,1,1,60,0,0
200125,-200,4,1,1,60,0,0
200466,-133.3333,4,1,1,60,0,0
200739,-83.33334,4,1,1,60,0,0
202647,-133.3333,4,1,1,60,0,0
203193,-200,4,1,1,60,0,0
203738,-83.33334,4,1,1,60,0,0
205102,-71.42857,4,1,1,60,0,0
205375,-133.3333,4,1,1,60,0,0
205784,-100,4,1,1,60,0,0
205920,-71.42857,4,1,1,60,0,0
206193,-83.33334,4,1,1,60,0,0
209193,-133.3333,4,1,1,60,0,0
209738,-100,4,1,1,60,0,0
210283,-83.33334,4,1,1,60,0,0
211375,-133.3333,4,1,1,60,0,0
211920,-200,4,1,1,60,0,0
212465,-200,4,2,1,45,0,0
212602,-200,4,2,69,45,0,0
225693,-200,4,2,69,35,0,0
229920,-400,4,2,69,30,0,0
247375,-400,4,2,69,5,0,0
248465,-400,4,2,69,20,0,0
248806,-400,4,2,69,5,0,0
248823,-400,4,2,69,30,0,0
248875,-400,4,2,69,5,0,0
248891,-400,4,2,69,30,0,0
249761,-400,4,2,69,50,0,0
249966,-400,4,2,69,30,0,0
250034,-400,4,2,69,10,0,0
250306,-400,4,2,69,30,0,0
250715,-400,4,2,69,70,0,0
250920,-400,4,2,69,30,0,0
250937,-400,4,2,69,30,0,0
250954,-400,4,2,69,30,0,0
250971,-400,4,2,69,30,0,0
250988,-400,4,2,69,75,0,0
251006,-400,4,2,69,5,0,0
251022,-400,4,2,69,75,0,0
251040,-400,4,2,69,5,0,0
251056,-400,4,2,69,90,0,0
251074,-400,4,2,69,5,0,0
251090,-400,4,2,69,30,0,0
251108,-400,4,2,69,5,0,0
251124,-400,4,2,69,30,0,0
251142,-400,4,2,69,5,0,0
251159,-400,4,2,69,30,0,0
251176,-400,4,2,69,5,0,0
251193,-400,4,2,69,50,0,0
251465,-400,4,2,69,70,0,0
251875,-400,4,2,69,42,0,0
251897,-400,4,2,69,5,0,0
251920,-400,4,2,69,42,0,0
251943,-400,4,2,69,5,0,0
251966,-400,4,2,69,42,0,0
251988,-400,4,2,69,5,0,0
252011,-400,4,2,69,42,0,0
252028,-400,4,2,69,5,0,0
252045,-400,4,2,69,42,0,0
252062,-400,4,2,69,5,0,0
252079,-400,4,2,69,42,0,0
252096,-400,4,2,69,5,0,0
252113,-400,4,2,69,42,0,0
252130,-400,4,2,69,5,0,0
252148,-400,4,2,69,42,0,0
252164,-400,4,2,69,5,0,0
252182,-400,4,2,69,42,0,0
252250,-400,4,2,69,42,0,0
252266,-400,4,2,69,5,0,0
252284,-400,4,2,69,32,0,0
252300,-400,4,2,69,5,0,0
252318,-400,4,2,69,32,0,0
252335,-400,4,2,69,5,0,0
252352,-400,4,2,69,42,0,0
252369,-400,4,2,69,5,0,0
252386,-400,4,2,69,42,0,0
252403,-400,4,2,69,5,0,0
252420,-400,4,2,69,42,0,0
252437,-400,4,2,69,5,0,0
252466,-400,4,2,69,42,0,0
252489,-400,4,2,69,5,0,0
252511,-400,4,2,69,42,0,0
252534,-400,4,2,69,5,0,0
252557,-400,4,2,69,42,0,0
252579,-400,4,2,69,5,0,0
252602,-400,4,2,69,42,0,0
252625,-400,4,2,69,10,0,0
253033,-400,4,2,69,42,0,0
253056,-400,4,2,69,5,0,0
253079,-400,4,2,69,42,0,0
253101,-400,4,2,69,5,0,0
253124,-400,4,2,69,42,0,0
253147,-400,4,2,69,5,0,0
253170,-400,4,2,69,42,0,0
253192,-400,4,2,69,5,0,0
253215,-400,4,2,69,42,0,0
253238,-400,4,2,69,5,0,0
253261,-400,4,2,69,42,0,0
253283,-400,4,2,69,5,0,0
253306,-400,4,2,69,42,0,0
253324,-400,4,2,69,5,0,0
253340,-400,4,2,69,42,0,0
253358,-400,4,2,69,5,0,0
253374,-400,4,2,69,42,0,0
253392,-400,4,2,69,5,0,0
253408,-400,4,2,69,42,0,0
253426,-400,4,2,69,5,0,0
253442,-400,4,2,69,70,0,0
253460,-400,4,2,69,5,0,0
253477,-400,4,2,69,70,0,0
253494,-400,4,2,69,5,0,0
253511,-400,4,2,69,50,0,0
253528,-400,4,2,69,5,0,0
253545,-400,4,2,69,30,0,0
253579,-400,4,2,69,5,0,0
253602,-400,4,2,69,30,0,0
253647,-400,4,2,69,70,0,0
253670,-400,4,2,69,70,0,0
253693,-400,4,2,69,5,0,0
253715,-400,4,2,69,5,0,0
253738,-400,4,2,69,5,0,0
253761,-400,4,2,69,30,0,0
253783,-400,4,2,69,5,0,0
253806,-400,4,2,69,30,0,0
253829,-400,4,2,69,5,0,0
253852,-400,4,2,69,30,0,0
253874,-400,4,2,69,5,0,0
253897,-400,4,2,69,30,0,0
253920,-400,4,2,69,5,0,0
253943,-400,4,2,69,30,0,0
253965,-400,4,2,69,5,0,0
253988,-400,4,2,69,30,0,0
254011,-400,4,2,69,5,0,0
254034,-400,4,2,69,42,0,0
254056,-400,4,2,69,20,0,0
254079,-400,4,2,69,10,0,0
254102,-400,4,2,69,42,0,0
254125,-400,4,2,69,20,0,0
254147,-400,4,2,69,10,0,0
254170,-400,4,2,69,42,0,0
254193,-400,4,2,69,10,0,0
254215,-400,4,2,69,42,0,0
254238,-400,4,2,69,5,0,0
254261,-400,4,2,69,42,0,0
254284,-400,4,2,69,20,0,0
254306,-400,4,2,69,10,0,0
254329,-400,4,2,69,42,0,0
254352,-400,4,2,69,20,0,0
254375,-400,4,2,69,10,0,0
254397,-400,4,2,69,42,0,0
254414,-400,4,2,69,5,0,0
254431,-400,4,2,69,42,0,0
254448,-400,4,2,69,5,0,0
254466,-400,4,2,69,42,0,0
254482,-400,4,2,69,5,0,0
254500,-400,4,2,69,42,0,0
254516,-400,4,2,69,5,0,0
254534,-400,4,2,69,90,0,0
254550,-400,4,2,69,5,0,0
254568,-400,4,2,69,42,0,0
254584,-400,4,2,69,5,0,0
254602,-400,4,2,69,20,0,0
254670,-400,4,2,69,42,0,0
254687,-400,4,2,69,5,0,0
254704,-400,4,2,69,42,0,0
254721,-400,4,2,69,5,0,0
254738,-400,4,2,69,42,0,0
254755,-400,4,2,69,5,0,0
254772,-400,4,2,69,42,0,0
254789,-400,4,2,69,5,0,0
254807,-400,4,2,69,42,0,0
254823,-400,4,2,69,5,0,0
254841,-400,4,2,69,50,0,0
254857,-400,4,2,69,5,0,0
254875,-400,4,2,69,50,0,0
254891,-400,4,2,69,5,0,0
254909,-400,4,2,69,50,0,0
254925,-400,4,2,69,5,0,0
254943,-400,4,2,69,50,0,0
254960,-400,4,2,69,5,0,0
254977,-400,4,2,69,50,0,0
255011,-400,4,2,69,5,0,0

[HitObjects]
100,233,916,6,0,B|111:187|159:170|159:170|126:126|128:77|162:30|211:22|240:27|240:27|238:105|317:125|355:92|344:38|265:71|240:140|240:140|255:179|244:202|225:227,1,630
286,260,5280,6,0,B|297:313|420:370|493:237|431:166|359:153|359:153|418:150|489:112|489:112|382:118|339:82|341:63,1,630
363,243,9643,6,0,B|347:182|284:167|242:193|242:193|181:252|181:252|171:232|246:162|219:50|207:25|132:52|122:118|231:107|231:107|285:94|310:101,1,630
285,259,14007,6,0,B|301:217|296:159|296:159|356:230|290:322|290:322|331:299|373:318|373:318|394:289|436:292|436:292|458:220|398:191|398:191|389:159|371:131|371:131|359:112|342:95|342:95|303:73|253:69|228:109|219:133|217:166,1,840
128,277,18916,6,0,L|134:242,1,26.25
212,247,19461,2,0,L|218:212,1,26.25
286,304,20007,2,0,L|292:269,1,26.25
226,141,20552,6,0,L|232:106,1,26.25
310,111,21098,2,0,L|314:73,1,26.25
384,168,21643,2,0,L|390:133,1,26.25
472,129,22188,2,0,L|478:94,1,26.25
388,249,22734,5,0,0:0:0:0:
411,47,23280,1,2,0:0:0:0:
411,47,23553,1,0,0:0:0:0:
388,249,23825,6,0,L|385:286,1,26.25
298,204,24371,2,0,L|295:241,1,26.25
372,126,24916,6,0,L|369:163,1,26.25
282,81,25462,2,0,L|279:118,1,26.25
195,121,26007,2,0,L|192:158,1,26.25
105,76,26553,2,0,L|102:113,1,26.25
267,316,27098,5,0,0:0:0:0:
267,316,27234,1,0,0:0:0:0:
267,316,27370,2,0,L|358:327,2,78.75
193,245,27916,2,0,L|127:255,1,52.5
0,239,28189,6,0,L|51:231,1,52.5
51,231,28461,1,0,0:0:0:0:
56,79,28666,2,0,L|4:83,1,52.5
129,145,28939,2,0,P|154:96|150:56,1,78.75
107,14,29280,6,0,L|169:20,1,52.5
253,25,29553,1,0,0:0:0:0:
321,173,29757,2,0,L|408:167,1,78.75
489,164,30098,1,0,0:0:0:0:
489,164,30234,1,0,0:0:0:0:
366,347,30507,5,0,0:0:0:0:
366,347,30643,1,0,0:0:0:0:
242,220,30848,2,0,P|236:253|238:278,1,52.5
226,348,31121,2,0,P|241:298|230:253,1,78.75
142,190,31462,5,0,0:0:0:0:
142,190,31598,1,0,0:0:0:0:
142,190,31734,2,0,B|132:150|132:150|134:96,2,78.75
243,218,32280,1,0,0:0:0:0:
243,218,32416,1,0,0:0:0:0:
329,75,32689,5,0,0:0:0:0:
329,75,32825,1,0,0:0:0:0:
429,22,33029,2,0,P|435:55|433:80,1,52.5
445,150,33302,2,0,P|430:100|441:55,1,78.75
256,192,33780,12,0,35144,0:0:0:0:
289,33,35280,5,2,0:0:0:0:
253,6,35348,1,2,0:0:0:0:
208,3,35416,1,2,0:0:0:0:
164,10,35484,1,2,0:0:0:0:
137,45,35552,5,2,0:0:0:0:
140,62,35620,1,2,0:0:0:0:
143,79,35688,1,2,0:0:0:0:
146,97,35757,1,2,0:0:0:0:
211,149,35825,6,0,B|247:163|263:186|263:186|302:190|330:202|330:202|350:165|350:165|307:112|307:112,1,189
129,138,36098,2,0,P|130:169|145:196,1,63
234,324,36234,1,0,0:0:0:0:
283,332,36302,1,0,0:0:0:0:
332,342,36370,1,8,0:0:0:0:
125,350,36507,1,0,0:0:0:0:
332,342,36643,2,0,P|371:349|401:345,1,63
485,237,36780,2,0,P|459:140|403:223,1,252
307,184,37189,6,0,B|444:192|444:192|379:240,1,189
228,174,37462,2,0,B|220:142|220:142|230:109|230:109|223:20,1,126
304,60,37666,2,0,B|308:118|308:118|298:151|298:151|306:183,1,126
87,76,37871,2,0,P|136:53|198:73,1,63
304,60,38007,5,2,0:0:0:0:
92,260,38143,2,0,P|85:230|101:183,1,63
169,235,38280,1,0,0:0:0:0:
168,285,38348,1,0,0:0:0:0:
135,324,38416,1,0,0:0:0:0:
86,337,38484,1,0,0:0:0:0:
39,318,38552,1,8,0:0:0:0:
271,251,38689,2,0,B|333:224|380:274|380:274|342:210|385:172|430:177|430:177|467:199|498:196,1,315
478,195,39098,5,0,0:0:0:0:
312,321,39234,1,0,0:0:0:0:
246,68,39371,2,0,B|241:106|241:106|258:153|258:153|252:186|252:186|271:253,1,189
355,88,39643,6,0,L|354:31,1,39.375
441,102,39780,2,0,L|440:45,1,39.375
169,235,39916,6,0,L|167:182,1,52.5
270,250,40053,2,0,L|268:197,1,52.5
108,368,40189,5,2,0:0:0:0:
169,235,40325,1,0,0:0:0:0:
269,344,40462,1,0,0:0:0:0:
70,184,40598,2,0,L|66:142,3,31.5
96,111,40734,6,0,P|173:135|242:81,1,126
277,263,40939,6,0,L|197:281,1,68.25
87,320,41143,1,0,0:0:0:0:
87,320,41279,6,0,B|77:281|77:281|85:229|85:229|76:179,1,118.125
33,118,41552,6,0,L|139:106,1,63
219,51,41689,2,0,L|113:39,1,63
39,21,41825,1,8,0:0:0:0:
192,257,41961,1,0,0:0:0:0:
201,280,42030,1,0,0:0:0:0:
212,302,42098,2,0,P|280:272|295:207,1,126
358,67,42371,6,0,B|379:114|352:159|352:159|400:196|375:290,1,189
218,115,42644,2,0,L|286:106,1,63
447,93,42780,1,0,0:0:0:0:
379,326,42916,1,8,0:0:0:0:
450,155,43053,2,0,P|444:78|434:45,1,63
296,227,43189,2,0,P|302:304|312:337,1,63
118,141,43394,1,0,0:0:0:0:
118,141,43462,6,0,B|96:137|79:129|79:129|24:131,1,78.75
146,36,43734,6,0,B|194:22|194:22|223:33|277:28,1,118.125
62,207,44007,6,0,B|33:211|33:211|-40:217,1,52.5
218,115,44143,6,0,L|301:106,1,57.75
66,53,44279,6,0,L|-30:48,1,63
210,200,44416,6,0,L|317:209,1,68.25
372,132,44552,6,0,P|381:203|506:215,1,189
279,206,44825,2,0,P|235:202|184:204,1,63
451,156,44962,1,0,0:0:0:0:
461,140,45030,1,0,0:0:0:0:
472,124,45098,1,8,0:0:0:0:
365,316,45234,5,0,0:0:0:0:
287,122,45371,2,0,P|299:82|345:47,1,63
158,282,45507,2,0,P|117:291|64:269,1,63
15,250,45644,1,0,0:0:0:0:
286,122,45916,6,0,P|344:122|390:127,1,73.5
195,178,46053,2,0,P|137:178|91:173,1,73.5
358,229,46189,6,0,B|383:225|415:239|415:239|452:234|463:247,1,78.75
286,286,46393,2,0,B|267:286|241:297|241:297|177:297,1,78.75
365,316,46598,6,0,L|453:338,1,52.5
254,201,46734,6,0,B|212:181|176:197|176:197|133:177|108:196|108:196|83:184|43:197,1,189
201,78,47007,1,0,0:0:0:0:
247,97,47075,1,0,0:0:0:0:
297,100,47143,1,0,0:0:0:0:
342,79,47211,1,0,0:0:0:0:
375,40,47280,2,0,L|394:127,1,63
306,283,47416,2,0,B|296:234|296:234|313:176|313:176|294:89,1,189
281,17,47689,1,0,0:0:0:0:
380,236,47825,5,0,0:0:0:0:
219,175,47962,1,0,0:0:0:0:
508,147,48098,2,0,L|513:44,1,63
376,173,48234,2,0,L|380:236,1,63
477,272,48371,5,8,0:0:0:0:
498,303,48439,1,0,0:0:0:0:
493,340,48507,1,0,0:0:0:0:
457,354,48576,1,0,0:0:0:0:
386,302,48644,5,0,0:0:0:0:
335,299,48712,1,0,0:0:0:0:
284,298,48780,1,0,0:0:0:0:
233,296,48848,1,0,0:0:0:0:
158,343,48916,6,0,P|197:274|111:294,1,189
274,359,49189,2,0,P|284:307|280:277,1,63
254,119,49325,2,0,L|247:88,3,31.5
282,136,49461,6,0,B|384:138|384:138|341:189,1,126
160,104,49666,2,0,B|58:106|58:106|101:157,1,126
334,236,49870,2,0,P|374:242|423:232,1,63
157,213,50007,6,0,P|113:201|151:227,1,118.125
234,186,50280,2,0,P|238:205|238:224,1,39.375
73,301,50416,2,0,P|73:361|76:369,1,39.375
353,291,50553,6,0,P|366:220|330:272,1,157.5
368,373,50825,2,0,P|413:365|449:336,1,52.5
359,143,50962,2,0,P|314:151|278:180,1,52.5
474,301,51098,6,0,B|473:261|494:227|494:227|467:160|489:102,1,189
323,49,51371,2,0,P|359:58|420:58,1,63
481,14,51507,1,0,0:0:0:0:
234,186,51643,1,8,0:0:0:0:
60,42,51780,2,0,P|56:75|62:114,1,63
239,64,51916,2,0,P|243:31|237:-8,1,63
94,306,52120,1,0,0:0:0:0:
94,306,52188,6,0,B|135:316|135:316|188:310,1,78.75
350,179,52461,6,0,P|287:174|217:191,1,118.125
29,224,52734,2,0,P|91:205|112:186,1,52.5
322,255,52871,6,0,P|267:258|244:267,1,57.75
180,50,53007,6,0,P|194:88|234:122,1,63
202,372,53143,6,0,P|181:322|144:292,1,68.25
27,143,53280,1,4,0:0:0:0:
27,143,53689,5,2,0:0:0:0:
266,42,54098,1,2,0:0:0:0:
266,42,54779,6,0,P|269:100|271:159,1,105
276,238,55189,1,2,0:0:0:0:
360,74,55461,6,0,L|364:178,1,105
454,97,55871,2,0,L|459:214,1,105
464,292,56280,1,2,0:0:0:0:
464,292,56826,5,0,0:0:0:0:
380,279,56962,2,0,P|397:350|435:376,1,105
298,264,57370,2,0,P|261:258|225:259,1,52.5
151,330,57643,6,0,L|155:222,1,105
246,257,58052,2,0,L|250:149,1,105
255,61,58462,1,2,0:0:0:0:
255,61,59007,5,0,0:0:0:0:
167,100,59144,2,0,B|93:73|93:134|13:88,1,157.5
37,263,59825,6,0,P|89:266|151:245,1,105
166,180,60234,2,0,P|173:243|255:283,1,157.5
425,163,60916,6,0,P|373:166|311:145,1,105
423,22,61393,1,0,0:0:0:0:
423,22,61462,2,0,L|425:86,1,52.5
429,255,61734,1,0,0:0:0:0:
429,255,62007,6,0,L|316:261,1,105
291,332,62416,1,0,0:0:0:0:
291,332,62484,2,0,L|325:256,1,78.75
353,171,62825,1,0,0:0:0:0:
121,107,63098,6,0,L|234:113,1,105
259,184,63507,1,0,0:0:0:0:
259,184,63576,2,0,L|225:108,1,78.75
197,23,63917,1,0,0:0:0:0:
120,285,64189,6,0,P|144:336|204:351,1,105
160,204,64598,1,0,0:0:0:0:
160,204,64666,2,0,P|123:197|61:215,1,78.75
30,273,65007,1,0,0:0:0:0:
273,207,65280,6,0,P|249:258|189:273,1,105
233,126,65688,1,0,0:0:0:0:
233,126,65756,2,0,P|270:119|332:137,1,78.75
363,195,66097,1,0,0:0:0:0:
363,300,66371,6,0,L|363:170,1,105
357,54,66848,1,0,0:0:0:0:
357,54,66916,2,0,L|360:119,1,52.5
363,300,67189,1,0,0:0:0:0:
272,142,67462,6,0,L|384:207,1,105
488,259,67939,1,0,0:0:0:0:
488,259,68007,2,0,L|430:229,1,52.5
272,142,68279,1,0,0:0:0:0:
272,142,68416,1,2,0:0:0:0:
453,142,68552,6,0,L|340:207,1,105
243,270,69029,1,0,0:0:0:0:
243,270,69097,2,0,L|297:234,1,52.5
453,142,69370,1,0,0:0:0:0:
93,312,69643,6,0,B|81:271|81:271|87:189,1,105
6,304,70121,2,0,L|30:372,1,52.5
188,63,70734,6,0,L|291:54,1,78.75
176,83,71007,1,8,0:0:0:0:
348,21,71143,1,2,0:0:0:0:
288,187,71279,2,0,L|185:178,1,78.75
17,113,71552,2,0,L|120:104,1,78.75
242,260,71825,6,0,L|139:251,1,78.75
254,280,72098,1,8,0:0:0:0:
82,218,72234,1,2,0:0:0:0:
142,384,72370,2,0,L|245:375,1,78.75
413,310,72643,2,0,L|310:301,1,78.75
448,8,72916,6,0,P|463:61|447:118,1,78.75
397,187,73189,1,8,0:0:0:0:
397,187,73325,1,2,0:0:0:0:
299,67,73462,2,0,P|284:120|300:177,1,78.75
488,171,73734,2,0,P|503:224|487:281,1,78.75
137,83,74007,6,0,P|122:136|138:193,1,78.75
188,262,74280,1,8,0:0:0:0:
188,262,74417,1,2,0:0:0:0:
286,142,74553,2,0,P|301:195|285:252,1,78.75
97,246,74826,2,0,P|82:299|98:356,1,78.75
394,346,75098,6,0,L|398:239,1,78.75
402,169,75371,1,8,0:0:0:0:
484,223,75507,1,2,0:0:0:0:
309,305,75644,2,0,L|313:198,1,78.75
482,123,75916,2,0,L|486:16,1,78.75
228,21,76189,6,0,L|224:128,1,78.75
220,198,76461,1,8,0:0:0:0:
138,144,76597,1,2,0:0:0:0:
313,62,76734,2,0,L|309:169,1,78.75
140,244,77006,2,0,L|136:351,1,78.75
440,238,77280,6,0,B|399:228|399:228|346:227,1,78.75
278,289,77552,1,8,0:0:0:0:
278,289,77689,1,2,0:0:0:0:
441,159,77825,2,0,L|439:257,1,78.75
276,367,78098,2,0,L|278:269,1,78.75
198,98,78371,6,0,B|239:88|239:88|292:87,1,78.75
360,149,78643,1,8,0:0:0:0:
360,149,78780,1,2,0:0:0:0:
197,19,78916,2,0,L|199:117,1,78.75
362,227,79188,2,0,L|360:129,1,78.75
85,143,79461,5,8,0:0:0:0:
64,272,79598,1,2,0:0:0:0:
175,85,79734,1,8,0:0:0:0:
196,214,79871,1,2,0:0:0:0:
310,162,80007,5,8,0:0:0:0:
289,291,80144,1,2,0:0:0:0:
390,101,80280,1,8,0:0:0:0:
411,230,80417,1,2,0:0:0:0:
481,45,80553,5,8,0:0:0:0:
293,20,80689,1,2,0:0:0:0:
482,61,80825,1,8,0:0:0:0:
305,166,80961,1,2,0:0:0:0:
483,78,81098,5,8,0:0:0:0:
293,20,81235,1,2,0:0:0:0:
483,90,81371,1,8,0:0:0:0:
305,166,81507,1,2,0:0:0:0:
436,313,81643,6,0,L|437:271,1,39.375
442,190,81780,1,2,0:0:0:0:
311,289,81916,2,0,L|310:247,1,39.375
305,166,82052,1,2,0:0:0:0:
186,335,82189,6,0,L|187:293,1,39.375
192,212,82325,1,2,0:0:0:0:
71,318,82462,2,0,L|70:276,1,39.375
65,195,82598,1,2,0:0:0:0:
164,32,82734,6,0,L|236:35,1,39.375
388,36,82871,1,2,0:0:0:0:
392,60,83007,6,0,L|320:63,1,39.375
155,112,83144,1,2,0:0:0:0:
154,137,83280,6,0,L|226:140,1,39.375
398,141,83417,1,2,0:0:0:0:
399,164,83553,6,0,L|327:167,1,39.375
152,210,83689,2,0,L|224:213,1,39.375
366,329,83825,5,8,0:0:0:0:
366,329,83894,1,2,0:0:0:0:
366,329,83962,2,0,L|438:332,1,39.375
181,267,84098,1,8,0:0:0:0:
165,264,84166,1,2,0:0:0:0:
149,259,84234,2,0,L|77:262,1,39.375
360,219,84371,5,8,0:0:0:0:
387,215,84439,1,2,0:0:0:0:
414,209,84507,2,0,L|507:213,1,47.25
220,173,84643,1,8,0:0:0:0:
181,163,84711,1,2,0:0:0:0:
142,154,84779,2,0,L|74:156,1,47.25
346,112,84916,5,8,0:0:0:0:
396,103,84984,1,2,0:0:0:0:
445,89,85052,2,0,L|521:91,1,57.75
230,60,85189,5,8,0:0:0:0:
167,52,85257,1,2,0:0:0:0:
105,39,85325,2,0,L|23:42,1,57.75
444,90,85461,6,0,P|485:95|527:93,1,63
142,154,85598,6,0,P|106:158|55:158,1,68.25
414,209,85734,6,0,P|456:214|502:212,1,73.5
149,259,85871,6,0,P|99:264|29:258,1,78.75
382,330,86007,1,2,0:0:0:0:
245,170,86144,6,0,L|241:128,1,26.25
230,60,86280,1,2,0:0:0:0:
300,314,86416,6,0,L|297:340,1,26.25
331,179,86553,2,0,L|327:137,1,26.25
316,69,86689,1,2,0:0:0:0:
384,303,86826,6,0,L|381:329,1,26.25
416,144,86962,2,0,L|412:102,1,26.25
401,34,87098,1,2,0:0:0:0:
471,303,87234,6,0,L|473:334,1,26.25
502,161,87371,2,0,L|498:119,1,26.25
487,51,87507,1,2,0:0:0:0:
301,293,87643,5,2,0:0:0:0:
277,293,87711,1,2,0:0:0:0:
253,293,87779,1,2,0:0:0:0:
229,293,87848,1,2,0:0:0:0:
148,244,87916,5,2,0:0:0:0:
196,262,87984,1,2,0:0:0:0:
248,259,88052,1,2,0:0:0:0:
293,231,88121,1,2,0:0:0:0:
240,114,88189,6,0,P|170:131|246:124,1,220.5
165,17,88462,2,0,B|118:13|118:13|36:23,1,73.5
23,130,88598,1,0,0:0:0:0:
23,130,88666,2,0,B|6:206|15:249|15:249|46:209|81:188,1,147
111,149,88871,1,2,0:0:0:0:
159,334,89007,2,0,P|98:320|67:299,1,73.5
32,228,89144,1,0,0:0:0:0:
265,113,89280,6,0,B|292:225|292:225|180:175,1,220.5
271,42,89553,2,0,P|286:114|293:46,1,147
442,96,89757,2,0,P|427:168|420:100,1,147
306,99,89961,1,2,0:0:0:0:
316,328,90098,2,0,B|337:333|356:351|356:351|379:348|400:323|400:323|451:361|487:334|481:288|424:263,1,220.5
276,253,90370,6,0,P|242:285|253:378,1,147
264,231,90643,2,0,P|202:233|160:220,1,73.5
104,147,90780,1,0,0:0:0:0:
108,172,90848,2,0,B|147:205|147:205|229:219|264:116,1,147
306,99,91052,1,2,0:0:0:0:
50,64,91189,2,0,B|46:121|46:121|77:185|77:185|74:284,1,220.5
108,360,91462,6,0,P|75:276|164:294,1,220.5
218,360,91734,2,0,B|210:323|210:323|210:239,1,73.5
200,165,91871,1,0,0:0:0:0:
204,186,91939,2,0,B|245:215|245:215|380:227,1,147
444,235,92144,1,2,0:0:0:0:
499,51,92280,2,0,B|461:45|436:57|412:86|412:86|398:65|373:52|373:52|336:67|301:49|346:-5,1,220.5
326,28,92552,6,0,B|326:131|326:131|306:208,1,147
53,293,92825,2,0,P|93:279|140:289,1,73.5
299,306,92961,1,0,0:0:0:0:
313,319,93029,2,0,B|319:256|319:256|311:212|311:212|319:116,1,147
326,28,93234,1,2,0:0:0:0:
222,259,93370,1,8,0:0:0:0:
444,235,93507,1,0,0:0:0:0:
192,54,93643,6,0,P|139:48|87:54,1,73.5
43,117,93780,1,0,0:0:0:0:
222,259,93916,2,0,B|264:220|245:153|245:153|259:91,1,147
136,278,94121,2,0,B|148:333|216:350|216:350|262:394,1,147
162,194,94325,1,2,0:0:0:0:
362,298,94462,2,0,P|422:268|334:136,1,220.5
361,218,94735,6,0,B|474:244|474:244|523:235,1,147
187,8,95007,2,0,P|187:72|196:118,1,73.5
267,196,95143,1,0,0:0:0:0:
289,213,95212,2,0,B|323:230|361:218|361:218|304:296|185:235,1,220.5
44,303,95552,2,0,L|126:294,1,73.5
276,354,95688,1,0,0:0:0:0:
180,133,95825,6,0,B|190:93|219:72|219:72|194:46|179:-25,1,147
104,236,96098,1,8,0:0:0:0:
112,255,96166,2,0,B|149:264|149:264|207:252,1,73.5
333,140,96302,1,2,0:0:0:0:
319,154,96371,2,0,B|249:163|249:163|172:130,1,147
447,40,96643,5,8,0:0:0:0:
455,68,96712,1,2,0:0:0:0:
456,97,96780,1,2,0:0:0:0:
448,125,96849,1,2,0:0:0:0:
398,195,96916,6,0,P|391:261|427:178,1,294
188,304,97325,1,0,0:0:0:0:
193,321,97394,2,0,B|242:344|242:344|321:323|368:347,1,147
319,154,97598,2,0,P|284:186|317:194,1,73.5
397,196,97735,1,8,0:0:0:0:
223,68,97871,1,0,0:0:0:0:
112,255,98007,6,0,B|148:203|132:137|132:137|104:98|118:34,1,220.5
8,162,98279,2,0,P|12:203|11:159,1,147
36,290,98484,2,0,P|71:328|189:266,1,147
209,255,98689,1,2,0:0:0:0:
413,325,98825,2,0,B|239:333|239:333|266:320|300:276,1,220.5
335,239,99098,6,0,P|241:224|208:255,1,147
426,238,99371,2,0,B|431:203|431:203|429:142,1,73.5
346,72,99507,1,0,0:0:0:0:
351,94,99575,2,0,B|412:118|412:118|462:119|498:84,1,147
512,11,99780,1,2,0:0:0:0:
251,21,99916,2,0,B|159:82|159:82|256:146,1,220.5
311,195,100189,6,0,P|256:142|279:235,1,220.5
383,198,100462,2,0,P|349:192|289:200,1,73.5
132,225,100598,1,0,0:0:0:0:
111,240,100666,2,0,B|60:254|9:242|9:242|49:196,1,147
116,116,100870,1,2,0:0:0:0:
167,333,101007,2,0,B|231:334|275:313|275:313|323:335|390:338,1,220.5
507,265,101279,6,0,P|438:232|383:341,1,220.5
507,265,101552,2,0,B|508:229|508:229|499:177,1,73.5
430,91,101689,1,0,0:0:0:0:
417,109,101757,2,0,B|383:98|347:112|347:112|292:127|231:85,1,147
191,44,101962,1,2,0:0:0:0:
376,264,102098,2,0,P|387:223|377:173,1,73.5
313,35,102234,1,0,0:0:0:0:
150,201,102371,6,0,B|304:218|304:218|210:167,1,220.5
116,286,102644,2,0,B|13:298|13:298|59:256,1,147
171,353,102848,2,0,B|274:365|274:365|228:323,1,147
116,286,103053,1,2,0:0:0:0:
191,44,103189,2,0,P|269:71|196:194,1,220.5
207,118,103461,6,0,B|344:100|344:100|435:120,1,220.5
375,256,103734,2,0,P|355:212|362:153,1,73.5
509,143,103870,2,0,P|480:182|426:205,1,73.5
281,267,104007,1,2,0:0:0:0:
424,117,104143,1,2,0:0:0:0:
480,317,104280,1,2,0:0:0:0:
202,254,104416,5,0,0:0:0:0:
196,263,104484,1,0,0:0:0:0:
189,271,104552,2,0,L|190:319,1,31.5
282,224,104689,6,0,L|287:288,1,36.75
126,172,104825,6,0,L|130:236,1,42
289,134,104962,6,0,L|298:211,1,47.25
52,66,105098,6,0,L|57:152,1,52.5
295,45,105234,6,0,L|300:130,1,57.75
19,239,105371,5,2,0:0:0:0:
9,313,105439,1,2,0:0:0:0:
59,367,105507,1,2,0:0:0:0:
130,345,105575,1,2,0:0:0:0:
165,278,105644,6,0,B|166:168|166:168|140:207,1,147
318,349,105916,1,8,0:0:0:0:
339,330,105984,2,0,P|387:334|427:322,1,73.5
362,240,106121,2,0,B|314:238|286:255|286:255|332:192|392:197,1,147
432,178,106325,1,2,0:0:0:0:
234,344,106461,2,0,B|254:200|254:200|306:101,1,220.5
350,58,106734,6,0,P|269:104|212:71,1,147
44,11,107007,1,8,0:0:0:0:
32,27,107075,2,0,L|28:112,1,73.5
3,171,107211,2,0,B|57:122|96:132|96:132|160:180,1,147
140,227,107416,2,0,P|126:176|147:123,1,73.5
191,22,107552,1,8,0:0:0:0:
249,11,107621,1,0,0:0:0:0:
306,20,107689,1,0,0:0:0:0:
350,58,107757,1,0,0:0:0:0:
346,153,107825,6,0,B|340:207|340:207|358:323,1,147
350,58,108098,1,8,0:0:0:0:
240,271,108235,1,0,0:0:0:0:
256,294,108303,2,0,B|354:299|354:299|326:343,1,147
173,317,108507,2,0,P|161:255|184:208,1,73.5
204,164,108644,2,0,B|276:179|276:179|347:154|347:154|437:172,1,220.5
490,83,108916,6,0,P|486:43|457:99,1,147
495,307,109188,1,8,0:0:0:0:
500,323,109257,2,0,L|401:330,1,73.5
350,227,109393,2,0,P|411:254|419:344,1,147
356,384,109598,1,2,0:0:0:0:
362,86,109734,2,0,B|395:83|395:83|435:87,1,73.5
240,167,109871,2,0,B|206:164|206:164|166:168,1,73.5
127,239,110007,6,0,B|141:145|141:145|97:43,1,147
31,313,110280,1,8,0:0:0:0:
43,336,110348,2,0,P|91:325|141:330,1,73.5
163,382,110484,2,0,P|185:304|257:308,1,147
323,333,110689,1,2,0:0:0:0:
127,239,110825,2,0,B|68:215|7:227|7:227|64:190|99:191,1,220.5
165,139,111098,6,0,B|92:144|92:144|-10:133,1,147
211,66,111371,1,8,0:0:0:0:
228,82,111439,2,0,P|247:132|234:184,1,73.5
199,211,111575,2,0,B|272:206|272:206|374:217,1,147
412,130,111779,2,0,L|321:120,1,73.5
301,293,111916,1,8,0:0:0:0:
358,305,111984,1,0,0:0:0:0:
409,277,112052,1,0,0:0:0:0:
434,224,112120,1,0,0:0:0:0:
412,130,112189,6,0,B|409:26|409:26|357:103,1,147
301,293,112461,1,8,0:0:0:0:
308,314,112530,2,0,L|408:330,1,73.5
218,332,112666,2,0,B|109:350|109:350|151:306,1,147
206,254,112871,1,2,0:0:0:0:
95,191,113007,2,0,P|95:272|151:335,1,147
181,144,113280,6,0,B|85:172|2:151|2:151|60:137|63:128,1,220.5
250,102,113553,2,0,B|310:118|355:115|355:115|294:68,1,147
182,66,113757,2,0,B|122:82|77:79|77:79|138:32,1,147
247,20,113962,1,2,0:0:0:0:
228,190,114098,2,0,L|232:232,6,36.75
250,102,114370,5,0,0:0:0:0:
301,282,114507,1,0,0:0:0:0:
373,86,114643,2,0,B|435:74|435:74|490:73|530:122,1,147
444,158,114848,2,0,B|360:171|360:171|439:204,1,147
492,239,115052,1,2,0:0:0:0:
232,227,115189,2,0,P|229:317|346:349,1,220.5
303,274,115461,5,2,0:0:0:0:
117,286,115598,2,0,B|114:250|114:250|127:185,1,73.5
194,60,115734,1,8,0:0:0:0:
194,90,115803,2,0,P|123:124|83:105,1,73.5
41,76,115939,2,0,B|28:158|28:158|39:231,1,147
119,285,116144,2,0,L|131:200,1,73.5
194,60,116280,1,8,0:0:0:0:
250,76,116348,1,0,0:0:0:0:
281,125,116416,1,0,0:0:0:0:
288,186,116485,1,0,0:0:0:0:
240,260,116553,6,0,B|298:220|366:242|366:242|325:298,1,147
250,76,116825,1,8,0:0:0:0:
266,47,116893,2,0,B|304:44|304:44|363:51,1,73.5
361,126,117030,2,0,P|357:78|456:18,1,147
438,98,117234,1,2,0:0:0:0:
240,260,117370,2,0,B|187:297|132:262|132:262|82:224|21:256,1,220.5
75,324,117643,6,0,P|124:237|71:161,1,147
30,56,117916,1,8,0:0:0:0:
39,76,117984,2,0,B|78:82|78:82|157:76,1,73.5
158,22,118121,2,0,B|159:136|159:136|195:109,1,147
247,54,118325,1,2,0:0:0:0:
29,154,118462,1,8,0:0:0:0:
275,180,118598,1,0,0:0:0:0:
63,322,118734,6,0,P|135:360|268:324,1,220.5
264,327,119007,2,0,L|278:148,1,147
320,104,119212,1,0,0:0:0:0:
320,104,119280,1,2,0:0:0:0:
157,225,119416,1,0,0:0:0:0:
351,264,119553,2,0,B|495:264|495:264|400:228,1,220.5
360,183,119825,5,2,0:0:0:0:
382,343,119961,1,2,0:0:0:0:
183,103,120098,1,10,0:0:0:0:
217,339,120234,1,2,0:0:0:0:
353,33,120370,2,0,B|390:29|390:29|445:36,1,73.5
436,140,120507,2,0,B|473:136|473:136|528:143,1,73.5
508,140,120643,1,10,0:0:0:0:
256,102,120780,2,0,B|221:98|221:98|184:102,1,73.5
103,186,120916,6,0,B|71:200|23:190|23:190|30:224|40:269|144:269|144:269|169:223|181:173|290:173|317:275|285:311|241:330|216:339|216:339|268:322|319:357,1,630
276,88,122825,2,0,L|268:48,3,26.25
274,170,123098,6,0,P|306:131|391:147,1,131.25
395,270,123507,2,0,L|410:278,2,17.5
364,253,123643,2,0,L|251:260,1,105
151,266,124053,1,0,0:0:0:0:
151,266,124189,5,2,0:0:0:0:
56,336,124325,2,0,L|131:344,1,52.5
247,337,124598,2,0,L|172:345,1,52.5
40,57,125098,2,0,P|36:94|36:124,1,35
41,124,125280,6,0,P|98:154|182:104,1,157.5
177,31,125757,1,0,0:0:0:0:
177,31,125825,1,2,0:0:0:0:
214,194,126007,2,0,L|221:222,1,17.5
241,239,126098,2,0,L|303:240,1,52.5
361,99,126371,6,0,L|299:100,1,52.5
155,286,126643,1,0,0:0:0:0:
214,194,126780,1,0,0:0:0:0:
256,318,126916,1,2,0:0:0:0:
347,184,127053,1,0,0:0:0:0:
405,353,127189,6,0,P|440:358|469:362,1,36.75
433,269,127325,2,0,P|468:274|497:278,1,36.75
486,183,127462,6,0,L|378:172,1,105
240,70,127871,2,0,L|240:53,2,17.5
213,95,128007,2,0,P|198:141|218:200,1,105
280,143,128416,1,0,0:0:0:0:
132,201,128552,5,2,0:0:0:0:
61,245,128689,2,0,P|84:271|120:275,1,52.5
186,274,128961,1,0,0:0:0:0:
70,110,129098,1,2,0:0:0:0:
70,110,129234,2,0,L|68:144,1,26.25
131,200,129371,2,0,L|129:234,1,26.25
181,297,129507,2,0,L|179:331,1,26.25
282,241,129644,6,0,L|270:353,1,105
345,364,129985,2,0,L|349:324,1,39.375
372,209,130189,2,0,P|415:232|440:233,1,70
461,154,130416,2,0,L|464:128,1,17.5
297,151,130598,1,0,0:0:0:0:
469,53,130734,5,2,0:0:0:0:
428,42,130870,1,0,0:0:0:0:
386,34,131007,1,0,0:0:0:0:
344,26,131143,1,0,0:0:0:0:
469,53,131279,1,2,0:0:0:0:
204,156,131552,2,0,L|219:192,1,26.25
282,241,131689,2,0,L|267:277,1,26.25
196,323,131825,5,8,0:0:0:0:
204,156,132098,1,8,0:0:0:0:
210,333,132371,1,8,0:0:0:0:
297,151,132644,1,8,0:0:0:0:
222,340,132916,1,8,0:0:0:0:
113,154,133189,2,0,L|104:94,1,52.5
232,348,133461,1,8,0:0:0:0:
386,150,133734,1,8,0:0:0:0:
127,263,134007,5,8,0:0:0:0:
346,309,134280,2,0,P|387:315|415:311,1,52.5
127,281,134552,1,8,0:0:0:0:
386,150,134825,1,8,0:0:0:0:
126,296,135098,1,8,0:0:0:0:
397,314,135371,2,0,P|438:320|466:316,1,52.5
124,309,135644,1,8,0:0:0:0:
470,147,135916,5,8,0:0:0:0:
35,139,136189,6,0,L|38:59,1,63
77,211,136393,2,0,L|78:299,1,63
117,140,136598,2,0,L|120:91,1,31.5
159,215,136734,6,0,L|156:319,1,84
198,145,136939,2,0,L|202:42,1,84
239,220,137143,2,0,L|235:292,1,42
279,148,137280,6,0,L|283:13,1,105
320,223,137484,2,0,L|314:349,1,105
361,148,137689,2,0,L|365:71,1,52.5
400,224,137825,6,0,L|396:367,1,126
440,149,138030,2,0,L|444:6,1,126
484,231,138235,2,0,L|482:313,1,63
361,148,138371,5,8,0:0:0:0:
320,223,138507,1,8,0:0:0:0:
347,126,138643,1,8,0:0:0:0:
274,303,138780,1,8,0:0:0:0:
329,108,138916,1,8,0:0:0:0:
189,352,139052,1,8,0:0:0:0:
312,96,139188,1,8,0:0:0:0:
94,346,139325,1,8,0:0:0:0:
51,57,139461,5,8,0:0:0:0:
84,41,139530,1,8,0:0:0:0:
120,36,139598,1,8,0:0:0:0:
155,44,139666,1,8,0:0:0:0:
181,69,139734,5,8,0:0:0:0:
214,85,139803,1,8,0:0:0:0:
250,90,139871,1,8,0:0:0:0:
285,82,139939,1,8,0:0:0:0:
326,34,140007,6,0,L|330:164,1,73.5
111,194,140143,2,0,L|113:120,1,73.5
440,88,140280,2,0,L|410:214,1,73.5
29,127,140416,2,0,L|50:56,1,73.5
235,0,140553,5,0,0:0:0:0:
211,212,140689,2,0,L|207:254,1,26.25
222,126,140825,1,0,0:0:0:0:
305,286,140962,6,0,L|301:328,1,26.25
343,201,141098,2,0,L|345:174,1,26.25
363,381,141235,1,0,0:0:0:0:
222,126,141371,6,0,L|226:84,1,26.25
184,211,141507,2,0,L|181:237,1,26.25
161,29,141643,1,0,0:0:0:0:
402,277,141779,6,0,L|398:319,1,26.25
440,192,141915,2,0,L|442:165,1,26.25
475,359,142052,1,0,0:0:0:0:
311,42,142189,5,2,0:0:0:0:
251,34,142257,1,2,0:0:0:0:
192,29,142325,1,2,0:0:0:0:
133,25,142393,1,2,0:0:0:0:
64,67,142461,5,2,0:0:0:0:
34,143,142530,1,2,0:0:0:0:
49,222,142598,1,2,0:0:0:0:
102,282,142666,1,2,0:0:0:0:
178,308,142734,6,0,B|286:319|286:319|229:267,1,147
183,211,142939,1,0,0:0:0:0:
183,211,143007,1,8,0:0:0:0:
352,146,143143,1,2,0:0:0:0:
380,157,143212,2,0,P|413:232|301:229,1,220.5
311,42,143553,2,0,B|355:145|355:145|411:33,1,220.5
231,13,143826,6,0,P|227:59|247:104,1,73.5
472,85,143962,2,0,P|480:49|475:13,1,73.5
308,41,144098,1,8,0:0:0:0:
448,255,144234,1,2,0:0:0:0:
454,276,144302,2,0,B|379:265|379:265|342:288|279:273,1,147
222,242,144507,1,2,0:0:0:0:
371,362,144643,1,8,0:0:0:0:
334,124,144779,2,0,P|327:184|341:222,1,73.5
411,167,144916,6,0,B|219:153|219:153|247:107,1,220.5
281,49,145189,1,8,0:0:0:0:
222,242,145325,1,2,0:0:0:0:
210,263,145393,2,0,P|235:343|294:252,1,220.5
107,126,145734,2,0,B|97:192|97:192|113:256|113:256|97:355,1,220.5
29,269,146007,6,0,B|12:188|12:188|39:44,1,220.5
107,125,146280,2,0,B|214:133|214:133|163:96,1,147
328,233,146485,2,0,B|221:241|221:241|272:204,1,147
312,147,146689,1,2,0:0:0:0:
363,352,146825,2,0,B|373:293|373:293|358:227|358:227|421:184|391:109,1,220.5
350,78,147098,6,0,P|415:113|478:64,1,147
497,0,147302,1,2,0:0:0:0:
497,0,147371,1,8,0:0:0:0:
328,233,147507,1,2,0:0:0:0:
310,252,147575,2,0,B|259:283|207:251|207:251|152:291|69:260,1,220.5
174,121,147916,2,0,P|156:189|131:102,1,220.5
211,11,148189,6,0,B|207:171|207:171|162:104,1,220.5
21,99,148462,2,0,P|14:166|29:209,1,73.5
71,284,148598,1,2,0:0:0:0:
91,305,148666,2,0,P|164:265|219:326,1,147
230,381,148871,1,2,0:0:0:0:
475,243,149007,2,0,B|433:229|386:247|386:247|348:224|348:224|314:247|314:247|240:235,1,220.5
313,341,149280,6,0,B|482:350|482:350|428:315,1,220.5
386,246,149553,1,8,0:0:0:0:
220,102,149689,2,0,P|274:92|321:103,1,73.5
221,188,149825,5,0,0:0:0:0:
171,174,149893,1,0,0:0:0:0:
140,132,149961,1,0,0:0:0:0:
137,80,150029,1,0,0:0:0:0:
159,33,150098,1,8,0:0:0:0:
137,52,150166,1,0,0:0:0:0:
109,62,150234,1,0,0:0:0:0:
79,64,150302,1,0,0:0:0:0:
0,32,150370,6,0,B|-10:116|-10:116|37:266,1,220.5
26,326,150643,2,0,P|64:253|166:288,1,147
108,328,150848,2,0,P|146:255|248:290,1,147
189,331,151052,1,2,0:0:0:0:
386,246,151189,2,0,P|392:177|384:142,1,73.5
275,302,151325,2,0,P|273:338|280:374,1,73.5
435,276,151462,6,0,B|461:210|461:210|418:96,1,147
366,78,151666,1,2,0:0:0:0:
366,78,151735,1,8,0:0:0:0:
162,151,151871,1,2,0:0:0:0:
144,174,151939,2,0,B|192:212|248:174|248:174|306:141|402:186,1,220.5
86,231,152280,2,0,P|148:160|68:70,1,220.5
12,236,152552,6,0,L|101:229,1,73.5
285,85,152688,2,0,L|196:78,1,73.5
68,152,152825,1,8,0:0:0:0:
275,302,152961,1,2,0:0:0:0:
295,326,153029,2,0,B|396:337|396:337|467:305,1,147
480,235,153234,1,2,0:0:0:0:
275,302,153371,1,8,0:0:0:0:
285,85,153507,1,0,0:0:0:0:
480,235,153643,6,0,B|472:189|450:165|450:165|471:129|462:70,1,147
440,14,153848,1,2,0:0:0:0:
440,14,153916,1,8,0:0:0:0:
311,211,154053,1,2,0:0:0:0:
299,234,154121,2,0,P|352:300|319:207,1,220.5
191,314,154462,2,0,B|117:338|117:338|26:317|26:317|122:257,1,220.5
198,193,154735,6,0,B|124:217|124:217|33:196|33:196|129:136,1,220.5
109,74,155007,2,0,P|19:84|-2:76,1,73.5
188,19,155143,1,2,0:0:0:0:
216,39,155211,2,0,B|221:80|241:101|241:101|243:148|216:207,1,147
201,282,155416,1,2,0:0:0:0:
298,40,155552,2,0,B|345:22|403:51|403:51|455:31|520:60,1,220.5
471,218,155825,6,0,P|410:204|500:164,1,220.5
383,286,156098,2,0,P|340:243|325:197,1,73.5
310,82,156234,1,2,0:0:0:0:
323,114,156302,2,0,P|314:181|172:188,1,220.5
25,223,156643,2,0,B|43:332|43:332|133:230,1,220.5
239,141,156916,6,0,B|293:194|255:254|255:254|281:299|244:366,1,220.5
194,205,157189,2,0,P|309:176|340:209,1,147
383,286,157394,2,0,B|496:290|496:290|456:255,1,147
412,186,157598,1,2,0:0:0:0:
280,84,157734,2,0,B|334:90|368:117|368:117|405:38|508:57,1,220.5
467,53,158007,5,8,0:0:0:0:
280,84,158143,1,2,0:0:0:0:
455,147,158279,1,8,0:0:0:0:
234,170,158416,1,2,0:0:0:0:
511,233,158552,5,8,0:0:0:0:
178,248,158689,1,2,0:0:0:0:
463,144,158825,1,8,0:0:0:0:
186,81,158961,1,2,0:0:0:0:
252,335,159098,5,8,0:0:0:0:
289,357,159166,1,2,0:0:0:0:
331,369,159234,2,0,P|378:378|435:369,1,73.5
178,248,159371,5,8,0:0:0:0:
130,281,159439,1,0,0:0:0:0:
77,306,159507,2,0,P|22:320|-10:317,1,73.5
112,83,159643,5,8,0:0:0:0:
160,9,159712,5,2,0:0:0:0:
245,31,159780,5,2,0:0:0:0:
249,119,159848,5,2,0:0:0:0:
167,151,159916,6,0,B|104:163|104:163|51:143|51:143|-1:167|32:244,1,220.5
132,373,160189,5,6,0:0:0:0:
240,192,160325,2,0,P|250:138|241:85,1,73.5
245,31,160462,1,8,0:0:0:0:
309,239,160598,1,2,0:0:0:0:
323,266,160666,2,0,B|479:275|479:275|375:340,1,220.5
341,148,161007,2,0,B|185:157|185:157|289:222,1,220.5
412,95,161280,6,0,B|382:73|382:73|282:58,1,73.5
239,191,161416,2,0,B|209:213|209:213|109:228,1,73.5
55,201,161552,1,8,0:0:0:0:
183,60,161689,1,2,0:0:0:0:
225,65,161757,2,0,P|263:122|221:203,1,147
147,299,161962,1,2,0:0:0:0:
302,235,162098,2,0,B|334:202|341:146|341:146|389:220|314:297,1,220.5
261,313,162371,6,0,B|330:296|330:296|497:321,1,220.5
477,318,162644,1,8,0:0:0:0:
458,67,162780,1,2,0:0:0:0:
458,93,162848,2,0,B|400:112|400:112|336:70|336:70|242:92,1,220.5
200,185,163189,2,0,P|231:95|122:63,1,220.5
22,150,163461,6,0,B|94:150|94:150|178:117,1,147
179,307,163734,1,8,0:0:0:0:
316,94,163870,1,2,0:0:0:0:
344,112,163939,2,0,P|364:171|260:198,1,147
200,185,164143,1,2,0:0:0:0:
322,358,164280,2,0,P|340:299|315:239,1,73.5
200,185,164416,2,0,P|182:126|207:66,1,73.5
232,22,164552,5,2,0:0:0:0:
251,300,164689,2,0,B|214:310|214:310|148:304,1,73.5
74,265,164825,1,8,0:0:0:0:
27,59,164962,1,2,0:0:0:0:
40,86,165030,2,0,B|197:110|197:110|130:55,1,220.5
16,214,165371,2,0,P|-1:267|13:317,1,73.5
212,180,165507,2,0,P|211:143|196:110,1,73.5
143,290,165644,6,0,B|252:301|252:301|297:277|297:277|384:289,1,220.5
470,308,165916,1,8,0:0:0:0:
387,111,166052,1,2,0:0:0:0:
368,89,166120,2,0,P|308:111|372:169,1,147
420,203,166325,1,2,0:0:0:0:
386,12,166461,2,0,P|353:7|291:17,1,73.5
209,180,166598,2,0,P|176:185|114:175,1,73.5
93,113,166734,6,0,B|111:203|111:203|74:358,1,220.5
7,285,167007,2,0,L|29:199,1,73.5
75,81,167143,1,2,0:0:0:0:
93,113,167212,2,0,P|212:95|214:35,1,147
214,0,167416,1,2,0:0:0:0:
265,245,167553,2,0,L|283:316,1,73.5
349,160,167689,2,0,L|367:88,1,73.5
378,284,167825,6,0,B|428:259|428:259|220:240,1,220.5
143,233,168098,1,8,0:0:0:0:
214,0,168235,1,2,0:0:0:0:
235,21,168303,2,0,P|244:88|151:110,1,147
75,81,168507,1,2,0:0:0:0:
301,170,168643,2,0,B|379:211|453:177|453:177|407:167|383:137,1,220.5
355,49,168916,6,0,P|409:75|359:163,1,147
234,342,169189,2,0,L|331:333,1,73.5
329,185,169325,1,2,0:0:0:0:
301,170,169393,2,0,B|148:181|148:181|255:245,1,220.5
118,104,169734,2,0,B|49:149|82:232|82:232|156:278,1,220.5
234,342,170007,5,2,0:0:0:0:
247,334,170075,1,0,0:0:0:0:
298,350,170143,1,2,0:0:0:0:
311,342,170211,1,0,0:0:0:0:
362,344,170280,2,0,B|383:251|383:251|374:131,1,147
324,107,170484,2,0,P|387:169|458:123,1,147
503,93,170689,1,2,0:0:0:0:
258,182,170825,2,0,B|203:210|124:182|124:182|186:231|254:224,1,220.5
136,326,171098,6,0,B|118:281|118:281|129:120,1,147
140,13,171371,1,8,0:0:0:0:
46,161,171507,1,2,0:0:0:0:
37,192,171575,2,0,B|23:349|23:349|-20:238,1,220.5
0,98,171916,2,0,P|62:156|183:96,1,220.5
224,46,172189,6,0,B|212:129|212:129|243:189|243:189|221:312,1,220.5
172,308,172461,2,0,P|239:277|305:337,1,147
352,368,172666,2,0,B|350:267|350:267|389:317,1,147
443,363,172871,1,2,0:0:0:0:
491,171,173007,2,0,B|498:135|498:135|496:41,1,73.5
289,3,173144,2,0,B|288:39|288:39|295:75,1,73.5
394,193,173280,5,6,0:0:0:0:
424,69,173416,1,2,0:0:0:0:
250,234,173553,5,8,0:0:0:0:
363,119,173689,1,2,0:0:0:0:
103,220,173826,5,2,0:0:0:0:
289,156,173962,1,2,0:0:0:0:
0,106,174098,5,8,0:0:0:0:
209,159,174234,1,2,0:0:0:0:
73,372,174370,5,6,0:0:0:0:
89,119,174507,1,2,0:0:0:0:
113,365,174643,5,8,0:0:0:0:
166,83,174779,1,2,0:0:0:0:
146,363,174916,5,2,0:0:0:0:
253,73,175052,1,2,0:0:0:0:
192,369,175189,5,8,0:0:0:0:
342,79,175325,1,2,0:0:0:0:
73,372,175462,6,0,P|71:319|74:261,1,73.5
95,131,175598,1,2,0:0:0:0:
114,151,175734,6,0,P|112:204|115:262,1,73.5
165,366,175871,1,2,0:0:0:0:
187,345,176007,6,0,P|185:292|188:234,1,73.5
210,74,176143,1,2,0:0:0:0:
225,97,176279,6,0,P|223:150|226:208,1,73.5
266,377,176416,1,2,0:0:0:0:
338,118,176553,6,0,P|380:115|424:114,1,73.5
482,281,176689,2,0,P|440:284|396:285,1,73.5
330,106,176825,6,0,P|372:103|416:102,1,73.5
477,294,176961,2,0,P|435:297|391:298,1,73.5
293,182,177097,5,0,0:0:0:0:
254,94,177166,5,0,0:0:0:0:
325,30,177234,5,0,0:0:0:0:
407,78,177302,5,0,0:0:0:0:
388,172,177370,6,0,B|337:185|337:185|276:177|276:177|238:188|238:188|288:196|325:231,1,220.5
366,307,177643,5,6,0:0:0:0:
330,106,177780,1,0,0:0:0:0:
240,281,177916,1,8,0:0:0:0:
225,307,177984,2,0,P|176:310|123:302,1,73.5
129,224,178121,2,0,P|133:289|45:338,1,147
56,259,178325,1,2,0:0:0:0:
242,384,178462,1,8,0:0:0:0:
269,175,178598,1,0,0:0:0:0:
56,259,178734,6,0,B|29:176|29:176|43:27,1,220.5
134,75,179007,2,0,B|241:94|241:94|187:39,1,147
269,175,179212,2,0,B|162:194|162:194|216:139,1,147
214,66,179416,1,2,0:0:0:0:
250,268,179552,2,0,B|302:276|335:243|335:243|398:290|470:238,1,220.5
395,179,179825,6,0,P|373:251|479:336,1,220.5
467,164,180098,2,0,L|382:181,1,73.5
269,175,180234,1,0,0:0:0:0:
234,165,180302,2,0,P|213:81|308:49,1,147
353,54,180507,1,2,0:0:0:0:
149,206,180643,2,0,B|75:240|-2:207|-2:207|49:217|107:167,1,220.5
20,129,180916,6,0,B|13:292|13:292|53:374,1,220.5
160,297,181189,2,0,B|195:330|262:313|262:313|192:348,1,147
286,194,181393,2,0,B|251:227|184:210|184:210|218:227,1,147
218,227,181598,1,0,0:0:0:0:
349,349,181735,2,0,P|346:282|213:231,1,220.5
262,313,182007,6,0,B|420:289|420:289|512:214,1,220.5
449,151,182280,2,0,L|391:206,1,73.5
243,264,182416,1,0,0:0:0:0:
220,229,182484,2,0,P|156:204|72:243,1,147
38,323,182688,1,2,0:0:0:0:
77,131,182825,1,8,0:0:0:0:
129,384,182961,1,0,0:0:0:0:
227,143,183098,6,0,B|240:117|260:70|260:70|242:183|343:207,1,220.5
399,259,183371,2,0,B|502:249|502:249|427:215,1,147
451,121,183575,2,0,B|348:111|348:111|423:77,1,147
475,13,183780,1,2,0:0:0:0:
306,193,183916,2,0,P|217:195|227:324,1,220.5
264,257,184189,6,0,B|112:251|112:251|28:284,1,220.5
29,286,184462,2,0,L|24:194,1,73.5
12,62,184598,1,0,0:0:0:0:
24,94,184666,2,0,B|61:133|115:112|115:112|160:168|227:142,1,220.5
297,46,185007,1,8,0:0:0:0:
340,262,185143,1,0,0:0:0:0:
432,89,185279,6,0,B|387:56|387:56|253:41,1,147
252,231,185552,1,8,0:0:0:0:
267,252,185620,2,0,L|353:263,1,73.5
476,168,185757,1,2,0:0:0:0:
459,188,185825,2,0,L|307:167,1,147
121,299,186098,1,2,0:0:0:0:
98,269,186166,1,2,0:0:0:0:
84,234,186234,1,2,0:0:0:0:
84,197,186302,1,2,0:0:0:0:
102,112,186371,6,0,P|104:203|200:153,1,220.5
189,99,186643,2,0,L|201:202,1,73.5
216,325,186780,1,0,0:0:0:0:
234,300,186848,2,0,B|290:282|290:282|435:295,1,147
466,302,187053,1,2,0:0:0:0:
301,377,187189,1,8,0:0:0:0:
378,138,187326,5,0,0:0:0:0:
466,302,187462,6,0,B|478:247|446:209|446:209|494:160|462:79,1,220.5
282,108,187734,2,0,B|378:138|378:138|334:87,1,147
291,201,187938,2,0,B|195:231|195:231|239:180,1,147
282,108,188143,1,2,0:0:0:0:
234,300,188279,2,0,B|179:314|179:314|136:294|112:268|101:223|142:163,1,220.5
191,88,188552,6,0,B|131:180|131:180|79:57,1,220.5
0,103,188825,2,0,L|36:188,1,73.5
107,282,188962,1,0,0:0:0:0:
87,257,189030,2,0,P|9:279|65:355,1,147
78,384,189234,1,2,0:0:0:0:
291,201,189371,2,0,B|355:197|355:197|414:227|414:227|510:216,1,220.5
278,281,189644,6,0,B|342:277|342:277|401:307|401:307|497:296,1,220.5
502,138,189916,2,0,L|409:148,1,73.5
290,200,190053,1,2,0:0:0:0:
250,205,190121,2,0,P|212:141|243:61,1,147
302,26,190325,1,2,0:0:0:0:
81,134,190461,2,0,B|149:157|149:157|326:123,1,220.5
370,164,190734,6,0,B|382:121|361:81|361:81|431:121|406:225,1,220.5
400,294,191007,2,0,P|453:310|504:305,1,73.5
299,325,191143,1,0,0:0:0:0:
271,310,191211,2,0,B|221:316|188:293|188:293|80:315,1,147
40,330,191416,1,2,0:0:0:0:
81,134,191552,1,8,0:0:0:0:
247,226,191689,1,0,0:0:0:0:
44,203,191825,6,0,P|1:137|95:57,1,220.5
174,138,192098,2,0,B|243:161|243:161|334:147,1,147
330,62,192303,2,0,B|256:73|256:73|187:50,1,147
102,0,192507,1,2,0:0:0:0:
170,210,192644,2,0,P|205:159|313:269,1,220.5
247,226,192916,6,0,B|259:270|259:270|301:309|332:300|358:293|358:293|286:377|199:330|199:330|160:305|122:325,1,393.75
112,370,194007,6,0,L|109:325,1,26.25
29,172,194143,2,0,L|37:273,1,78.75
130,170,194416,1,2,0:0:0:0:
129,164,194484,1,2,0:0:0:0:
129,158,194552,5,2,0:0:0:0:
157,126,194621,1,2,0:0:0:0:
196,113,194689,1,2,0:0:0:0:
237,118,194757,1,2,0:0:0:0:
280,146,194825,5,2,0:0:0:0:
301,197,194894,1,2,0:0:0:0:
349,223,194962,1,2,0:0:0:0:
403,218,195030,1,2,0:0:0:0:
428,144,195098,6,0,L|449:341,1,189
448,331,195371,1,0,0:0:0:0:
280,146,195507,2,0,P|325:130|376:139,1,63
428,144,195644,1,8,0:0:0:0:
282,294,195780,1,0,0:0:0:0:
214,77,195916,2,0,L|217:8,1,63
196,161,196052,2,0,P|122:205|116:81,1,252
191,313,196461,6,0,B|45:327|45:327|85:285,1,189
223,240,196734,2,0,P|265:288|227:383,1,126
314,196,196939,2,0,B|335:135|335:135|425:74,1,126
232,153,197143,2,0,B|197:160|197:160|143:160,1,63
76,146,197280,1,2,0:0:0:0:
268,13,197416,5,0,0:0:0:0:
311,8,197484,1,0,0:0:0:0:
355,5,197553,1,0,0:0:0:0:
398,3,197621,1,0,0:0:0:0:
441,0,197689,2,0,L|528:21,1,63
326,100,197825,1,8,0:0:0:0:
454,205,197962,2,0,B|476:265|476:265|462:323|386:339|386:339|324:281|227:343,1,315
267,321,198371,5,0,0:0:0:0:
99,151,198507,1,0,0:0:0:0:
90,336,198643,2,0,B|108:278|108:278|96:115,1,189
31,40,198916,6,0,P|58:60|86:67,1,39.375
225,105,199052,2,0,P|198:125|166:133,1,39.375
8,148,199189,6,0,P|11:185|26:241,1,52.5
232,223,199325,2,0,P|229:260|214:316,1,52.5
90,336,199461,5,2,0:0:0:0:
99,151,199598,1,0,0:0:0:0:
267,321,199734,1,0,0:0:0:0:
317,117,199871,2,0,L|322:85,3,26.25
330,64,200007,6,0,P|389:91|469:54,1,126
455,172,200212,6,0,P|418:182|403:183,1,52.5
234,146,200416,1,0,0:0:0:0:
495,361,200553,6,0,B|504:318|504:318|494:286|494:286|500:211,1,118.125
361,300,200826,6,0,P|394:318|427:323,1,63
426,94,200962,2,0,P|393:113|373:139,1,63
361,300,201098,1,8,0:0:0:0:
277,60,201234,1,0,0:0:0:0:
268,86,201302,1,0,0:0:0:0:
251,108,201370,2,0,P|188:128|121:61,1,126
182,239,201643,6,0,B|196:200|196:200|200:29,1,189
278,222,201916,2,0,L|237:326,1,63
208,372,202052,1,0,0:0:0:0:
110,173,202189,1,8,0:0:0:0:
361,300,202325,2,0,P|418:307|448:291,1,63
512,171,202461,2,0,P|455:178|425:162,1,63
294,37,202666,1,0,0:0:0:0:
294,37,202735,6,0,B|283:89|283:89|300:183,1,118.125
207,223,203007,2,0,B|218:171|218:171|201:77,1,118.125
187,304,203280,6,0,B|237:306|267:279|267:279|320:312|371:296,1,183.75
360,222,203825,6,0,P|320:222|386:164,1,189
418,274,204098,2,0,P|377:295|322:299,1,63
207,223,204234,1,0,0:0:0:0:
207,223,204302,1,0,0:0:0:0:
207,223,204370,1,8,0:0:0:0:
441,132,204507,1,0,0:0:0:0:
133,104,204643,6,0,P|132:144|150:184,1,63
360,222,204780,2,0,P|361:182|343:142,1,63
291,62,204916,1,0,0:0:0:0:
187,304,205189,6,0,B|225:309|225:309|319:307,1,73.5
127,244,205325,2,0,B|89:249|89:249|-5:247,1,73.5
288,200,205462,6,0,P|333:204|389:201,1,78.75
219,142,205666,6,0,P|174:146|118:143,1,78.75
296,115,205871,6,0,B|323:119|323:119|386:112,1,52.5
112,284,206007,6,0,B|64:301|44:298|44:298|103:345|207:294,1,220.5
307,273,206280,1,0,0:0:0:0:
356,258,206348,1,0,0:0:0:0:
405,270,206416,1,0,0:0:0:0:
445,302,206485,1,0,0:0:0:0:
466,347,206553,2,0,L|466:262,1,63
326,96,206689,2,0,P|289:174|311:280,1,189
370,345,206961,1,0,0:0:0:0:
451,128,207098,5,0,0:0:0:0:
180,112,207234,1,0,0:0:0:0:
415,49,207370,2,0,P|460:45|500:52,1,63
212,188,207507,2,0,P|167:192|129:182,1,63
72,113,207643,5,8,0:0:0:0:
46,148,207711,1,0,0:0:0:0:
37,191,207780,1,0,0:0:0:0:
45,234,207848,1,0,0:0:0:0:
83,314,207916,5,0,0:0:0:0:
136,290,207984,1,0,0:0:0:0:
194,294,208052,1,0,0:0:0:0:
242,328,208121,1,0,0:0:0:0:
306,377,208189,6,0,P|257:320|340:333,1,189
385,384,208462,2,0,L|384:306,1,63
417,125,208598,2,0,L|419:84,3,31.5
412,151,208735,6,0,B|387:147|360:164|360:164|251:154,1,126
408,228,208939,2,0,P|477:198|490:132,1,126
498,70,209144,1,0,0:0:0:0:
327,240,209280,6,0,B|258:235|258:235|190:203,1,118.125
145,260,209552,2,0,P|177:286|198:292,1,39.375
194,137,209688,2,0,P|162:111|141:105,1,39.375
109,342,209825,6,0,P|178:369|254:304,1,157.5
31,307,210098,2,0,B|27:340|27:340|30:375,1,52.5
319,352,210234,2,0,B|323:319|323:319|320:284,1,52.5
256,215,210370,6,0,P|306:264|414:215,1,189
334,189,210643,2,0,P|331:153|337:119,1,63
402,57,210780,1,0,0:0:0:0:
256,215,210916,1,8,0:0:0:0:
118,33,211053,2,0,P|113:64|117:95,1,63
255,277,211189,2,0,P|259:245|255:214,1,63
28,189,211394,1,0,0:0:0:0:
28,189,211462,6,0,B|22:262|22:262|31:308,1,118.125
107,303,211735,2,0,B|98:258|98:258|104:185,1,118.125
182,185,212007,6,0,B|177:257|177:257|196:368,1,183.75
195,367,212552,5,4,0:0:0:0:
273,352,212689,1,0,0:0:0:0:
350,337,212825,2,0,L|447:341,2,78.75
316,265,213371,2,0,P|351:258|382:266,1,52.5
511,147,213780,5,0,0:0:0:0:
511,147,213916,1,0,0:0:0:0:
391,84,214121,2,0,P|391:117|401:150,1,52.5
411,174,214394,2,0,L|319:173,1,78.75
292,47,214871,5,0,0:0:0:0:
292,47,215007,1,0,0:0:0:0:
332,173,215211,2,0,B|291:177|291:177|245:167,1,78.75
177,187,215552,1,0,0:0:0:0:
177,187,215689,1,0,0:0:0:0:
120,348,215962,5,0,0:0:0:0:
120,348,216098,1,0,0:0:0:0:
52,250,216303,2,0,P|46:217|48:192,1,52.5
54,119,216576,2,0,P|54:158|47:197,1,78.75
11,335,217053,5,0,0:0:0:0:
11,335,217189,2,0,L|102:340,2,78.75
6,248,217734,2,0,L|69:253,1,52.5
255,263,218143,5,0,0:0:0:0:
255,263,218280,1,0,0:0:0:0:
354,210,218484,2,0,P|360:243|358:268,1,52.5
370,337,218757,2,0,P|355:287|366:242,1,78.75
397,110,219234,5,0,0:0:0:0:
397,110,219371,2,0,P|352:102|297:111,2,78.75
448,169,219916,1,0,0:0:0:0:
448,169,220053,1,0,0:0:0:0:
404,17,220325,5,0,0:0:0:0:
404,17,220461,1,0,0:0:0:0:
319,104,220666,2,0,L|317:158,1,52.5
241,178,220939,2,0,L|238:99,1,78.75
295,246,221416,5,0,0:0:0:0:
295,246,221552,2,0,P|244:264|200:253,2,78.75
342,308,222098,2,0,L|403:309,1,52.5
475,173,222507,5,0,0:0:0:0:
475,173,222644,1,0,0:0:0:0:
379,103,222848,2,0,L|313:107,1,52.5
258,66,223120,2,0,L|170:68,1,78.75
83,193,223598,5,0,0:0:0:0:
83,193,223734,2,0,P|78:246|87:286,2,78.75
150,152,224280,2,0,L|216:153,1,52.5
308,269,224689,5,0,0:0:0:0:
308,269,224826,1,0,0:0:0:0:
398,192,225030,2,0,P|402:232|402:253,1,52.5
406,323,225303,2,0,P|399:280|407:223,1,78.75
340,99,225780,5,0,0:0:0:0:
340,99,225916,2,0,B|300:102|300:102|240:96,2,78.75
400,48,226461,2,0,L|461:49,1,52.5
482,203,226871,5,0,0:0:0:0:
482,203,227007,1,0,0:0:0:0:
382,267,227212,2,0,P|337:276|317:275,1,52.5
252,278,227484,2,0,P|296:272|350:281,1,78.75
468,351,227962,5,0,0:0:0:0:
468,351,228098,2,0,L|470:256,2,78.75
395,383,228643,2,0,P|388:360|398:319,1,52.5
429,179,229052,5,0,0:0:0:0:
429,179,229189,1,0,0:0:0:0:
312,194,229393,2,0,P|308:146|316:122,1,52.5
307,65,229666,2,0,P|314:116|304:155,1,78.75
220,208,230007,6,0,B|158:249|77:203|77:203|20:181|36:126|93:98|137:163|91:206|91:206|39:283|69:338|69:338|121:330|157:351|157:351|221:347,1,630
264,237,234370,6,0,B|297:222|350:240|365:288|365:288|395:204|395:204|404:149|500:99|509:233|374:200|342:143|342:143|390:78|462:83|462:83|467:48,1,630
296,230,238735,6,0,B|248:227|199:259|194:333|239:368|239:368|150:352|123:264|138:228|138:228|176:138|129:92|129:92|93:137|46:132,1,630
249,230,243098,6,0,B|276:223|310:216|347:257|347:257|302:196|328:135|328:135|339:91|413:123|366:170|251:122|251:122|276:52|322:43|335:36|378:33|419:39|457:88|451:143|420:179|420:179|468:161|514:176,1,840
256,192,248552,12,0,255098,0:0:0:0:
