osu file format v14

[General]
AudioFilename: audioOverdrive220BPM.mp3
AudioLeadIn: 0
PreviewTime: 239386
Countdown: 1
SampleSet: Soft
StackLeniency: 0.7
Mode: 0
LetterboxInBreaks: 0
EpilepsyWarning: 1
WidescreenStoryboard: 1

[Editor]
DistanceSpacing: 1
BeatDivisor: 4
GridSize: 4
TimelineZoom: 1.7

[Metadata]
Title:220bpm pack
TitleUnicode:220bpm pack
Artist:Various Artists
ArtistUnicode:Various Artists
Creator:Moting
Version:Brain Power
Source:
Tags:
BeatmapID:1465918
BeatmapSetID:692759

[Difficulty]
HPDrainRate:6
CircleSize:4
OverallDifficulty:8
ApproachRate:9.8
SliderMultiplier:1.92
SliderTickRate:1

[Events]
//Background and Video events
0,0,"Brain Power.jpg",0,0
//Break Periods
2,101799,103173
//Storyboard Layer 0 (Background)
//Storyboard Layer 1 (Fail)
//Storyboard Layer 2 (Pass)
//Storyboard Layer 3 (Foreground)
//Storyboard Sound Samples

[TimingPoints]
1681,272.7273,4,2,1,60,1,0
9726,-66.66666,4,2,1,60,0,0
10408,-100,4,2,1,60,0,0
14772,-100,4,1,1,60,0,0
19135,-200,4,2,1,60,0,0
19339,-66.66666,4,2,1,60,0,0
19681,-100,4,2,1,60,0,0
27180,-66.66666,4,2,1,60,0,0
27863,-100,4,2,1,60,0,0
32226,-100,4,1,1,60,0,0
36590,-100,4,2,1,60,0,0
44226,-66.66666,4,2,1,60,0,0
44771,-100,4,2,1,60,0,0
53499,-66.66666,4,2,1,60,0,0
54044,-133.3333,4,2,1,60,0,0
54862,-76.92308,4,2,1,60,0,0
55681,-100,4,2,1,60,0,0
55953,-76.92308,4,2,1,60,0,0
56226,-125,4,2,1,60,0,0
56772,-76.92308,4,2,1,60,0,0
58135,-125,4,2,1,60,0,0
58680,-76.92308,4,2,1,60,0,0
58953,-100,4,2,1,60,0,0
61408,-66.66666,4,2,1,60,0,0
61953,-100,4,2,1,60,0,0
62498,-200,4,2,1,60,0,0
62771,-83.33334,4,2,1,60,0,0
63044,-100,4,2,1,60,0,0
67135,272.7273,4,2,1,60,1,0
70388,272.7273,4,2,1,60,1,0
72005,-83.33334,4,1,1,60,0,0
72544,-66.66666,4,2,1,60,0,0
73623,272.7273,4,2,1,60,1,0
73623,-66.66666,4,2,1,60,0,1
95062,-66.66666,4,1,1,70,0,1
99350,272.7273,4,2,1,70,1,0
101531,-100,4,2,0,5,0,0
103713,-100,4,1,1,60,0,0
106713,-66.66666,4,1,1,60,0,0
106986,-100,4,1,1,60,0,0
108077,-100,4,2,1,60,0,0
115713,-66.66666,4,2,1,60,0,0
116259,-100,4,2,1,60,0,0
124986,-66.66666,4,2,1,60,0,0
125531,-133.3333,4,2,1,60,0,0
133986,-100,4,2,1,60,0,0
138622,272.7273,4,2,1,60,1,0
140791,272.7273,4,2,1,60,1,0
142947,272.7273,4,1,1,60,1,0
143483,-83.33334,4,1,1,60,0,0
144019,-66.66666,4,2,1,60,0,0
145091,272.7273,4,2,1,60,1,0
145091,-66.66666,4,2,1,60,0,1
166530,-66.66666,4,1,1,70,0,1
170818,-66.66666,4,2,1,70,0,0
171086,-100,4,2,1,70,0,0
172962,-66.66666,4,2,1,70,0,0
173498,-100,4,2,1,70,0,0
174838,-133.3333,4,2,1,100,0,1
175106,-66.66666,4,2,1,70,0,0
175374,-100,4,2,1,70,0,0
175910,-66.66666,4,2,1,70,0,0
176178,-100,4,2,1,70,0,0
176714,-66.66666,4,2,1,70,0,0
177786,-100,4,2,1,70,0,0
178322,-100,4,2,1,70,0,1
179394,-66.66666,4,2,1,70,0,0
179662,-100,4,2,1,70,0,0
180198,-66.66666,4,2,1,70,0,0
180466,-100,4,2,1,70,0,0
181270,-66.66666,4,2,1,70,0,0
181806,-100,4,2,1,70,0,0
182610,-66.66666,4,2,1,70,0,0
182878,-100,4,2,1,70,0,0
183414,-133.3333,4,2,1,100,0,1
183682,-100,4,2,1,60,0,0
184218,-66.66666,4,2,1,60,0,0
184754,-100,4,2,1,60,0,0
185290,-66.66666,4,2,1,60,0,0
185826,-100,4,2,1,60,0,0
186898,-100,4,2,1,60,0,1
187970,-66.66666,4,2,1,60,0,0
188238,-100,4,2,1,60,0,0
189578,-66.66666,4,2,1,60,0,0
191186,-100,4,2,1,60,0,0
191454,-66.66666,4,2,1,60,0,0
191722,-100,4,2,1,60,0,0
191990,-133.3333,4,2,1,100,0,1
192258,-100,4,2,1,60,0,0
192526,-66.66666,4,2,1,60,0,0
192627,-66.66666,4,2,1,5,0,0
192660,-66.66666,4,2,1,60,0,0
192760,-66.66666,4,2,1,5,0,0
192794,-66.66666,4,2,1,60,0,0
192895,-66.66666,4,2,1,5,0,0
192928,-66.66666,4,2,1,60,0,0
193028,-66.66666,4,2,1,5,0,0
193062,-100,4,2,1,60,0,0
193598,-80,4,2,1,60,0,0
194134,-66.66666,4,2,1,60,0,0
194402,-100,4,2,1,60,0,0
194503,-100,4,2,1,5,0,0
194536,-90.90909,4,2,1,60,0,0
194636,-90.90909,4,2,1,5,0,0
194670,-83.33334,4,2,1,60,0,0
194770,-83.33334,4,2,1,5,0,0
194804,-76.92308,4,2,1,60,0,0
194905,-76.92308,4,2,1,5,0,0
194938,-71.42857,4,2,1,60,0,0
195038,-71.42857,4,2,1,5,0,0
195072,-66.66666,4,2,1,60,0,0
195173,-66.66666,4,2,1,5,0,0
195206,-62.5,4,2,1,60,0,0
195306,-62.5,4,2,1,5,0,0
195340,-58.82353,4,2,1,60,0,0
195440,-58.82353,4,2,1,5,0,0
195474,-100,4,2,1,60,0,1
196546,-66.66666,4,2,1,60,0,0
197350,-133.3333,4,2,1,60,0,0
197618,-66.66666,4,2,1,60,0,0
199494,-100,4,2,1,60,0,0
199762,-66.66666,4,2,1,60,0,0
200030,-100,4,2,1,60,0,0
200566,-133.3333,4,2,1,100,0,1
200834,-100,4,2,1,60,0,0
201370,-66.66666,4,2,1,60,0,0
201906,-100,4,2,1,60,0,0
202174,-66.66666,4,2,1,60,0,0
202978,-100,4,2,1,60,0,0
204050,-66.66666,4,2,1,60,0,1
204318,-100,4,2,1,60,0,1
204586,-66.66666,4,2,1,60,0,1
204854,-100,4,2,1,60,0,1
205122,-66.66666,4,2,1,60,0,0
205390,-83.33334,4,2,1,60,0,0
207266,-66.66666,4,2,1,60,0,0
207534,-83.33334,4,2,1,60,0,0
209142,-133.3333,4,2,1,100,0,1
209409,-66.66666,4,2,1,60,0,0
209678,-83.33334,4,2,1,60,0,0
210214,-66.66666,4,2,1,60,0,0
210482,-83.33334,4,2,1,60,0,0
211017,-66.66666,4,2,1,60,0,0
212625,-83.33334,4,2,1,60,0,1
213698,-66.66666,4,2,1,60,0,0
213965,-83.33334,4,2,1,60,0,0
214502,-66.66666,4,2,1,60,0,0
214770,-83.33334,4,2,1,60,0,0
215573,-66.66666,4,2,1,60,0,0
216110,-83.33334,4,2,1,60,0,0
216913,-66.66666,4,2,1,60,0,0
217181,-83.33334,4,2,1,60,0,0
217718,-133.3333,4,2,1,100,0,1
217986,-83.33334,4,2,1,60,0,0
219594,-66.66666,4,2,1,60,0,0
220129,-100,4,2,1,60,0,0
221202,-83.33334,4,2,1,60,0,1
222274,-66.66666,4,2,1,60,0,0
222944,-83.33334,4,2,1,60,0,0
224150,-66.66666,4,2,1,60,0,0
224954,-83.33334,4,2,1,60,0,0
225758,-66.66666,4,2,1,60,0,0
226293,-133.3333,4,2,1,100,0,1
226562,-66.66666,4,2,1,60,0,0
226930,-66.66666,4,2,1,5,0,0
226963,-66.66666,4,2,1,60,0,0
227064,-66.66666,4,2,1,5,0,0
227098,-66.66666,4,2,1,60,0,0
227198,-66.66666,4,2,1,5,0,0
227232,-66.66666,4,2,1,60,0,0
227332,-66.66666,4,2,1,5,0,0
227365,-83.33334,4,2,1,60,0,0
227902,-66.66666,4,2,1,60,0,0
228170,-83.33334,4,2,1,60,0,0
228438,-66.66666,4,2,1,60,0,0
228806,-66.66666,4,2,1,5,0,0
228840,-62.5,4,2,1,60,0,0
228940,-62.5,4,2,1,5,0,0
228973,-58.82353,4,2,1,60,0,0
229074,-58.82353,4,2,1,5,0,0
229108,-55.55556,4,2,1,60,0,0
229208,-55.55556,4,2,1,5,0,0
229241,-52.63158,4,2,1,60,0,0
229342,-52.63158,4,2,1,5,0,0
229376,-50,4,2,1,60,0,0
229476,-50,4,2,1,5,0,0
229510,-47.61905,4,2,1,60,0,0
229610,-47.61905,4,2,1,5,0,0
229643,-45.45454,4,2,1,60,0,0
229744,-45.45454,4,2,1,5,0,0
229778,-66.66666,4,2,1,60,0,1
230448,-83.33334,4,2,1,60,0,1
230849,-66.66666,4,2,1,60,0,0
231028,-83.33334,4,2,1,60,0,0
231654,-66.66666,4,2,1,60,0,0
231921,-83.33334,4,2,1,60,0,0
232189,-66.66666,4,2,1,60,0,0
233262,-83.33334,4,2,1,60,0,0
233797,-66.66666,4,2,1,60,0,0
234066,-83.33334,4,2,1,60,0,0
234869,-133.3333,4,2,1,100,0,1
235137,-83.33334,4,2,1,60,0,0
235942,-66.66666,4,2,1,60,0,0
237282,-83.33334,4,2,1,60,0,0
237818,-66.66666,4,2,1,60,0,0
239425,-100,4,2,1,60,0,0
240498,-66.66666,4,2,1,60,0,1
270514,-66.66666,4,1,1,70,0,1
273729,-66.66666,4,1,1,80,0,1
274265,-58.82353,4,1,1,80,0,1
275070,-52.63158,4,1,1,80,0,1
275337,-66.66666,4,1,1,80,0,1
275873,-66.66666,4,2,1,90,0,0
279089,-100,4,2,0,5,0,0

[HitObjects]
242,63,1749,6,0,L|237:118,1,48
226,193,1885,1,4,0:0:0:0:
491,122,2021,2,0,B|403:100|439:152|346:129,1,144
332,108,2294,1,0,0:0:0:0:
351,262,2431,2,0,L|342:198,1,48
328,90,2567,1,8,0:0:0:0:
453,206,2703,1,0,0:0:0:0:
251,47,2839,22,0,B|237:94|237:94|253:155,1,96
248,139,3044,1,0,0:0:0:0:
248,139,3112,2,0,L|136:157,1,96
217,335,3385,2,0,B|231:288|231:288|215:227,1,96
110,292,3658,1,8,0:0:0:0:
294,42,3930,22,0,P|248:53|167:63,1,96
153,168,4203,2,0,P|199:157|280:147,1,96
343,209,4476,1,0,0:0:0:0:
257,280,4612,1,0,0:0:0:0:
257,280,4681,1,0,0:0:0:0:
257,280,4749,1,8,0:0:0:0:
424,298,4885,1,0,0:0:0:0:
180,340,5021,21,0,0:0:0:0:
257,177,5157,1,0,0:0:0:0:
286,367,5294,1,8,0:0:0:0:
96,300,5430,1,0,0:0:0:0:
115,266,5498,1,0,0:0:0:0:
149,249,5567,1,0,0:0:0:0:
186,249,5635,1,0,0:0:0:0:
222,261,5703,1,0,0:0:0:0:
203,161,5840,21,8,0:0:0:0:
180,340,5976,1,0,0:0:0:0:
222,145,6113,22,0,L|320:130,1,96
472,236,6385,2,0,B|406:210|406:210|325:222,1,144
309,232,6657,1,0,0:0:0:0:
391,347,6794,2,0,L|396:278,1,48
409,121,6930,1,8,0:0:0:0:
488,253,7067,1,0,0:0:0:0:
230,285,7203,22,0,B|217:239|217:239|231:176,1,96
275,112,7408,1,0,0:0:0:0:
275,112,7476,2,0,L|177:106,1,96
142,320,7748,21,0,0:0:0:0:
309,232,7885,1,0,0:0:0:0:
136,184,8021,1,8,0:0:0:0:
416,308,8294,22,0,L|425:206,1,96
302,142,8567,2,0,L|311:244,1,96
318,317,8772,1,0,0:0:0:0:
318,317,8840,2,0,P|281:324|261:318,1,48
190,289,8976,2,0,P|166:286|143:294,1,48
45,342,9112,1,8,0:0:0:0:
173,379,9248,1,0,0:0:0:0:
243,223,9385,22,0,B|251:177|251:177|224:113,1,96
93,203,9658,1,8,0:0:0:0:
93,203,9794,2,0,B|121:193|121:193|146:199|146:199|172:189,1,72
341,159,9931,22,0,L|349:264,2,96
333,52,10203,1,8,0:0:0:0:
452,220,10339,2,0,L|460:265,1,36
445,235,10407,2,0,L|453:280,1,36
439,246,10476,22,0,B|392:236|392:236|347:254,1,96
222,353,10749,2,0,L|228:248,1,96
171,196,10953,1,0,0:0:0:0:
171,196,11021,2,0,P|138:200|108:197,1,48
25,283,11158,2,0,P|58:279|88:282,1,48
140,342,11294,1,8,0:0:0:0:
45,153,11430,1,0,0:0:0:0:
224,49,11566,22,0,B|240:95|240:95|226:161,1,96
263,327,11839,2,0,B|247:281|247:281|261:215,1,96
323,163,12044,1,0,0:0:0:0:
323,163,12112,2,0,L|382:169,1,48
363,273,12249,2,0,L|422:279,1,48
459,175,12385,1,8,0:0:0:0:
501,296,12522,1,0,0:0:0:0:
256,234,12658,21,0,0:0:0:0:
220,337,12794,2,0,P|192:346|162:344,1,48
104,268,12930,1,8,0:0:0:0:
179,366,13067,2,0,P|202:365|224:356,1,48
256,234,13203,22,0,L|247:163,1,48
112,176,13339,2,0,L|115:113,1,48
245,95,13476,1,8,0:0:0:0:
124,33,13612,1,0,0:0:0:0:
320,41,13749,22,0,B|340:87|340:87|328:142,1,96
162,315,14021,2,0,B|142:269|142:269|154:214,1,96
174,193,14226,1,0,0:0:0:0:
136,202,14294,1,0,0:0:0:0:
97,197,14362,1,0,0:0:0:0:
64,176,14430,1,0,0:0:0:0:
210,79,14567,1,8,0:0:0:0:
240,264,14703,1,0,0:0:0:0:
372,99,14840,21,4,0:0:0:0:
419,93,14908,1,0,0:0:0:0:
459,116,14976,1,0,0:0:0:0:
480,158,15044,1,0,0:0:0:0:
474,206,15113,1,8,0:0:0:0:
445,243,15181,1,0,0:0:0:0:
400,258,15249,1,0,0:0:0:0:
353,245,15317,1,0,0:0:0:0:
318,211,15385,1,0,0:0:0:0:
286,175,15453,1,0,0:0:0:0:
239,165,15521,1,0,0:0:0:0:
194,183,15589,1,0,0:0:0:0:
160,216,15657,1,8,0:0:0:0:
166,167,15726,1,0,0:0:0:0:
152,121,15794,1,0,0:0:0:0:
118,87,15862,1,0,0:0:0:0:
72,72,15930,22,0,L|22:66,3,48
73,171,16203,1,8,0:0:0:0:
120,179,16272,1,0,0:0:0:0:
166,167,16340,1,0,0:0:0:0:
200,134,16408,1,0,0:0:0:0:
213,87,16476,22,0,L|221:34,3,48
315,40,16748,1,8,0:0:0:0:
362,44,16816,1,0,0:0:0:0:
401,71,16885,1,0,0:0:0:0:
421,114,16953,1,0,0:0:0:0:
423,161,17021,22,0,L|417:214,1,48
298,300,17158,1,0,0:0:0:0:
290,293,17226,1,0,0:0:0:0:
282,286,17294,22,0,L|278:225,1,48
296,141,17431,2,0,P|267:139|242:149,1,48
184,251,17567,22,0,L|141:250,6,24
127,250,17839,21,12,0:0:0:0:
83,311,17907,1,0,0:0:0:0:
9,286,17975,1,0,0:0:0:0:
9,208,18044,1,0,0:0:0:0:
82,186,18112,21,0,0:0:0:0:
350,255,18317,21,2,0:0:0:0:
201,358,18521,21,0,0:0:0:0:
388,121,18726,21,2,0:0:0:0:
149,68,18931,21,0,0:0:0:0:
149,68,19067,1,0,0:0:0:0:
276,47,19203,22,0,L|266:109,1,48
242,181,19407,1,0,0:0:0:0:
242,181,19476,22,0,P|308:176|350:74,1,144
363,37,19680,1,0,0:0:0:0:
363,37,19749,21,0,0:0:0:0:
229,173,19885,1,0,0:0:0:0:
430,95,20022,21,8,0:0:0:0:
219,162,20158,1,0,0:0:0:0:
433,283,20294,22,0,P|426:243|439:154,1,96
430,95,20498,1,0,0:0:0:0:
430,95,20566,2,0,L|359:110,1,48
219,162,20703,2,0,L|265:171,1,48
343,190,20839,21,0,0:0:0:0:
153,103,20976,1,0,0:0:0:0:
153,103,21044,1,0,0:0:0:0:
153,103,21112,2,0,P|168:88|213:77,1,48
201,246,21249,2,0,P|180:239|148:206,1,48
219,162,21385,21,0,0:0:0:0:
338,291,21522,2,0,P|342:312|329:356,1,48
293,162,21658,1,8,0:0:0:0:
174,291,21794,2,0,P|169:312|182:356,1,48
251,373,21930,22,0,L|262:263,1,96
124,223,22135,1,0,0:0:0:0:
124,223,22203,2,0,P|104:248|94:285,1,48
96,339,22340,2,0,P|102:370|124:401,1,48
260,277,22476,21,0,0:0:0:0:
402,384,22612,2,0,P|412:362|416:339,1,48
256,298,22749,1,8,0:0:0:0:
414,262,22885,2,0,P|403:240|388:223,1,48
252,319,23021,22,0,L|192:328,1,48
272,165,23157,2,0,L|212:174,1,48
73,235,23294,21,8,0:0:0:0:
336,288,23430,1,0,0:0:0:0:
142,181,23567,22,0,B|156:230|156:230|146:275,1,96
340,380,23840,2,0,B|326:331|326:331|336:286,1,96
352,205,24044,1,0,0:0:0:0:
352,205,24112,22,0,L|276:220,1,48
141,296,24248,2,0,L|65:281,1,48
42,206,24385,1,8,0:0:0:0:
237,342,24521,1,0,0:0:0:0:
237,342,24589,1,0,0:0:0:0:
237,342,24658,22,0,L|225:237,1,96
122,106,24862,1,0,0:0:0:0:
122,106,24930,2,0,L|134:211,1,96
323,157,25203,21,0,0:0:0:0:
122,331,25340,2,0,L|129:263,1,48
337,298,25476,1,8,0:0:0:0:
228,112,25612,2,0,L|220:179,1,48
244,302,25748,22,0,B|291:287|291:287|337:298,1,96
431,345,25953,1,0,0:0:0:0:
431,345,26021,2,0,L|416:220,1,96
492,81,26294,21,0,0:0:0:0:
492,81,26431,2,0,L|415:93,1,48
343,198,26567,1,8,0:0:0:0:
343,198,26703,2,0,L|266:186,1,48
222,139,26839,22,0,B|201:183|201:183|220:262,1,96
298,347,27112,1,8,0:0:0:0:
298,347,27248,2,0,B|302:330|302:330|301:318|301:318|310:311|310:311|308:300|308:300|311:280,1,72
427,167,27385,22,0,B|438:212|438:212|417:256,2,96
335,103,27658,1,8,0:0:0:0:
300,192,27794,2,0,L|347:199,1,36
304,204,27863,2,0,L|351:211,1,36
308,216,27931,22,0,B|261:233|261:233|205:215,1,96
174,31,28203,1,8,0:0:0:0:
244,85,28339,2,0,L|255:157,1,48
206,305,28476,21,0,0:0:0:0:
249,71,28612,1,0,0:0:0:0:
139,250,28749,21,8,0:0:0:0:
259,60,28885,1,0,0:0:0:0:
64,308,29022,22,0,P|51:258|70:184,1,96
129,139,29226,1,0,0:0:0:0:
129,139,29294,2,0,L|203:144,1,48
259,60,29430,2,0,L|264:-14,1,48
159,41,29566,21,0,0:0:0:0:
269,247,29703,1,0,0:0:0:0:
381,52,29839,21,8,0:0:0:0:
265,227,29976,1,0,0:0:0:0:
438,210,30112,22,0,P|393:192|310:217,1,96
373,321,30317,1,0,0:0:0:0:
373,321,30385,2,0,L|389:249,1,48
263,98,30521,2,0,L|279:170,1,48
202,237,30657,22,0,P|157:255|74:230,1,96
137,126,30862,1,0,0:0:0:0:
137,126,30930,2,0,L|153:198,1,48
27,349,31067,2,0,L|43:277,1,48
45,193,31203,21,0,0:0:0:0:
164,345,31340,1,0,0:0:0:0:
248,139,31476,1,8,0:0:0:0:
191,237,31613,1,0,0:0:0:0:
226,249,31681,1,0,0:0:0:0:
265,250,31749,1,0,0:0:0:0:
301,237,31817,1,0,0:0:0:0:
331,213,31885,1,0,0:0:0:0:
301,39,32021,1,8,0:0:0:0:
458,94,32157,1,0,0:0:0:0:
248,139,32294,21,4,0:0:0:0:
209,140,32362,1,0,0:0:0:0:
175,125,32430,1,0,0:0:0:0:
151,96,32499,1,0,0:0:0:0:
139,59,32567,1,8,0:0:0:0:
112,33,32635,1,0,0:0:0:0:
75,24,32703,1,0,0:0:0:0:
38,35,32771,1,0,0:0:0:0:
12,62,32840,1,0,0:0:0:0:
3,99,32908,1,0,0:0:0:0:
13,136,32976,1,0,0:0:0:0:
40,162,33044,1,0,0:0:0:0:
72,183,33112,1,8,0:0:0:0:
90,216,33180,1,0,0:0:0:0:
90,254,33248,1,0,0:0:0:0:
72,288,33316,1,0,0:0:0:0:
40,308,33385,22,0,L|26:259,1,48
83,100,33522,1,0,0:0:0:0:
109,74,33590,1,0,0:0:0:0:
146,66,33658,1,8,0:0:0:0:
182,77,33726,1,0,0:0:0:0:
206,106,33794,1,0,0:0:0:0:
213,144,33863,1,0,0:0:0:0:
199,179,33931,22,0,L|184:228,1,48
256,342,34067,1,0,0:0:0:0:
290,358,34135,1,0,0:0:0:0:
328,353,34203,1,8,0:0:0:0:
358,330,34271,1,0,0:0:0:0:
381,300,34340,1,0,0:0:0:0:
416,285,34408,1,0,0:0:0:0:
453,290,34476,22,0,L|467:339,1,48
331,218,34612,1,0,0:0:0:0:
322,223,34680,1,0,0:0:0:0:
313,228,34748,22,0,L|298:277,1,48
459,110,34885,2,0,L|473:159,1,48
354,64,35021,22,0,L|352:29,6,24
384,143,35294,21,12,0:0:0:0:
307,134,35362,1,0,0:0:0:0:
235,162,35431,1,0,0:0:0:0:
188,222,35499,1,0,0:0:0:0:
163,294,35567,22,0,L|150:351,1,48
299,210,35771,22,0,L|288:256,1,48
435,126,35976,22,0,L|422:183,1,48
299,210,36180,22,0,L|288:256,1,48
163,294,36385,22,0,L|152:340,1,48
164,356,36521,2,0,L|174:309,1,48
199,200,36658,21,4,0:0:0:0:
271,347,36794,1,0,0:0:0:0:
19,265,36930,2,0,L|123:251,1,96
199,200,37135,1,0,0:0:0:0:
199,200,37203,2,0,P|197:162|193:139,1,48
379,92,37339,2,0,P|376:115|375:139,1,48
290,243,37476,2,0,L|287:142,1,96
377,351,37749,21,0,0:0:0:0:
422,218,37885,2,0,P|400:212|367:213,1,48
290,243,38022,1,8,0:0:0:0:
499,170,38158,2,0,P|511:220|487:286,1,96
273,372,38430,2,0,L|279:313,1,48
291,227,38567,1,8,0:0:0:0:
115,259,38703,21,2,0:0:0:0:
115,259,38771,1,0,0:0:0:0:
115,259,38839,1,0,0:0:0:0:
287,131,38976,1,0,0:0:0:0:
189,87,39112,2,0,L|197:203,1,96
457,242,39385,2,0,B|359:225|359:225|302:252,1,144
295,261,39657,1,8,0:0:0:0:
448,341,39794,1,0,0:0:0:0:
320,152,39930,21,0,0:0:0:0:
361,352,40067,2,0,L|370:294,1,48
384,221,40203,1,8,0:0:0:0:
260,91,40340,2,0,P|304:68|358:75,1,96
460,165,40613,1,2,0:0:0:0:
265,221,40749,21,8,0:0:0:0:
366,73,40885,1,0,0:0:0:0:
157,31,41021,22,0,B|136:101|136:101|168:179,1,144
187,255,41294,2,0,L|83:248,1,96
10,167,41499,1,0,0:0:0:0:
10,167,41567,2,0,L|75:169,1,48
66,332,41703,2,0,L|131:334,1,48
208,256,41840,1,8,0:0:0:0:
318,170,41976,1,2,0:0:0:0:
318,170,42044,1,0,0:0:0:0:
318,170,42112,22,0,P|334:206|333:233,1,48
325,314,42248,2,0,P|311:341|286:361,1,48
208,256,42385,2,0,L|203:153,1,96
306,30,42658,21,0,0:0:0:0:
425,173,42794,1,0,0:0:0:0:
323,132,42931,1,8,0:0:0:0:
507,101,43067,1,0,0:0:0:0:
491,268,43203,22,0,B|441:261|441:261|401:272|401:272|326:266,1,144
273,214,43475,2,0,L|266:318,1,96
144,249,43680,1,0,0:0:0:0:
133,241,43748,2,0,L|204:243,1,48
399,175,43885,2,0,L|328:173,1,48
208,128,44021,1,8,0:0:0:0:
266,309,44158,1,2,0:0:0:0:
67,188,44294,22,0,B|38:157|38:157|30:295|30:295|61:276,1,216
133,241,44567,2,0,B|190:222|173:268|238:244,1,96
306,199,44749,1,2,0:0:0:0:
289,327,44839,22,2,B|329:232|329:232|306:199,1,144
334,100,45112,2,2,B|395:182|395:182|453:177,1,144
505,254,45385,22,0,L|393:267,1,96
224,286,45658,1,8,0:0:0:0:
300,146,45794,1,0,0:0:0:0:
300,146,45862,1,0,0:0:0:0:
300,146,45930,1,2,0:0:0:0:
324,328,46066,2,0,L|311:221,1,96
410,266,46339,1,2,0:0:0:0:
128,294,46476,22,0,L|231:285,1,96
391,151,46749,2,0,B|297:128|297:128|251:146,1,144
230,161,47022,1,2,0:0:0:0:
362,45,47158,1,0,0:0:0:0:
305,216,47294,1,10,0:0:0:0:
222,60,47430,1,2,0:0:0:0:
391,151,47567,22,0,P|396:204|402:251,1,96
420,353,47840,1,8,0:0:0:0:
493,182,47976,1,2,0:0:0:0:
301,234,48112,2,0,P|296:181|290:134,1,96
290,138,48317,1,2,0:0:0:0:
290,138,48385,2,0,L|180:156,1,96
54,174,48657,21,0,0:0:0:0:
82,32,48794,2,0,L|72:88,1,48
54,174,48930,1,8,0:0:0:0:
127,301,49067,2,0,L|96:247,1,48
54,174,49203,2,0,L|153:159,1,96
289,74,49476,21,8,0:0:0:0:
239,279,49612,1,0,0:0:0:0:
411,183,49748,22,0,P|362:163|303:174,1,96
247,191,49953,1,0,0:0:0:0:
247,191,50021,1,8,0:0:0:0:
422,97,50158,1,2,0:0:0:0:
366,294,50294,2,0,L|360:237,1,48
320,166,50430,2,0,L|314:109,1,48
284,43,50567,1,8,0:0:0:0:
411,183,50703,1,2,0:0:0:0:
244,221,50840,22,0,L|137:217,1,96
70,213,51044,1,0,0:0:0:0:
56,212,51112,1,8,0:0:0:0:
320,166,51248,1,2,0:0:0:0:
94,129,51385,2,0,L|155:133,1,48
289,298,51521,2,0,L|228:294,1,48
69,292,51658,1,8,0:0:0:0:
228,139,51794,1,0,0:0:0:0:
159,338,51931,22,0,B|146:291|146:291|161:224,1,96
443,205,52203,2,0,B|365:184|388:242|278:223,1,144
242,187,52476,1,0,0:0:0:0:
416,288,52612,1,2,0:0:0:0:
239,169,52748,1,8,0:0:0:0:
371,364,52885,1,2,0:0:0:0:
324,147,53021,21,0,0:0:0:0:
217,299,53158,1,2,0:0:0:0:
255,82,53294,1,8,0:0:0:0:
344,255,53431,1,2,0:0:0:0:
191,167,53567,38,2,B|251:179|251:179|284:240|284:240|361:259,1,192
204,344,53839,2,0,B|184:301|184:301|198:254,1,96
343,166,54022,1,2,0:0:0:0:
274,295,54112,86,0,B|296:235|274:153|274:153|311:172|343:166,1,216
449,170,54658,1,10,0:0:0:0:
449,170,54726,1,2,0:0:0:0:
449,170,54794,2,0,L|455:119,1,36
329,22,54930,38,0,P|321:56|340:110,1,62.4
382,246,55066,2,0,P|385:276|378:306,1,62.4
301,274,55203,70,0,B|346:271|346:271|379:285|379:285|411:262|411:262|440:272|440:272|513:266,2,187.2
75,349,55749,1,8,0:0:0:0:
85,359,55817,2,2,L|73:263,1,96
0,185,56021,38,2,B|35:191|35:191|67:176|67:176|105:187|105:187|143:173|143:173|190:187,1,187.2
262,165,56294,70,2,P|325:203|222:232,1,230.4
177,183,56840,38,0,P|178:157|202:92,1,62.4
103,33,56976,2,0,P|111:63|113:95,1,62.4
177,183,57113,2,0,B|144:175|144:175|119:184|119:184|91:178|91:178|33:188,1,124.8
293,355,57385,69,2,0:0:0:0:
302,338,57453,2,0,B|332:286|332:286|295:224,1,124.8
286,216,57657,2,0,L|390:224,1,62.4
457,345,57794,2,0,L|395:350,1,62.4
220,280,57930,37,8,0:0:0:0:
198,242,57998,1,2,0:0:0:0:
196,199,58066,1,0,0:0:0:0:
215,160,58134,1,2,0:0:0:0:
279,111,58203,69,0,0:0:0:0:
294,83,58272,1,2,0:0:0:0:
290,52,58339,1,0,0:0:0:0:
268,29,58407,1,2,0:0:0:0:
236,25,58476,38,0,P|209:53|260:46,1,115.2
233,8,58748,70,2,P|192:43|279:61,1,187.2
346,20,59021,38,0,B|361:58|361:58|348:143,1,96
306,178,59226,2,0,B|354:164|354:164|397:179,1,96
425,189,59431,1,2,0:0:0:0:
392,298,59567,70,2,B|348:246|348:246|504:215|504:215|483:292,1,288
431,373,60112,2,0,B|401:382|401:382|333:368,2,64
487,273,60385,2,2,L|477:119,1,144
404,89,60658,38,0,L|339:96,1,48
477,129,60794,1,0,0:0:0:0:
293,43,60931,2,0,L|228:36,1,48
192,100,61067,2,0,L|127:107,1,48
84,45,61203,70,2,B|54:93|54:93|88:206,1,144
144,105,61476,2,0,B|164:173,1,72
233,108,61612,1,2,0:0:0:0:
243,142,61680,1,2,0:0:0:0:
254,177,61749,2,2,B|311:180|359:128|359:128|394:156|377:206,1,192
348,269,62021,21,2,0:0:0:0:
296,270,62112,1,2,0:0:0:0:
251,295,62203,1,2,0:0:0:0:
269,375,62294,85,8,0:0:0:0:
293,359,62362,1,2,0:0:0:0:
320,349,62430,1,0,0:0:0:0:
348,346,62498,1,2,0:0:0:0:
376,347,62566,2,2,L|460:354,1,72
488,284,62839,6,0,B|447:242|456:173|456:173|443:203|403:217,1,172.8
383,139,63112,1,8,0:0:0:0:
107,295,63249,2,0,L|245:279,1,96
270,105,63522,2,0,L|202:112,1,48
137,122,63658,1,8,0:0:0:0:
286,276,63794,2,0,L|333:270,1,48
312,189,63930,21,0,0:0:0:0:
249,361,64067,1,2,0:0:0:0:
221,185,64203,1,8,0:0:0:0:
262,365,64339,1,2,0:0:0:0:
169,258,64476,2,0,P|207:272|285:243,1,96
312,189,64681,1,0,0:0:0:0:
312,189,64749,2,0,L|391:197,1,48
338,310,64885,2,0,L|417:318,1,48
458,190,65021,22,0,B|440:235|440:235|463:290,1,96
336,107,65294,2,0,B|354:62|354:62|331:7,1,96
257,37,65498,1,0,0:0:0:0:
257,37,65567,2,0,L|250:106,1,48
242,169,65703,1,2,0:0:0:0:
62,76,65840,2,0,L|159:62,1,96
432,115,66113,21,0,0:0:0:0:
357,256,66249,2,0,L|349:204,1,48
287,75,66385,1,8,0:0:0:0:
432,115,66521,2,0,L|424:167,1,48
360,280,66657,1,0,0:0:0:0:
283,99,66794,2,0,L|275:151,1,48
272,289,66930,21,8,0:0:0:0:
476,243,67067,1,0,0:0:0:0:
313,215,67203,22,0,B|267:205|267:205|206:224,1,96
131,369,67473,2,0,L|139:255,1,96
17,305,67677,1,0,0:0:0:0:
8,316,67745,2,0,L|86:321,1,48
140,249,67881,2,0,L|92:245,1,48
27,187,68016,1,8,0:0:0:0:
137,381,68152,1,2,0:0:0:0:
240,199,68287,22,0,B|255:157|255:157|230:85,1,96
61,14,68558,2,0,B|46:56|46:56|71:128,1,96
78,178,68761,1,0,0:0:0:0:
78,178,68829,2,0,L|142:166,1,48
234,90,68965,2,0,L|298:102,1,48
365,115,69101,1,8,0:0:0:0:
141,62,69236,1,2,0:0:0:0:
250,189,69372,22,0,L|257:285,1,96
171,355,69642,1,8,0:0:0:0:
362,230,69778,1,2,0:0:0:0:
138,230,69914,22,0,L|145:134,1,96
59,64,70184,1,8,0:0:0:0:
248,187,70321,1,2,0:0:0:0:
345,26,70456,22,0,B|359:71|359:71|331:138,1,96
169,229,70725,2,0,B|200:194|200:194|248:187,1,96
432,279,70995,2,0,B|386:268|386:268|342:210,1,96
267,68,71264,21,8,0:0:0:0:
434,190,71399,1,0,0:0:0:0:
244,275,71534,21,0,0:0:0:0:
358,143,71668,1,0,0:0:0:0:
185,132,71804,21,8,0:0:0:0:
323,334,71938,1,0,0:0:0:0:
278,181,72073,22,0,L|273:148,3,28.8
283,210,72208,2,0,L|217:197,1,57.6
81,282,72342,2,0,L|147:269,1,57.6
283,354,72477,2,0,L|217:341,1,57.6
75,148,72612,22,0,B|173:129|173:129|135:173,1,144
243,232,72814,2,0,B|215:162|269:163|241:93,1,144
340,74,73016,2,0,P|397:58|477:143,1,144
439,224,73219,2,0,P|371:238|314:197,1,144
314,197,73421,21,0,0:0:0:0:
390,149,73555,1,0,0:0:0:0:
202,350,73691,54,0,B|223:294|222:211|222:211|229:245|259:281,1,216
247,119,73958,2,0,P|203:121|165:133,1,72
103,189,74092,1,2,0:0:0:0:
53,193,74159,1,2,0:0:0:0:
17,157,74226,1,2,0:0:0:0:
14,106,74293,1,2,0:0:0:0:
39,62,74361,1,2,0:0:0:0:
86,47,74427,1,2,0:0:0:0:
133,63,74494,1,10,0:0:0:0:
168,99,74562,1,2,0:0:0:0:
217,103,74628,1,2,0:0:0:0:
262,81,74695,1,2,0:0:0:0:
306,56,74762,54,0,P|306:96|308:127,1,72
184,186,74896,2,0,P|184:226|181:257,1,72
168,99,75031,1,8,0:0:0:0:
318,287,75164,2,0,P|318:327|320:358,1,72
380,212,75298,1,0,0:0:0:0:
170,353,75432,1,2,0:0:0:0:
256,152,75566,1,8,0:0:0:0:
404,319,75701,1,2,0:0:0:0:
164,235,75834,54,0,B|216:226|216:226|256:239|256:239|314:231,1,144
305,232,76035,1,2,0:0:0:0:
305,232,76102,2,0,P|303:185|310:150,1,72
178,65,76236,2,0,P|179:111|172:146,1,72
140,327,76370,53,2,0:0:0:0:
187,307,76437,1,2,0:0:0:0:
237,314,76504,1,2,0:0:0:0:
278,344,76571,1,2,0:0:0:0:
361,362,76639,53,10,0:0:0:0:
400,331,76705,1,2,0:0:0:0:
418,283,76772,1,2,0:0:0:0:
406,233,76840,1,2,0:0:0:0:
377,191,76906,54,0,B|372:157|372:157|380:114,1,72
403,30,77040,1,2,0:0:0:0:
291,237,77174,1,8,0:0:0:0:
461,151,77309,1,2,0:0:0:0:
290,90,77442,53,0,0:0:0:0:
376,285,77576,1,2,0:0:0:0:
232,160,77710,53,8,0:0:0:0:
351,17,77844,1,2,0:0:0:0:
260,253,77979,54,0,B|192:262|147:213|147:213|129:260|78:275,1,216
51,118,78246,2,0,P|55:153|57:202,1,72
58,359,78380,1,2,0:0:0:0:
58,359,78448,1,2,0:0:0:0:
58,359,78514,2,0,B|94:365|94:365|131:349,1,72
274,136,78648,1,2,0:0:0:0:
268,154,78715,2,0,B|232:160|232:160|195:144,1,72
260,253,78849,1,2,0:0:0:0:
310,245,78917,1,2,0:0:0:0:
355,266,78983,1,2,0:0:0:0:
389,302,79050,54,0,L|397:375,1,72
444,162,79184,2,0,L|452:235,1,72
304,340,79318,1,8,0:0:0:0:
359,56,79452,2,0,L|367:129,1,72
457,260,79587,1,0,0:0:0:0:
454,65,79720,53,2,0:0:0:0:
274,128,79854,1,8,0:0:0:0:
454,65,79988,1,2,0:0:0:0:
343,221,80122,54,0,B|275:245|206:213|206:213|246:238|256:283,1,216
159,365,80390,2,0,P|160:327|171:289,1,72
343,221,80524,1,2,0:0:0:0:
328,357,80658,1,2,0:0:0:0:
314,355,80726,2,0,L|241:349,1,72
116,217,80859,1,2,0:0:0:0:
130,215,80926,2,0,L|203:209,1,72
79,347,81060,2,0,L|6:341,1,72
24,168,81194,53,2,0:0:0:0:
46,122,81261,1,2,0:0:0:0:
90,100,81328,1,2,0:0:0:0:
140,100,81396,1,2,0:0:0:0:
184,123,81462,1,10,0:0:0:0:
333,69,81596,1,2,0:0:0:0:
157,207,81730,2,0,P|192:210|235:197,1,72
243,32,81865,1,2,0:0:0:0:
376,156,81998,2,0,P|341:153|298:166,1,72
163,289,82132,2,0,P|198:292|241:279,1,72
401,339,82266,54,0,B|356:337|328:372|328:372|343:240,1,216
222,128,82535,2,0,L|228:226,1,72
163,289,82668,1,2,0:0:0:0:
118,312,82735,1,2,0:0:0:0:
69,300,82802,1,2,0:0:0:0:
38,259,82869,1,2,0:0:0:0:
48,209,82936,1,2,0:0:0:0:
82,171,83004,1,2,0:0:0:0:
131,164,83070,1,10,0:0:0:0:
179,178,83137,1,2,0:0:0:0:
229,178,83204,1,2,0:0:0:0:
267,146,83271,1,2,0:0:0:0:
283,98,83338,54,0,P|285:60|280:23,1,72
328,212,83472,2,0,P|294:229|264:252,1,72
196,66,83606,1,8,0:0:0:0:
394,116,83740,2,0,P|425:136|460:150,1,72
499,24,83874,1,0,0:0:0:0:
415,279,84008,1,2,0:0:0:0:
376,34,84143,1,8,0:0:0:0:
480,159,84276,1,2,0:0:0:0:
267,146,84410,54,0,B|190:126|203:185|113:159,1,144
136,4,84611,1,2,0:0:0:0:
136,4,84678,2,0,L|146:77,1,72
46,223,84813,2,0,L|36:151,1,72
235,237,84946,1,2,0:0:0:0:
276,265,85013,1,2,0:0:0:0:
325,259,85080,1,2,0:0:0:0:
361,224,85147,1,2,0:0:0:0:
405,200,85214,1,10,0:0:0:0:
452,216,85282,1,2,0:0:0:0:
480,257,85348,1,2,0:0:0:0:
480,307,85415,1,2,0:0:0:0:
441,339,85482,54,0,P|404:342|368:326,1,72
293,179,85616,1,2,0:0:0:0:
279,361,85750,53,8,0:0:0:0:
388,103,85884,1,2,0:0:0:0:
414,253,86018,53,0,0:0:0:0:
251,64,86152,1,2,0:0:0:0:
273,264,86286,53,8,0:0:0:0:
432,51,86420,1,2,0:0:0:0:
345,182,86554,54,0,B|306:197|306:197|323:69|323:69|366:106,1,216
432,51,86822,2,0,B|445:84|445:84|442:120,1,72
322,290,86956,1,2,0:0:0:0:
322,290,87023,1,2,0:0:0:0:
322,290,87091,2,0,L|414:252,1,72
236,130,87224,1,2,0:0:0:0:
233,143,87291,2,0,L|222:221,1,72
223,343,87425,1,2,0:0:0:0:
175,361,87492,1,2,0:0:0:0:
127,345,87559,1,2,0:0:0:0:
101,302,87626,54,0,P|140:285|180:291,1,72
138,94,87760,2,0,P|98:110|58:104,1,72
7,211,87894,1,8,0:0:0:0:
222,214,88028,2,0,P|205:174|211:134,1,72
92,25,88162,1,0,0:0:0:0:
296,161,88296,53,2,0:0:0:0:
117,199,88430,1,8,0:0:0:0:
296,161,88564,1,2,0:0:0:0:
188,325,88698,54,0,B|204:179|204:179|209:213|241:244,1,216
367,155,88966,2,0,P|331:153|291:162,1,72
112,265,89100,1,2,0:0:0:0:
360,300,89234,1,2,0:0:0:0:
348,308,89301,2,0,P|312:315|276:313,1,72
146,113,89435,1,2,0:0:0:0:
158,105,89502,2,0,P|193:97|229:99,1,72
390,30,89636,2,0,P|354:28|314:37,1,72
201,195,89770,53,2,0:0:0:0:
153,209,89837,1,2,0:0:0:0:
102,202,89904,1,2,0:0:0:0:
63,169,89971,1,2,0:0:0:0:
46,121,90038,1,10,0:0:0:0:
164,343,90172,1,2,0:0:0:0:
24,302,90306,2,0,P|66:295|100:281,1,72
145,112,90440,1,2,0:0:0:0:
233,360,90574,2,0,P|191:353|157:339,1,72
29,212,90708,2,0,P|71:205|105:191,1,72
338,244,90842,54,0,B|302:170|204:203|204:203|225:293,1,216
348,339,91110,2,0,B|391:334|417:311|417:311|443:335|490:340,1,144
478,338,91311,1,0,0:0:0:0:
478,338,91378,2,0,L|486:257,1,72
333,213,91512,2,0,L|324:132,1,72
493,116,91646,1,10,0:0:0:0:
493,116,91713,1,2,0:0:0:0:
493,116,91780,2,0,L|501:35,1,72
184,132,91914,53,0,0:0:0:0:
234,124,91981,1,2,0:0:0:0:
284,116,92048,1,0,0:0:0:0:
334,108,92115,1,2,0:0:0:0:
384,99,92182,1,8,0:0:0:0:
171,48,92316,1,2,0:0:0:0:
391,188,92450,1,0,0:0:0:0:
209,236,92584,53,2,0:0:0:0:
261,31,92718,1,8,0:0:0:0:
391,188,92852,1,2,0:0:0:0:
212,147,92986,54,0,B|53:133|53:133|114:185,1,216
71,350,93254,1,10,0:0:0:0:
71,350,93321,1,2,0:0:0:0:
71,350,93388,2,0,P|114:348|153:325,1,72
209,236,93522,2,0,P|252:238|291:261,1,72
355,348,93656,2,0,L|363:261,1,72
497,96,93790,1,10,0:0:0:0:
467,137,93857,1,2,0:0:0:0:
420,153,93924,1,2,0:0:0:0:
370,142,93991,1,2,0:0:0:0:
326,115,94058,54,0,L|336:200,1,72
435,237,94192,1,2,0:0:0:0:
241,149,94326,1,8,0:0:0:0:
412,54,94460,1,2,0:0:0:0:
254,251,94594,53,0,0:0:0:0:
465,364,94728,1,2,0:0:0:0:
229,344,94862,1,8,0:0:0:0:
435,237,94996,1,2,0:0:0:0:
371,366,95130,54,0,L|381:291,3,72
330,233,95398,2,0,L|340:308,3,72
279,359,95666,53,0,0:0:0:0:
264,356,95733,1,0,0:0:0:0:
250,353,95800,1,0,0:0:0:0:
235,350,95867,1,0,0:0:0:0:
196,278,95934,53,8,0:0:0:0:
181,281,96002,1,0,0:0:0:0:
167,284,96068,1,0,0:0:0:0:
152,287,96135,1,0,0:0:0:0:
88,357,96202,54,0,L|78:283,3,72
33,201,96470,54,0,P|74:205|107:192,1,72
250,163,96604,2,0,P|209:167|176:154,1,72
56,116,96738,1,0,0:0:0:0:
231,11,96872,54,0,L|224:93,1,72
339,242,97006,2,0,L|332:160,1,72
428,9,97140,2,0,L|421:91,1,72
475,168,97274,53,4,0:0:0:0:
316,92,97408,1,0,0:0:0:0:
440,301,97542,1,8,0:0:0:0:
510,68,97676,1,0,0:0:0:0:
37,168,97810,53,4,0:0:0:0:
196,92,97943,1,0,0:0:0:0:
72,301,98078,1,8,0:0:0:0:
2,68,98212,1,0,0:0:0:0:
164,216,98346,53,4,0:0:0:0:
210,195,98413,1,0,0:0:0:0:
256,212,98480,1,0,0:0:0:0:
303,195,98547,1,0,0:0:0:0:
348,216,98614,2,0,L|352:142,1,72
212,286,98748,2,0,L|217:361,1,72
208,136,98882,54,0,L|159:119,6,36
139,107,99150,53,12,0:0:0:0:
187,53,99217,1,0,0:0:0:0:
256,30,99284,1,0,0:0:0:0:
323,53,99351,1,0,0:0:0:0:
371,107,99419,53,4,0:0:0:0:
256,192,99554,12,0,101599,0:0:0:0:
259,123,103781,86,0,L|250:59,3,48
191,24,104054,1,0,0:0:0:0:
153,16,104122,1,0,0:0:0:0:
116,24,104190,1,0,0:0:0:0:
86,47,104258,1,0,0:0:0:0:
67,80,104327,1,0,0:0:0:0:
64,118,104395,1,0,0:0:0:0:
77,154,104463,1,0,0:0:0:0:
104,181,104531,1,0,0:0:0:0:
139,195,104599,22,0,L|187:189,1,48
231,270,104736,2,0,L|259:308,1,48
321,360,104872,21,4,0:0:0:0:
359,368,104940,1,0,0:0:0:0:
396,360,105008,1,0,0:0:0:0:
426,337,105076,1,0,0:0:0:0:
445,304,105145,1,0,0:0:0:0:
448,266,105213,1,0,0:0:0:0:
435,230,105281,1,0,0:0:0:0:
408,203,105349,1,0,0:0:0:0:
372,189,105417,22,0,L|334:217,1,48
140,195,105554,2,0,L|178:167,1,48
259,308,105690,2,0,L|231:270,1,48
253,76,105827,2,0,L|281:114,1,48
230,269,105963,22,0,P|236:247|237:215,1,48
84,145,106100,1,0,0:0:0:0:
78,152,106168,1,0,0:0:0:0:
72,159,106236,2,0,P|66:180|65:213,1,48
150,226,106372,1,0,0:0:0:0:
150,226,106440,1,0,0:0:0:0:
150,226,106508,22,0,L|154:194,6,24
36,320,106781,2,0,L|146:308,1,72
307,202,106917,2,0,L|235:209,1,72
169,376,107054,22,0,B|194:321|194:321|165:243,1,144
454,85,107463,2,0,B|429:140|429:140|458:218,1,144
164,242,107872,1,0,0:0:0:0:
331,172,108008,1,0,0:0:0:0:
296,268,108145,21,0,0:0:0:0:
249,64,108281,1,0,0:0:0:0:
409,123,108418,2,0,B|427:167|427:167|404:245,1,96
394,292,108622,1,0,0:0:0:0:
394,292,108691,2,0,L|468:285,1,48
331,172,108827,2,0,L|284:177,1,48
215,270,108963,2,0,L|315:260,1,96
495,214,109235,21,0,0:0:0:0:
380,61,109372,2,0,L|365:123,1,48
344,187,109508,1,8,0:0:0:0:
199,98,109645,2,0,P|239:73|287:73,1,96
426,167,109918,2,0,L|491:157,2,48
266,216,110190,21,2,0:0:0:0:
257,188,110258,1,0,0:0:0:0:
261,159,110326,1,0,0:0:0:0:
435,264,110463,1,0,0:0:0:0:
352,217,110599,2,0,L|346:313,1,96
208,72,110872,2,0,B|255:64|255:64|302:82|302:82|359:71,1,144
439,39,111145,2,0,L|447:156,1,96
254,156,111418,21,0,0:0:0:0:
410,300,111554,2,0,L|350:287,1,48
282,281,111690,1,8,0:0:0:0:
337,112,111826,2,0,B|351:159|351:159|326:230,1,96
200,310,112099,1,2,0:0:0:0:
429,212,112236,21,8,0:0:0:0:
157,138,112372,1,2,0:0:0:0:
365,14,112509,22,0,B|400:76|340:78|384:151,1,144
429,212,112781,2,0,L|323:204,1,96
245,138,112985,1,0,0:0:0:0:
234,128,113054,2,0,L|291:132,1,48
499,106,113190,2,0,L|451:102,1,48
294,55,113327,1,8,0:0:0:0:
279,275,113463,1,2,0:0:0:0:
279,275,113531,1,0,0:0:0:0:
279,275,113599,22,0,L|272:208,1,48
378,166,113736,2,0,L|371:99,1,48
294,55,113872,1,8,0:0:0:0:
365,259,114008,1,2,0:0:0:0:
24,206,114144,21,0,0:0:0:0:
205,139,114281,1,0,0:0:0:0:
164,314,114417,1,8,0:0:0:0:
103,141,114554,1,0,0:0:0:0:
80,294,114690,22,0,P|117:238|204:233,1,144
267,286,114963,2,0,L|279:167,1,96
388,226,115168,1,0,0:0:0:0:
398,235,115236,2,0,L|338:241,1,48
141,231,115372,2,0,L|188:226,1,48
319,124,115508,1,8,0:0:0:0:
264,311,115645,1,2,0:0:0:0:
452,168,115781,22,0,B|484:163|515:123|515:123|495:282,1,216
397,234,116054,2,0,P|373:194|372:146,1,96
437,81,116235,1,2,0:0:0:0:
317,75,116327,22,2,B|357:68|377:43|377:43|397:77|438:82,1,144
372,146,116599,2,2,B|332:153|312:178|312:178|292:144|251:139,1,144
147,237,116872,22,0,L|242:226,1,96
380,230,117145,1,8,0:0:0:0:
457,70,117281,1,0,0:0:0:0:
457,70,117349,1,0,0:0:0:0:
457,70,117418,2,0,L|447:140,1,48
475,241,117554,2,0,L|380:230,1,96
180,148,117827,1,2,0:0:0:0:
237,240,117963,22,0,P|229:287|234:368,1,96
92,126,118235,2,0,P|130:75|227:70,1,144
231,68,118508,1,2,0:0:0:0:
319,294,118645,1,0,0:0:0:0:
128,227,118781,1,10,0:0:0:0:
312,110,118918,1,2,0:0:0:0:
218,291,119054,22,0,P|223:250|227:175,1,96
159,124,119326,1,8,0:0:0:0:
403,192,119463,1,2,0:0:0:0:
299,13,119599,2,0,P|294:54|290:129,1,96
307,183,119804,1,2,0:0:0:0:
307,183,119872,2,0,L|402:191,1,96
501,74,120145,21,0,0:0:0:0:
375,318,120281,2,0,P|370:291|361:251,1,48
480,258,120417,1,8,0:0:0:0:
374,65,120553,2,0,P|379:92|388:132,1,48
402,191,120690,2,0,L|279:199,1,96
172,82,120963,21,8,0:0:0:0:
220,311,121099,1,0,0:0:0:0:
27,198,121236,22,0,P|72:175|145:184,1,96
185,226,121440,1,0,0:0:0:0:
185,226,121509,1,8,0:0:0:0:
16,112,121645,1,2,0:0:0:0:
82,314,121781,2,0,P|83:286|89:244,1,48
116,174,121918,2,0,P|115:146|109:104,1,48
89,44,122054,1,8,0:0:0:0:
27,198,122190,1,2,0:0:0:0:
204,165,122327,22,0,P|248:160|326:205,1,96
347,235,122531,1,0,0:0:0:0:
353,247,122599,1,8,0:0:0:0:
183,78,122736,1,2,0:0:0:0:
205,270,122872,2,0,P|227:251|275:238,1,48
353,123,123008,2,0,P|331:104|283:91,1,48
121,138,123144,1,8,0:0:0:0:
269,322,123281,1,0,0:0:0:0:
296,176,123417,22,0,L|303:39,1,96
512,280,123690,2,0,P|466:240|368:244,1,144
358,245,123963,1,0,0:0:0:0:
491,139,124100,1,2,0:0:0:0:
339,266,124236,1,8,0:0:0:0:
512,280,124372,1,2,0:0:0:0:
370,123,124508,21,0,0:0:0:0:
429,328,124645,1,2,0:0:0:0:
395,136,124781,1,8,0:0:0:0:
255,284,124917,1,2,0:0:0:0:
422,213,125054,22,2,B|385:224|353:207|353:207|308:224|308:224|279:194|228:205,2,192
395,136,125508,1,0,0:0:0:0:
353,296,125599,22,0,B|304:327|291:382|291:382|289:323|249:276,1,216
241,140,126145,2,0,L|255:290,1,144
408,88,126690,22,0,B|456:123|456:123|435:229,1,144
217,147,127099,1,0,0:0:0:0:
217,147,127167,1,0,0:0:0:0:
217,147,127235,2,0,B|294:127|279:191|373:161,1,144
139,92,127645,1,0,0:0:0:0:
243,226,127781,22,0,L|254:82,2,144
169,56,128463,1,2,0:0:0:0:
340,83,128599,2,0,L|429:90,1,72
411,88,128804,1,2,0:0:0:0:
411,88,128872,1,0,0:0:0:0:
206,141,129009,22,0,B|152:136|152:136|115:153|115:153|66:149,1,144
24,219,129349,1,2,0:0:0:0:
24,219,129417,2,0,P|61:248|106:249,1,72
149,33,129690,2,0,P|105:50|82:89,1,72
172,352,129963,22,0,B|192:279|192:279|164:195,1,144
352,164,130372,2,0,L|344:208,1,36
340,220,130509,2,0,L|256:208,1,72
144,120,130781,2,0,L|228:132,1,72
108,276,131054,1,0,0:0:0:0:
330,214,131327,22,0,P|327:171|334:118,1,72
407,38,131600,2,0,B|396:112|428:92|416:180,1,144
279,68,132008,1,0,0:0:0:0:
279,68,132076,1,0,0:0:0:0:
279,68,132144,1,0,0:0:0:0:
350,233,132281,22,0,B|416:206|416:206|490:229,1,144
251,357,132690,2,0,L|257:274,1,72
269,119,132963,2,0,L|263:202,1,72
251,357,133235,21,0,0:0:0:0:
350,233,133372,1,2,0:0:0:0:
169,234,133508,2,0,B|129:226|129:226|100:233|100:233|44:224,1,108
263,190,133781,2,0,B|303:182|303:182|332:189|332:189|388:180,1,108
368,183,134054,2,0,L|363:243,1,48
479,132,134190,2,0,L|474:83,1,48
350,52,134327,22,0,B|387:111|387:111|364:198,1,144
298,123,134599,1,8,0:0:0:0:
511,241,134735,2,0,P|463:228|414:241,1,96
328,354,135008,2,0,L|335:289,1,48
346,181,135145,1,8,0:0:0:0:
201,140,135281,2,0,L|208:205,1,48
261,264,135418,22,0,B|214:278|214:278|154:268,1,96
151,65,135690,2,0,B|198:51|198:51|258:61,1,96
354,246,135963,1,2,0:0:0:0:
201,140,136099,1,0,0:0:0:0:
450,63,136236,1,8,0:0:0:0:
295,174,136372,1,2,0:0:0:0:
295,174,136440,1,0,0:0:0:0:
295,174,136508,22,0,P|341:155|403:170,1,96
464,244,136781,1,8,0:0:0:0:
476,109,136918,1,2,0:0:0:0:
476,109,136986,1,0,0:0:0:0:
476,109,137054,2,0,L|479:166,1,48
350,242,137190,2,0,L|347:299,1,48
484,338,137326,1,8,0:0:0:0:
385,160,137463,1,2,0:0:0:0:
169,303,137599,22,0,L|271:287,1,96
182,46,137872,2,0,B|174:92|174:92|198:138,1,96
237,212,138077,1,0,0:0:0:0:
237,212,138145,2,0,L|182:220,1,48
285,70,138281,2,0,L|295:131,1,48
325,264,138417,21,8,0:0:0:0:
379,86,138554,1,0,0:0:0:0:
196,135,138690,22,0,L|83:122,1,96
78,280,138961,2,0,B|128:274|128:274|168:290|168:290|238:285,1,144
240,275,139232,1,0,0:0:0:0:
104,365,139368,1,2,0:0:0:0:
191,104,139503,2,0,L|180:205,1,96
180,199,139706,1,0,0:0:0:0:
180,199,139774,1,0,0:0:0:0:
319,175,139910,22,0,P|281:172|251:184,1,48
100,243,140046,1,8,0:0:0:0:
221,292,140181,2,0,P|183:295|153:283,1,48
97,157,140317,21,0,0:0:0:0:
134,358,140452,1,2,0:0:0:0:
288,249,140588,1,8,0:0:0:0:
127,369,140723,1,2,0:0:0:0:
185,105,140859,22,0,B|202:154|202:154|190:205,1,96
134,283,141128,1,8,0:0:0:0:
379,234,141263,2,0,L|372:300,1,48
294,340,141398,2,0,B|277:291|277:291|289:240,1,96
475,191,141667,1,8,0:0:0:0:
285,144,141802,1,2,0:0:0:0:
389,63,141937,22,0,L|381:164,1,96
373,281,142207,1,8,0:0:0:0:
230,235,142341,1,2,0:0:0:0:
226,206,142409,1,0,0:0:0:0:
238,179,142477,1,0,0:0:0:0:
381,158,142611,1,2,0:0:0:0:
338,360,142745,21,8,0:0:0:0:
315,219,142881,1,0,0:0:0:0:
140,213,143015,21,0,0:0:0:0:
373,281,143149,1,0,0:0:0:0:
119,293,143282,21,8,0:0:0:0:
394,201,143417,1,0,0:0:0:0:
242,105,143551,22,0,L|192:97,3,28.8
182,86,143685,2,0,L|179:156,1,57.6
308,62,143819,2,0,L|248:24,1,57.6
261,178,143952,2,0,L|323:145,1,57.6
415,40,144087,22,0,B|401:135|401:135|432:184,1,144
497,218,144288,2,0,B|429:196|429:196|358:226,1,144
412,373,144489,2,0,B|429:275|429:275|375:299,1,144
306,78,144690,2,0,B|289:176|289:176|343:152,1,144
404,133,144891,21,0,0:0:0:0:
316,314,145025,1,0,0:0:0:0:
459,196,145159,22,2,B|487:168|485:129|485:129|531:220|490:271,1,216
439,326,145426,2,0,P|418:295|423:221,1,72
404,133,145560,1,2,0:0:0:0:
396,84,145627,1,0,0:0:0:0:
359,52,145694,1,0,0:0:0:0:
309,52,145761,1,0,0:0:0:0:
272,84,145829,1,2,0:0:0:0:
265,133,145895,1,0,0:0:0:0:
282,179,145962,1,8,0:0:0:0:
264,224,146029,1,0,0:0:0:0:
220,246,146096,1,2,0:0:0:0:
173,231,146162,1,0,0:0:0:0:
148,189,146230,54,0,P|124:184|37:181,1,72
33,106,146364,2,0,P|57:100|144:97,1,72
335,124,146499,53,8,0:0:0:0:
283,321,146632,1,2,0:0:0:0:
254,117,146766,1,0,0:0:0:0:
458,232,146900,1,2,0:0:0:0:
301,53,147034,1,8,0:0:0:0:
202,280,147169,1,2,0:0:0:0:
422,142,147302,54,2,B|383:132|369:95|369:95|351:130|304:137,1,144
230,68,147503,1,0,0:0:0:0:
230,68,147570,2,0,L|301:53,1,72
512,49,147704,2,0,L|441:64,1,72
354,212,147838,53,0,0:0:0:0:
376,256,147905,1,0,0:0:0:0:
366,304,147972,1,2,0:0:0:0:
329,337,148039,1,0,0:0:0:0:
244,337,148107,53,8,0:0:0:0:
208,301,148173,1,0,0:0:0:0:
161,286,148240,1,2,0:0:0:0:
111,294,148308,1,0,0:0:0:0:
71,323,148374,54,0,P|76:289|65:216,1,72
39,175,148508,1,2,0:0:0:0:
154,380,148642,1,8,0:0:0:0:
0,280,148777,1,2,0:0:0:0:
224,136,148910,53,0,0:0:0:0:
27,68,149044,1,2,0:0:0:0:
194,63,149178,53,8,0:0:0:0:
103,245,149312,1,0,0:0:0:0:
275,222,149447,54,2,B|256:171|270:81|270:81|257:119|224:136,1,216
161,3,149714,2,0,P|169:37|194:63,1,72
350,174,149848,1,2,0:0:0:0:
350,174,149916,1,0,0:0:0:0:
350,174,149982,2,0,P|343:139|354:105,1,72
119,257,150116,1,2,0:0:0:0:
133,274,150183,2,0,L|223:260,1,72
399,372,150317,1,0,0:0:0:0:
375,328,150384,1,2,0:0:0:0:
331,303,150451,1,0,0:0:0:0:
282,304,150518,54,0,P|286:271|286:203,1,72
429,132,150652,2,0,P|433:165|433:233,1,72
314,384,150786,53,8,0:0:0:0:
352,176,150920,1,2,0:0:0:0:
352,176,150987,1,0,0:0:0:0:
352,176,151055,1,0,0:0:0:0:
144,228,151188,53,2,0:0:0:0:
483,290,151322,1,8,0:0:0:0:
144,228,151456,1,2,0:0:0:0:
342,257,151590,54,2,B|299:250|281:214|281:214|252:208|227:226|227:226|227:272|183:303,1,216
198,152,151858,2,0,P|229:140|318:137,1,72
277,332,151992,1,2,0:0:0:0:
26,293,152126,1,0,0:0:0:0:
31,313,152194,2,0,B|66:324|66:324|101:316,1,72
339,261,152327,1,0,0:0:0:0:
334,241,152394,2,0,B|299:230|299:230|264:238,1,72
33,195,152528,2,0,B|68:206|68:206|103:198,1,72
318,111,152662,53,0,0:0:0:0:
280,76,152728,1,0,0:0:0:0:
232,70,152796,1,2,0:0:0:0:
191,99,152863,1,0,0:0:0:0:
176,146,152930,54,0,P|183:182|189:235,1,72
317,373,153064,2,0,P|324:337|330:284,1,72
431,155,153198,1,0,0:0:0:0:
431,155,153265,1,0,0:0:0:0:
431,155,153333,2,0,L|328:160,1,72
102,198,153466,53,8,0:0:0:0:
433,305,153600,1,0,0:0:0:0:
246,323,153734,54,2,B|270:262|269:181|269:181|293:231|334:248,1,216
433,305,154003,2,0,B|395:299|409:327|365:319,1,72
197,133,154136,1,2,0:0:0:0:
233,99,154203,1,0,0:0:0:0:
283,92,154270,1,0,0:0:0:0:
327,114,154337,1,0,0:0:0:0:
352,157,154404,1,2,0:0:0:0:
387,192,154471,1,0,0:0:0:0:
436,200,154538,1,8,0:0:0:0:
480,177,154605,1,0,0:0:0:0:
502,133,154672,1,2,0:0:0:0:
494,84,154739,1,0,0:0:0:0:
458,50,154806,54,0,P|425:57|348:58,1,72
279,250,154940,2,0,P|276:214|270:179,1,72
304,26,155074,53,8,0:0:0:0:
425,131,155208,1,2,0:0:0:0:
192,231,155342,1,0,0:0:0:0:
387,59,155476,1,2,0:0:0:0:
401,303,155611,1,8,0:0:0:0:
213,150,155744,1,2,0:0:0:0:
415,220,155878,54,2,B|336:206|355:266|275:249,1,144
286,99,156079,1,0,0:0:0:0:
286,99,156146,2,0,P|295:134|298:193,1,72
204,301,156281,2,0,P|195:266|192:207,1,72
81,98,156414,1,0,0:0:0:0:
129,87,156481,1,0,0:0:0:0:
177,102,156548,1,2,0:0:0:0:
210,139,156615,1,0,0:0:0:0:
249,169,156682,1,8,0:0:0:0:
298,169,156749,1,0,0:0:0:0:
336,137,156816,1,2,0:0:0:0:
346,89,156882,1,0,0:0:0:0:
322,45,156950,54,0,P|292:26|217:44,1,72
129,172,157084,1,2,0:0:0:0:
167,9,157218,1,8,0:0:0:0:
296,269,157352,1,2,0:0:0:0:
272,97,157486,53,0,0:0:0:0:
125,258,157620,1,2,0:0:0:0:
356,194,157754,53,8,0:0:0:0:
59,109,157888,1,0,0:0:0:0:
119,344,158022,54,2,B|169:337|169:337|212:301|212:301|244:344|244:344|328:366,1,216
389,355,158290,2,0,B|380:322|380:322|398:251,1,72
122,175,158424,1,2,0:0:0:0:
122,175,158491,1,0,0:0:0:0:
122,175,158559,2,0,L|140:274,1,72
313,261,158692,1,2,0:0:0:0:
293,271,158759,2,0,L|311:172,1,72
328,55,158893,1,0,0:0:0:0:
378,52,158960,1,2,0:0:0:0:
420,79,159027,1,0,0:0:0:0:
441,124,159094,54,0,P|475:127|567:112,1,72
293,271,159228,2,0,P|257:268|221:272,1,72
357,136,159362,1,8,0:0:0:0:
263,357,159496,1,2,0:0:0:0:
263,357,159563,1,0,0:0:0:0:
263,357,159630,1,0,0:0:0:0:
145,190,159764,53,2,0:0:0:0:
437,232,159898,1,8,0:0:0:0:
145,190,160032,1,2,0:0:0:0:
352,126,160166,54,2,B|374:88|374:88|244:71|244:71|266:116,1,216
321,211,160434,1,8,0:0:0:0:
321,211,160501,1,0,0:0:0:0:
321,211,160568,2,0,L|427:200,1,72
481,320,160702,1,0,0:0:0:0:
459,327,160769,2,0,P|424:325|391:310,1,72
172,98,160903,1,0,0:0:0:0:
193,91,160970,2,0,P|228:92|261:107,1,72
461,151,161104,2,0,L|389:158,1,72
125,260,161238,53,0,0:0:0:0:
169,237,161305,1,0,0:0:0:0:
218,243,161372,1,2,0:0:0:0:
256,275,161439,1,0,0:0:0:0:
270,323,161506,1,8,0:0:0:0:
301,189,161640,1,2,0:0:0:0:
182,325,161774,1,0,0:0:0:0:
178,347,161841,1,0,0:0:0:0:
173,369,161908,1,2,0:0:0:0:
288,68,162042,53,8,0:0:0:0:
369,310,162176,1,0,0:0:0:0:
484,115,162310,54,2,B|432:67|369:100|369:100|347:155|286:150,1,216
353,223,162578,2,0,B|394:214|427:174|427:174|460:232,1,144
453,220,162779,1,0,0:0:0:0:
453,220,162846,2,0,P|449:259|446:332,1,72
301,358,162980,1,2,0:0:0:0:
281,312,163047,1,0,0:0:0:0:
241,281,163114,1,8,0:0:0:0:
192,273,163181,1,0,0:0:0:0:
145,290,163248,2,0,P|142:254|138:218,1,72
37,98,163382,53,0,0:0:0:0:
7,136,163448,1,0,0:0:0:0:
0,187,163516,1,2,0:0:0:0:
18,233,163583,1,0,0:0:0:0:
56,267,163650,1,8,0:0:0:0:
252,99,163784,1,2,0:0:0:0:
210,365,163918,53,0,0:0:0:0:
92,172,164052,1,2,0:0:0:0:
210,365,164186,53,8,0:0:0:0:
151,78,164320,1,2,0:0:0:0:
417,311,164454,54,2,B|472:342|472:342|441:164,1,216
432,101,164722,1,8,0:0:0:0:
432,101,164789,1,0,0:0:0:0:
432,101,164856,2,0,L|311:121,1,72
325,219,164990,53,0,0:0:0:0:
276,228,165056,1,0,0:0:0:0:
229,212,165124,1,2,0:0:0:0:
196,174,165191,1,0,0:0:0:0:
150,95,165258,53,8,0:0:0:0:
100,86,165325,1,0,0:0:0:0:
54,105,165392,1,2,0:0:0:0:
25,145,165459,1,0,0:0:0:0:
21,195,165526,54,0,P|58:196|143:176,1,72
280,136,165660,1,2,0:0:0:0:
121,7,165794,1,8,0:0:0:0:
65,292,165928,1,2,0:0:0:0:
303,236,166062,1,0,0:0:0:0:
107,171,166196,1,2,0:0:0:0:
179,365,166330,53,8,0:0:0:0:
318,51,166464,1,0,0:0:0:0:
393,285,166598,53,4,0:0:0:0:
443,288,166664,1,0,0:0:0:0:
486,264,166732,1,0,0:0:0:0:
511,222,166798,1,0,0:0:0:0:
509,172,166865,1,8,0:0:0:0:
480,131,166933,1,0,0:0:0:0:
435,112,166999,1,0,0:0:0:0:
386,120,167066,1,0,0:0:0:0:
340,141,167133,1,0,0:0:0:0:
291,136,167201,1,0,0:0:0:0:
250,107,167268,1,0,0:0:0:0:
230,62,167335,1,0,0:0:0:0:
195,27,167402,1,8,0:0:0:0:
146,19,167469,1,0,0:0:0:0:
102,40,167536,1,0,0:0:0:0:
78,84,167603,1,0,0:0:0:0:
84,133,167670,54,0,P|91:171|93:249,1,72
28,343,167804,2,0,P|22:307|19:271,1,72
160,104,167938,1,8,0:0:0:0:
204,80,168004,1,0,0:0:0:0:
253,82,168072,1,0,0:0:0:0:
296,108,168139,1,0,0:0:0:0:
321,151,168205,1,0,0:0:0:0:
342,196,168272,1,0,0:0:0:0:
383,224,168340,1,0,0:0:0:0:
433,227,168407,1,0,0:0:0:0:
477,203,168474,2,0,P|470:165|468:87,1,72
230,170,168608,2,0,P|235:205|238:241,1,72
301,343,168742,53,4,0:0:0:0:
375,68,168876,1,0,0:0:0:0:
145,215,169010,1,8,0:0:0:0:
416,295,169144,1,0,0:0:0:0:
96,295,169278,53,4,0:0:0:0:
367,215,169411,1,0,0:0:0:0:
137,68,169546,1,8,0:0:0:0:
211,343,169680,1,0,0:0:0:0:
296,158,169814,53,4,0:0:0:0:
265,140,169881,1,0,0:0:0:0:
229,146,169948,1,0,0:0:0:0:
206,174,170015,1,0,0:0:0:0:
206,210,170082,1,12,0:0:0:0:
229,237,170149,1,0,0:0:0:0:
265,243,170216,1,0,0:0:0:0:
296,225,170283,1,0,0:0:0:0:
308,191,170350,2,0,L|352:182,6,36
379,113,170618,53,12,0:0:0:0:
414,150,170685,1,0,0:0:0:0:
418,200,170752,1,0,0:0:0:0:
394,244,170819,1,0,0:0:0:0:
345,258,170886,102,2,B|306:259|306:259|275:246|275:246|220:280|220:280|186:262|186:262|128:262,1,216
62,218,171154,38,0,B|48:268|48:268|68:312,1,96
207,151,171422,102,0,L|217:76,2,64
52,128,171690,2,0,P|83:130|113:143,1,64
146,262,171869,1,2,0:0:0:0:
245,239,171958,54,0,B|271:179|271:179|240:109,1,128
199,32,172226,2,0,L|275:41,1,64
367,187,172405,1,2,0:0:0:0:
400,104,172494,2,0,L|324:113,1,64
146,262,172672,1,2,0:0:0:0:
109,177,172762,2,0,L|183:186,1,64
238,258,172941,1,2,0:0:0:0:
116,342,173030,22,2,B|65:311|65:311|60:219|60:219|109:178,1,216
238,258,173298,2,0,B|315:228|296:298|385:264,1,144
352,124,173499,1,2,0:0:0:0:
352,124,173566,22,0,L|343:198,1,64
271,337,173745,1,2,0:0:0:0:
447,317,173834,2,0,B|464:270|464:270|449:221,1,96
234,104,174102,5,0,0:0:0:0:
234,104,174169,2,0,B|217:151|217:151|232:200,1,96
304,153,174370,2,2,L|341:148,4,32
175,50,174638,2,2,L|138:45,4,32
230,195,174906,6,2,B|247:251|247:251|225:308,1,108
160,357,175174,54,0,P|80:309|151:250,1,216
229,297,175442,21,2,0:0:0:0:
314,248,175531,1,2,0:0:0:0:
230,195,175620,1,2,0:0:0:0:
311,338,175710,2,0,L|378:342,1,64
150,249,175888,1,2,0:0:0:0:
77,311,175978,86,0,B|116:362|116:362|203:356|203:356|229:297,1,216
137,94,176246,22,0,L|144:170,1,64
150,249,176425,1,2,0:0:0:0:
267,193,176514,85,2,0:0:0:0:
267,193,176581,1,2,0:0:0:0:
267,193,176648,2,0,L|193:200,1,48
254,34,176782,38,0,P|250:75|241:109,1,72
339,250,176916,2,0,P|343:291|352:325,1,72
403,188,177050,2,0,B|356:166|334:110|334:110|314:166|266:194,1,216
182,197,177318,69,0,0:0:0:0:
374,257,177452,2,0,B|334:251|334:251|304:263,1,72
241,104,177586,2,0,B|247:64|247:64|236:33,1,72
421,32,177720,2,0,B|415:72|415:72|427:101,1,72
159,80,177854,38,2,L|111:88,4,32
320,119,178122,2,2,L|368:111,4,32
218,183,178390,85,0,0:0:0:0:
198,184,178457,1,0,0:0:0:0:
178,185,178524,1,0,0:0:0:0:
159,187,178591,1,0,0:0:0:0:
107,191,178658,53,0,0:0:0:0:
253,273,178792,1,0,0:0:0:0:
244,90,178926,1,8,0:0:0:0:
125,283,179060,22,0,L|75:312,1,48
117,97,179194,2,0,L|52:72,1,48
58,198,179328,2,0,L|-3:205,1,48
188,187,179462,6,0,B|253:179|253:179|314:233|314:233|392:226,1,216
394,143,179730,38,0,L|317:150,1,48
229,310,179864,1,2,0:0:0:0:
229,310,179931,1,0,0:0:0:0:
229,310,179998,2,0,P|224:291|232:249,1,48
254,49,180132,2,0,P|259:68|251:110,1,48
75,191,180266,70,0,B|125:169|125:169|174:192|174:192|219:168|219:168|279:193,1,216
166,49,180534,38,0,L|170:113,1,48
150,270,180668,2,0,P|179:274|204:262,1,48
346,147,180802,70,0,B|360:194|360:194|345:243,1,96
407,319,181003,2,0,L|426:251,1,48
413,77,181137,1,2,0:0:0:0:
413,77,181204,2,0,L|429:135,1,48
501,191,181338,37,2,0:0:0:0:
501,191,181405,1,2,0:0:0:0:
501,191,181472,2,0,B|472:188|472:188|448:197|448:197|415:194,1,72
224,170,181606,70,0,L|231:249,1,72
419,272,181740,2,0,L|412:351,1,72
260,320,181874,22,0,P|218:327|188:307,2,64
180,151,182142,2,0,P|153:141|112:152,1,64
116,313,182321,1,2,0:0:0:0:
193,237,182410,86,2,L|68:218,1,96
38,155,182611,1,0,0:0:0:0:
38,155,182678,38,0,B|48:221|35:282|35:282|63:237|98:222,1,216
180,151,182946,2,2,L|185:113,4,32
116,313,183214,2,2,L|110:350,4,32
204,296,183482,6,2,B|256:276|256:276|304:297,1,108
399,279,183750,86,0,L|391:356,2,64
410,180,184018,1,0,0:0:0:0:
493,242,184107,1,2,0:0:0:0:
504,137,184197,1,2,0:0:0:0:
410,180,184286,86,0,B|366:181|341:170|341:170|301:201|301:201|261:186|211:193,1,192
261,39,184554,1,2,0:0:0:0:
261,39,184621,2,0,B|297:15|297:15|279:123,1,144
231,191,184822,38,0,L|167:196,1,48
113,199,184956,1,2,0:0:0:0:
327,343,185090,1,2,0:0:0:0:
327,343,185157,2,0,B|341:293|341:293|322:242,1,96
179,310,185358,70,0,P|218:310|257:292,1,72
302,168,185492,2,0,P|341:168|380:186,1,72
453,345,185626,2,0,L|448:260,1,72
444,98,185760,1,2,0:0:0:0:
444,98,185827,1,0,0:0:0:0:
444,98,185894,38,0,L|389:88,1,48
372,243,186028,2,0,L|317:253,1,48
306,68,186162,2,0,L|251:58,1,48
243,264,186296,2,0,L|188:274,1,48
147,77,186430,70,2,L|141:39,4,32
107,238,186698,2,2,L|101:276,4,32
216,153,186966,6,0,L|211:213,1,48
204,287,187100,1,0,0:0:0:0:
40,187,187234,2,0,P|85:155|138:159,1,96
320,333,187502,53,8,0:0:0:0:
107,238,187636,1,0,0:0:0:0:
285,244,187770,21,0,0:0:0:0:
74,360,187904,1,0,0:0:0:0:
208,206,188038,6,2,B|192:365|192:365|175:311,1,216
16,249,188306,2,0,P|60:230|107:238,1,96
235,294,188574,22,2,P|206:308|175:311,1,64
66,183,188753,1,2,0:0:0:0:
16,249,188842,54,2,P|45:263|77:265,1,64
195,150,189021,1,2,0:0:0:0:
244,216,189110,54,2,P|215:229|184:232,2,64
71,121,189378,2,2,P|98:118|152:84,1,64
78,39,189556,1,2,0:0:0:0:
195,150,189646,86,2,B|168:183|168:183|66:206|66:206|9:185,1,192
78,39,189914,2,0,B|94:72|94:72|81:137,1,72
137,356,190048,2,0,B|121:323|121:323|134:258,1,72
278,202,190182,21,0,0:0:0:0:
274,280,190271,1,2,0:0:0:0:
208,237,190361,1,2,0:0:0:0:
253,239,190450,2,0,B|328:222|306:275|393:261,1,144
472,142,190718,85,10,0:0:0:0:
429,130,190784,1,2,0:0:0:0:
391,147,190852,1,2,0:0:0:0:
372,186,190919,1,2,0:0:0:0:
390,261,190986,37,2,0:0:0:0:
423,287,191052,1,2,0:0:0:0:
465,285,191120,1,2,0:0:0:0:
498,258,191187,1,2,0:0:0:0:
442,210,191254,102,0,L|345:203,1,64
211,243,191433,1,2,0:0:0:0:
297,279,191522,86,2,B|338:287|338:287|314:158|314:158|269:193,1,216
211,243,191790,2,2,L|167:252,4,32
280,184,192058,54,2,B|292:143|292:143|269:72,1,108
246,9,192326,54,0,L|377:22,1,96
169,61,192594,38,2,B|128:67|128:67|107:59|107:59|59:64,1,108
60,86,192728,2,2,B|101:80|101:80|122:88|122:88|170:83,1,108
153,169,192862,70,2,B|112:175|112:175|91:167|91:167|43:172,1,108
44,194,192996,2,2,B|85:188|85:188|106:196|106:196|154:191,1,108
172,275,193130,21,2,0:0:0:0:
120,275,193219,1,2,0:0:0:0:
69,282,193309,1,2,0:0:0:0:
96,361,193398,2,0,P|129:354|196:363,2,64
264,384,193666,2,0,B|240:330|240:330|270:211,1,160
422,282,193934,53,10,0:0:0:0:
404,384,194023,1,2,0:0:0:0:
327,319,194112,1,2,0:0:0:0:
327,319,194202,2,2,B|287:323|254:310|254:310|211:336|211:336|171:306|123:315,1,216
73,248,194470,22,2,P|68:220|89:238,1,72
70,245,194604,6,2,P|64:214|87:234,1,79.2
67,242,194738,22,2,P|61:208|86:230,1,86.39999
64,239,194872,22,2,P|57:202|84:226,1,93.6
61,236,195006,22,2,P|53:195|83:221,1,100.8
58,233,195140,6,2,P|50:189|82:217,1,108
55,230,195274,6,2,P|46:182|82:213,1,115.2
52,227,195408,22,2,P|43:178|79:209,1,122.4
159,176,195542,86,0,P|152:157|123:114,1,48
0,109,195676,2,0,P|22:100|46:96,1,48
231,107,195810,1,0,0:0:0:0:
148,270,195944,1,0,0:0:0:0:
149,45,196078,1,8,0:0:0:0:
396,230,196212,54,0,L|409:155,1,48
310,233,196346,2,0,L|323:158,1,48
224,236,196480,2,0,L|237:161,1,48
274,99,196614,38,2,B|245:103|214:96|214:96|132:143|132:143|104:133|42:136,1,216
13,229,196882,21,2,0:0:0:0:
89,219,196972,1,2,0:0:0:0:
146,269,197060,1,2,0:0:0:0:
224,236,197150,53,10,0:0:0:0:
281,286,197239,1,2,0:0:0:0:
357,276,197329,1,2,0:0:0:0:
430,312,197418,22,2,L|442:220,1,72
371,85,197686,22,0,B|359:128|359:128|383:200,1,96
442,130,197865,1,2,0:0:0:0:
290,83,197954,86,0,B|195:68|195:68|227:112,1,144
154,2,198155,2,0,B|127:27|127:27|116:61,2,72
187,180,198356,2,0,B|222:190|222:190|257:184,1,72
293,0,198490,37,2,0:0:0:0:
293,0,198557,1,2,0:0:0:0:
293,0,198624,2,0,B|316:26|316:26|324:62,1,72
317,247,198758,70,0,B|339:221|339:221|394:207,1,72
409,56,198892,2,0,B|403:89|403:89|427:140,1,72
389,295,199025,37,2,0:0:0:0:
489,76,199160,1,2,0:0:0:0:
389,295,199294,1,10,0:0:0:0:
489,76,199428,1,2,0:0:0:0:
475,203,199562,70,2,L|468:243,4,32
426,135,199830,2,0,B|397:107|396:62|396:62|339:143|282:144,1,216
240,207,200098,38,2,L|247:247,4,32
159,68,200366,2,2,L|153:36,4,32
110,130,200634,6,2,B|160:148|160:148|233:124,1,108
297,154,200902,86,0,P|265:149|215:117,1,64
285,71,201080,1,2,0:0:0:0:
374,203,201170,54,0,P|405:198|455:166,1,64
386,120,201348,1,2,0:0:0:0:
304,237,201438,22,0,B|240:238|187:200|187:200|201:225|197:268,1,192
119,243,201706,1,2,0:0:0:0:
109,233,201773,2,0,B|80:232|61:208|61:208|77:299,1,144
97,375,201974,38,0,P|56:374|19:350,1,48
0,312,202108,1,2,0:0:0:0:
123,161,202242,1,2,0:0:0:0:
130,148,202309,2,0,B|82:155|82:155|55:183|55:183|-23:197,1,144
0,46,202510,70,0,B|19:76|19:76|15:136,1,72
111,295,202644,2,0,B|109:259|109:259|128:229,1,72
219,91,202778,2,0,L|337:112,1,72
338,270,202912,2,0,L|456:249,1,72
485,143,203046,22,0,P|451:127|398:129,1,64
229,277,203224,1,2,0:0:0:0:
173,212,203314,54,0,P|207:196|260:198,1,64
396,346,203493,1,2,0:0:0:0:
420,268,203581,22,2,L|430:224,4,32
301,346,203850,2,2,L|311:390,4,32
325,256,204118,6,0,B|287:243|243:274|243:274|260:131,1,216
171,111,204386,2,0,B|155:238|155:238,1,96
481,225,204654,2,0,B|513:132|416:98|416:98|423:160,1,216
334,76,204922,2,0,B|345:171,1,96
12,261,205190,102,2,B|57:226|96:227|147:248|147:248|112:224|93:170,1,216
177,58,205458,2,0,B|201:114|201:114|187:166,1,115.2
88,338,205726,1,0,0:0:0:0:
88,338,205859,2,0,L|97:277,1,57.6
94,116,205994,22,0,L|102:192,2,76.8
168,244,206262,53,2,0:0:0:0:
243,207,206351,1,2,0:0:0:0:
308,260,206441,1,2,0:0:0:0:
383,223,206529,2,0,L|468:219,2,76.8
241,306,206798,21,0,0:0:0:0:
241,306,206932,2,0,L|238:236,1,57.6
193,152,207066,22,0,L|269:146,1,76.8
400,133,207244,1,2,0:0:0:0:
336,73,207334,86,2,P|305:146|395:96,1,216
237,61,207602,2,0,B|216:119|216:119|240:188,1,115.2
242,256,207803,1,2,0:0:0:0:
242,256,207870,2,0,L|173:247,1,57.6
121,163,208004,1,2,0:0:0:0:
161,340,208137,1,10,0:0:0:0:
233,169,208272,1,2,0:0:0:0:
319,336,208406,37,0,0:0:0:0:
319,336,208473,2,0,B|339:281|339:281|324:220,1,115.2
434,167,208674,2,0,L|423:235,1,57.6
243,227,208807,2,0,L|240:189,4,38.4
319,336,209076,1,0,0:0:0:0:
425,224,209210,6,2,B|373:203|373:203|325:224,1,108
165,236,209477,54,0,P|101:195|202:144,1,216
240,189,209746,21,10,0:0:0:0:
247,286,209835,1,2,0:0:0:0:
326,226,209925,1,2,0:0:0:0:
165,236,210014,86,0,L|94:232,1,57.6
35,242,210148,1,2,0:0:0:0:
238,234,210282,38,0,B|193:238|157:220|157:220|109:251|109:251|76:237|34:242,1,216
214,72,210550,102,0,P|224:108|218:159,1,76.8
174,309,210728,1,2,0:0:0:0:
238,234,210818,85,10,0:0:0:0:
238,234,210885,1,2,0:0:0:0:
238,234,210952,2,0,L|311:236,1,57.6
357,123,211085,38,0,P|322:123|287:113,1,72
272,366,211220,2,0,P|306:356|342:357,1,72
393,197,211354,2,2,B|433:181|433:181|426:311|426:311|387:281,1,216
325,237,211622,69,0,0:0:0:0:
272,366,211755,2,0,L|257:285,1,72
325,237,211890,2,0,L|310:156,1,72
375,113,212024,2,0,L|360:32,1,72
177,140,212158,38,0,L|170:192,4,48
88,147,212426,2,0,P|39:157|13:151,1,72
133,61,212560,2,0,P|182:51|208:57,1,72
261,144,212693,85,0,0:0:0:0:
258,172,212761,1,0,0:0:0:0:
255,200,212828,1,0,0:0:0:0:
252,228,212894,1,0,0:0:0:0:
249,256,212962,53,8,0:0:0:0:
42,263,213096,1,0,0:0:0:0:
147,201,213230,1,0,0:0:0:0:
199,326,213363,22,0,P|176:300|163:270,1,57.6
217,86,213498,2,0,P|206:118|186:144,1,57.6
11,184,213632,2,0,P|44:176|77:180,1,57.6
249,256,213766,6,0,B|309:277|352:262|386:232|386:232|368:273|376:311,1,216
442,343,214033,2,0,P|452:309|448:270,1,57.6
299,123,214168,1,2,0:0:0:0:
299,123,214235,1,0,0:0:0:0:
299,123,214302,2,0,P|309:157|305:196,1,57.6
289,350,214436,1,2,0:0:0:0:
375,99,214570,2,0,P|456:110|374:157,1,216
228,167,214838,38,0,L|170:173,1,57.6
90,187,214971,1,2,0:0:0:0:
292,102,215106,70,0,B|318:153|318:153|305:210,1,115.2
284,288,215307,1,4,0:0:0:0:
284,288,215374,2,0,L|341:281,1,57.6
409,127,215508,1,4,0:0:0:0:
415,316,215641,38,0,B|426:280|426:280|415:233,1,72
220,151,215776,2,0,B|209:187|209:187|220:234,1,72
96,358,215910,69,0,0:0:0:0:
97,343,215977,1,0,0:0:0:0:
99,328,216044,2,0,L|108:238,1,72
148,189,216178,21,10,0:0:0:0:
105,112,216267,1,2,0:0:0:0:
60,189,216356,1,2,0:0:0:0:
190,112,216446,86,0,L|262:108,1,57.6
322,105,216580,1,2,0:0:0:0:
148,189,216714,2,0,B|137:62|137:62|181:107,1,172.8
256,214,216981,38,2,B|226:221|182:205|182:205|131:248|131:248|87:229|39:237,1,216
10,164,217249,70,0,P|50:155|84:160,1,57.6
200,290,217384,2,0,L|207:338,4,38.4
232,134,217652,1,0,0:0:0:0:
19,330,217786,54,2,L|141:317,1,108
282,296,218054,85,0,0:0:0:0:
329,225,218143,2,0,B|297:207|297:207|254:214,1,76.8
153,239,218322,53,8,0:0:0:0:
106,168,218411,2,0,B|138:150|138:150|181:157,1,76.8
278,353,218589,22,0,L|282:278,1,57.6
293,135,218724,1,0,0:0:0:0:
421,205,218858,38,2,B|365:194|365:194|314:222|314:222|245:211,1,172.8
235,126,219126,70,0,L|305:136,1,57.6
382,285,219259,1,2,0:0:0:0:
191,346,219394,1,10,0:0:0:0:
191,346,219461,2,0,B|171:293|171:293|183:235,1,115.2
155,159,219662,38,0,P|196:156|236:173,1,72
301,353,219796,1,0,0:0:0:0:
24,251,219930,2,0,P|65:254|105:237,1,72
329,272,220064,2,0,P|288:269|248:286,1,72
99,369,220197,70,0,L|103:318,1,48
47,123,220332,2,0,L|51:174,1,48
211,272,220466,2,0,L|258:278,1,48
247,150,220600,2,0,L|294:156,1,48
352,279,220734,38,2,L|391:283,4,32
383,190,221002,2,2,L|422:194,4,32
459,324,221270,86,0,P|470:293|463:247,1,57.6
430,109,221404,1,0,0:0:0:0:
383,282,221537,1,8,0:0:0:0:
501,175,221672,1,0,0:0:0:0:
288,143,221805,53,0,0:0:0:0:
470,250,221940,1,0,0:0:0:0:
232,292,222074,21,8,0:0:0:0:
418,181,222207,1,0,0:0:0:0:
306,371,222342,6,2,B|344:325|329:234|329:234|350:272|400:288,1,216
331,156,222610,2,0,P|297:164|269:186,1,72
169,261,222744,2,0,P|203:269|231:291,1,72
408,369,222878,37,2,0:0:0:0:
165,348,223012,2,0,L|79:338,1,57.6
335,236,223145,102,2,B|346:273|346:273|327:334,1,76.8
242,369,223325,1,2,0:0:0:0:
231,291,223414,54,2,L|219:184,1,76.8
142,99,223592,1,2,0:0:0:0:
142,99,223682,2,2,B|130:135|130:135|141:172,1,76.8
352,193,223860,1,2,0:0:0:0:
375,115,223950,22,0,L|297:125,1,57.6
217,132,224083,1,2,0:0:0:0:
412,248,224218,38,0,P|384:266|309:259,1,72
140,171,224352,2,0,P|162:200|194:217,1,72
261,319,224485,102,0,B|270:287|270:287|266:258|266:258|276:219,1,96
292,28,224665,1,2,0:0:0:0:
289,113,224753,86,2,B|291:162|265:190|265:190|277:246|277:246|257:280|260:318,1,216
348,341,225022,1,2,0:0:0:0:
344,324,225089,1,2,0:0:0:0:
344,306,225156,2,0,L|407:314,1,57.6
512,187,225290,1,10,0:0:0:0:
475,171,225356,1,2,0:0:0:0:
435,174,225423,1,2,0:0:0:0:
401,195,225491,1,2,0:0:0:0:
382,230,225557,21,0,0:0:0:0:
463,254,225647,2,0,P|478:285|479:351,1,76.8
393,107,225826,86,2,B|360:67|360:67|381:230,1,216
401,313,226093,2,0,P|366:310|308:278,1,72
292,216,226228,1,0,0:0:0:0:
393,107,226361,54,2,L|519:93,1,108
461,188,226630,54,0,B|417:167|393:107|393:107|373:174|322:189,1,216
202,104,226898,38,2,B|255:121|255:121|304:103,1,108
304,103,227031,2,2,B|251:86|251:86|202:104,1,108
205,188,227166,70,2,B|258:205|258:205|306:186,1,108
307,187,227300,2,2,B|254:170|254:170|205:188,1,108
199,272,227433,21,10,0:0:0:0:
259,285,227523,1,2,0:0:0:0:
316,264,227613,1,2,0:0:0:0:
376,221,227701,53,2,0:0:0:0:
433,200,227791,1,2,0:0:0:0:
493,213,227881,1,2,0:0:0:0:
438,282,227970,22,2,B|400:207|427:124|427:124|427:160|442:174,1,216
441,173,228238,38,0,P|411:177|333:160,1,57.6
319,132,228371,1,2,0:0:0:0:
507,129,228506,70,2,B|465:138|442:174|442:174|381:114|293:138,1,216
214,145,228774,38,2,P|212:106|226:142,1,108
211,142,228908,22,2,P|202:101|230:134,1,115.2
210,141,229041,22,2,P|207:95|225:137,1,122.4
206,138,229176,6,2,P|198:90|232:126,1,129.6
206,137,229309,6,2,P|203:83|223:132,1,136.8
203,134,229444,22,2,P|189:81|234:114,1,144
202,133,229578,22,2,P|198:70|221:128,1,151.2
198,130,229711,22,2,P|184:70|236:105,1,158.4
106,150,229846,22,0,P|93:112|98:51,1,72
299,38,229979,2,0,P|312:76|307:137,1,72
179,215,230114,1,8,0:0:0:0:
159,31,230248,1,0,0:0:0:0:
315,145,230382,1,0,0:0:0:0:
82,233,230516,54,0,L|-4:248,1,57.6
269,288,230649,2,0,L|355:303,1,57.6
75,322,230784,2,0,L|-11:337,1,57.6
173,356,230917,70,0,B|178:326|178:326|171:298|171:298|177:261,1,96
188,115,231096,2,0,L|177:61,2,38.4
321,179,231275,1,2,0:0:0:0:
273,109,231364,1,2,0:0:0:0:
236,185,231454,86,0,P|243:217|277:259,1,57.6
294,322,231587,1,2,0:0:0:0:
145,189,231722,2,2,P|84:244|181:269,1,216
255,238,231989,22,0,B|290:230|290:230|369:243,1,76.8
377,329,232169,1,2,0:0:0:0:
294,322,232257,86,0,B|397:297|397:297|364:353,1,144
477,322,232458,2,0,B|495:232|444:264|465:167,1,144
475,102,232659,2,0,L|387:116,1,72
289,145,232794,37,10,0:0:0:0:
310,149,232861,1,2,0:0:0:0:
327,161,232927,2,0,P|316:120|317:67,1,72
127,16,233062,70,0,P|116:56|117:110,1,72
47,223,233195,1,2,0:0:0:0:
47,223,233263,1,2,0:0:0:0:
47,223,233330,38,0,L|116:235,1,57.6
193,69,233464,2,0,L|262:57,1,57.6
292,291,233597,2,0,L|279:212,1,57.6
413,56,233732,2,0,L|400:135,1,57.6
460,188,233865,70,2,B|471:143|471:143|341:172|341:172|379:208,1,216
419,271,234134,38,2,L|427:323,4,38.4
367,197,234402,2,0,P|341:206|273:198,1,57.6
236,140,234535,2,2,L|244:88,4,38.4
165,220,234804,2,0,P|193:221|220:230,1,57.6
326,128,234937,6,2,L|320:18,1,108
320,20,235205,85,0,0:0:0:0:
398,56,235295,2,0,B|434:65|434:65|472:54,1,76.8
326,128,235473,53,8,0:0:0:0:
256,169,235563,2,0,B|218:180|218:180|182:171,1,76.8
210,34,235742,22,0,L|220:126,1,57.6
231,264,235875,1,2,0:0:0:0:
55,113,236010,37,10,0:0:0:0:
64,102,236076,2,0,P|102:84|177:101,1,72
393,197,236211,1,2,0:0:0:0:
384,208,236278,2,0,P|346:226|271:209,1,72
181,170,236412,1,2,0:0:0:0:
370,74,236545,69,10,0:0:0:0:
355,70,236612,2,0,B|308:54|308:54|334:174,1,144
438,120,236813,2,0,P|449:83|430:17,1,72
231,90,236948,1,2,0:0:0:0:
433,269,237082,2,0,P|437:230|407:168,1,72
238,201,237215,2,0,P|236:236|247:271,1,72
331,321,237350,21,2,0:0:0:0:
331,321,237439,2,0,L|339:244,1,76.8
135,73,237618,53,10,0:0:0:0:
135,73,237707,2,0,L|143:150,1,76.8
37,231,237886,22,2,B|88:224|88:224|126:244|126:244|191:235,1,144
261,199,238087,2,2,L|253:276,2,72
79,384,238288,2,2,L|71:307,1,72
169,333,238421,1,4,0:0:0:0:
256,192,238556,12,0,239427,0:0:0:0:
82,153,239493,6,0,B|130:161|130:161|180:137,1,96
198,126,239695,2,0,L|184:202,1,48
363,350,239896,22,0,L|351:237,1,96
350,225,240097,2,0,L|421:240,1,48
120,69,240298,21,0,0:0:0:0:
304,31,240431,1,0,0:0:0:0:
65,157,240566,22,0,B|118:176|166:164|206:130|206:130|188:164|186:196,1,216
51,270,240834,2,0,L|129:254,1,72
277,184,240968,1,2,0:0:0:0:
316,153,241035,1,2,0:0:0:0:
365,152,241101,1,2,0:0:0:0:
409,176,241168,1,2,0:0:0:0:
423,224,241236,1,2,0:0:0:0:
412,272,241302,1,2,0:0:0:0:
376,308,241369,1,10,0:0:0:0:
326,315,241437,1,2,0:0:0:0:
278,297,241504,1,2,0:0:0:0:
231,314,241570,1,2,0:0:0:0:
201,355,241638,22,0,P|197:320|190:283,1,72
277,184,241771,2,0,P|281:149|288:112,1,72
343,233,241906,1,8,0:0:0:0:
131,181,242039,1,2,0:0:0:0:
131,181,242107,1,0,0:0:0:0:
131,181,242174,1,0,0:0:0:0:
293,90,242307,21,2,0:0:0:0:
187,265,242441,1,8,0:0:0:0:
115,19,242576,1,2,0:0:0:0:
240,179,242709,22,0,B|309:196|309:196|381:166,1,144
376,167,242910,1,2,0:0:0:0:
376,167,242977,2,0,L|386:248,1,72
241,341,243112,2,0,L|246:260,1,72
293,90,243246,1,2,0:0:0:0:
266,46,243313,1,2,0:0:0:0:
216,44,243379,1,2,0:0:0:0:
183,82,243446,1,2,0:0:0:0:
188,132,243514,1,10,0:0:0:0:
196,181,243580,1,2,0:0:0:0:
175,227,243647,1,2,0:0:0:0:
124,231,243715,1,2,0:0:0:0:
86,196,243782,22,0,P|80:155|84:118,1,72
100,43,243916,1,2,0:0:0:0:
36,272,244049,1,8,0:0:0:0:
248,259,244184,1,2,0:0:0:0:
166,155,244317,21,0,0:0:0:0:
147,339,244452,1,2,0:0:0:0:
82,124,244585,1,8,0:0:0:0:
260,164,244719,1,2,0:0:0:0:
100,269,244854,22,0,B|154:233|166:155|166:155|166:201|193:237,1,216
326,239,245122,2,0,L|409:229,1,72
263,92,245255,1,2,0:0:0:0:
263,92,245323,1,2,0:0:0:0:
263,92,245389,2,0,P|257:132|260:168,1,72
468,273,245524,1,2,0:0:0:0:
484,281,245591,2,0,P|490:241|487:205,1,72
466,115,245724,1,2,0:0:0:0:
419,135,245792,1,2,0:0:0:0:
370,123,245858,1,2,0:0:0:0:
344,79,245925,22,0,L|348:157,1,72
354,244,246060,2,0,L|358:322,1,72
266,307,246194,1,8,0:0:0:0:
452,289,246327,1,2,0:0:0:0:
452,289,246394,1,0,0:0:0:0:
452,289,246462,1,0,0:0:0:0:
259,172,246595,21,2,0:0:0:0:
359,341,246730,1,8,0:0:0:0:
421,54,246863,1,2,0:0:0:0:
294,254,246997,22,0,B|248:263|211:248|211:248|166:296|166:296|122:281|75:291,1,216
64,203,247265,2,0,P|111:200|141:208,1,72
294,254,247400,1,2,0:0:0:0:
271,119,247533,1,2,0:0:0:0:
261,103,247601,2,0,B|249:140|249:140|261:180,1,72
374,292,247734,1,2,0:0:0:0:
384,308,247802,2,0,B|396:271|396:271|384:231,1,72
346,141,247935,2,0,L|433:130,1,72
296,273,248070,21,2,0:0:0:0:
248,287,248136,1,2,0:0:0:0:
199,274,248203,1,2,0:0:0:0:
166,235,248271,1,2,0:0:0:0:
160,184,248338,1,10,0:0:0:0:
119,345,248472,1,2,0:0:0:0:
254,121,248605,2,0,P|259:157|252:192,1,72
84,157,248740,1,2,0:0:0:0:
119,345,248873,2,0,P|146:322|180:311,1,72
374,343,249008,2,0,P|340:330|314:305,1,72
360,166,249141,22,0,B|409:195|469:191|469:191|413:216|384:270,1,216
475,361,249410,2,0,P|482:323|472:274,1,72
293,225,249543,1,2,0:0:0:0:
243,233,249611,1,2,0:0:0:0:
201,203,249678,1,2,0:0:0:0:
192,153,249744,1,2,0:0:0:0:
210,105,249811,1,2,0:0:0:0:
255,83,249879,1,2,0:0:0:0:
303,96,249945,1,10,0:0:0:0:
332,136,250012,1,2,0:0:0:0:
377,157,250080,1,2,0:0:0:0:
427,153,250147,1,2,0:0:0:0:
463,118,250213,22,0,P|466:83|471:37,1,72
364,235,250348,2,0,P|361:270|356:316,1,72
265,158,250481,1,8,0:0:0:0:
377,21,250615,1,2,0:0:0:0:
387,47,250682,1,0,0:0:0:0:
382,75,250750,1,0,0:0:0:0:
293,57,250883,21,2,0:0:0:0:
463,118,251018,1,8,0:0:0:0:
265,158,251151,1,2,0:0:0:0:
302,381,251286,22,0,B|322:313|322:313|301:243,1,144
300,242,251487,1,2,0:0:0:0:
300,242,251553,2,0,P|256:240|223:233,1,72
146,328,251688,2,0,P|181:321|217:321,1,72
265,158,251821,1,2,0:0:0:0:
218,139,251889,1,2,0:0:0:0:
172,161,251956,1,2,0:0:0:0:
145,203,252022,1,2,0:0:0:0:
97,220,252089,1,10,0:0:0:0:
51,197,252157,1,2,0:0:0:0:
32,150,252223,1,2,0:0:0:0:
52,103,252290,1,2,0:0:0:0:
97,81,252358,22,0,L|176:70,1,72
306,56,252491,1,2,0:0:0:0:
228,234,252626,1,8,0:0:0:0:
186,68,252759,1,2,0:0:0:0:
301,165,252893,21,0,0:0:0:0:
131,301,253028,1,2,0:0:0:0:
326,337,253161,1,8,0:0:0:0:
153,174,253296,1,2,0:0:0:0:
309,247,253429,22,0,B|369:228|418:239|449:275|449:275|412:268|383:285,1,216
301,165,253697,2,0,P|340:157|384:161,1,72
480,359,253831,1,2,0:0:0:0:
480,359,253898,1,2,0:0:0:0:
480,359,253966,2,0,P|441:351|397:355,1,72
243,242,254099,1,2,0:0:0:0:
238,253,254167,2,0,P|273:254|308:246,1,72
453,152,254300,1,2,0:0:0:0:
408,127,254367,1,2,0:0:0:0:
357,131,254435,1,2,0:0:0:0:
317,162,254501,22,0,L|309:87,1,72
472,6,254636,2,0,L|464:81,1,72
394,220,254769,1,8,0:0:0:0:
487,254,254904,1,2,0:0:0:0:
495,226,254970,1,0,0:0:0:0:
488,197,255037,1,0,0:0:0:0:
308,246,255171,21,2,0:0:0:0:
387,56,255306,1,8,0:0:0:0:
385,307,255439,1,2,0:0:0:0:
105,245,255574,22,0,B|140:242|162:225|162:225|207:239|207:239|248:224|248:224|270:243|311:246,1,216
237,309,255841,2,0,P|200:318|156:301,1,72
204,138,255975,1,2,0:0:0:0:
298,98,256109,1,2,0:0:0:0:
308,95,256176,2,0,P|305:131|310:175,1,72
110,162,256310,1,2,0:0:0:0:
97,167,256377,2,0,P|100:131|97:95,1,72
203,65,256512,2,0,L|203:137,1,72
307,245,256645,21,2,0:0:0:0:
354,261,256713,1,2,0:0:0:0:
403,258,256779,1,2,0:0:0:0:
442,226,256846,1,2,0:0:0:0:
460,178,256914,1,10,0:0:0:0:
394,340,257047,1,2,0:0:0:0:
229,193,257182,2,0,B|256:164|256:164|316:154,1,72
373,173,257315,1,2,0:0:0:0:
283,56,257449,2,0,B|321:64|321:64|360:111,1,72
312,316,257584,2,0,B|300:278|300:278|321:221,1,72
287,158,257717,22,0,B|131:135|131:135|164:157|186:197,1,216
113,349,257985,2,0,B|83:304|83:304|102:205,1,144
99,215,258186,1,2,0:0:0:0:
99,215,258253,2,0,L|11:224,1,72
187,282,258387,2,0,L|258:288,1,72
402,207,258522,1,10,0:0:0:0:
402,207,258588,1,2,0:0:0:0:
402,207,258655,2,0,L|313:215,1,72
450,302,258790,21,0,0:0:0:0:
489,272,258856,1,2,0:0:0:0:
509,226,258923,1,0,0:0:0:0:
502,176,258991,1,2,0:0:0:0:
471,137,259057,1,8,0:0:0:0:
286,284,259192,1,2,0:0:0:0:
347,78,259325,1,0,0:0:0:0:
450,302,259460,21,2,0:0:0:0:
276,193,259593,1,8,0:0:0:0:
509,226,259727,1,2,0:0:0:0:
286,284,259862,22,0,B|236:289|198:245|198:245|131:349,1,216
59,376,260129,1,10,0:0:0:0:
59,376,260196,1,2,0:0:0:0:
59,376,260263,2,0,P|54:337|81:271,1,72
276,193,260397,2,0,P|281:154|254:88,1,72
101,46,260531,2,0,L|19:62,1,72
20,193,260665,1,10,0:0:0:0:
51,154,260732,1,2,0:0:0:0:
97,134,260799,1,2,0:0:0:0:
146,139,260866,1,2,0:0:0:0:
188,166,260933,22,0,L|181:272,1,72
135,342,261068,1,2,0:0:0:0:
324,191,261201,1,8,0:0:0:0:
357,349,261335,1,2,0:0:0:0:
106,221,261470,21,0,0:0:0:0:
371,77,261603,1,2,0:0:0:0:
174,87,261738,1,8,0:0:0:0:
406,215,261871,1,2,0:0:0:0:
256,384,262005,22,0,B|216:276|309:289|268:174,1,216
124,224,262273,2,0,P|163:228|255:196,1,72
403,334,262408,1,2,0:0:0:0:
403,334,262474,1,2,0:0:0:0:
403,334,262541,2,0,P|364:330|272:362,1,72
329,111,262675,1,2,0:0:0:0:
341,128,262742,2,0,P|355:167|350:245,1,72
216,356,262877,1,2,0:0:0:0:
184,317,262943,1,2,0:0:0:0:
136,301,263010,1,2,0:0:0:0:
88,312,263078,22,0,L|98:219,1,72
213,147,263211,2,0,L|205:75,1,72
44,159,263345,1,8,0:0:0:0:
286,253,263479,1,2,0:0:0:0:
286,253,263547,1,0,0:0:0:0:
286,253,263613,1,0,0:0:0:0:
137,384,263748,21,2,0:0:0:0:
136,30,263881,1,8,0:0:0:0:
137,384,264016,1,2,0:0:0:0:
241,170,264149,22,0,B|307:142|364:199|364:199|391:102,1,216
481,114,264418,1,10,0:0:0:0:
481,114,264484,1,2,0:0:0:0:
481,114,264551,2,0,B|459:191,1,72
228,280,264686,1,2,0:0:0:0:
217,270,264752,2,0,P|245:257|327:264,1,72
224,46,264887,1,2,0:0:0:0:
213,56,264953,2,0,P|241:69|323:62,1,72
368,155,265087,2,0,L|296:159,1,72
133,191,265221,21,2,0:0:0:0:
178,170,265288,1,2,0:0:0:0:
227,175,265355,1,2,0:0:0:0:
267,205,265422,1,2,0:0:0:0:
285,252,265489,2,0,L|293:323,1,72
205,336,265623,2,0,L|196:264,1,72
129,92,265757,21,0,0:0:0:0:
129,92,265825,1,0,0:0:0:0:
129,92,265891,2,0,P|105:102|44:115,1,72
353,196,266026,2,0,L|444:205,1,72
276,18,266159,2,0,P|267:61|266:141,1,72
189,277,266294,22,0,B|212:220|199:144|199:144|233:177|272:173,1,216
129,92,266561,2,0,P|116:128|127:196,1,72
287,261,266696,1,2,0:0:0:0:
287,261,266762,1,2,0:0:0:0:
287,261,266829,2,0,L|419:248,1,72
467,92,266964,1,2,0:0:0:0:
426,63,267030,1,2,0:0:0:0:
377,62,267097,1,10,0:0:0:0:
336,91,267165,1,2,0:0:0:0:
312,134,267231,1,2,0:0:0:0:
267,154,267298,1,2,0:0:0:0:
219,143,267365,22,0,L|201:36,1,72
417,220,267499,2,0,L|398:112,1,72
218,224,267634,1,8,0:0:0:0:
377,62,267767,1,2,0:0:0:0:
129,125,267901,21,0,0:0:0:0:
348,307,268035,1,2,0:0:0:0:
101,277,268169,21,8,0:0:0:0:
312,134,268304,1,2,0:0:0:0:
180,303,268437,22,0,B|149:342|149:342|285:355|285:355|262:314,1,216
317,264,268705,2,0,B|283:249|283:249|222:257,1,72
46,170,268839,2,0,B|80:185|80:185|141:177,1,72
273,87,268974,1,2,0:0:0:0:
303,48,269040,1,2,0:0:0:0:
351,37,269107,1,2,0:0:0:0:
395,60,269174,1,2,0:0:0:0:
415,105,269241,1,10,0:0:0:0:
402,152,269308,1,2,0:0:0:0:
373,192,269375,1,2,0:0:0:0:
376,242,269442,1,2,0:0:0:0:
410,278,269509,22,0,P|372:276|296:277,1,72
212,275,269643,1,2,0:0:0:0:
455,217,269777,1,8,0:0:0:0:
274,384,269912,1,2,0:0:0:0:
212,143,270045,1,0,0:0:0:0:
377,356,270179,1,2,0:0:0:0:
120,212,270313,21,8,0:0:0:0:
480,114,270447,1,0,0:0:0:0:
228,27,270582,21,4,0:0:0:0:
186,0,270648,1,0,0:0:0:0:
137,7,270715,1,0,0:0:0:0:
105,44,270782,1,0,0:0:0:0:
105,94,270849,1,8,0:0:0:0:
137,131,270916,1,0,0:0:0:0:
179,157,270983,1,0,0:0:0:0:
199,203,271050,1,0,0:0:0:0:
190,251,271117,1,0,0:0:0:0:
167,294,271184,1,0,0:0:0:0:
177,343,271251,1,0,0:0:0:0:
216,373,271318,1,0,0:0:0:0:
266,372,271384,1,8,0:0:0:0:
303,339,271452,1,0,0:0:0:0:
325,295,271519,1,0,0:0:0:0:
369,271,271586,1,0,0:0:0:0:
418,276,271653,22,0,L|401:167,1,72
466,56,271787,2,0,L|477:127,1,72
389,366,271921,1,8,0:0:0:0:
345,341,271988,1,0,0:0:0:0:
325,295,272055,1,0,0:0:0:0:
328,245,272122,1,0,0:0:0:0:
317,196,272189,1,0,0:0:0:0:
281,161,272256,1,0,0:0:0:0:
232,152,272323,1,0,0:0:0:0:
187,172,272390,1,0,0:0:0:0:
159,213,272457,2,0,L|49:230,1,72
13,87,272591,2,0,L|84:75,1,72
242,242,272725,21,4,0:0:0:0:
4,206,272860,1,0,0:0:0:0:
202,75,272993,1,8,0:0:0:0:
163,329,273127,1,0,0:0:0:0:
270,142,273261,21,4,0:0:0:0:
508,178,273396,1,0,0:0:0:0:
310,309,273530,1,8,0:0:0:0:
349,55,273663,1,0,0:0:0:0:
465,281,273797,21,4,0:0:0:0:
465,281,273864,1,0,0:0:0:0:
465,281,273931,1,0,0:0:0:0:
465,281,273999,1,0,0:0:0:0:
395,227,274065,22,0,L|321:219,1,72
248,304,274199,2,0,L|176:297,1,72
54,220,274333,21,4,0:0:0:0:
54,220,274400,1,0,0:0:0:0:
54,220,274468,1,0,0:0:0:0:
54,220,274535,1,0,0:0:0:0:
129,170,274601,22,0,P|169:166|208:155,1,81.6
307,216,274735,2,0,P|346:204|386:200,1,81.6
456,81,274869,21,4,0:0:0:0:
456,81,274936,1,0,0:0:0:0:
456,81,275003,1,0,0:0:0:0:
456,81,275070,1,0,0:0:0:0:
371,33,275138,22,0,B|328:23|328:23|247:39,1,91.2
221,161,275271,2,0,B|174:170|174:170|131:160,1,91.2
183,64,275405,22,0,L|191:14,6,36
318,119,275673,1,12,0:0:0:0:
330,167,275740,1,0,0:0:0:0:
314,214,275808,1,0,0:0:0:0:
304,263,275874,1,0,0:0:0:0:
325,308,275941,1,4,0:0:0:0:
256,192,276008,12,0,279157,0:0:0:0:
