osu file format v14

[General]
AudioFilename: Mynarco AddictionEx220BPM.mp3
AudioLeadIn: 0
PreviewTime: 199709
Countdown: 0
SampleSet: Soft
StackLeniency: 0.7
Mode: 0
LetterboxInBreaks: 1
WidescreenStoryboard: 0

[Editor]
DistanceSpacing: 1
BeatDivisor: 4
GridSize: 4
TimelineZoom: 3.999999

[Metadata]
Title:220bpm pack
TitleUnicode:220bpm pack
Artist:Various Artists
ArtistUnicode:Various Artists
Creator:Moting
Version:Mynarco Addiction
Source:
Tags:
BeatmapID:1465923
BeatmapSetID:692759

[Difficulty]
HPDrainRate:6
CircleSize:4.2
OverallDifficulty:8.5
ApproachRate:9.8
SliderMultiplier:1.9
SliderTickRate:2

[Events]
//Background and Video events
0,0,"i_found_that_within_10_mins.jpg",0,0
//Break Periods
//Storyboard Layer 0 (Background)
//Storyboard Layer 1 (Fail)
//Storyboard Layer 2 (Pass)
//Storyboard Layer 3 (Foreground)
//Storyboard Sound Samples

[TimingPoints]
3346,272.7273,4,2,12,40,1,0
3346,-166.6667,4,2,12,40,0,0
13027,-166.6667,4,2,12,20,0,0
13301,-166.6667,4,2,12,40,0,0
14255,-166.6667,4,2,12,20,0,0
14391,-166.6667,4,2,12,40,0,0
15209,-166.6667,4,2,12,20,0,0
15482,-166.6667,4,2,12,40,0,0
16437,-166.6667,4,2,12,20,0,0
16573,-166.6667,4,2,12,40,0,0
17391,-166.6667,4,2,12,20,0,0
17664,-166.6667,4,2,12,40,0,0
18619,-142.8571,4,2,12,40,0,0
18824,-142.8571,4,2,12,20,0,0
19028,-142.8571,4,2,12,40,0,0
19573,-142.8571,4,2,4,20,0,0
19846,-142.8571,4,2,4,20,0,0
19982,-142.8571,4,2,12,40,0,0
20255,-142.8571,4,2,4,25,0,0
20392,-142.8571,4,2,12,40,0,0
20460,-142.8571,4,2,4,25,0,0
20527,-142.8571,4,2,12,40,0,0
20801,-125,4,2,12,40,0,0
22164,-166.6667,4,2,12,40,0,0
22982,-125,4,2,12,40,0,0
23255,-125,4,2,4,40,0,0
23391,-125,4,2,12,40,0,0
23664,-125,4,2,12,25,0,0
23800,-125,4,2,12,40,0,0
24073,-111.1111,4,2,12,40,0,0
25164,-142.8571,4,1,0,40,0,0
25301,-142.8571,4,2,4,20,0,0
25437,-142.8571,4,2,7,40,0,0
25573,-142.8571,4,2,4,20,0,0
25710,-142.8571,4,2,4,40,0,0
25846,-142.8571,4,2,12,40,0,0
25982,-142.8571,4,2,7,40,0,0
26119,-142.8571,4,2,12,25,0,0
26255,-142.8571,4,2,12,40,0,0
26528,-142.8571,4,2,7,40,0,0
27346,-125,4,2,12,40,0,0
27483,-125,4,2,4,40,0,0
27755,-125,4,2,12,40,0,0
28027,-125,4,2,12,25,0,0
28164,-125,4,2,12,40,0,0
28573,-125,4,2,4,40,0,0
28709,-125,4,2,12,40,0,0
29051,-125,4,2,4,30,0,0
29118,-125,4,2,12,40,0,0
29187,-125,4,2,4,30,0,0
29255,-125,4,2,4,40,0,0
29391,-125,4,2,4,25,0,0
29528,-90.90909,4,2,12,40,0,0
29800,-125,4,2,7,40,0,0
30619,-90.90909,4,2,7,40,0,0
31164,-166.6667,4,2,7,40,0,0
31710,-125,4,2,7,40,0,0
33073,-125,4,2,5,40,0,0
33346,-125,4,2,4,40,0,0
33619,-125,4,2,7,40,0,0
34710,-125,4,2,1,40,0,0
35255,-125,4,2,7,40,0,0
35392,-125,4,2,12,40,0,0
35460,-125,4,2,4,20,0,0
35528,-125,4,2,7,40,0,0
35596,-125,4,2,4,20,0,0
35664,-125,4,2,12,40,0,0
35800,-125,4,2,7,40,0,0
35937,-125,4,2,4,20,0,0
36074,-125,4,2,12,40,0,0
36346,-125,4,2,7,40,0,0
36483,-125,4,2,12,40,0,0
36551,-125,4,2,4,40,0,0
36687,-125,4,2,4,20,0,0
36755,-125,4,2,12,40,0,0
36891,-125,4,2,7,40,0,0
37096,-125,4,2,7,20,0,0
37164,-125,4,2,7,40,0,0
37709,-100,4,2,7,40,0,0
38255,-111.1111,4,2,8,60,0,0
45960,-111.1111,4,2,4,60,0,0
46982,-111.1111,4,2,8,60,0,0
50800,-111.1111,4,2,4,60,0,0
51074,-111.1111,4,2,4,30,0,0
51346,-111.1111,4,2,8,60,0,0
52846,-111.1111,4,2,4,60,0,0
53119,-111.1111,4,2,8,60,0,0
53323,-111.1111,4,2,4,60,0,0
53528,-111.1111,4,2,8,60,0,0
53800,-111.1111,4,2,2,60,0,0
53868,-111.1111,4,2,8,60,0,0
54414,-111.1111,4,2,4,60,0,0
54891,-111.1111,4,2,2,60,0,0
54959,-111.1111,4,2,4,60,0,0
55164,-111.1111,4,2,8,60,0,0
62050,-111.1111,4,2,5,60,0,0
62255,-111.1111,4,2,8,60,0,0
62528,-111.1111,4,2,2,60,0,0
62664,-111.1111,4,2,8,60,0,0
63346,-111.1111,4,2,4,60,0,0
64437,-111.1111,4,2,8,60,0,0
68255,-111.1111,4,2,4,60,0,0
68528,-111.1111,4,2,4,30,0,0
68801,-111.1111,4,2,8,60,0,0
70710,-111.1111,4,2,4,60,0,0
70982,-111.1111,4,2,8,60,0,0
71255,-111.1111,4,2,2,60,0,0
71323,-111.1111,4,2,8,60,0,0
71869,-111.1111,4,2,4,30,0,0
72073,-111.1111,4,2,4,60,0,0
72346,-111.1111,4,2,2,60,0,0
72380,-111.1111,4,2,4,60,0,0
72618,-111.1111,4,2,8,60,0,0
72754,-111.1111,4,2,2,60,0,0
72823,-111.1111,4,2,8,60,0,0
73164,-166.6667,4,2,7,60,0,0
76505,-166.6667,4,2,4,60,0,0
76710,-166.6667,4,2,7,60,0,0
76778,-166.6667,4,2,4,60,0,0
77119,-166.6667,4,2,7,60,0,0
77324,-166.6667,4,2,7,40,0,0
77528,-133.3333,4,2,7,60,0,0
78892,-133.3333,4,2,2,60,0,0
79096,-133.3333,4,2,5,60,0,0
79232,-133.3333,4,2,2,60,0,0
79437,-133.3333,4,2,7,60,0,0
79573,-133.3333,4,2,4,30,0,0
79709,-133.3333,4,2,7,60,0,0
80800,-133.3333,4,2,8,60,0,0
81074,-133.3333,4,2,4,60,0,0
81346,-133.3333,4,2,8,60,0,0
81891,-121.9512,4,2,8,60,0,0
86187,-121.9512,4,2,8,30,0,0
86255,-121.9512,4,2,8,60,0,0
87618,-121.9512,4,2,2,60,0,0
87755,-121.9512,4,2,4,60,0,0
87823,-121.9512,4,2,8,60,0,0
88028,-121.9512,4,2,2,60,0,0
88164,-121.9512,4,2,8,60,0,0
89800,-121.9512,4,2,4,60,0,0
90073,-121.9512,4,2,8,60,0,0
90619,-111.1111,4,2,8,60,0,0
97642,-111.1111,4,2,8,30,0,0
97846,-111.1111,4,2,8,60,0,0
98255,-111.1111,4,2,4,60,0,0
98323,-111.1111,4,2,8,60,0,0
98391,-111.1111,4,2,4,60,0,0
99346,-111.1111,4,2,8,60,0,0
103232,-111.1111,4,2,4,60,0,0
103300,-111.1111,4,2,4,30,0,0
103573,-111.1111,4,2,4,60,0,0
103709,-111.1111,4,2,8,60,0,0
106164,-111.1111,4,2,2,60,0,0
106233,-111.1111,4,2,8,60,0,0
106710,-111.1111,4,2,4,60,0,0
106982,-111.1111,4,2,8,60,0,0
108073,-100,4,2,8,70,0,1
111346,-100,4,2,8,50,0,1
111619,-100,4,2,12,50,0,1
111687,-100,4,2,8,50,0,1
112300,-100,4,2,8,30,0,1
112437,-100,4,2,8,70,0,1
115710,-100,4,2,4,50,0,1
116732,-100,4,2,8,50,0,0
116800,-100,4,2,8,70,0,1
120073,-100,4,2,8,50,0,1
120891,-100,4,2,8,30,0,1
121028,-100,4,2,8,50,0,1
121164,-100,4,2,8,70,0,1
124437,-100,4,2,4,50,0,1
124709,-100,4,2,8,50,0,1
124778,-100,4,2,4,50,0,1
125255,-100,4,2,8,50,0,1
125323,-100,4,2,4,50,0,1
125391,-100,4,2,8,50,0,1
125460,-100,4,2,4,50,0,1
125528,-111.1111,4,2,8,60,0,0
126687,-111.1111,4,2,4,30,0,0
126891,-111.1111,4,2,4,60,0,0
127096,-111.1111,4,2,8,30,0,0
127164,-111.1111,4,2,4,60,0,0
127573,-111.1111,4,2,4,30,0,0
127642,-111.1111,4,2,4,60,0,0
127710,-111.1111,4,2,4,30,0,0
127982,-142.8571,4,2,8,60,0,0
128255,-111.1111,4,2,8,30,0,0
128801,-111.1111,4,2,8,60,0,0
129073,-166.6667,4,2,8,33,0,0
129619,-142.8571,4,2,8,60,0,0
129892,-111.1111,4,2,7,60,0,0
130027,-111.1111,4,2,4,60,0,0
130096,-111.1111,4,2,4,30,0,0
130164,-111.1111,4,2,7,60,0,0
130301,-111.1111,4,2,4,60,0,0
130437,-111.1111,4,2,7,60,0,0
130573,-111.1111,4,2,4,60,0,0
130641,-111.1111,4,2,4,30,0,0
130709,-111.1111,4,2,7,60,0,0
130846,-111.1111,4,2,4,60,0,0
130983,-111.1111,4,2,7,60,0,0
131118,-111.1111,4,2,4,60,0,0
131187,-111.1111,4,2,4,30,0,0
131255,-111.1111,4,2,7,60,0,0
131392,-111.1111,4,2,4,60,0,0
131460,-111.1111,4,2,4,30,0,0
131528,-111.1111,4,2,7,60,0,0
131664,-111.1111,4,2,4,60,0,0
131800,-111.1111,4,2,7,60,0,0
131937,-111.1111,4,2,4,60,0,0
132074,-111.1111,4,2,8,30,0,0
132346,-111.1111,4,2,5,60,0,0
132619,-111.1111,4,2,8,30,0,0
132891,-111.1111,4,2,8,60,0,0
133164,-111.1111,4,2,8,30,0,0
133437,-111.1111,4,2,8,60,0,0
133642,-111.1111,4,2,7,30,0,0
133710,-111.1111,4,2,8,60,0,0
133777,-111.1111,4,2,7,30,0,0
133846,-111.1111,4,2,8,60,0,0
141277,-111.1111,4,2,8,30,0,0
141482,-111.1111,4,2,8,60,0,0
141891,-111.1111,4,2,4,60,0,0
142437,-111.1111,4,2,4,30,0,0
142710,-111.1111,4,2,4,60,0,0
142778,-111.1111,4,2,4,30,0,0
142982,-111.1111,4,2,8,60,0,0
146869,-111.1111,4,2,4,30,0,0
147209,-111.1111,4,2,4,60,0,0
147346,-111.1111,4,2,8,60,0,0
149801,-111.1111,4,2,2,60,0,0
149868,-111.1111,4,2,8,60,0,0
150346,-111.1111,4,2,4,60,0,0
150619,-111.1111,4,2,8,60,0,0
151710,-100,4,2,8,70,0,1
154982,-100,4,2,8,50,0,1
156073,-100,4,2,8,70,0,1
159346,-100,4,2,4,50,0,1
160369,-100,4,2,8,50,0,0
160437,-100,4,2,8,70,0,1
163710,-100,4,2,8,50,0,1
163982,-100,4,2,2,50,0,1
164050,-100,4,2,8,50,0,1
164528,-100,4,2,8,30,0,1
164664,-100,4,2,8,50,0,1
164801,-100,4,2,8,70,0,1
168073,-100,4,2,4,50,0,1
168346,-100,4,2,8,50,0,1
168414,-100,4,2,4,50,0,1
168891,-100,4,2,8,50,0,1
168960,-100,4,2,4,50,0,1
169028,-100,4,2,8,50,0,1
169096,-100,4,2,4,50,0,1
169164,-142.8571,4,2,7,60,0,0
169369,-142.8571,4,2,7,30,0,0
169437,-142.8571,4,2,7,60,0,0
169573,-142.8571,4,2,7,30,0,0
169642,-142.8571,4,2,7,60,0,0
169982,-142.8571,4,2,2,60,0,0
170119,-142.8571,4,2,7,60,0,0
170255,-133.3333,4,2,7,50,0,0
170391,-133.3333,4,2,4,50,0,0
171346,-125,4,2,7,60,0,0
171414,-125,4,2,7,30,0,0
171619,-125,4,2,12,60,0,0
171755,-125,4,2,7,60,0,0
171891,-125,4,2,7,30,0,0
172028,-125,4,2,7,60,0,0
172096,-125,4,2,7,30,0,0
172164,-125,4,2,12,60,0,0
172301,-125,4,2,7,60,0,0
172437,-117.6471,4,2,2,50,0,0
173527,-111.1111,4,2,7,60,0,0
173664,-111.1111,4,2,7,30,0,0
173801,-111.1111,4,2,7,70,0,0
174005,-111.1111,4,2,8,70,0,0
174073,-111.1111,4,2,7,80,0,0
174210,-111.1111,4,2,7,40,0,0
174346,-111.1111,4,2,7,90,0,0
174483,-111.1111,4,2,4,60,0,0
175709,-111.1111,4,2,7,60,0,0
176391,-111.1111,4,2,7,30,0,0
176528,-111.1111,4,2,7,60,0,0
176664,-111.1111,4,2,7,30,0,0
176800,-111.1111,4,2,7,60,0,0
176937,-142.8571,4,2,7,20,0,0
177209,-142.8571,4,2,7,27,0,0
177346,-125,4,2,7,35,0,0
177482,-125,4,2,7,40,0,0
177619,-111.1111,4,2,5,64,0,0
177755,-111.1111,4,2,7,78,0,0
177891,-100,4,2,8,60,0,1
178164,-100,4,2,8,60,0,0
179801,-100,4,2,2,60,0,0
179937,-100,4,2,8,60,0,0
181437,-100,4,2,4,60,0,0
181710,-100,4,2,8,60,0,0
181983,-100,4,2,8,30,0,0
182255,-100,4,2,8,60,0,1
182528,-100,4,2,8,60,0,0
184437,-125,4,2,8,60,0,0
184709,-100,4,2,8,60,0,0
185528,-100,4,2,4,40,0,0
186619,-100,4,2,8,60,0,1
186891,-100,4,2,8,60,0,0
189892,-100,4,2,8,40,0,0
190574,-100,4,2,8,60,0,0
190709,-100,4,2,8,30,0,0
190846,-100,4,2,8,40,0,0
190982,-100,4,2,8,60,0,1
191255,-100,4,2,8,60,0,0
193982,-125,4,2,8,60,0,0
194255,-100,4,2,8,60,0,0
194391,-100,4,2,8,30,0,0
194459,-100,4,2,8,60,0,0
194528,-100,4,2,8,40,0,0
194596,-100,4,2,4,40,0,0
194664,-100,4,2,4,30,0,0
194732,-100,4,2,4,40,0,0
194801,-100,4,2,8,40,0,0
194869,-100,4,2,4,40,0,0
195073,-100,4,2,8,40,0,0
195141,-100,4,2,4,40,0,0
195346,-125,4,2,4,60,0,0
197528,-111.1111,4,2,4,60,0,0
199710,-100,4,2,8,70,0,1
207346,-100,4,2,4,50,0,1
208368,-100,4,2,4,60,0,0
208437,-100,4,2,8,70,0,1
211709,-100,4,2,8,50,0,1
212528,-100,4,2,8,30,0,1
212664,-100,4,2,8,50,0,1
212800,-100,4,2,8,70,0,1
214982,-100,4,2,4,50,0,1
215255,-100,4,2,8,70,0,1
215323,-100,4,2,4,50,0,1
215801,-100,4,2,8,70,0,1
215868,-100,4,2,4,50,0,1
216073,-100,4,2,8,50,0,1
217096,-100,4,2,8,50,0,0
217164,-125,4,2,7,70,0,1
217232,-125,4,2,7,60,0,0
217846,-125,4,2,7,45,0,0
218255,-142.8571,4,2,8,70,0,0
219346,-125,4,2,8,70,0,0
219618,-117.6471,4,2,8,70,0,0
219891,-111.1111,4,2,8,70,0,0
220164,-105.2632,4,2,8,70,0,0
220437,-100,4,2,8,50,0,1
220709,-100,4,2,12,50,0,1
220778,-100,4,2,8,50,0,1
221391,-100,4,2,8,30,0,1
221528,-100,4,2,8,70,0,1
225823,-100,4,2,8,60,0,0
225892,-100,4,2,8,60,0,1
229164,-100,4,2,8,70,0,1
229982,-100,4,2,8,30,0,1
230119,-100,4,2,8,50,0,1
230255,-100,4,2,8,70,0,1
233528,-100,4,2,4,50,0,1
233800,-100,4,2,8,50,0,1
233869,-100,4,2,4,50,0,1
234346,-100,4,2,8,50,0,1
234414,-100,4,2,4,50,0,1
234483,-100,4,2,8,50,0,1
234551,-100,4,2,4,50,0,1
234618,-125,4,3,0,60,0,0
236528,-90.90909,4,2,8,50,0,0
236664,-90.90909,4,2,8,60,0,0
236800,-111.1111,4,2,8,60,0,0
237891,-111.1111,4,2,12,60,0,0
238437,-111.1111,4,2,5,60,0,0
238982,-107.5269,4,2,8,70,0,1
239527,-107.5269,4,2,8,70,0,0
242255,-107.5269,4,2,8,50,0,0
243209,-107.5269,4,2,8,30,0,0
243346,-107.5269,4,2,8,70,0,1
243891,-107.5269,4,2,8,70,0,0
246619,-107.5269,4,2,4,50,0,0
247710,-107.5269,4,2,8,70,0,1
248255,-107.5269,4,2,8,70,0,0
250982,-107.5269,4,2,8,50,0,0
252073,-107.5269,4,2,8,70,0,1
252619,-107.5269,4,2,8,70,0,0
255346,-100,4,2,4,70,0,0
255618,-100,4,2,8,70,0,0
255687,-100,4,2,4,70,0,0
256164,-100,4,2,8,70,0,0
256232,-100,4,2,4,70,0,0
256300,-100,4,2,8,70,0,0
256369,-100,4,2,4,70,0,0
256437,-133.3333,4,2,12,70,0,0
256574,-133.3333,4,2,12,45,0,0

[HitObjects]
135,118,3414,6,0,P|162:81|242:72,1,114
304,126,3823,1,0,0:0:0:0:
304,126,3959,2,0,P|300:173|304:253,1,114
392,314,4369,2,0,P|396:264|395:192,1,114
294,247,4778,2,0,P|292:285|301:325,1,57
206,213,5050,1,2,0:0:0:0:
263,134,5187,1,0,0:0:0:0:
364,150,5323,2,0,P|410:149|441:107,1,85.5
453,89,5595,6,0,B|429:66|429:66|336:52,1,114
256,110,6005,1,0,0:0:0:0:
146,81,6141,2,0,P|121:46|186:22,1,114
256,110,6551,2,0,P|264:154|260:230,1,114
160,303,6959,2,0,P|155:264|159:226,1,57
289,328,7232,2,0,P|285:364|276:387,1,57
332,231,7505,2,0,P|369:209|422:238,1,85.5
438,239,7777,6,0,B|453:182|421:182|435:115,1,114
459,22,8187,1,0,0:0:0:0:
337,16,8323,2,0,P|290:22|262:101,1,114
174,142,8732,2,0,P|154:99|167:25,1,114
265,83,9141,1,2,0:0:0:0:
251,196,9278,1,0,0:0:0:0:
380,116,9414,1,2,0:0:0:0:
335,18,9550,1,0,0:0:0:0:
323,169,9687,2,0,P|325:212|354:264,1,85.5
361,293,9959,6,0,P|370:335|306:369,1,114
210,328,10369,1,0,0:0:0:0:
103,290,10505,2,0,P|59:292|38:360,1,114
140,356,10914,2,0,P|137:309|165:234,1,114
225,172,11323,2,0,L|295:185,1,57
368,256,11596,1,2,0:0:0:0:
279,291,11732,1,0,0:0:0:0:
354,153,11869,2,0,P|355:116|320:72,1,85.5
260,35,12141,6,0,L|124:43,1,114
73,124,12550,1,0,0:0:0:0:
73,124,12686,2,0,P|86:164|82:260,1,114
158,318,13095,1,2,0:0:0:0:
158,318,13232,2,0,P|166:276|184:248,1,57
239,188,13505,2,0,P|280:194|312:194,1,57
398,150,13777,1,2,0:0:0:0:
366,266,13914,1,0,0:0:0:0:
325,122,14051,2,0,P|343:94|399:74,1,85.5
432,91,14323,6,0,B|426:124|426:124|433:147|433:147|420:224,1,114
402,337,14732,1,0,0:0:0:0:
284,275,14868,2,0,P|245:261|155:286,1,114
94,358,15277,1,2,0:0:0:0:
94,358,15414,2,0,P|138:368|170:365,1,57
92,234,15687,2,0,P|62:241|30:260,1,57
179,298,15959,1,2,0:0:0:0:
217,198,16096,1,0,0:0:0:0:
136,113,16232,2,0,P|100:111|53:149,1,85.5
29,162,16505,6,0,B|22:132|22:132|38:40,1,114
141,19,16914,1,0,0:0:0:0:
228,81,17050,2,0,P|266:93|341:66,1,114
422,20,17459,1,2,0:0:0:0:
422,20,17596,2,0,L|435:98,1,57
361,212,17869,2,0,L|366:140,1,57
448,274,18141,2,0,L|436:345,1,57
314,343,18414,2,0,P|282:325|225:336,1,85.5
168,360,18687,6,0,P|131:366|93:356,1,66.5
67,337,18892,1,0,0:0:0:0:
67,337,18960,2,0,P|77:288|75:255,1,66.5
81,150,19232,2,0,P|96:117|197:98,1,133
269,164,19641,1,2,0:0:0:0:
209,295,19778,2,0,L|205:221,1,66.5
207,181,19982,1,0,0:0:0:0:
207,181,20050,2,0,P|255:162|293:174,1,66.5
420,226,20323,1,10,0:0:0:0:
434,204,20391,1,8,0:0:0:0:
444,179,20459,1,8,0:0:0:0:
449,153,20527,1,8,0:0:0:0:
447,126,20595,2,0,P|422:102|346:101,1,99.75
300,144,20869,6,0,B|307:183|307:183|300:217|300:217|314:254|306:303,1,152
178,335,21277,1,0,0:0:0:0:
138,208,21414,2,0,P|137:160|147:123,1,76
240,255,21686,1,0,0:0:0:0:
117,285,21823,1,2,0:0:0:0:
224,151,21959,1,4,0:0:0:0:
224,151,22232,6,0,P|232:185|232:215,1,57
318,328,22505,2,0,P|320:290|330:265,1,57
407,112,22777,2,0,B|421:156|400:157|414:204,1,85.5
447,270,23050,6,0,P|452:312|438:355,1,76
325,240,23323,1,10,0:0:0:0:
389,116,23459,1,0,0:0:0:0:
241,266,23596,2,0,P|239:218|269:169,1,76
368,43,23868,2,0,P|384:86|389:132,1,76
241,93,24141,6,0,B|206:89|206:89|133:104,1,85.5
107,313,24414,2,0,L|98:201,1,85.5
255,167,24687,1,2,0:0:0:0:
255,167,24823,1,2,0:0:0:0:
235,329,24959,1,6,0:0:0:0:
235,329,25096,1,0,0:0:0:0:
255,167,25232,6,0,P|283:136|320:131,1,66.5
351,134,25436,1,8,0:0:0:0:
351,134,25505,2,0,L|348:222,1,66.5
235,329,25778,1,2,0:0:0:0:
255,235,25914,1,4,0:0:0:0:
332,302,26050,1,8,0:0:0:0:
332,302,26187,1,2,0:0:0:0:
170,267,26323,6,0,P|166:226|188:186,1,66.5
263,69,26596,2,0,L|352:80,1,66.5
443,195,26869,2,0,P|411:194|373:216,1,66.5
434,370,27141,2,0,P|427:334|430:267,1,99.75
443,195,27414,6,0,P|447:150|430:111,1,76
323,32,27686,2,0,P|282:38|241:36,1,76
109,177,27960,2,0,P|150:171|191:173,1,76
330,314,28232,1,2,0:0:0:0:
219,332,28368,1,2,0:0:0:0:
310,219,28505,6,0,P|355:218|387:234,1,76
414,260,28709,1,0,0:0:0:0:
414,260,28777,2,0,L|410:354,1,76
220,258,29051,1,4,0:0:0:0:
211,229,29118,1,8,0:0:0:0:
212,198,29186,1,2,0:0:0:0:
223,170,29255,1,0,0:0:0:0:
242,147,29323,1,4,0:0:0:0:
265,117,29390,1,8,0:0:0:0:
273,80,29459,1,8,0:0:0:0:
265,43,29527,1,8,0:0:0:0:
243,13,29596,6,0,P|182:19|159:54,1,104.5
138,227,29868,2,0,L|150:330,1,76
280,117,30141,2,0,P|336:122|379:152,1,76
413,272,30414,1,6,0:0:0:0:
232,221,30550,1,2,0:0:0:0:
353,130,30687,6,0,L|328:340,1,209
433,150,31232,2,0,P|430:108|416:79,1,57
272,96,31505,2,0,P|257:141|258:189,1,85.5
288,244,31778,6,0,P|295:295|280:347,1,76
172,171,32050,1,10,0:0:0:0:
344,184,32187,1,0,0:0:0:0:
188,262,32323,2,0,P|143:263|108:242,1,76
272,95,32596,1,8,0:0:0:0:
344,184,32732,1,2,0:0:0:0:
394,24,32869,6,0,P|440:15|473:25,1,76
335,105,33141,1,2,0:0:0:0:
312,85,33209,1,0,0:0:0:0:
300,60,33277,1,0,0:0:0:0:
300,32,33345,1,0,0:0:0:0:
312,6,33413,1,10,0:0:0:0:
408,122,33550,1,0,0:0:0:0:
210,34,33687,2,0,L|180:18,4,19
277,192,33960,6,0,P|285:239|282:284,1,76
110,285,34232,1,10,0:0:0:0:
151,144,34369,1,0,0:0:0:0:
196,307,34505,1,2,0:0:0:0:
71,123,34641,1,8,0:0:0:0:
234,91,34778,2,0,P|240:143|222:189,1,76
213,198,34982,1,4,0:0:0:0:
213,198,35051,6,0,B|207:226|207:226|213:283,1,76
424,281,35323,1,10,0:0:0:0:
403,137,35460,1,4,0:0:0:0:
388,102,35527,1,8,0:0:0:0:
360,76,35595,1,2,0:0:0:0:
324,64,35664,1,0,0:0:0:0:
287,68,35732,1,4,0:0:0:0:
330,230,35868,1,10,0:0:0:0:
367,83,36005,1,8,0:0:0:0:
367,83,36073,1,8,0:0:0:0:
367,83,36142,6,0,P|393:51|435:40,1,76
440,202,36414,2,0,B|444:240|444:240|435:297,1,76
379,315,36619,2,0,L|290:307,1,76
251,261,36823,1,4,0:0:0:0:
342,173,36959,1,8,0:0:0:0:
100,322,37096,5,2,0:0:0:0:
74,293,37163,1,8,0:0:0:0:
60,258,37232,1,8,0:0:0:0:
59,220,37300,1,8,0:0:0:0:
70,184,37368,1,8,0:0:0:0:
93,154,37437,1,8,0:0:0:0:
124,133,37505,2,0,L|154:125,6,19
237,124,37777,1,10,0:0:0:0:
251,169,37845,1,8,0:0:0:0:
247,216,37913,1,8,0:0:0:0:
241,263,37981,1,8,0:0:0:0:
251,309,38050,1,10,0:0:0:0:
285,276,38118,1,8,0:0:0:0:
328,256,38186,1,8,0:0:0:0:
375,250,38254,1,8,0:0:0:0:
421,261,38323,6,0,P|444:209|395:114,1,171
228,141,38732,2,0,L|255:320,1,171
311,104,39141,2,0,P|289:66|247:47,1,85.5
106,176,39414,5,8,0:0:0:0:
184,300,39550,2,0,P|206:346|208:397,1,85.5
60,287,39823,1,0,0:0:0:0:
183,132,39959,2,0,P|233:134|268:168,1,85.5
415,112,40232,2,0,P|426:163|414:210,1,85.5
350,320,40505,6,0,L|336:142,1,171
209,95,40914,2,0,B|180:116|177:169|177:169|174:225|122:259,1,171
62,29,41323,2,0,P|110:16|150:30,1,85.5
303,169,41595,5,8,0:0:0:0:
303,169,41732,1,10,0:0:0:0:
93,170,41869,1,8,0:0:0:0:
93,170,42005,1,10,0:0:0:0:
241,38,42141,1,10,0:0:0:0:
241,38,42278,1,8,0:0:0:0:
298,286,42414,1,10,0:0:0:0:
325,317,42482,1,8,0:0:0:0:
365,331,42550,1,8,0:0:0:0:
407,323,42618,1,8,0:0:0:0:
439,296,42686,6,0,L|435:191,1,85.5
349,37,42960,1,8,0:0:0:0:
286,197,43096,2,0,P|280:251|291:288,1,85.5
384,140,43368,1,8,0:0:0:0:
194,116,43505,2,0,B|165:117|165:117|96:145,1,85.5
286,197,43777,5,8,0:0:0:0:
367,69,43914,1,2,0:0:0:0:
234,52,44051,1,8,0:0:0:0:
286,197,44187,1,0,0:0:0:0:
234,52,44323,2,0,P|182:41|129:65,1,85.5
293,278,44596,1,10,0:0:0:0:
325,266,44663,1,0,0:0:0:0:
350,243,44732,1,0,0:0:0:0:
363,212,44800,1,0,0:0:0:0:
364,178,44868,6,0,P|360:131|370:84,1,85.5
162,16,45141,2,0,P|173:68|167:121,1,85.5
145,137,45345,1,8,0:0:0:0:
145,137,45414,2,0,P|129:184|144:236,1,85.5
299,350,45687,1,10,0:0:0:0:
258,150,45823,5,0,0:0:0:0:
270,109,45890,1,8,0:0:0:0:
298,77,45958,1,8,0:0:0:0:
337,60,46027,1,8,0:0:0:0:
379,62,46095,1,10,0:0:0:0:
417,81,46163,1,8,0:0:0:0:
443,115,46232,1,2,0:0:0:0:
440,157,46300,1,8,0:0:0:0:
449,199,46368,1,10,0:0:0:0:
451,241,46436,1,8,0:0:0:0:
444,283,46505,2,0,L|428:338,1,42.75
325,196,46641,2,0,L|313:123,1,42.75
231,248,46778,1,2,0:0:0:0:
257,282,46845,1,8,0:0:0:0:
296,299,46914,1,8,0:0:0:0:
338,295,46982,1,0,0:0:0:0:
364,261,47050,6,0,L|350:164,1,85.5
216,34,47323,1,8,0:0:0:0:
138,169,47459,2,0,P|124:231|136:281,1,85.5
317,375,47732,1,8,0:0:0:0:
337,153,47869,2,0,P|355:109|389:75,1,85.5
388,284,48141,5,8,0:0:0:0:
271,228,48278,1,2,0:0:0:0:
189,382,48414,1,8,0:0:0:0:
385,355,48550,1,0,0:0:0:0:
324,180,48687,2,0,P|294:131|247:109,1,85.5
113,162,48960,2,0,P|103:215|112:252,1,85.5
270,25,49232,6,0,B|308:21|308:21|368:30,1,85.5
421,193,49505,2,0,P|425:241|414:289,1,85.5
344,326,49709,1,8,0:0:0:0:
344,326,49778,2,0,L|330:212,1,85.5
417,350,50051,1,10,0:0:0:0:
260,295,50186,1,8,0:0:0:0:
489,160,50323,5,8,0:0:0:0:
476,119,50390,1,8,0:0:0:0:
450,85,50459,1,10,0:0:0:0:
414,63,50527,1,8,0:0:0:0:
372,54,50595,1,8,0:0:0:0:
330,61,50664,1,8,0:0:0:0:
293,82,50732,1,8,0:0:0:0:
266,115,50800,1,8,0:0:0:0:
252,155,50868,1,10,0:0:0:0:
263,186,50936,1,8,0:0:0:0:
263,220,51004,1,8,0:0:0:0:
250,252,51072,1,8,0:0:0:0:
226,276,51141,1,10,0:0:0:0:
195,290,51209,1,8,0:0:0:0:
161,292,51277,1,8,0:0:0:0:
129,281,51346,1,8,0:0:0:0:
100,263,51414,6,0,P|68:248|7:259,1,85.5
194,362,51687,1,8,0:0:0:0:
263,186,51823,2,0,P|316:183|358:209,1,85.5
265,347,52096,1,8,0:0:0:0:
147,174,52233,2,0,P|132:118|153:69,1,85.5
346,111,52505,6,0,L|343:207,1,85.5
305,384,52777,1,8,0:0:0:0:
208,224,52914,1,8,0:0:0:0:
235,190,52982,1,8,0:0:0:0:
277,184,53050,1,10,0:0:0:0:
270,354,53187,1,8,0:0:0:0:
368,152,53323,1,10,0:0:0:0:
345,116,53390,1,8,0:0:0:0:
308,95,53458,1,8,0:0:0:0:
266,93,53527,1,8,0:0:0:0:
228,112,53595,5,8,0:0:0:0:
201,144,53663,1,8,0:0:0:0:
189,185,53732,1,8,0:0:0:0:
195,227,53800,1,8,0:0:0:0:
217,263,53868,1,8,0:0:0:0:
261,254,53936,1,8,0:0:0:0:
302,258,54004,1,10,0:0:0:0:
346,249,54072,1,8,0:0:0:0:
388,252,54141,2,0,P|421:294|420:345,1,85.5
232,225,54414,1,10,0:0:0:0:
197,201,54481,1,8,0:0:0:0:
155,205,54549,1,8,0:0:0:0:
125,234,54618,1,8,0:0:0:0:
119,276,54686,5,0,0:0:0:0:
128,321,54754,1,8,0:0:0:0:
160,354,54822,1,10,0:0:0:0:
206,364,54891,1,8,0:0:0:0:
251,351,54959,1,8,0:0:0:0:
285,319,55027,1,8,0:0:0:0:
305,277,55095,1,8,0:0:0:0:
308,230,55163,1,8,0:0:0:0:
294,186,55232,1,10,0:0:0:0:
243,174,55300,1,8,0:0:0:0:
193,163,55368,1,8,0:0:0:0:
143,152,55436,1,8,0:0:0:0:
95,132,55505,1,10,0:0:0:0:
145,120,55572,1,8,0:0:0:0:
195,109,55640,1,8,0:0:0:0:
245,98,55709,1,8,0:0:0:0:
301,88,55778,6,0,B|294:142|294:142|300:199|300:199|287:283,1,171
370,381,56187,2,0,P|365:305|272:258,1,171
144,247,56595,2,0,P|131:297|135:345,1,85.5
301,129,56869,6,0,P|294:80|273:44,1,85.5
99,121,57141,1,8,0:0:0:0:
214,250,57277,2,0,P|292:279|387:233,1,171
356,68,57686,2,0,P|312:47|247:62,1,85.5
119,107,57960,6,0,L|129:304,1,171
260,358,58368,2,0,P|256:289|314:189,1,171
466,206,58777,2,0,P|483:256|486:319,1,85.5
346,100,59050,5,8,0:0:0:0:
346,100,59187,1,8,0:0:0:0:
354,294,59323,1,8,0:0:0:0:
354,294,59459,1,8,0:0:0:0:
489,131,59596,1,8,0:0:0:0:
489,131,59733,1,8,0:0:0:0:
299,194,59868,1,4,0:0:0:0:
256,191,59936,1,8,0:0:0:0:
223,165,60004,1,8,0:0:0:0:
208,126,60072,1,8,0:0:0:0:
217,85,60141,6,0,B|256:73|256:73|394:125,1,171
469,259,60550,2,0,P|397:232|303:290,1,171
153,335,60959,2,0,P|105:346|39:327,1,85.5
38,110,61232,6,0,L|219:127,1,171
337,236,61641,2,0,P|367:173|347:50,1,171
154,63,62050,1,8,0:0:0:0:
137,102,62118,1,0,0:0:0:0:
133,144,62186,1,0,0:0:0:0:
141,186,62254,1,0,0:0:0:0:
161,223,62323,6,0,B|202:212|202:212|268:219,1,85.5
426,83,62596,2,0,B|395:77|395:77|324:90,1,85.5
307,158,62800,1,8,0:0:0:0:
307,158,62869,2,0,L|322:258,1,85.5
490,163,63141,1,8,0:0:0:0:
305,11,63278,5,0,0:0:0:0:
264,22,63345,1,8,0:0:0:0:
232,51,63413,1,8,0:0:0:0:
216,90,63482,1,8,0:0:0:0:
219,132,63550,1,8,0:0:0:0:
240,169,63618,1,8,0:0:0:0:
276,193,63687,2,0,L|321:180,1,42.75
350,77,63823,1,8,0:0:0:0:
308,85,63891,1,8,0:0:0:0:
265,83,63959,1,8,0:0:0:0:
224,73,64027,1,8,0:0:0:0:
182,64,64095,1,2,0:0:0:0:
140,66,64164,1,8,0:0:0:0:
99,79,64232,2,0,L|95:139,1,42.75
101,251,64369,1,8,0:0:0:0:
101,251,64437,1,8,0:0:0:0:
101,251,64505,6,0,B|141:225|141:225|213:211|213:211|259:176,1,171
351,71,64914,2,0,P|307:41|258:39,1,85.5
149,144,65186,1,8,0:0:0:0:
218,278,65323,2,0,P|229:322|231:367,1,85.5
335,187,65596,6,0,P|339:132|355:89,1,85.5
439,246,65868,1,8,0:0:0:0:
320,287,66005,1,0,0:0:0:0:
225,123,66142,1,0,0:0:0:0:
218,279,66277,1,8,0:0:0:0:
319,96,66414,2,0,P|297:52|267:31,1,85.5
120,106,66687,6,0,P|109:159|116:205,1,85.5
200,320,66959,2,0,P|217:276|246:243,1,85.5
328,247,67164,1,8,0:0:0:0:
328,247,67232,2,0,L|345:347,1,85.5
389,149,67505,2,0,P|340:126|295:136,1,85.5
200,320,67778,5,8,0:0:0:0:
158,330,67845,1,8,0:0:0:0:
116,326,67914,1,8,0:0:0:0:
76,310,67982,1,8,0:0:0:0:
44,282,68050,1,8,0:0:0:0:
22,246,68119,1,8,0:0:0:0:
13,205,68187,1,8,0:0:0:0:
16,162,68255,1,8,0:0:0:0:
33,123,68323,2,0,L|93:132,1,42.75
202,40,68459,2,0,L|140:29,1,42.75
201,150,68596,1,8,0:0:0:0:
243,148,68663,1,8,0:0:0:0:
280,127,68731,1,8,0:0:0:0:
303,92,68800,1,8,0:0:0:0:
309,50,68869,6,0,L|314:148,1,85.5
459,261,69141,1,8,0:0:0:0:
432,78,69278,2,0,P|412:34|372:18,1,85.5
142,39,69550,1,8,0:0:0:0:
241,235,69687,2,0,P|254:289|243:343,1,85.5
115,190,69959,6,0,P|112:133|128:84,1,85.5
294,23,70232,1,8,0:0:0:0:
320,217,70369,1,8,0:0:0:0:
328,175,70436,1,8,0:0:0:0:
352,140,70504,2,0,L|422:136,1,42.75
458,222,70641,1,8,0:0:0:0:
314,80,70778,1,8,0:0:0:0:
272,89,70845,1,8,0:0:0:0:
229,87,70913,1,8,0:0:0:0:
188,79,70982,1,8,0:0:0:0:
150,63,71050,5,8,0:0:0:0:
108,73,71117,1,8,0:0:0:0:
73,96,71186,1,8,0:0:0:0:
48,131,71254,1,8,0:0:0:0:
38,172,71322,1,8,0:0:0:0:
42,214,71391,1,8,0:0:0:0:
61,253,71459,1,8,0:0:0:0:
92,281,71527,1,8,0:0:0:0:
139,293,71595,2,0,P|181:279|242:282,1,85.5
464,169,71869,1,0,0:0:0:0:
461,126,71936,1,8,0:0:0:0:
440,90,72004,1,8,0:0:0:0:
404,66,72073,1,8,0:0:0:0:
362,61,72141,5,8,0:0:0:0:
376,100,72208,1,8,0:0:0:0:
384,141,72277,1,8,0:0:0:0:
380,183,72345,1,8,0:0:0:0:
363,223,72414,2,0,L|346:255,6,21.375
276,173,72686,1,8,0:0:0:0:
226,160,72754,1,8,0:0:0:0:
175,166,72822,1,8,0:0:0:0:
129,188,72890,1,8,0:0:0:0:
94,225,72959,1,8,0:0:0:0:
84,277,73028,1,8,0:0:0:0:
110,320,73096,1,8,0:0:0:0:
159,325,73164,1,8,0:0:0:0:
193,289,73232,6,0,P|200:230|179:164,1,114
95,83,73642,1,0,0:0:0:0:
95,83,73777,2,0,B|135:68|135:68|166:68|166:68|214:52,1,114
304,82,74187,2,0,P|332:83|383:89,2,57
353,9,74596,2,0,P|395:8|434:3,1,57
499,111,74868,2,0,P|469:109|437:110,1,57
340,194,75141,2,0,L|346:265,1,57
364,110,75414,6,0,P|316:107|257:161,1,114
220,237,75823,1,0,0:0:0:0:
220,237,75959,2,0,P|215:171|170:115,1,114
105,55,76369,1,2,0:0:0:0:
63,157,76505,1,8,0:0:0:0:
55,184,76572,1,8,0:0:0:0:
52,212,76640,1,8,0:0:0:0:
53,241,76709,1,8,0:0:0:0:
58,269,76778,2,0,L|103:271,1,28.5
133,355,76914,2,0,L|94:339,1,28.5
190,285,77050,2,0,P|228:291|263:315,1,57
328,372,77323,1,10,0:0:0:0:
345,349,77391,1,0,0:0:0:0:
356,323,77459,1,0,0:0:0:0:
359,295,77527,1,0,0:0:0:0:
354,267,77596,6,0,P|338:219|336:181,1,71.25
415,98,77869,2,0,P|445:128|454:245,1,142.5
335,199,78278,1,8,0:0:0:0:
202,97,78414,2,0,P|159:85|121:91,1,71.25
86,225,78686,2,0,L|94:316,1,71.25
228,169,78960,1,10,0:0:0:0:
123,27,79095,1,0,0:0:0:0:
102,56,79163,1,0,0:0:0:0:
94,90,79231,1,2,0:0:0:0:
98,125,79299,1,0,0:0:0:0:
114,157,79368,1,8,0:0:0:0:
236,30,79505,2,0,P|283:24|318:38,1,71.25
347,55,79709,1,8,0:0:0:0:
347,55,79777,6,0,L|348:142,1,71.25
330,239,80051,2,0,L|236:216,1,71.25
214,275,80255,2,0,L|120:290,1,71.25
88,245,80459,1,8,0:0:0:0:
207,146,80596,2,0,P|257:133|303:146,1,71.25
403,198,80868,1,8,0:0:0:0:
410,232,80936,1,0,0:0:0:0:
405,267,81004,1,8,0:0:0:0:
398,302,81072,1,0,0:0:0:0:
402,338,81142,2,0,L|412:371,6,17.8125
324,310,81414,1,10,0:0:0:0:
284,294,81481,1,8,0:0:0:0:
241,292,81550,1,8,0:0:0:0:
200,303,81618,1,8,0:0:0:0:
164,326,81687,1,10,0:0:0:0:
123,337,81754,1,8,0:0:0:0:
83,326,81823,1,8,0:0:0:0:
53,295,81891,1,8,0:0:0:0:
43,255,81959,6,0,P|54:205|49:162,1,77.9
38,51,82232,1,8,0:0:0:0:
153,121,82368,1,0,0:0:0:0:
153,121,82436,1,0,0:0:0:0:
153,121,82505,1,0,0:0:0:0:
102,8,82641,1,8,0:0:0:0:
267,29,82778,1,8,0:0:0:0:
252,176,82914,1,0,0:0:0:0:
341,74,83050,6,0,P|383:48|437:44,1,77.9
327,193,83323,2,0,P|284:180|244:175,1,77.9
90,240,83596,1,0,0:0:0:0:
191,321,83732,1,8,0:0:0:0:
174,64,83869,1,8,0:0:0:0:
80,162,84005,1,0,0:0:0:0:
80,162,84141,6,0,P|88:206|90:241,1,77.9
191,321,84414,2,0,P|224:295|284:301,1,77.9
325,337,84618,2,0,P|378:337|400:264,1,116.85
415,145,84960,1,8,0:0:0:0:
501,252,85096,1,0,0:0:0:0:
471,92,85232,5,8,0:0:0:0:
438,70,85300,1,0,0:0:0:0:
400,68,85368,1,0,0:0:0:0:
365,84,85436,1,0,0:0:0:0:
342,115,85505,1,8,0:0:0:0:
309,96,85573,1,0,0:0:0:0:
294,60,85641,1,0,0:0:0:0:
304,24,85709,1,0,0:0:0:0:
335,0,85778,2,0,B|363:18|363:18|381:78,1,77.9
259,201,86050,2,0,P|252:152|227:108,1,77.9
211,92,86255,1,0,0:0:0:0:
211,92,86323,6,0,B|173:94|173:94|115:112,1,77.9
96,244,86595,2,0,P|112:289|111:328,1,77.9
184,360,86800,2,0,P|200:319|278:309,1,116.85
402,371,87141,1,8,0:0:0:0:
485,267,87277,1,0,0:0:0:0:
384,173,87414,6,0,P|367:124|378:69,1,77.9
468,15,87686,1,8,0:0:0:0:
475,158,87823,1,8,0:0:0:0:
477,196,87890,1,0,0:0:0:0:
462,232,87959,1,0,0:0:0:0:
433,257,88027,1,0,0:0:0:0:
396,267,88095,1,8,0:0:0:0:
274,184,88232,2,0,P|235:171|192:175,1,77.9
149,192,88437,1,0,0:0:0:0:
149,192,88505,6,0,L|153:285,1,77.9
230,121,88777,2,0,P|229:76|206:36,1,77.9
183,17,88982,1,8,0:0:0:0:
183,17,89050,2,0,P|135:27|94:22,1,77.9
318,12,89323,1,0,0:0:0:0:
304,160,89459,1,0,0:0:0:0:
399,48,89596,5,8,0:0:0:0:
434,33,89663,1,8,0:0:0:0:
470,43,89732,1,8,0:0:0:0:
492,75,89800,1,8,0:0:0:0:
489,113,89868,2,0,L|487:142,6,19.475
407,161,90141,1,8,0:0:0:0:
371,190,90209,1,8,0:0:0:0:
350,232,90277,1,8,0:0:0:0:
346,278,90345,1,8,0:0:0:0:
361,322,90414,1,8,0:0:0:0:
406,349,90481,1,8,0:0:0:0:
456,331,90549,1,8,0:0:0:0:
474,281,90618,1,8,0:0:0:0:
447,236,90687,6,0,B|398:229|398:229|339:240|339:240|275:227,1,171
143,218,91096,2,0,P|118:264|152:389,1,171
278,227,91505,2,0,P|276:172|254:125,1,85.5
110,71,91778,6,0,P|90:131|152:222,1,171
331,22,92187,2,0,L|151:8,1,171
265,143,92596,2,0,P|278:184|278:227,1,85.5
397,100,92869,6,0,P|407:55|435:19,1,85.5
406,205,93141,1,8,0:0:0:0:
298,74,93278,2,0,P|234:71|189:162,1,171
219,298,93686,2,0,P|228:340|226:383,1,85.5
104,242,93960,5,8,0:0:0:0:
104,242,94095,1,8,0:0:0:0:
282,218,94232,1,8,0:0:0:0:
282,218,94369,1,8,0:0:0:0:
116,96,94505,1,8,0:0:0:0:
116,96,94641,1,8,0:0:0:0:
309,139,94777,1,8,0:0:0:0:
343,163,94845,1,8,0:0:0:0:
361,202,94913,1,8,0:0:0:0:
359,244,94981,1,8,0:0:0:0:
336,280,95051,6,0,P|283:299|193:234,1,171
361,110,95459,2,0,L|335:289,1,171
195,239,95868,2,0,P|187:178|170:132,1,85.5
380,27,96141,6,0,P|357:109|349:195,1,171
179,155,96550,2,0,P|184:98|288:47,1,171
451,120,96959,1,8,0:0:0:0:
463,160,97027,1,0,0:0:0:0:
458,202,97095,1,0,0:0:0:0:
453,244,97163,1,0,0:0:0:0:
465,285,97232,6,0,B|478:319|478:319|467:373,1,85.5
263,258,97505,1,2,0:0:0:0:
385,186,97641,1,0,0:0:0:0:
385,186,97710,1,8,0:0:0:0:
385,186,97778,1,0,0:0:0:0:
247,339,97914,1,8,0:0:0:0:
205,137,98050,1,8,0:0:0:0:
347,288,98187,5,0,0:0:0:0:
324,324,98254,1,0,0:0:0:0:
290,349,98323,1,8,0:0:0:0:
249,359,98391,1,0,0:0:0:0:
207,353,98459,1,8,0:0:0:0:
170,331,98527,1,8,0:0:0:0:
145,297,98596,1,8,0:0:0:0:
120,262,98663,1,8,0:0:0:0:
83,242,98731,1,8,0:0:0:0:
41,240,98800,1,8,0:0:0:0:
2,256,98869,1,8,0:0:0:0:
0,214,98936,1,8,0:0:0:0:
11,173,99005,1,8,0:0:0:0:
37,140,99073,1,8,0:0:0:0:
28,103,99141,1,8,0:0:0:0:
46,64,99209,1,8,0:0:0:0:
77,35,99277,1,8,0:0:0:0:
116,19,99345,1,8,0:0:0:0:
165,34,99414,6,0,B|170:83|170:83|162:138|162:138|173:224,1,171
299,77,99823,2,0,P|344:55|401:66,1,85.5
505,167,100096,1,8,0:0:0:0:
385,264,100232,2,0,P|367:309|373:369,1,85.5
203,189,100505,6,0,P|193:137|165:103,1,85.5
363,40,100778,2,0,B|401:38|401:38|462:60,1,85.5
292,265,101051,1,0,0:0:0:0:
275,100,101186,1,8,0:0:0:0:
417,166,101323,2,0,L|415:270,1,85.5
275,100,101596,6,0,P|235:77|174:77,1,85.5
97,241,101868,2,0,L|105:343,1,85.5
103,326,102073,1,8,0:0:0:0:
103,326,102141,1,8,0:0:0:0:
124,123,102277,1,8,0:0:0:0:
238,277,102414,1,8,0:0:0:0:
238,277,102551,1,0,0:0:0:0:
235,72,102686,5,0,0:0:0:0:
266,43,102754,1,0,0:0:0:0:
305,25,102822,1,8,0:0:0:0:
347,21,102890,1,0,0:0:0:0:
389,30,102959,1,8,0:0:0:0:
425,52,103027,1,0,0:0:0:0:
454,83,103095,1,8,0:0:0:0:
470,123,103163,1,0,0:0:0:0:
465,166,103232,1,0,0:0:0:0:
433,153,103299,1,0,0:0:0:0:
399,149,103367,1,8,0:0:0:0:
365,152,103436,1,0,0:0:0:0:
333,164,103504,1,8,0:0:0:0:
353,192,103572,1,8,0:0:0:0:
363,224,103641,1,8,0:0:0:0:
361,258,103709,1,8,0:0:0:0:
347,290,103777,6,0,P|303:300|235:285,1,85.5
104,188,104050,1,8,0:0:0:0:
298,168,104187,2,0,P|342:175|398:205,1,85.5
234,273,104459,1,8,0:0:0:0:
150,84,104596,1,8,0:0:0:0:
137,310,104732,1,0,0:0:0:0:
258,90,104868,6,0,P|304:80|354:101,1,85.5
393,272,105141,1,8,0:0:0:0:
185,155,105278,1,0,0:0:0:0:
173,118,105345,1,0,0:0:0:0:
173,80,105414,1,0,0:0:0:0:
187,44,105482,1,0,0:0:0:0:
212,15,105550,1,8,0:0:0:0:
400,39,105687,1,8,0:0:0:0:
416,72,105755,1,0,0:0:0:0:
420,111,105823,1,0,0:0:0:0:
410,148,105892,1,0,0:0:0:0:
389,180,105959,5,8,0:0:0:0:
347,171,106027,1,8,0:0:0:0:
304,174,106095,1,8,0:0:0:0:
263,185,106163,1,8,0:0:0:0:
224,202,106231,1,8,0:0:0:0:
183,213,106300,1,8,0:0:0:0:
140,213,106368,1,8,0:0:0:0:
99,202,106436,1,8,0:0:0:0:
64,179,106505,2,0,L|79:76,1,85.5
292,24,106778,1,8,0:0:0:0:
311,61,106845,1,8,0:0:0:0:
319,103,106913,1,8,0:0:0:0:
313,145,106982,1,8,0:0:0:0:
296,184,107050,5,0,0:0:0:0:
278,227,107117,1,0,0:0:0:0:
283,273,107186,1,0,0:0:0:0:
311,310,107254,1,0,0:0:0:0:
354,328,107323,2,0,L|406:293,1,42.75
406,152,107460,1,0,0:0:0:0:
359,171,107527,1,0,0:0:0:0:
308,172,107595,1,0,0:0:0:0:
257,162,107664,1,0,0:0:0:0:
208,148,107732,1,0,0:0:0:0:
157,149,107800,1,0,0:0:0:0:
110,169,107869,2,0,L|102:247,1,42.75
182,329,108005,1,0,0:0:0:0:
182,329,108073,1,0,0:0:0:0:
182,329,108141,6,0,P|186:261|219:203,1,95
386,60,108414,2,0,P|382:128|349:186,1,95
262,319,108686,1,8,0:0:0:0:
292,85,108823,1,8,0:0:0:0:
354,316,108960,2,0,P|385:358|436:377,1,95
468,125,109232,6,0,P|465:71|485:3,1,95
293,29,109505,1,8,0:0:0:0:
368,223,109642,1,0,0:0:0:0:
176,120,109777,1,8,0:0:0:0:
412,87,109914,1,8,0:0:0:0:
222,261,110051,2,0,P|173:263|128:237,1,95
324,114,110323,6,0,P|382:105|419:79,1,95
167,25,110596,2,0,P|167:76|185:148,1,95
428,103,110868,1,8,0:0:0:0:
266,22,111005,1,2,0:0:0:0:
202,244,111141,1,10,0:0:0:0:
313,105,111277,1,2,0:0:0:0:
124,87,111414,5,10,0:0:0:0:
84,112,111481,1,10,0:0:0:0:
58,151,111550,1,2,0:0:0:0:
50,198,111618,1,10,0:0:0:0:
62,243,111687,1,10,0:0:0:0:
107,223,111754,1,10,0:0:0:0:
157,218,111823,1,10,0:0:0:0:
205,230,111891,1,10,0:0:0:0:
247,256,111959,1,2,0:0:0:0:
289,287,112027,1,10,0:0:0:0:
338,305,112095,1,10,0:0:0:0:
390,309,112163,1,10,0:0:0:0:
441,298,112232,1,10,0:0:0:0:
423,249,112300,1,10,0:0:0:0:
413,195,112368,1,10,0:0:0:0:
426,142,112436,1,10,0:0:0:0:
459,99,112505,6,0,P|492:133|500:202,1,95
245,105,112778,2,0,P|247:49|277:-2,1,95
337,264,113050,1,8,0:0:0:0:
142,130,113187,1,8,0:0:0:0:
356,101,113323,1,8,0:0:0:0:
193,253,113459,1,2,0:0:0:0:
266,92,113596,6,0,P|315:86|372:114,1,95
193,253,113869,2,0,P|144:259|87:231,1,95
334,214,114141,1,8,0:0:0:0:
218,365,114278,1,8,0:0:0:0:
172,148,114414,2,0,P|168:97|195:48,1,95
436,63,114687,5,2,0:0:0:0:
414,265,114823,1,8,0:0:0:0:
337,103,114959,1,10,0:0:0:0:
314,296,115095,1,0,0:0:0:0:
272,68,115232,1,2,0:0:0:0:
379,331,115369,1,8,0:0:0:0:
372,37,115504,1,10,0:0:0:0:
478,291,115641,1,2,0:0:0:0:
337,103,115778,5,10,0:0:0:0:
292,89,115845,1,8,0:0:0:0:
246,99,115913,1,10,0:0:0:0:
212,131,115982,1,8,0:0:0:0:
198,176,116051,1,10,0:0:0:0:
211,222,116118,1,8,0:0:0:0:
205,269,116186,1,10,0:0:0:0:
196,315,116255,1,8,0:0:0:0:
205,362,116323,1,10,0:0:0:0:
234,319,116390,1,10,0:0:0:0:
279,292,116459,1,10,0:0:0:0:
330,285,116527,1,10,0:0:0:0:
380,299,116596,2,0,L|391:365,1,47.5
456,232,116732,2,0,L|446:185,1,47.5
412,75,116868,6,0,P|366:90|330:140,1,95
196,315,117142,2,0,P|181:256|133:218,1,95
0,136,117414,1,8,0:0:0:0:
209,80,117550,1,8,0:0:0:0:
81,306,117687,1,8,0:0:0:0:
69,102,117823,1,2,0:0:0:0:
236,245,117959,5,8,0:0:0:0:
263,13,118096,1,8,0:0:0:0:
341,209,118233,2,0,P|346:251|333:312,1,95
209,80,118505,1,8,0:0:0:0:
432,119,118641,1,8,0:0:0:0:
197,169,118777,2,0,P|156:158|117:113,1,95
344,30,119050,6,0,P|363:81|358:127,1,95
221,331,119323,2,0,P|218:283|236:240,1,95
458,125,119596,1,2,0:0:0:0:
357,274,119732,1,8,0:0:0:0:
191,118,119868,2,0,P|142:118|84:148,1,95
295,199,120141,5,8,0:0:0:0:
311,154,120209,1,10,0:0:0:0:
311,107,120277,1,10,0:0:0:0:
293,63,120345,1,10,0:0:0:0:
260,29,120414,1,10,0:0:0:0:
217,10,120482,1,10,0:0:0:0:
170,7,120550,1,10,0:0:0:0:
125,23,120618,1,10,0:0:0:0:
89,53,120687,1,2,0:0:0:0:
96,105,120754,1,10,0:0:0:0:
102,157,120822,1,2,0:0:0:0:
109,209,120891,1,10,0:0:0:0:
115,260,120959,1,10,0:0:0:0:
158,231,121027,1,10,0:0:0:0:
207,213,121095,1,10,0:0:0:0:
259,208,121163,1,10,0:0:0:0:
312,215,121232,6,0,P|354:241|386:285,1,95
158,231,121505,2,0,P|159:171|183:128,1,95
407,90,121778,1,8,0:0:0:0:
389,268,121914,1,10,0:0:0:0:
221,56,122050,2,0,P|166:44|103:76,1,95
94,262,122323,6,0,P|95:315|132:364,1,95
297,223,122595,2,0,P|337:257|398:261,1,95
399,61,122869,2,0,L|274:70,1,95
82,150,123141,2,0,L|207:159,1,95
382,171,123414,6,0,L|413:220,1,47.5
242,255,123551,2,0,L|247:189,1,47.5
362,289,123686,2,0,P|378:338|360:413,1,95
399,61,123960,2,0,P|360:36|322:30,1,47.5
275,171,124096,2,0,L|235:219,1,47.5
382,171,124232,2,0,L|425:190,1,47.5
274,66,124368,2,0,P|233:41|216:37,1,47.5
110,27,124505,5,10,0:0:0:0:
81,64,124572,1,10,0:0:0:0:
68,110,124641,1,10,0:0:0:0:
72,157,124709,1,10,0:0:0:0:
92,199,124777,2,0,P|110:229|121:267,1,47.5
246,137,124914,1,2,0:0:0:0:
246,137,124982,1,8,0:0:0:0:
246,137,125050,2,0,L|253:68,1,47.5
386,21,125187,1,0,0:0:0:0:
386,21,125255,1,2,0:0:0:0:
386,21,125324,2,0,L|393:90,1,47.5
339,240,125459,1,10,0:0:0:0:
339,240,125528,1,2,0:0:0:0:
339,240,125596,6,0,P|336:286|353:341,1,85.5
463,175,125868,2,0,P|454:128|382:84,1,128.25
345,93,126141,2,0,P|313:98|245:89,1,85.5
147,52,126414,2,0,L|156:156,1,85.5
166,288,126687,5,8,0:0:0:0:
202,309,126754,1,0,0:0:0:0:
244,312,126823,1,0,0:0:0:0:
284,296,126891,1,0,0:0:0:0:
314,259,126959,2,0,L|305:195,1,42.75
306,74,127096,1,8,0:0:0:0:
306,74,127164,1,8,0:0:0:0:
306,74,127232,2,0,L|380:100,1,42.75
458,207,127368,2,0,L|380:211,1,42.75
230,209,127505,1,2,0:0:0:0:
227,166,127572,1,8,0:0:0:0:
240,126,127640,1,8,0:0:0:0:
267,93,127709,1,8,0:0:0:0:
306,74,127778,5,4,0:0:0:0:
307,86,127845,1,4,0:0:0:0:
309,99,127914,1,4,0:0:0:0:
311,112,127982,1,4,0:0:0:0:
313,125,128050,2,0,L|321:177,1,33.25
230,209,128187,2,0,L|225:265,1,33.25
106,192,128323,1,10,0:0:0:0:
95,150,128391,1,8,0:0:0:0:
100,108,128459,1,8,0:0:0:0:
120,70,128527,1,8,0:0:0:0:
152,42,128596,1,8,0:0:0:0:
192,28,128664,1,8,0:0:0:0:
234,28,128732,1,8,0:0:0:0:
274,44,128800,1,8,0:0:0:0:
309,77,128868,5,4,0:0:0:0:
308,78,129141,2,0,L|303:141,1,57
238,240,129414,2,0,L|244:321,1,57
390,217,129687,2,0,L|383:96,1,99.75
374,33,129960,6,0,P|331:46|304:93,1,85.5
237,181,130164,1,0,0:0:0:0:
237,181,130232,2,0,L|214:75,1,85.5
104,32,130437,1,0,0:0:0:0:
104,32,130505,2,0,L|81:138,1,85.5
113,257,130709,1,0,0:0:0:0:
113,257,130777,2,0,P|126:296|115:361,1,85.5
244,255,130982,1,0,0:0:0:0:
244,255,131051,6,0,P|295:242|355:262,1,85.5
432,336,131255,1,0,0:0:0:0:
432,336,131323,2,0,L|430:216,1,85.5
342,159,131528,1,2,0:0:0:0:
342,159,131596,1,8,0:0:0:0:
415,37,131732,1,8,0:0:0:0:
463,165,131868,2,0,L|470:221,1,42.75
342,159,132005,2,0,L|336:106,1,42.75
258,20,132142,5,8,0:0:0:0:
228,50,132209,1,8,0:0:0:0:
210,88,132277,1,8,0:0:0:0:
206,131,132346,1,8,0:0:0:0:
218,172,132414,2,0,L|238:207,6,21.375
317,246,132687,1,10,0:0:0:0:
291,280,132754,1,8,0:0:0:0:
255,301,132823,1,8,0:0:0:0:
213,307,132891,1,8,0:0:0:0:
172,296,132959,2,0,L|150:238,1,42.75
206,131,133096,2,0,L|231:72,1,42.75
339,19,133232,5,8,0:0:0:0:
378,34,133300,1,8,0:0:0:0:
404,67,133368,1,8,0:0:0:0:
410,109,133437,1,8,0:0:0:0:
393,148,133505,1,10,0:0:0:0:
364,179,133572,1,8,0:0:0:0:
354,220,133641,1,8,0:0:0:0:
364,260,133709,1,12,0:0:0:0:
394,291,133778,1,10,0:0:0:0:
444,300,133845,1,12,0:0:0:0:
489,278,133914,1,8,0:0:0:0:
512,233,133982,1,8,0:0:0:0:
504,183,134050,1,10,0:0:0:0:
467,148,134119,1,8,0:0:0:0:
418,134,134186,1,8,0:0:0:0:
367,135,134254,1,8,0:0:0:0:
318,149,134323,6,0,B|297:208|297:208|302:240|302:240|273:334,1,171
159,349,134732,1,0,0:0:0:0:
82,253,134869,2,0,P|78:201|90:147,1,85.5
203,55,135141,2,0,P|251:60|310:49,1,85.5
408,171,135414,6,0,P|366:163|297:179,1,85.5
213,307,135687,1,8,0:0:0:0:
181,183,135823,2,0,P|178:132|205:67,1,85.5
424,100,136096,1,8,0:0:0:0:
363,250,136232,2,0,P|348:290|345:334,1,85.5
283,224,136504,6,0,P|273:169|180:98,1,171
122,254,136914,2,0,P|113:306|114:364,1,85.5
272,342,137187,1,8,0:0:0:0:
358,176,137323,2,0,P|388:151|451:144,1,85.5
369,276,137595,5,8,0:0:0:0:
369,276,137732,1,8,0:0:0:0:
252,132,137869,1,8,0:0:0:0:
252,132,138005,1,8,0:0:0:0:
432,108,138141,1,8,0:0:0:0:
432,108,138277,1,8,0:0:0:0:
258,217,138414,1,8,0:0:0:0:
253,259,138481,1,8,0:0:0:0:
266,299,138550,1,8,0:0:0:0:
293,332,138618,1,8,0:0:0:0:
331,351,138686,6,0,B|386:321|386:321|505:347,1,171
344,151,139096,2,0,P|338:208|352:245,1,85.5
467,110,139368,1,8,0:0:0:0:
324,47,139505,2,0,L|222:64,1,85.5
113,195,139777,6,0,P|155:185|218:210,1,85.5
288,329,140050,1,8,0:0:0:0:
398,157,140187,2,0,P|429:125|481:107,1,85.5
380,275,140459,1,8,0:0:0:0:
287,81,140596,1,8,0:0:0:0:
247,66,140663,1,0,0:0:0:0:
204,70,140732,1,0,0:0:0:0:
168,92,140800,1,0,0:0:0:0:
144,127,140868,6,0,B|150:174|150:174|141:219|141:219|158:326,1,171
374,276,141278,1,0,0:0:0:0:
374,276,141345,1,8,0:0:0:0:
374,276,141414,1,0,0:0:0:0:
237,155,141550,1,8,0:0:0:0:
290,325,141687,1,8,0:0:0:0:
398,158,141823,5,0,0:0:0:0:
439,166,141891,1,8,0:0:0:0:
474,190,141959,1,8,0:0:0:0:
497,226,142027,1,8,0:0:0:0:
505,268,142096,1,8,0:0:0:0:
497,309,142164,1,8,0:0:0:0:
473,345,142232,1,2,0:0:0:0:
432,354,142300,1,8,0:0:0:0:
390,347,142368,1,8,0:0:0:0:
348,340,142436,1,8,0:0:0:0:
307,348,142505,2,0,L|257:361,1,42.75
316,227,142641,2,0,L|377:212,1,42.75
229,239,142778,1,8,0:0:0:0:
228,196,142845,1,8,0:0:0:0:
249,159,142914,1,8,0:0:0:0:
285,138,142982,1,8,0:0:0:0:
328,138,143050,6,0,B|341:159|341:159|359:221,1,85.5
165,277,143323,1,8,0:0:0:0:
189,120,143459,2,0,P|209:72|244:40,1,85.5
445,108,143732,1,8,0:0:0:0:
357,217,143869,2,0,P|342:262|341:317,1,85.5
250,131,144141,6,0,P|243:80|227:38,1,85.5
132,230,144414,2,0,P|118:276|123:333,1,85.5
277,271,144687,1,0,0:0:0:0:
184,121,144823,1,8,0:0:0:0:
372,35,144960,1,8,0:0:0:0:
329,197,145095,1,0,0:0:0:0:
227,49,145232,6,0,P|185:39|135:53,1,85.5
60,200,145505,2,0,L|67:296,1,85.5
66,285,145709,1,8,0:0:0:0:
66,285,145777,1,8,0:0:0:0:
221,128,145914,1,8,0:0:0:0:
66,94,146051,1,8,0:0:0:0:
162,246,146186,1,0,0:0:0:0:
281,70,146323,5,0,0:0:0:0:
319,52,146390,1,0,0:0:0:0:
362,48,146459,1,8,0:0:0:0:
403,59,146527,1,0,0:0:0:0:
438,83,146595,1,8,0:0:0:0:
463,117,146664,1,0,0:0:0:0:
476,158,146732,1,8,0:0:0:0:
474,200,146800,1,0,0:0:0:0:
458,240,146868,1,0,0:0:0:0:
427,226,146936,1,0,0:0:0:0:
393,222,147004,1,0,0:0:0:0:
359,229,147072,1,0,0:0:0:0:
329,245,147142,1,8,0:0:0:0:
301,265,147209,1,8,0:0:0:0:
270,279,147277,1,8,0:0:0:0:
237,287,147346,1,8,0:0:0:0:
202,290,147414,6,0,L|210:173,1,85.5
362,48,147687,2,0,P|359:95|399:135,1,85.5
463,166,147891,2,0,L|466:31,1,128.25
238,108,148232,1,8,0:0:0:0:
359,229,148368,1,0,0:0:0:0:
286,37,148505,6,0,P|217:18|147:99,1,171
221,255,148914,1,0,0:0:0:0:
238,284,148981,1,0,0:0:0:0:
249,316,149049,1,0,0:0:0:0:
254,350,149118,1,0,0:0:0:0:
252,384,149186,1,0,0:0:0:0:
266,172,149323,1,8,0:0:0:0:
285,144,149391,1,0,0:0:0:0:
313,124,149459,1,0,0:0:0:0:
346,115,149527,1,0,0:0:0:0:
380,117,149596,5,8,0:0:0:0:
394,157,149663,1,8,0:0:0:0:
399,199,149731,1,8,0:0:0:0:
389,240,149800,1,8,0:0:0:0:
377,281,149868,1,8,0:0:0:0:
382,324,149936,1,8,0:0:0:0:
400,362,150005,1,8,0:0:0:0:
440,375,150072,1,8,0:0:0:0:
478,358,150141,2,0,P|491:319|482:256,1,85.5
338,43,150414,1,8,0:0:0:0:
298,27,150482,1,8,0:0:0:0:
255,28,150550,1,8,0:0:0:0:
216,44,150618,1,8,0:0:0:0:
186,74,150687,5,0,0:0:0:0:
169,113,150755,1,0,0:0:0:0:
168,156,150823,1,0,0:0:0:0:
183,196,150892,1,0,0:0:0:0:
212,227,150960,1,4,0:0:0:0:
238,259,151027,1,0,0:0:0:0:
244,301,151096,1,0,0:0:0:0:
229,340,151164,1,0,0:0:0:0:
195,366,151232,2,0,L|132:349,1,42.75
57,250,151369,2,0,L|110:235,1,42.75
286,148,151504,2,0,L|229:137,1,42.75
18,74,151641,2,0,L|94:55,1,42.75
297,43,151778,6,0,P|346:54|377:95,1,95
243,273,152050,2,0,P|240:213|259:171,1,95
286,148,152255,1,0,0:0:0:0:
286,148,152323,2,0,L|388:161,1,95
194,29,152595,2,0,P|155:52|130:117,1,95
227,364,152869,6,0,P|227:311|254:256,1,95
466,170,153141,1,8,0:0:0:0:
375,341,153277,1,0,0:0:0:0:
259,154,153414,1,8,0:0:0:0:
447,44,153551,1,8,0:0:0:0:
473,291,153686,2,0,P|479:343|454:405,1,95
304,170,153959,6,0,P|289:127|299:52,1,95
482,167,154232,1,8,0:0:0:0:
332,305,154368,1,0,0:0:0:0:
423,101,154505,2,0,P|479:80|523:93,1,95
255,150,154777,2,0,P|205:148|166:106,1,95
442,4,155050,5,10,0:0:0:0:
479,33,155118,1,10,0:0:0:0:
500,75,155186,1,10,0:0:0:0:
498,122,155254,1,10,0:0:0:0:
475,163,155323,1,10,0:0:0:0:
438,197,155390,1,10,0:0:0:0:
391,210,155458,1,10,0:0:0:0:
342,200,155527,1,10,0:0:0:0:
304,170,155595,1,10,0:0:0:0:
255,150,155663,1,2,0:0:0:0:
204,155,155732,1,10,0:0:0:0:
160,182,155800,1,10,0:0:0:0:
132,226,155868,1,2,0:0:0:0:
80,204,155936,1,10,0:0:0:0:
43,162,156004,1,2,0:0:0:0:
30,107,156072,1,10,0:0:0:0:
44,52,156141,6,0,P|81:32|176:41,1,95
280,236,156414,1,8,0:0:0:0:
127,120,156550,1,0,0:0:0:0:
308,58,156687,2,0,P|365:58|430:94,1,95
187,271,156959,2,0,P|195:221|186:161,1,95
399,71,157232,6,0,P|398:124|408:182,1,95
443,380,157505,1,8,0:0:0:0:
314,260,157641,1,0,0:0:0:0:
512,134,157778,1,8,0:0:0:0:
389,315,157914,1,8,0:0:0:0:
327,108,158050,2,0,P|277:103|227:125,1,95
89,261,158323,5,2,0:0:0:0:
159,9,158460,1,8,0:0:0:0:
134,331,158596,1,10,0:0:0:0:
214,71,158732,1,0,0:0:0:0:
211,324,158869,1,2,0:0:0:0:
290,51,159005,1,8,0:0:0:0:
84,266,159141,1,10,0:0:0:0:
158,13,159278,1,2,0:0:0:0:
243,290,159414,5,10,0:0:0:0:
211,324,159482,1,8,0:0:0:0:
166,335,159550,1,10,0:0:0:0:
122,318,159618,1,8,0:0:0:0:
96,280,159686,1,10,0:0:0:0:
91,232,159754,1,8,0:0:0:0:
102,187,159822,1,10,0:0:0:0:
110,140,159891,1,8,0:0:0:0:
108,93,159959,1,10,0:0:0:0:
155,114,160027,1,10,0:0:0:0:
207,119,160095,1,10,0:0:0:0:
258,108,160164,1,10,0:0:0:0:
302,81,160232,2,0,L|342:29,1,47.5
186,1,160369,2,0,L|195:72,1,47.5
281,172,160505,6,0,P|292:227|259:287,1,95
39,251,160777,1,8,0:0:0:0:
198,119,160914,1,0,0:0:0:0:
175,341,161051,1,8,0:0:0:0:
32,147,161186,1,8,0:0:0:0:
272,21,161323,2,0,P|309:67|315:124,1,95
353,354,161596,6,0,P|356:288|381:233,1,95
459,135,161868,1,8,0:0:0:0:
481,307,162005,1,0,0:0:0:0:
316,101,162141,1,8,0:0:0:0:
284,326,162277,1,8,0:0:0:0:
176,79,162414,2,0,P|141:41|88:17,1,95
184,295,162687,6,0,P|195:344|224:391,1,95
287,160,162959,1,8,0:0:0:0:
47,185,163096,1,0,0:0:0:0:
301,257,163232,2,0,P|351:237|385:190,1,95
176,79,163505,2,0,P|126:99|92:146,1,95
377,206,163778,5,8,0:0:0:0:
389,160,163845,1,10,0:0:0:0:
381,114,163914,1,10,0:0:0:0:
353,76,163982,1,10,0:0:0:0:
311,55,164050,1,10,0:0:0:0:
264,51,164118,1,10,0:0:0:0:
220,67,164186,1,10,0:0:0:0:
188,101,164254,1,10,0:0:0:0:
173,146,164323,1,10,0:0:0:0:
199,191,164391,1,2,0:0:0:0:
211,241,164459,1,10,0:0:0:0:
205,293,164527,1,2,0:0:0:0:
176,337,164596,1,10,0:0:0:0:
129,358,164663,1,10,0:0:0:0:
78,350,164731,1,10,0:0:0:0:
39,316,164800,1,10,0:0:0:0:
26,266,164869,6,0,P|66:247|128:249,1,95
345,334,165141,1,2,0:0:0:0:
125,375,165278,1,2,0:0:0:0:
278,218,165414,2,0,P|354:199|394:207,1,95
185,48,165687,2,0,P|109:29|69:37,1,95
148,247,165960,6,0,P|158:305|140:375,1,95
52,162,166232,1,2,0:0:0:0:
239,265,166369,1,2,0:0:0:0:
48,369,166505,2,0,P|43:305|58:257,1,95
226,98,166778,2,0,P|234:153|227:202,1,95
399,370,167051,6,0,P|400:317|416:259,1,95
475,100,167323,1,2,0:0:0:0:
316,210,167460,1,0,0:0:0:0:
472,5,167596,2,0,L|475:112,1,95
481,336,167868,1,2,0:0:0:0:
302,136,168005,1,0,0:0:0:0:
489,184,168141,5,2,0:0:0:0:
489,230,168208,1,8,0:0:0:0:
465,270,168277,1,8,0:0:0:0:
423,292,168345,1,8,0:0:0:0:
377,287,168414,2,0,P|336:278|309:279,1,47.5
144,340,168551,1,8,0:0:0:0:
144,340,168619,1,8,0:0:0:0:
144,340,168686,2,0,L|152:260,1,47.5
282,147,168823,2,0,L|279:205,1,47.5
111,130,168959,2,0,L|115:73,1,47.5
291,29,169096,1,10,0:0:0:0:
291,29,169164,1,0,0:0:0:0:
291,29,169232,6,0,P|336:39|368:71,1,66.5
405,115,169437,1,8,0:0:0:0:
405,115,169505,2,0,L|401:193,1,66.5
336,224,169710,1,8,0:0:0:0:
336,224,169778,2,0,L|332:302,1,66.5
223,346,170050,1,8,0:0:0:0:
161,245,170187,1,2,0:0:0:0:
244,153,170323,6,0,L|252:78,1,71.25
149,23,170596,2,0,L|155:100,1,71.25
80,192,170868,1,0,0:0:0:0:
60,82,171005,1,8,0:0:0:0:
159,188,171141,1,0,0:0:0:0:
138,304,171278,1,10,0:0:0:0:
265,246,171414,5,0,0:0:0:0:
296,232,171481,1,0,0:0:0:0:
330,229,171549,1,2,0:0:0:0:
363,237,171618,1,0,0:0:0:0:
392,255,171687,2,0,L|400:345,1,76
265,246,171959,1,0,0:0:0:0:
261,208,172027,1,0,0:0:0:0:
270,171,172095,1,2,0:0:0:0:
290,139,172163,1,0,0:0:0:0:
320,116,172232,2,0,L|409:128,1,76
265,246,172505,6,0,L|250:152,1,80.75
160,60,172778,2,0,L|150:172,1,80.75
133,296,173050,1,0,0:0:0:0:
61,156,173187,1,8,0:0:0:0:
269,43,173323,1,0,0:0:0:0:
252,166,173460,1,0,0:0:0:0:
149,36,173595,5,0,0:0:0:0:
346,15,173732,1,8,0:0:0:0:
330,185,173869,2,0,L|322:299,1,85.5
252,325,174073,1,0,0:0:0:0:
252,325,174141,2,0,L|241:223,1,85.5
218,71,174414,1,2,0:0:0:0:
105,212,174551,5,8,0:0:0:0:
96,253,174618,1,8,0:0:0:0:
106,294,174686,1,10,0:0:0:0:
132,327,174755,1,8,0:0:0:0:
171,344,174823,1,8,0:0:0:0:
213,343,174891,1,8,0:0:0:0:
252,325,174960,1,2,0:0:0:0:
290,307,175027,1,8,0:0:0:0:
332,301,175095,1,8,0:0:0:0:
375,308,175164,1,8,0:0:0:0:
413,327,175232,2,0,L|428:266,1,42.75
368,133,175368,2,0,L|367:191,1,42.75
290,307,175505,2,0,L|284:237,1,42.75
212,79,175642,2,0,L|207:145,1,42.75
172,264,175777,5,0,0:0:0:0:
141,249,175845,1,0,0:0:0:0:
115,227,175913,1,0,0:0:0:0:
95,199,175981,1,0,0:0:0:0:
84,167,176050,1,8,0:0:0:0:
82,133,176118,1,0,0:0:0:0:
89,99,176186,1,8,0:0:0:0:
105,69,176255,1,0,0:0:0:0:
129,44,176323,1,8,0:0:0:0:
170,56,176390,1,8,0:0:0:0:
212,60,176459,1,10,0:0:0:0:
254,55,176527,1,0,0:0:0:0:
287,19,176596,1,8,0:0:0:0:
327,6,176663,1,8,0:0:0:0:
370,3,176732,1,10,0:0:0:0:
412,7,176800,1,8,0:0:0:0:
457,24,176868,5,8,0:0:0:0:
457,24,177141,2,0,L|451:108,1,66.5
388,236,177414,2,0,P|359:203|352:159,1,76
231,19,177687,2,0,P|243:65|238:107,1,85.5
111,290,177959,6,0,P|88:243|177:125,1,190
336,243,178368,1,2,0:0:0:0:
181,344,178505,1,8,0:0:0:0:
239,147,178641,1,2,0:0:0:0:
479,234,178778,2,0,P|462:282|466:349,1,95
300,350,179050,5,8,0:0:0:0:
348,193,179187,1,2,0:0:0:0:
300,350,179323,1,8,0:0:0:0:
181,236,179459,1,2,0:0:0:0:
365,88,179596,2,0,P|401:104|438:160,1,95
257,238,179869,5,8,0:0:0:0:
217,37,180005,1,2,0:0:0:0:
348,193,180141,1,8,0:0:0:0:
220,362,180278,1,2,0:0:0:0:
268,144,180414,2,0,L|292:39,1,95
339,268,180687,5,8,0:0:0:0:
130,202,180823,1,2,0:0:0:0:
380,139,180960,1,8,0:0:0:0:
228,289,181095,1,2,0:0:0:0:
228,68,181232,1,8,0:0:0:0:
250,26,181300,1,0,0:0:0:0:
290,3,181368,1,8,0:0:0:0:
337,4,181436,1,0,0:0:0:0:
376,30,181505,5,8,0:0:0:0:
363,75,181573,1,8,0:0:0:0:
357,122,181641,1,10,0:0:0:0:
358,170,181709,1,8,0:0:0:0:
368,216,181778,1,0,0:0:0:0:
486,82,181914,1,2,0:0:0:0:
279,186,182051,1,2,0:0:0:0:
270,232,182118,1,0,0:0:0:0:
286,276,182186,1,0,0:0:0:0:
323,305,182255,1,0,0:0:0:0:
369,312,182323,6,0,L|369:209,1,95
368,0,182596,1,8,0:0:0:0:
470,195,182732,1,2,0:0:0:0:
273,94,182868,1,8,0:0:0:0:
464,35,183005,1,2,0:0:0:0:
284,217,183142,2,0,P|229:232|178:196,1,95
77,61,183414,5,8,0:0:0:0:
304,108,183550,1,2,0:0:0:0:
160,283,183687,1,8,0:0:0:0:
194,83,183823,1,2,0:0:0:0:
253,292,183959,2,0,P|257:349|241:390,1,95
136,104,184233,6,0,L|196:85,1,47.5
351,229,184368,2,0,L|344:275,1,47.5
295,86,184505,2,0,L|284:32,1,38
244,239,184641,2,0,L|251:287,1,38
382,121,184777,2,0,P|386:63|362:22,1,95
144,36,185050,5,8,0:0:0:0:
175,264,185187,1,2,0:0:0:0:
144,36,185323,1,8,0:0:0:0:
82,265,185459,1,2,0:0:0:0:
229,87,185596,1,8,0:0:0:0:
275,79,185663,1,8,0:0:0:0:
319,96,185732,1,8,0:0:0:0:
349,132,185800,1,8,0:0:0:0:
357,179,185868,6,0,P|349:212|349:239,1,47.5
466,108,186005,1,10,0:0:0:0:
466,108,186073,1,8,0:0:0:0:
466,108,186141,2,0,P|469:51|464:27,1,47.5
271,31,186278,2,0,P|271:54|274:78,1,47.5
443,231,186414,2,0,P|442:207|439:183,1,47.5
366,50,186550,1,8,0:0:0:0:
366,50,186618,1,8,0:0:0:0:
366,50,186687,6,0,P|312:60|286:195,1,190
379,317,187096,1,2,0:0:0:0:
187,222,187232,1,8,0:0:0:0:
98,364,187369,1,2,0:0:0:0:
308,261,187505,2,0,P|289:195|250:157,1,95
87,66,187778,5,8,0:0:0:0:
124,293,187914,1,2,0:0:0:0:
200,62,188050,1,8,0:0:0:0:
22,217,188187,1,2,0:0:0:0:
280,184,188323,1,8,0:0:0:0:
280,184,188391,1,0,0:0:0:0:
280,184,188460,1,0,0:0:0:0:
110,154,188595,5,8,0:0:0:0:
324,70,188732,1,2,0:0:0:0:
239,264,188869,1,8,0:0:0:0:
200,62,189005,1,2,0:0:0:0:
374,266,189141,2,0,P|383:323|365:376,1,95
200,209,189414,5,8,0:0:0:0:
398,134,189551,1,2,0:0:0:0:
257,320,189686,1,8,0:0:0:0:
320,45,189823,1,2,0:0:0:0:
341,288,189960,1,8,0:0:0:0:
308,321,190027,1,8,0:0:0:0:
263,336,190095,1,8,0:0:0:0:
217,329,190164,1,8,0:0:0:0:
179,301,190232,5,8,0:0:0:0:
194,256,190299,1,8,0:0:0:0:
200,209,190368,1,10,0:0:0:0:
197,162,190436,1,8,0:0:0:0:
185,116,190504,1,8,0:0:0:0:
20,71,190642,1,2,0:0:0:0:
269,161,190777,1,10,0:0:0:0:
292,120,190845,1,8,0:0:0:0:
288,73,190913,1,8,0:0:0:0:
258,38,190981,1,8,0:0:0:0:
218,26,191050,6,0,L|176:137,1,95
102,329,191323,1,8,0:0:0:0:
77,120,191459,1,2,0:0:0:0:
233,314,191596,1,8,0:0:0:0:
33,229,191733,1,2,0:0:0:0:
260,128,191868,2,0,P|310:140|349:182,1,95
159,198,192141,5,8,0:0:0:0:
272,36,192278,1,2,0:0:0:0:
301,313,192414,1,8,0:0:0:0:
183,122,192550,1,2,0:0:0:0:
448,123,192687,2,0,L|442:223,1,95
224,272,192959,5,8,0:0:0:0:
214,226,193027,1,0,0:0:0:0:
231,182,193095,1,2,0:0:0:0:
268,153,193163,1,0,0:0:0:0:
314,148,193232,1,8,0:0:0:0:
219,345,193368,1,2,0:0:0:0:
175,83,193505,2,0,P|152:32|107:9,1,95
86,217,193778,5,8,0:0:0:0:
277,144,193914,1,2,0:0:0:0:
48,115,194050,2,0,L|8:113,1,38
200,205,194187,2,0,L|248:208,1,38
175,83,194323,1,8,0:0:0:0:
136,109,194391,1,8,0:0:0:0:
111,150,194459,1,8,0:0:0:0:
105,196,194527,1,8,0:0:0:0:
118,241,194596,6,0,P|131:271|131:303,1,47.5
283,350,194732,1,10,0:0:0:0:
283,350,194800,1,8,0:0:0:0:
283,350,194869,2,0,P|276:290|281:273,1,47.5
389,107,195005,2,0,P|398:157|394:178,1,47.5
200,252,195141,2,0,P|197:221|203:193,1,47.5
291,79,195278,1,8,0:0:0:0:
291,79,195346,1,8,0:0:0:0:
291,79,195414,6,0,P|296:119|294:177,1,76
410,305,195687,2,0,P|426:258|422:220,1,76
296,154,195960,2,0,B|233:189|205:130|140:179,1,152
57,325,196369,1,0,0:0:0:0:
57,325,196437,1,0,0:0:0:0:
57,325,196505,6,0,L|61:233,1,76
37,110,196777,2,0,P|70:79|125:67,1,76
252,80,197051,1,0,0:0:0:0:
213,198,197186,1,4,0:0:0:0:
181,9,197323,1,0,0:0:0:0:
358,64,197460,1,0,0:0:0:0:
358,64,197528,1,0,0:0:0:0:
358,64,197596,6,0,P|367:112|353:159,1,85.5
213,198,197868,2,0,B|156:215|182:185|117:208,1,85.5
67,256,198073,1,0,0:0:0:0:
67,256,198142,2,0,P|59:301|68:357,1,85.5
249,260,198414,1,4,0:0:0:0:
117,135,198550,1,4,0:0:0:0:
171,335,198687,5,4,0:0:0:0:
225,111,198823,1,0,0:0:0:0:
306,347,198959,1,4,0:0:0:0:
85,197,199096,1,8,0:0:0:0:
350,79,199232,1,4,0:0:0:0:
171,335,199368,1,8,0:0:0:0:
238,21,199505,1,0,0:0:0:0:
419,303,199641,1,4,0:0:0:0:
50,169,199778,6,0,P|53:102|79:61,1,95
406,12,200050,2,0,P|421:61|409:115,1,95
381,149,200255,1,0,0:0:0:0:
381,149,200323,2,0,L|273:138,1,95
12,30,200596,2,0,P|65:6|117:19,1,95
202,240,200868,6,0,L|191:357,1,95
55,197,201141,1,8,0:0:0:0:
234,130,201278,1,0,0:0:0:0:
82,295,201414,1,8,0:0:0:0:
131,66,201550,1,8,0:0:0:0:
307,240,201687,2,0,P|356:253|409:230,1,95
204,133,201959,6,0,P|148:139|112:167,1,95
396,334,202232,2,0,L|396:229,1,95
298,79,202504,1,8,0:0:0:0:
240,278,202641,1,8,0:0:0:0:
442,127,202778,2,0,P|429:76|378:33,1,95
151,155,203050,5,8,0:0:0:0:
364,133,203187,1,8,0:0:0:0:
148,245,203323,1,10,0:0:0:0:
314,50,203460,1,0,0:0:0:0:
228,293,203595,2,0,L|218:344,1,47.5
223,65,203732,2,0,L|231:14,1,47.5
378,193,203869,1,8,0:0:0:0:
388,239,203936,1,0,0:0:0:0:
378,285,204004,1,2,0:0:0:0:
351,323,204073,1,2,0:0:0:0:
311,347,204141,6,0,P|256:335|205:343,1,95
71,111,204414,2,0,P|116:80|184:86,1,95
368,179,204686,1,8,0:0:0:0:
150,184,204823,1,8,0:0:0:0:
363,70,204960,2,0,P|414:79|451:111,1,95
252,293,205232,6,0,L|247:192,1,95
297,17,205505,1,8,0:0:0:0:
382,171,205642,1,0,0:0:0:0:
136,104,205777,1,8,0:0:0:0:
371,70,205914,1,8,0:0:0:0:
155,219,206050,2,0,P|106:228|54:203,1,95
286,60,206323,5,2,0:0:0:0:
331,321,206459,1,8,0:0:0:0:
371,70,206596,1,10,0:0:0:0:
252,293,206732,1,0,0:0:0:0:
336,0,206868,1,2,0:0:0:0:
313,242,207005,1,8,0:0:0:0:
420,6,207141,1,10,0:0:0:0:
393,267,207278,1,2,0:0:0:0:
253,47,207414,5,8,0:0:0:0:
206,51,207481,1,8,0:0:0:0:
170,80,207549,1,8,0:0:0:0:
157,125,207618,1,8,0:0:0:0:
172,170,207686,1,8,0:0:0:0:
196,211,207754,1,8,0:0:0:0:
206,257,207823,1,8,0:0:0:0:
203,304,207891,1,8,0:0:0:0:
187,348,207959,1,8,0:0:0:0:
231,320,208027,1,8,0:0:0:0:
281,308,208095,1,8,0:0:0:0:
333,312,208163,1,8,0:0:0:0:
381,332,208232,2,0,L|434:363,1,47.5
344,202,208369,2,0,L|300:175,1,47.5
121,226,208505,6,0,P|111:283|123:325,1,95
337,325,208778,1,8,0:0:0:0:
272,166,208914,1,0,0:0:0:0:
230,373,209050,1,8,0:0:0:0:
380,214,209187,1,8,0:0:0:0:
157,139,209323,2,0,P|98:132|50:151,1,95
254,22,209596,6,0,P|309:13|374:31,1,95
449,203,209869,1,8,0:0:0:0:
292,243,210004,1,0,0:0:0:0:
486,67,210141,1,8,0:0:0:0:
462,289,210278,1,8,0:0:0:0:
249,128,210414,2,0,P|193:126|156:147,1,95
358,320,210687,6,0,P|349:254|359:198,1,95
242,34,210960,2,0,P|251:100|241:156,1,95
153,290,211232,1,8,0:0:0:0:
95,84,211369,1,8,0:0:0:0:
307,244,211505,2,0,P|363:246|428:213,1,95
242,34,211777,5,8,0:0:0:0:
195,36,211845,1,8,0:0:0:0:
156,62,211913,1,8,0:0:0:0:
136,104,211981,1,8,0:0:0:0:
141,151,212051,1,8,0:0:0:0:
148,197,212118,1,8,0:0:0:0:
133,242,212186,1,8,0:0:0:0:
100,276,212255,1,8,0:0:0:0:
57,293,212323,1,2,0:0:0:0:
29,246,212390,1,8,0:0:0:0:
23,191,212459,1,0,0:0:0:0:
37,140,212527,1,8,0:0:0:0:
71,98,212596,1,10,0:0:0:0:
124,104,212664,1,8,0:0:0:0:
178,110,212732,1,8,0:0:0:0:
232,116,212800,1,8,0:0:0:0:
286,123,212868,6,0,P|334:121|389:89,1,95
111,17,213142,1,2,0:0:0:0:
255,204,213277,1,2,0:0:0:0:
281,10,213414,1,8,0:0:0:0:
103,185,213550,1,10,0:0:0:0:
375,100,213687,2,0,P|423:101|483:154,1,95
264,301,213959,6,0,P|216:303|168:278,1,95
89,89,214232,2,0,P|137:87|185:112,1,95
375,99,214505,2,0,P|382:165|355:216,1,95
172,375,214778,2,0,P|165:309|192:258,1,95
293,118,215050,5,8,0:0:0:0:
333,103,215118,1,8,0:0:0:0:
375,99,215186,1,8,0:0:0:0:
417,107,215254,1,8,0:0:0:0:
455,126,215323,2,0,L|469:179,1,47.5
348,310,215459,1,8,0:0:0:0:
327,273,215527,1,8,0:0:0:0:
331,231,215595,1,8,0:0:0:0:
359,200,215663,1,8,0:0:0:0:
400,190,215731,1,8,0:0:0:0:
439,206,215800,1,8,0:0:0:0:
462,244,215869,2,0,L|461:299,1,47.5
335,150,216005,2,0,L|332:95,1,47.5
446,19,216141,5,8,0:0:0:0:
484,46,216209,1,8,0:0:0:0:
503,89,216277,1,8,0:0:0:0:
497,135,216345,1,8,0:0:0:0:
469,173,216414,1,8,0:0:0:0:
420,155,216482,1,8,0:0:0:0:
368,148,216550,1,8,0:0:0:0:
316,152,216618,1,8,0:0:0:0:
266,166,216687,2,0,L|254:226,1,47.5
136,325,216823,1,8,0:0:0:0:
113,273,216891,1,8,0:0:0:0:
118,216,216959,1,8,0:0:0:0:
139,163,217027,1,8,0:0:0:0:
136,107,217096,1,8,0:0:0:0:
110,56,217164,1,8,0:0:0:0:
65,22,217232,6,0,B|24:76|33:136|62:165|62:165|125:98|176:125|221:140,1,304
289,227,217914,1,0,0:0:0:0:
289,227,218050,2,0,L|293:305,1,76
175,217,218323,6,0,P|203:152|390:284,1,399
305,368,219277,1,2,0:0:0:0:
305,368,219414,6,0,P|256:352|218:353,1,76
94,220,219686,2,0,P|161:219|207:207,1,80.75
359,19,219959,2,0,P|311:15|265:25,1,85.5
399,294,220232,2,0,P|455:306|518:287,1,90.25
275,22,220505,5,10,0:0:0:0:
229,33,220572,1,10,0:0:0:0:
194,64,220641,1,2,0:0:0:0:
179,109,220709,1,10,0:0:0:0:
187,155,220777,1,10,0:0:0:0:
203,202,220845,1,10,0:0:0:0:
193,250,220913,1,10,0:0:0:0:
160,286,220981,1,10,0:0:0:0:
113,301,221050,1,2,0:0:0:0:
62,294,221118,1,10,0:0:0:0:
21,262,221186,1,10,0:0:0:0:
3,214,221254,1,10,0:0:0:0:
11,163,221323,1,10,0:0:0:0:
65,160,221390,1,10,0:0:0:0:
111,188,221458,1,10,0:0:0:0:
134,236,221527,1,10,0:0:0:0:
127,290,221596,6,0,P|117:347|120:392,1,95
342,183,221868,2,0,P|343:135|333:89,1,95
161,152,222141,1,8,0:0:0:0:
313,262,222278,1,8,0:0:0:0:
247,28,222414,2,0,P|229:94|238:163,1,95
393,273,222687,6,0,P|385:222|340:181,1,95
92,230,222959,1,8,0:0:0:0:
300,327,223096,1,0,0:0:0:0:
229,143,223232,1,8,0:0:0:0:
158,359,223369,1,8,0:0:0:0:
85,106,223505,2,0,P|95:54|157:8,1,95
398,92,223778,5,2,0:0:0:0:
165,208,223914,1,8,0:0:0:0:
362,17,224050,1,10,0:0:0:0:
294,273,224187,1,0,0:0:0:0:
442,21,224323,1,2,0:0:0:0:
237,204,224460,1,8,0:0:0:0:
491,104,224596,1,10,0:0:0:0:
376,333,224732,1,2,0:0:0:0:
191,131,224869,6,0,P|147:111|87:123,1,95
438,165,225141,1,8,0:0:0:0:
258,13,225278,1,0,0:0:0:0:
214,290,225414,2,0,P|208:342|215:388,1,95
369,141,225686,1,2,0:0:0:0:
328,116,225754,1,2,0:0:0:0:
282,106,225822,1,2,0:0:0:0:
235,111,225891,1,2,0:0:0:0:
191,131,225960,6,0,P|185:181|161:237,1,95
421,98,226232,2,0,P|429:52|456:-6,1,95
205,37,226505,1,8,0:0:0:0:
362,223,226641,1,8,0:0:0:0:
197,29,226777,2,0,P|147:18|93:31,1,95
263,247,227051,6,0,P|313:252|354:230,1,95
131,125,227323,1,8,0:0:0:0:
181,325,227459,1,0,0:0:0:0:
267,124,227596,1,8,0:0:0:0:
119,236,227732,1,8,0:0:0:0:
289,33,227868,2,0,P|336:55|362:111,1,95
368,306,228141,6,0,P|321:269|286:258,1,95
92,167,228414,1,8,0:0:0:0:
289,143,228550,1,0,0:0:0:0:
110,294,228687,2,0,P|48:303|6:281,1,95
168,110,228959,2,0,P|231:102|299:132,1,95
60,126,229232,5,8,0:0:0:0:
71,79,229300,1,10,0:0:0:0:
99,41,229368,1,10,0:0:0:0:
141,19,229436,1,10,0:0:0:0:
188,14,229505,1,10,0:0:0:0:
231,31,229572,1,10,0:0:0:0:
278,35,229640,1,10,0:0:0:0:
324,25,229709,1,10,0:0:0:0:
365,1,229777,1,2,0:0:0:0:
372,52,229845,1,10,0:0:0:0:
379,105,229914,1,2,0:0:0:0:
386,157,229982,1,10,0:0:0:0:
393,208,230050,1,10,0:0:0:0:
343,192,230118,1,10,0:0:0:0:
291,190,230186,1,10,0:0:0:0:
240,201,230254,1,10,0:0:0:0:
195,226,230323,6,0,P|142:243|91:226,1,95
305,92,230596,2,0,P|313:146|300:190,1,95
57,295,230869,1,8,0:0:0:0:
133,99,231005,1,10,0:0:0:0:
265,299,231141,2,0,P|320:316|357:307,1,95
375,52,231414,6,0,P|325:81|311:134,1,95
178,306,231687,2,0,P|181:244|166:201,1,95
19,87,231960,2,0,P|9:163|21:223,1,95
267,94,232232,2,0,P|268:46|258:0,1,95
122,184,232505,6,0,L|94:227,1,47.5
125,61,232641,2,0,L|153:14,1,47.5
209,137,232778,2,0,P|219:183|200:245,1,95
422,80,233051,2,0,L|456:28,1,47.5
390,221,233186,2,0,L|354:272,1,47.5
326,92,233323,2,0,L|324:45,1,47.5
472,164,233460,2,0,L|492:217,1,47.5
321,180,233596,5,10,0:0:0:0:
276,166,233664,1,10,0:0:0:0:
244,131,233732,1,10,0:0:0:0:
235,85,233800,1,10,0:0:0:0:
250,40,233868,2,0,L|310:24,1,47.5
397,142,234005,1,2,0:0:0:0:
397,142,234073,1,0,0:0:0:0:
397,142,234141,2,0,L|386:209,1,47.5
279,313,234277,1,0,0:0:0:0:
279,313,234346,1,2,0:0:0:0:
279,313,234414,2,0,L|267:375,1,47.5
120,334,234551,1,2,0:0:0:0:
120,334,234619,1,2,0:0:0:0:
120,334,234686,6,0,P|109:263|144:215,1,114
155,204,234959,1,0,0:0:0:0:
298,169,235096,1,0,0:0:0:0:
298,169,235164,2,0,L|302:217,1,38
200,324,235368,1,0,0:0:0:0:
221,165,235505,1,0,0:0:0:0:
221,165,235777,6,0,P|256:145|236:69,1,114
220,57,236050,1,0,0:0:0:0:
83,61,236187,1,0,0:0:0:0:
83,61,236255,1,0,0:0:0:0:
82,60,236596,2,0,L|89:217,1,156.75
135,292,236868,6,0,P|166:260|220:249,1,85.5
370,318,237141,1,0,0:0:0:0:
378,289,237209,1,0,0:0:0:0:
382,259,237277,1,4,0:0:0:0:
381,229,237345,1,0,0:0:0:0:
375,200,237414,1,0,0:0:0:0:
363,173,237481,1,0,0:0:0:0:
357,143,237549,1,4,0:0:0:0:
356,114,237618,1,0,0:0:0:0:
361,84,237686,1,4,0:0:0:0:
469,136,237823,1,0,0:0:0:0:
374,5,237959,5,4,0:0:0:0:
292,176,238096,1,4,0:0:0:0:
157,0,238232,1,0,0:0:0:0:
130,257,238369,1,8,0:0:0:0:
275,54,238505,1,4,0:0:0:0:
316,61,238572,1,0,0:0:0:0:
353,82,238640,1,8,0:0:0:0:
380,115,238709,1,0,0:0:0:0:
394,155,238778,2,0,L|390:195,6,21.375
340,246,239050,6,0,P|333:278|334:337,1,88.35001
450,106,239323,1,8,0:0:0:0:
280,194,239460,1,0,0:0:0:0:
424,230,239595,1,8,0:0:0:0:
321,70,239732,1,8,0:0:0:0:
241,293,239869,2,0,P|194:306|147:295,1,88.35001
213,122,240141,5,8,0:0:0:0:
366,160,240278,1,8,0:0:0:0:
213,122,240414,2,0,P|215:74|234:22,1,88.35001
339,224,240686,2,0,P|333:268|339:318,1,88.35001
450,149,240960,2,0,P|450:90|437:50,1,88.35001
248,195,241232,6,0,P|239:248|245:284,1,88.35001
345,120,241505,1,8,0:0:0:0:
206,102,241642,1,0,0:0:0:0:
144,232,241777,1,8,0:0:0:0:
124,34,241914,1,2,0:0:0:0:
321,193,242051,2,0,P|362:198|409:167,1,88.35001
263,28,242323,5,10,0:0:0:0:
230,41,242390,1,10,0:0:0:0:
204,65,242459,1,2,0:0:0:0:
188,96,242527,1,10,0:0:0:0:
183,131,242595,1,10,0:0:0:0:
191,165,242663,1,10,0:0:0:0:
203,197,242732,1,10,0:0:0:0:
204,232,242800,1,10,0:0:0:0:
193,266,242868,1,2,0:0:0:0:
155,254,242936,1,10,0:0:0:0:
116,252,243004,1,10,0:0:0:0:
77,259,243072,1,10,0:0:0:0:
41,276,243141,1,10,0:0:0:0:
54,312,243209,1,10,0:0:0:0:
83,339,243277,1,10,0:0:0:0:
121,349,243345,1,10,0:0:0:0:
162,347,243414,6,0,P|203:333|279:343,1,88.35001
307,210,243687,2,0,P|295:149|262:110,1,88.35001
101,53,243959,1,8,0:0:0:0:
181,161,244096,1,8,0:0:0:0:
224,8,244232,1,8,0:0:0:0:
104,135,244368,1,2,0:0:0:0:
272,59,244505,6,0,P|323:46|363:59,1,88.35001
377,104,244710,1,0,0:0:0:0:
377,104,244778,2,0,L|371:204,1,88.35001
238,314,245050,2,0,P|235:253|216:202,1,88.35001
106,73,245323,2,0,P|87:126|86:183,1,88.35001
144,324,245596,5,2,0:0:0:0:
156,136,245732,1,8,0:0:0:0:
79,353,245869,1,10,0:0:0:0:
84,157,246005,1,0,0:0:0:0:
23,306,246141,1,2,0:0:0:0:
214,182,246278,1,8,0:0:0:0:
210,345,246414,1,10,0:0:0:0:
84,157,246550,1,0,0:0:0:0:
258,289,246687,5,10,0:0:0:0:
287,269,246754,1,8,0:0:0:0:
308,241,246822,1,10,0:0:0:0:
319,207,246891,1,8,0:0:0:0:
318,172,246960,2,0,L|284:134,1,44.175
148,64,247095,2,0,L|155:119,1,44.175
157,238,247232,1,10,0:0:0:0:
113,237,247300,1,10,0:0:0:0:
71,222,247368,1,10,0:0:0:0:
38,193,247436,1,10,0:0:0:0:
16,155,247504,1,10,0:0:0:0:
9,112,247573,1,10,0:0:0:0:
17,69,247641,1,10,0:0:0:0:
40,31,247709,1,10,0:0:0:0:
74,3,247778,6,0,P|130:18|167:10,1,88.35001
336,24,248051,2,0,P|349:63|338:116,1,88.35001
218,227,248323,1,8,0:0:0:0:
248,90,248460,1,8,0:0:0:0:
352,217,248596,2,0,P|400:232|447:216,1,88.35001
248,90,248868,5,8,0:0:0:0:
218,227,249005,1,8,0:0:0:0:
137,84,249142,2,0,P|139:39|172:-4,1,88.35001
336,72,249414,2,0,P|333:124|295:167,1,88.35001
138,258,249687,2,0,P|142:193|111:144,1,88.35001
253,4,249959,6,0,P|241:56|257:108,1,88.35001
366,241,250232,1,8,0:0:0:0:
400,115,250368,1,0,0:0:0:0:
280,241,250505,1,2,0:0:0:0:
443,179,250641,1,2,0:0:0:0:
263,118,250777,2,0,P|213:122|174:167,1,88.35001
97,302,251050,5,8,0:0:0:0:
134,315,251118,1,10,0:0:0:0:
173,319,251186,1,10,0:0:0:0:
212,311,251254,1,10,0:0:0:0:
250,298,251323,1,10,0:0:0:0:
289,293,251391,1,10,0:0:0:0:
328,298,251459,1,10,0:0:0:0:
365,312,251528,1,10,0:0:0:0:
398,335,251596,1,2,0:0:0:0:
415,294,251663,1,10,0:0:0:0:
422,251,251732,1,2,0:0:0:0:
417,207,251800,1,10,0:0:0:0:
434,165,251868,1,10,0:0:0:0:
423,122,251936,1,10,0:0:0:0:
397,86,252004,1,10,0:0:0:0:
357,66,252072,1,10,0:0:0:0:
312,68,252141,6,0,L|309:170,1,88.35001
163,239,252414,2,0,P|163:190|140:152,1,88.35001
41,14,252687,1,8,0:0:0:0:
208,42,252823,1,10,0:0:0:0:
55,156,252959,2,0,P|34:194|36:238,1,88.35001
187,363,253232,6,0,P|219:321|218:278,1,88.35001
315,160,253505,2,0,P|309:108|264:63,1,88.35001
105,102,253778,2,0,P|134:133|177:143,1,88.35001
375,232,254050,2,0,P|336:251|293:250,1,88.35001
103,262,254323,6,0,L|94:208,1,44.175
190,86,254460,2,0,L|185:134,1,44.175
40,131,254595,2,0,P|38:74|77:30,1,88.35001
344,59,254869,2,0,L|394:74,1,44.175
274,166,255005,2,0,L|199:182,1,44.175
253,53,255141,2,0,L|254:5,1,44.175
369,169,255278,2,0,L|367:232,1,44.175
243,286,255414,5,10,0:0:0:0:
196,281,255482,1,10,0:0:0:0:
156,255,255550,1,10,0:0:0:0:
133,214,255618,1,10,0:0:0:0:
130,167,255686,2,0,L|158:117,1,47.5
271,76,255823,1,0,0:0:0:0:
247,117,255890,1,8,0:0:0:0:
235,163,255959,1,10,0:0:0:0:
241,209,256027,1,2,0:0:0:0:
254,255,256095,1,2,0:0:0:0:
255,302,256164,1,2,0:0:0:0:
243,348,256232,2,0,L|172:349,1,47.5
66,289,256368,1,10,0:0:0:0:
66,289,256437,1,2,0:0:0:0:
66,289,256505,6,0,B|43:218|91:218|68:148,1,142.5
