osu file format v14

[General]
AudioFilename: stolen lelCloud220BPM.mp3
AudioLeadIn: 0
PreviewTime: 219544
Countdown: 0
SampleSet: Soft
StackLeniency: 0.3
Mode: 0
LetterboxInBreaks: 0
WidescreenStoryboard: 0

[Editor]
DistanceSpacing: 1
BeatDivisor: 4
GridSize: 16
TimelineZoom: 2.7

[Metadata]
Title:220bpm pack
TitleUnicode:220bpm pack
Artist:Various Artists
ArtistUnicode:Various Artists
Creator:Moting
Version:Feelin Sky
Source:
Tags:
BeatmapID:1465920
BeatmapSetID:692759

[Difficulty]
HPDrainRate:6
CircleSize:3.7
OverallDifficulty:9
ApproachRate:9.8
SliderMultiplier:1.9
SliderTickRate:1

[Events]
//Background and Video events
0,0,"yes.jpg",0,0
//Break Periods
2,71176,78550
2,175903,183277
//Storyboard Layer 0 (Background)
//Storyboard Layer 1 (Fail)
//Storyboard Layer 2 (Pass)
//Storyboard Layer 3 (Foreground)
//Storyboard Sound Samples

[TimingPoints]
1090,272.7273,4,2,1,30,1,0
1090,-133.3333,4,2,1,30,0,0
5454,-125,4,2,1,32,0,0
6544,-125,4,2,1,34,0,0
7636,-125,4,2,1,36,0,0
8726,-125,4,2,1,38,0,0
9817,-117.6471,4,2,1,40,0,0
10909,-117.6471,4,2,1,42,0,0
11999,-117.6471,4,2,1,44,0,0
13090,-117.6471,4,2,1,46,0,0
14181,-111.1111,4,2,1,48,0,0
15272,-111.1111,4,2,1,50,0,0
16363,-111.1111,4,2,1,52,0,0
17453,-111.1111,4,2,1,54,0,0
18272,-66.66666,4,2,1,70,0,0
18545,-100,4,2,1,65,0,0
27272,-100,4,2,1,60,0,0
31636,-100,4,2,1,65,0,0
35726,-66.66666,4,2,1,65,0,0
35999,-83.33334,4,1,1,70,0,1
70908,-100,4,2,1,55,0,0
79090,-200,4,2,1,30,0,0
79226,-100,4,2,1,40,0,0
79362,-66.66666,4,2,1,50,0,0
79499,-50,4,2,1,60,0,0
79635,-100,4,2,1,70,0,0
79908,-125,4,2,1,40,0,0
80726,-125,4,2,1,42,0,0
81817,-125,4,2,1,44,0,0
82908,-125,4,2,1,46,0,0
83999,-125,4,2,1,48,0,0
85090,-125,4,2,1,50,0,0
86181,-125,4,2,1,52,0,0
87272,-125,4,2,1,54,0,0
88363,-125,4,2,1,56,0,0
89454,-125,4,2,1,54,0,0
90544,-125,4,2,1,52,0,0
91636,-125,4,2,1,50,0,0
92726,-125,4,2,1,48,0,0
93817,-125,4,2,1,46,0,0
94909,-125,4,2,1,44,0,0
95999,-125,4,2,1,42,0,0
97090,-111.1111,4,2,1,55,0,0
99272,-111.1111,4,2,1,55,0,0
99545,-66.66666,4,2,1,70,0,0
99817,-111.1111,4,2,1,55,0,0
100090,-66.66666,4,2,1,70,0,0
100363,-111.1111,4,2,1,55,0,0
100636,-66.66666,4,2,1,70,0,0
100908,-111.1111,4,2,1,55,0,0
101181,-66.66666,4,2,1,70,0,0
101453,-100,4,2,1,65,0,0
104795,-100,4,2,1,45,0,0
105067,-100,4,2,1,30,0,0
105408,-100,4,2,1,60,0,0
105545,-66.66666,4,2,1,70,0,0
105818,-76.92308,4,1,1,60,0,0
107999,-66.66666,4,1,1,60,0,0
108204,-66.66666,4,1,1,30,0,0
108272,-83.33334,4,1,1,60,0,0
110454,-71.42857,4,1,1,60,0,0
112362,-83.33334,4,1,1,55,0,0
114544,-71.42857,4,1,1,60,0,0
115772,-62.5,4,1,1,60,0,0
116181,-55.55556,4,1,1,60,0,0
116727,-83.33334,4,1,1,60,0,0
116999,-58.82353,4,1,1,60,0,0
118908,-83.33334,4,1,1,60,0,0
120135,-71.42857,4,1,1,60,0,0
120544,-58.82353,4,1,1,60,0,0
120681,-66.66666,4,1,1,60,0,0
120817,-71.42857,4,1,1,60,0,0
120954,-83.33334,4,1,1,60,0,0
121090,-71.42857,4,1,1,55,0,0
121908,-133.3333,4,1,1,55,0,0
123272,-71.42857,4,2,2,75,0,0
123817,-58.82353,4,2,2,75,0,0
124465,-58.82353,4,2,2,20,0,0
124499,-58.82353,4,2,2,75,0,0
124909,-52.63158,4,2,2,75,0,0
125590,-62.5,4,2,2,75,0,0
125999,-62.5,4,2,2,75,0,0
126135,-76.92308,4,2,2,75,0,0
126272,-100,4,2,2,75,0,0
126408,-133.3333,4,2,2,75,0,0
126545,-95.2381,4,2,2,75,0,0
126749,-86.95652,4,2,2,75,0,0
127636,-86.95652,4,1,1,50,0,0
130090,-100,4,1,1,50,0,0
131044,-83.33334,4,1,1,50,0,0
131181,-71.42857,4,1,1,50,0,0
131317,-55.55556,4,1,1,50,0,0
131453,-55.55556,4,1,1,50,0,0
131999,-55.55556,4,2,2,75,0,0
132272,-66.66666,4,2,2,75,0,0
133363,-76.92308,4,2,2,75,0,0
133635,-83.33334,4,2,2,75,0,0
133908,-66.66666,4,2,2,75,0,0
134726,-100,4,1,1,50,0,0
136363,-100,4,1,1,60,0,0
139635,-100,4,2,1,60,0,0
139703,-100,4,2,1,20,0,0
139772,-100,4,2,1,20,0,0
139840,-100,4,2,1,20,0,0
139908,-100,4,2,1,60,0,0
139976,-100,4,2,1,20,0,0
140044,-100,4,2,1,60,0,0
140113,-100,4,2,1,20,0,0
140181,-100,4,2,1,60,0,0
140249,-100,4,2,1,20,0,0
140317,-100,4,2,1,60,0,0
140386,-100,4,2,1,20,0,0
140454,-100,4,2,1,70,0,0
140726,-83.33334,4,1,1,70,0,1
158181,-66.66666,4,2,1,90,0,0
158590,-90.90909,4,2,1,75,0,0
175635,-100,4,2,1,80,0,0
183817,-200,4,2,1,30,0,0
183954,-100,4,2,1,40,0,0
184090,-66.66666,4,2,1,50,0,0
184227,-50,4,2,1,60,0,0
184363,-125,4,2,1,55,0,0
184909,-125,4,2,1,30,0,0
188112,-125,4,2,1,5,0,0
188181,-125,4,2,1,30,0,0
194385,-125,4,2,1,5,0,0
194453,-125,4,2,1,30,0,0
197181,-100,4,2,1,50,0,0
197454,-125,4,2,1,30,0,0
201817,-66.66666,4,2,1,60,0,0
202499,-111.1111,4,2,1,45,0,0
202704,-111.1111,4,2,1,5,0,0
202772,-111.1111,4,2,1,45,0,0
203659,-111.1111,4,2,1,5,0,0
203727,-111.1111,4,2,1,45,0,0
203795,-111.1111,4,2,1,5,0,0
203863,-111.1111,4,2,1,45,0,0
206181,-66.66666,4,2,1,60,0,0
206863,-111.1111,4,2,1,45,0,0
207067,-111.1111,4,2,1,5,0,0
207135,-111.1111,4,2,1,45,0,0
208022,-111.1111,4,2,1,5,0,0
208090,-111.1111,4,2,1,45,0,0
208158,-111.1111,4,2,1,5,0,0
208226,-111.1111,4,2,1,45,0,0
210272,-100,4,2,1,50,0,0
210544,-166.6667,4,2,1,30,0,0
211636,-142.8571,4,2,1,35,0,0
212726,-125,4,2,1,40,0,0
213817,-111.1111,4,2,1,45,0,0
214908,-100,4,2,1,65,0,0
219544,-83.33334,4,1,2,70,0,1
219681,-83.33334,4,1,1,70,0,1
226499,-76.92308,4,1,1,70,0,1
227999,-83.33334,4,1,1,70,0,1
236727,-90.90909,4,2,1,75,0,0
239181,-76.92308,4,2,1,75,0,0
242113,-71.42857,4,2,1,75,0,0
242453,-83.33334,4,2,1,75,0,0
245453,-66.66666,4,2,1,75,0,0
246817,-71.42857,4,2,1,75,0,0
254181,-100,4,2,1,60,0,0
262908,-125,4,2,1,45,0,0
271636,-100,4,3,1,60,0,0

[HitObjects]
167,106,1158,5,2,0:0:0:0:
263,130,1294,1,2,0:0:0:0:
151,215,1431,1,10,0:0:0:0:
150,225,1499,1,2,0:0:0:0:
251,229,1635,1,2,0:0:0:0:
252,239,1703,1,2,0:0:0:0:
253,249,1772,1,2,0:0:0:0:
254,259,1840,2,0,L|261:322,1,35.625
364,150,1976,2,0,L|357:79,1,71.25
353,249,2249,5,2,0:0:0:0:
444,209,2386,1,2,0:0:0:0:
265,160,2522,1,10,0:0:0:0:
266,149,2590,1,2,0:0:0:0:
254,259,2727,1,2,0:0:0:0:
253,269,2795,1,2,0:0:0:0:
252,279,2863,1,2,0:0:0:0:
251,289,2931,2,0,L|244:352,1,35.625
173,198,3067,2,0,L|166:127,1,71.25
151,296,3339,5,2,0:0:0:0:
78,229,3476,1,2,0:0:0:0:
273,191,3612,1,10,0:0:0:0:
283,193,3680,2,0,L|376:200,1,71.25
384,231,3885,1,2,0:0:0:0:
394,232,3953,1,2,0:0:0:0:
404,234,4022,2,0,L|466:244,1,35.625
360,98,4158,2,0,L|288:92,1,71.25
450,140,4431,5,2,0:0:0:0:
440,40,4567,1,2,0:0:0:0:
404,234,4704,1,10,0:0:0:0:
404,244,4772,2,0,L|402:341,1,71.25
369,329,4976,1,2,0:0:0:0:
368,339,5044,1,2,0:0:0:0:
367,349,5113,2,0,L|361:411,1,35.625
319,186,5249,1,10,0:0:0:0:
499,213,5385,1,2,0:0:0:0:
279,278,5522,6,0,P|245:254|223:211,1,76
415,159,5794,1,10,0:0:0:0:
416,147,5862,1,2,0:0:0:0:
335,87,5999,1,2,0:0:0:0:
334,75,6067,1,2,0:0:0:0:
333,63,6135,1,2,0:0:0:0:
332,51,6203,2,0,L|329:0,1,38
230,124,6339,2,0,L|233:49,1,76
311,184,6612,6,0,P|280:212|233:224,1,76
134,157,6885,1,10,0:0:0:0:
133,145,6953,1,2,0:0:0:0:
91,247,7090,1,2,0:0:0:0:
92,258,7158,1,2,0:0:0:0:
93,269,7226,1,2,0:0:0:0:
94,280,7294,2,0,L|100:338,1,38
35,164,7431,2,0,L|28:62,1,76
159,25,7703,5,2,0:0:0:0:
228,97,7840,1,2,0:0:0:0:
369,27,7977,1,10,0:0:0:0:
370,38,8045,1,2,0:0:0:0:
371,49,8113,1,0,0:0:0:0:
372,60,8181,1,2,0:0:0:0:
373,71,8249,2,0,L|380:136,1,38
253,0,8385,1,2,0:0:0:0:
132,118,8522,1,10,0:0:0:0:
57,52,8658,1,2,0:0:0:0:
57,52,8726,1,0,0:0:0:0:
57,52,8794,5,2,0:0:0:0:
38,150,8930,1,2,0:0:0:0:
229,97,9067,2,0,L|233:148,1,38
113,215,9203,1,0,0:0:0:0:
112,226,9271,1,2,0:0:0:0:
111,237,9340,1,2,0:0:0:0:
110,248,9408,1,2,0:0:0:0:
109,259,9476,2,0,L|107:308,1,38
299,243,9612,2,0,L|301:206,1,38
131,116,9749,2,0,L|129:78,1,38
308,38,9885,5,2,0:0:0:0:
361,123,10022,1,2,0:0:0:0:
203,184,10158,2,0,L|202:224,1,40.375
300,309,10295,1,0,0:0:0:0:
299,296,10363,1,2,0:0:0:0:
300,283,10431,2,0,L|299:243,1,40.375
394,341,10567,1,2,0:0:0:0:
203,324,10704,1,10,0:0:0:0:
105,205,10840,1,2,0:0:0:0:
105,192,10908,1,0,0:0:0:0:
105,179,10977,5,2,0:0:0:0:
176,110,11113,1,2,0:0:0:0:
299,243,11249,2,0,L|356:242,1,40.375
420,184,11385,1,0,0:0:0:0:
420,184,11453,1,2,0:0:0:0:
420,184,11521,1,2,0:0:0:0:
398,324,11658,1,2,0:0:0:0:
319,145,11794,2,0,L|322:58,1,80.75
453,85,12067,5,2,0:0:0:0:
420,184,12203,1,2,0:0:0:0:
230,100,12340,1,10,0:0:0:0:
277,235,12476,1,0,0:0:0:0:
246,234,12544,1,2,0:0:0:0:
216,234,12612,1,2,0:0:0:0:
186,233,12680,1,2,0:0:0:0:
155,233,12748,1,2,0:0:0:0:
327,321,12885,2,0,L|418:318,1,80.75
277,235,13158,5,2,0:0:0:0:
229,333,13295,1,2,0:0:0:0:
427,319,13431,1,10,0:0:0:0:
369,195,13567,1,0,0:0:0:0:
369,164,13635,1,2,0:0:0:0:
369,134,13703,1,2,0:0:0:0:
370,104,13771,1,2,0:0:0:0:
370,73,13839,1,2,0:0:0:0:
464,226,13976,1,10,0:0:0:0:
277,235,14112,1,2,0:0:0:0:
467,126,14249,5,2,0:0:0:0:
369,134,14385,1,2,0:0:0:0:
410,302,14521,2,0,P|373:324|318:330,1,85.5
322,330,14726,1,2,0:0:0:0:
313,328,14794,1,2,0:0:0:0:
304,326,14862,1,2,0:0:0:0:
295,323,14931,1,2,0:0:0:0:
484,236,15067,2,0,P|506:273|504:331,1,85.5
339,229,15340,5,2,0:0:0:0:
415,163,15476,1,2,0:0:0:0:
263,164,15613,2,0,L|165:163,1,85.5
168,163,15817,1,2,0:0:0:0:
159,163,15886,1,2,0:0:0:0:
150,163,15954,1,2,0:0:0:0:
141,163,16022,1,2,0:0:0:0:
245,66,16158,2,0,L|343:65,1,85.5
416,172,16431,5,2,0:0:0:0:
420,185,16499,1,0,0:0:0:0:
423,199,16567,1,2,0:0:0:0:
424,213,16635,1,0,0:0:0:0:
422,227,16703,2,0,P|420:258|408:288,1,42.75
327,310,16840,5,0,0:0:0:0:
306,316,16908,1,2,0:0:0:0:
284,319,16976,1,2,0:0:0:0:
262,320,17044,1,2,0:0:0:0:
240,320,17112,2,0,P|212:318|168:304,1,42.75
280,204,17249,2,0,P|302:206|323:210,1,42.75
169,153,17385,1,2,0:0:0:0:
157,134,17453,1,0,0:0:0:0:
154,113,17521,5,2,0:0:0:0:
187,101,17589,1,2,0:0:0:0:
222,92,17657,1,2,0:0:0:0:
257,89,17725,1,2,0:0:0:0:
293,92,17793,1,2,0:0:0:0:
327,101,17862,1,2,0:0:0:0:
362,109,17930,1,2,0:0:0:0:
397,112,17998,1,2,0:0:0:0:
433,106,18067,1,2,0:0:0:0:
450,137,18135,1,2,0:0:0:0:
457,173,18203,1,2,0:0:0:0:
452,209,18271,1,2,0:0:0:0:
437,241,18340,6,0,B|390:271|336:275|336:275|279:226|216:273,1,213.75
276,328,18613,6,0,P|320:351|384:342,1,95
358,164,18886,1,8,0:0:0:0:
262,188,19022,1,2,0:0:0:0:
228,198,19090,1,0,0:0:0:0:
192,201,19158,1,2,0:0:0:0:
157,194,19226,1,0,0:0:0:0:
125,179,19294,1,2,0:0:0:0:
358,164,19431,2,0,P|354:226|325:265,1,95
271,289,19635,1,0,0:0:0:0:
271,289,19703,6,0,P|317:326|385:310,1,95
262,188,19976,1,8,0:0:0:0:
358,164,20112,1,2,0:0:0:0:
393,159,20180,1,0,0:0:0:0:
429,162,20248,1,2,0:0:0:0:
462,174,20316,1,0,0:0:0:0:
491,194,20384,1,2,0:0:0:0:
289,92,20522,2,0,P|282:37|295:-20,1,95
198,13,20726,1,0,0:0:0:0:
196,19,20794,6,0,P|196:75|209:129,1,95
377,44,21067,1,8,0:0:0:0:
444,118,21204,1,2,0:0:0:0:
449,153,21272,1,0,0:0:0:0:
445,188,21340,1,2,0:0:0:0:
427,218,21408,1,0,0:0:0:0:
401,242,21476,1,2,0:0:0:0:
165,150,21613,6,0,P|258:135|351:154,1,190
169,250,22022,1,2,0:0:0:0:
166,50,22158,2,0,P|260:38|363:57,1,190
82,204,22567,1,2,0:0:0:0:
77,11,22703,1,8,0:0:0:0:
167,149,22840,1,2,0:0:0:0:
256,11,22976,5,2,0:0:0:0:
166,50,23112,1,0,0:0:0:0:
231,225,23249,1,8,0:0:0:0:
296,151,23386,1,2,0:0:0:0:
299,115,23453,1,0,0:0:0:0:
303,80,23522,1,2,0:0:0:0:
306,44,23589,1,0,0:0:0:0:
310,9,23657,1,2,0:0:0:0:
396,164,23795,2,0,L|403:69,1,95
426,260,24067,6,0,P|378:262|336:243,1,95
197,159,24340,1,8,0:0:0:0:
124,228,24477,1,2,0:0:0:0:
121,264,24544,1,0,0:0:0:0:
117,299,24613,1,2,0:0:0:0:
114,335,24680,1,0,0:0:0:0:
110,370,24748,1,2,0:0:0:0:
27,211,24885,2,0,L|19:305,1,95
229,356,25158,6,0,B|276:361|276:361|349:350,1,95
270,75,25430,2,0,B|262:132|262:132|284:199|284:199|271:259,1,190
367,125,25840,1,2,0:0:0:0:
179,207,25976,6,0,B|124:227|124:227|111:176|156:89,1,190
271,259,26385,1,2,0:0:0:0:
19,256,26522,2,0,B|-1:201|-1:201|50:188|137:233,1,190
95,321,26931,1,2,0:0:0:0:
78,105,27067,1,8,0:0:0:0:
270,75,27204,1,2,0:0:0:0:
91,116,27340,5,4,0:0:0:0:
331,218,27612,2,0,L|365:82,1,95
440,313,27885,5,2,0:0:0:0:
180,235,28157,2,0,L|214:99,1,95
289,330,28430,5,2,0:0:0:0:
29,252,28703,2,0,L|63:116,1,95
138,347,28976,5,2,0:0:0:0:
304,216,29249,2,0,L|327:123,1,95
336,310,29522,6,0,P|285:314|243:294,1,95
430,277,29795,2,0,P|435:323|417:367,1,95
212,203,30067,6,0,P|206:156|224:112,1,95
246,297,30340,2,0,P|199:302|155:284,1,95
416,182,30612,6,0,L|431:276,1,95
330,133,30885,2,0,L|344:39,1,95
244,182,31158,6,0,L|229:275,1,95
157,133,31431,2,0,L|142:39,1,95
330,133,31704,5,8,0:0:0:0:
139,232,31840,1,2,0:0:0:0:
348,232,31976,5,8,0:0:0:0:
157,133,32112,1,2,0:0:0:0:
424,166,32249,5,8,0:0:0:0:
139,232,32386,1,2,0:0:0:0:
442,265,32522,5,8,0:0:0:0:
157,331,32658,1,2,0:0:0:0:
310,67,32795,5,8,0:0:0:0:
442,265,32931,1,2,0:0:0:0:
212,80,33067,5,8,0:0:0:0:
299,298,33203,1,2,0:0:0:0:
114,93,33339,5,8,0:0:0:0:
157,331,33476,1,2,0:0:0:0:
15,106,33612,5,8,0:0:0:0:
18,364,33749,1,2,0:0:0:0:
299,298,33885,5,8,0:0:0:0:
335,267,33953,1,2,0:0:0:0:
357,226,34021,1,8,0:0:0:0:
363,179,34089,1,2,0:0:0:0:
350,133,34157,1,8,0:0:0:0:
322,96,34226,1,2,0:0:0:0:
281,71,34294,1,8,0:0:0:0:
235,64,34362,1,2,0:0:0:0:
189,74,34430,1,8,0:0:0:0:
150,101,34498,1,2,0:0:0:0:
123,140,34567,1,8,0:0:0:0:
114,186,34635,1,2,0:0:0:0:
122,233,34703,5,8,0:0:0:0:
155,171,34772,1,8,0:0:0:0:
150,101,34840,1,8,0:0:0:0:
109,43,34908,1,8,0:0:0:0:
45,14,34976,1,12,0:0:0:0:
246,183,35522,5,0,0:0:0:0:
292,189,35590,1,0,0:0:0:0:
331,164,35658,2,0,P|306:146|272:144,1,47.5
147,207,35794,6,0,B|111:241|111:241|146:308|257:283,1,213.75
222,375,36067,6,0,P|106:361|21:267,1,228
40,172,36476,1,2,0:0:0:0:
60,134,36544,1,0,0:0:0:0:
93,107,36612,1,2,0:0:0:0:
133,95,36680,1,0,0:0:0:0:
176,98,36748,1,2,0:0:0:0:
389,208,36885,2,0,P|405:142|379:80,1,114
292,270,37158,6,0,L|301:385,1,114
79,318,37431,1,8,0:0:0:0:
151,226,37567,1,2,0:0:0:0:
164,185,37635,1,0,0:0:0:0:
170,143,37703,1,2,0:0:0:0:
167,100,37771,1,0,0:0:0:0:
156,59,37839,1,2,0:0:0:0:
37,225,37977,2,0,P|93:230|150:225,1,114
337,164,38249,5,2,0:0:0:0:
337,164,38317,1,0,0:0:0:0:
337,164,38385,1,0,0:0:0:0:
226,314,38522,1,8,0:0:0:0:
337,282,38658,1,2,0:0:0:0:
337,282,38726,1,0,0:0:0:0:
337,282,38794,1,2,0:0:0:0:
150,225,38930,1,2,0:0:0:0:
435,221,39067,1,8,0:0:0:0:
337,164,39203,1,0,0:0:0:0:
337,164,39271,1,0,0:0:0:0:
337,164,39340,5,2,0:0:0:0:
438,337,39476,1,2,0:0:0:0:
437,106,39613,1,8,0:0:0:0:
337,164,39749,1,2,0:0:0:0:
337,164,39817,1,0,0:0:0:0:
337,164,39885,1,2,0:0:0:0:
438,337,40022,1,2,0:0:0:0:
437,106,40158,1,8,0:0:0:0:
435,329,40295,1,2,0:0:0:0:
227,276,40431,6,0,P|156:263|1:280,1,228
115,348,40840,1,2,0:0:0:0:
115,305,40908,1,0,0:0:0:0:
115,262,40976,1,2,0:0:0:0:
116,219,41045,1,0,0:0:0:0:
116,177,41112,1,2,0:0:0:0:
230,311,41249,2,0,L|231:373,1,57
306,223,41385,2,0,L|307:161,1,57
247,66,41521,5,2,0:0:0:0:
363,66,41658,1,0,0:0:0:0:
194,169,41794,2,0,P|151:134|134:64,1,114
136,39,41999,1,0,0:0:0:0:
136,39,42067,1,2,0:0:0:0:
106,250,42203,1,2,0:0:0:0:
301,214,42340,2,0,L|385:180,1,57
450,127,42476,2,0,L|366:93,1,57
283,95,42613,5,2,0:0:0:0:
301,214,42749,1,0,0:0:0:0:
106,250,42885,2,0,P|86:191|102:128,1,114
116,107,43090,1,0,0:0:0:0:
116,107,43158,1,2,0:0:0:0:
214,289,43295,1,2,0:0:0:0:
283,95,43431,1,8,0:0:0:0:
389,137,43568,1,2,0:0:0:0:
389,137,43636,1,0,0:0:0:0:
389,137,43704,5,2,0:0:0:0:
202,176,43840,1,2,0:0:0:0:
454,232,43976,1,8,0:0:0:0:
503,128,44112,1,2,0:0:0:0:
503,128,44180,1,0,0:0:0:0:
503,128,44249,1,2,0:0:0:0:
341,241,44385,1,2,0:0:0:0:
186,76,44521,1,8,0:0:0:0:
343,230,44658,1,2,0:0:0:0:
61,310,44794,6,0,B|23:265|18:207|50:161|50:161|39:121|61:81,1,228
143,227,45203,1,2,0:0:0:0:
185,227,45271,1,0,0:0:0:0:
228,227,45339,1,2,0:0:0:0:
271,227,45407,1,0,0:0:0:0:
314,227,45475,1,2,0:0:0:0:
171,339,45613,2,0,L|228:341,1,57
399,342,45749,2,0,L|342:340,1,57
290,113,45886,6,0,L|292:-6,1,114
399,150,46158,1,8,0:0:0:0:
314,227,46295,2,0,L|258:229,1,57
180,142,46431,2,0,L|124:144,1,57
46,57,46567,1,2,0:0:0:0:
146,260,46703,1,8,0:0:0:0:
225,42,46839,1,0,0:0:0:0:
225,42,46908,1,0,0:0:0:0:
225,42,46976,6,0,L|348:26,1,114
449,190,47249,1,8,0:0:0:0:
452,80,47385,1,2,0:0:0:0:
452,80,47453,1,0,0:0:0:0:
452,80,47522,1,2,0:0:0:0:
373,278,47658,1,2,0:0:0:0:
225,42,47794,1,8,0:0:0:0:
332,92,47931,1,2,0:0:0:0:
332,92,47999,1,0,0:0:0:0:
332,92,48067,5,2,0:0:0:0:
136,113,48204,1,2,0:0:0:0:
419,170,48340,1,8,0:0:0:0:
310,209,48476,1,2,0:0:0:0:
310,209,48545,1,0,0:0:0:0:
310,209,48613,1,2,0:0:0:0:
441,57,48749,1,2,0:0:0:0:
396,283,48886,1,8,0:0:0:0:
439,65,49022,1,2,0:0:0:0:
240,104,49158,6,0,P|142:124|3:103,1,228
129,40,49567,1,2,0:0:0:0:
128,82,49635,1,0,0:0:0:0:
127,125,49704,1,2,0:0:0:0:
126,168,49771,1,0,0:0:0:0:
126,210,49840,1,2,0:0:0:0:
320,22,49976,1,8,0:0:0:0:
230,261,50112,2,0,L|231:329,1,57
423,253,50249,5,2,0:0:0:0:
438,198,50317,1,2,0:0:0:0:
426,143,50385,1,2,0:0:0:0:
389,100,50453,1,2,0:0:0:0:
337,79,50521,1,8,0:0:0:0:
314,250,50658,5,2,0:0:0:0:
368,265,50726,1,0,0:0:0:0:
423,253,50794,1,2,0:0:0:0:
466,216,50862,1,0,0:0:0:0:
487,164,50930,1,2,0:0:0:0:
365,375,51067,2,0,P|337:372|309:363,1,57
249,153,51204,2,0,P|181:142|163:144,1,57
73,316,51340,5,2,0:0:0:0:
206,274,51477,1,0,0:0:0:0:
47,147,51613,1,8,0:0:0:0:
73,316,51749,1,2,0:0:0:0:
73,316,51817,1,0,0:0:0:0:
73,316,51885,1,2,0:0:0:0:
249,153,52022,1,2,0:0:0:0:
451,337,52158,1,8,0:0:0:0:
316,361,52294,1,2,0:0:0:0:
316,361,52362,1,0,0:0:0:0:
316,361,52430,5,2,0:0:0:0:
398,157,52567,1,2,0:0:0:0:
103,148,52703,2,0,L|19:146,1,57
186,74,52840,1,0,0:0:0:0:
222,205,52976,1,2,0:0:0:0:
222,205,53044,1,0,0:0:0:0:
222,205,53112,6,0,L|285:195,1,57
398,43,53249,2,0,L|409:106,1,57
436,234,53385,1,2,0:0:0:0:
431,265,53454,1,2,0:0:0:0:
420,294,53522,6,0,B|361:325|307:329|307:329|248:302|177:317,1,228
87,328,53931,1,2,0:0:0:0:
87,322,53999,1,0,0:0:0:0:
88,316,54067,2,0,L|95:236,1,57
111,145,54204,1,2,0:0:0:0:
280,78,54340,2,0,L|355:73,1,57
273,191,54477,2,0,L|217:188,1,57
111,145,54613,6,0,L|-5:137,1,114
202,302,54885,1,8,0:0:0:0:
273,191,55021,1,2,0:0:0:0:
278,192,55089,1,0,0:0:0:0:
283,192,55158,2,0,L|376:192,1,57
439,252,55294,1,2,0:0:0:0:
336,74,55431,2,0,P|330:45|336:-3,1,57
507,106,55567,2,0,P|512:133|512:162,1,57
340,308,55703,5,2,0:0:0:0:
340,192,55840,1,0,0:0:0:0:
439,366,55976,1,8,0:0:0:0:
439,252,56113,1,2,0:0:0:0:
439,252,56181,1,0,0:0:0:0:
439,252,56249,1,2,0:0:0:0:
247,373,56385,1,2,0:0:0:0:
245,125,56522,1,8,0:0:0:0:
166,209,56658,1,2,0:0:0:0:
166,209,56726,1,0,0:0:0:0:
166,209,56795,5,2,0:0:0:0:
350,173,56931,1,2,0:0:0:0:
141,325,57067,1,8,0:0:0:0:
55,249,57204,1,2,0:0:0:0:
55,249,57272,1,0,0:0:0:0:
55,249,57340,1,2,0:0:0:0:
249,283,57476,1,2,0:0:0:0:
194,68,57612,1,8,0:0:0:0:
239,275,57749,1,2,0:0:0:0:
456,210,57885,6,0,B|479:167|453:134|453:134|401:123|385:161|308:132,1,228
215,201,58294,1,2,0:0:0:0:
196,163,58362,1,0,0:0:0:0:
193,120,58430,1,2,0:0:0:0:
205,79,58498,1,0,0:0:0:0:
231,46,58566,1,2,0:0:0:0:
319,248,58703,2,0,P|277:298|216:317,1,114
79,122,58976,6,0,L|199:120,1,114
28,226,59249,1,8,0:0:0:0:
148,252,59386,1,2,0:0:0:0:
190,256,59454,1,0,0:0:0:0:
233,256,59522,1,2,0:0:0:0:
275,254,59590,1,0,0:0:0:0:
318,247,59658,1,2,0:0:0:0:
159,367,59795,2,0,P|92:359|47:338,1,114
108,143,60067,6,0,L|118:23,1,114
148,252,60340,1,8,0:0:0:0:
221,162,60476,5,2,0:0:0:0:
223,133,60544,1,0,0:0:0:0:
225,105,60612,1,2,0:0:0:0:
228,76,60680,1,0,0:0:0:0:
230,48,60748,1,2,0:0:0:0:
261,269,60885,1,8,0:0:0:0:
334,179,61021,5,2,0:0:0:0:
336,150,61089,1,0,0:0:0:0:
338,122,61157,1,2,0:0:0:0:
341,93,61225,1,0,0:0:0:0:
343,65,61293,1,2,0:0:0:0:
374,286,61430,1,8,0:0:0:0:
448,195,61567,5,2,0:0:0:0:
450,166,61635,1,0,0:0:0:0:
452,138,61703,1,2,0:0:0:0:
455,109,61771,1,0,0:0:0:0:
457,81,61839,1,2,0:0:0:0:
485,302,61976,1,8,0:0:0:0:
296,349,62113,1,2,0:0:0:0:
269,73,62249,6,0,B|211:57|211:57|160:73|102:58|102:58|36:79,1,228
211,173,62658,1,2,0:0:0:0:
265,188,62726,1,0,0:0:0:0:
320,176,62794,1,2,0:0:0:0:
96,182,62931,1,2,0:0:0:0:
430,142,63067,2,0,L|416:71,1,57
405,254,63203,2,0,L|391:325,1,57
320,176,63340,5,2,0:0:0:0:
512,220,63476,1,0,0:0:0:0:
282,284,63612,1,8,0:0:0:0:
438,150,63749,1,2,0:0:0:0:
438,150,63817,1,0,0:0:0:0:
438,150,63885,1,2,0:0:0:0:
210,198,64021,1,2,0:0:0:0:
405,254,64158,2,0,L|437:344,1,57
282,284,64294,2,0,L|262:337,1,57
322,176,64431,5,2,0:0:0:0:
157,299,64567,1,0,0:0:0:0:
7,64,64704,1,8,0:0:0:0:
14,179,64840,1,2,0:0:0:0:
55,169,64908,1,0,0:0:0:0:
90,145,64976,1,2,0:0:0:0:
112,109,65044,1,0,0:0:0:0:
120,67,65112,1,2,0:0:0:0:
47,288,65249,1,8,0:0:0:0:
14,179,65385,1,2,0:0:0:0:
14,179,65454,1,0,0:0:0:0:
14,179,65522,5,2,0:0:0:0:
218,248,65658,1,2,0:0:0:0:
394,105,65794,1,8,0:0:0:0:
281,120,65930,1,2,0:0:0:0:
293,160,65998,1,0,0:0:0:0:
319,193,66066,1,2,0:0:0:0:
356,214,66135,1,0,0:0:0:0:
398,219,66203,1,2,0:0:0:0:
326,12,66340,1,8,0:0:0:0:
218,248,66476,1,2,0:0:0:0:
33,238,66612,6,0,B|28:202|9:161|9:161|55:79|28:19,1,228
117,164,67022,1,2,0:0:0:0:
159,159,67090,1,0,0:0:0:0:
202,155,67158,1,2,0:0:0:0:
244,151,67226,1,0,0:0:0:0:
287,147,67294,1,2,0:0:0:0:
150,332,67431,2,0,L|143:276,1,57
159,159,67567,2,0,L|166:102,1,57
242,15,67704,5,2,0:0:0:0:
351,50,67840,1,0,0:0:0:0:
159,159,67977,1,8,0:0:0:0:
250,230,68113,2,0,L|327:237,1,57
142,275,68249,2,0,L|85:280,1,57
233,345,68385,1,2,0:0:0:0:
263,115,68521,1,8,0:0:0:0:
356,351,68658,1,2,0:0:0:0:
356,351,68726,1,0,0:0:0:0:
356,351,68794,5,2,0:0:0:0:
384,351,68862,1,0,0:0:0:0:
410,342,68930,1,0,0:0:0:0:
432,323,68998,1,0,0:0:0:0:
445,298,69067,2,0,L|456:226,1,57
454,127,69203,5,0,0:0:0:0:
420,132,69271,1,0,0:0:0:0:
386,136,69339,1,2,0:0:0:0:
352,137,69407,1,0,0:0:0:0:
317,135,69476,2,0,L|234:122,1,57
454,127,69613,2,0,L|536:140,1,57
342,246,69749,5,0,0:0:0:0:
296,242,69817,1,0,0:0:0:0:
251,238,69885,1,2,0:0:0:0:
205,234,69953,1,0,0:0:0:0:
160,230,70022,2,0,L|103:235,1,57
264,352,70158,2,0,L|328:358,1,57
446,298,70295,5,0,0:0:0:0:
448,241,70363,1,0,0:0:0:0:
451,184,70431,1,2,0:0:0:0:
454,127,70499,1,0,0:0:0:0:
457,70,70567,2,0,L|452:13,1,57
312,137,70704,5,8,0:0:0:0:
246,164,70772,1,2,0:0:0:0:
175,167,70840,1,2,0:0:0:0:
107,146,70908,1,2,0:0:0:0:
51,102,70976,1,4,0:0:0:0:
203,121,79158,6,0,L|199:96,2,15.83333
261,112,79294,6,0,L|258:78,2,31.66667
319,112,79430,6,0,L|326:64,2,47.5
381,121,79567,6,0,L|396:60,2,63.33333
288,226,79703,5,2,0:0:0:0:
109,157,79976,1,8,0:0:0:0:
288,226,80385,1,2,0:0:0:0:
109,157,80522,1,8,0:0:0:0:
139,346,80794,5,2,0:0:0:0:
109,157,81067,1,8,0:0:0:0:
139,346,81477,1,2,0:0:0:0:
109,157,81613,1,8,0:0:0:0:
288,226,81885,5,2,0:0:0:0:
139,346,82158,1,8,0:0:0:0:
288,226,82567,1,2,0:0:0:0:
139,346,82703,1,8,0:0:0:0:
109,157,83113,5,2,0:0:0:0:
139,346,83249,1,8,0:0:0:0:
288,226,83658,1,2,0:0:0:0:
109,157,83795,1,8,0:0:0:0:
139,346,83931,1,2,0:0:0:0:
288,226,84067,5,2,0:0:0:0:
455,315,84340,2,0,L|477:210,1,76
288,226,84749,1,2,0:0:0:0:
462,323,84885,2,0,L|477:248,1,76
322,322,85158,5,2,0:0:0:0:
135,257,85431,2,0,L|150:182,1,76
322,322,85840,1,2,0:0:0:0:
128,249,85977,2,0,L|143:174,1,76
206,342,86249,5,2,0:0:0:0:
394,250,86522,2,0,L|469:258,1,76
206,342,86931,1,2,0:0:0:0:
402,242,87068,2,0,L|477:250,1,76
326,333,87476,5,2,0:0:0:0:
130,233,87613,2,0,L|54:241,1,76
206,342,88021,1,0,0:0:0:0:
346,161,88158,1,8,0:0:0:0:
130,233,88294,1,2,0:0:0:0:
302,384,88431,6,0,L|347:379,1,38
419,349,88567,2,0,L|464:344,1,38
247,268,88840,6,0,L|202:263,1,38
130,233,88976,2,0,L|85:228,1,38
302,153,89249,6,0,L|347:148,1,38
204,87,89386,2,0,L|166:82,1,38
312,163,89522,2,0,L|349:158,1,38
194,97,89659,2,0,L|149:92,1,38
301,54,89931,6,0,L|305:16,1,38
215,197,90067,2,0,L|210:234,1,38
156,92,90339,6,0,L|151:47,1,38
90,190,90476,2,0,L|85:227,1,38
166,82,90612,2,0,L|161:44,1,38
100,200,90749,2,0,L|95:245,1,38
57,93,91021,6,0,L|19:88,1,38
200,179,91157,2,0,L|237:183,1,38
398,122,91431,6,0,L|389:173,1,38
327,247,91567,2,0,L|336:298,1,38
415,123,91704,2,0,L|408:160,1,38
343,248,91840,2,0,L|349:285,1,38
291,152,92113,6,0,L|287:94,1,38
445,254,92249,2,0,L|449:312,1,38
227,250,92522,6,0,L|176:259,1,38
102,322,92658,2,0,L|51:313,1,38
226,233,92794,2,0,L|188:239,1,38
101,305,92931,2,0,L|63:298,1,38
197,357,93203,6,0,L|255:361,1,38
95,203,93339,2,0,L|37:199,1,38
291,137,93612,6,0,L|363:140,1,38
302,157,93749,2,0,L|374:160,1,38
229,239,93885,2,0,L|157:242,1,38
219,260,94022,2,0,L|147:263,1,38
135,137,94294,6,0,L|126:99,1,38
291,137,94431,2,0,L|299:99,1,38
353,258,94704,6,0,L|348:323,1,38
335,269,94840,2,0,L|330:334,1,38
450,186,94977,2,0,L|455:121,1,38
466,173,95113,2,0,L|471:108,1,38
291,137,95385,6,0,L|233:125,1,38
115,141,95522,2,0,L|153:134,1,38
210,241,95794,5,2,0:0:0:0:
210,241,95930,1,2,0:0:0:0:
379,185,96067,1,2,0:0:0:0:
379,185,96203,1,2,0:0:0:0:
210,241,96476,5,2,0:0:0:0:
58,212,96612,1,2,0:0:0:0:
93,309,96885,5,2,0:0:0:0:
93,309,97022,1,2,0:0:0:0:
327,283,97158,5,2,0:0:0:0:
58,212,97431,1,8,0:0:0:0:
327,283,97704,1,2,0:0:0:0:
58,212,97977,1,8,0:0:0:0:
217,318,98249,5,2,0:0:0:0:
315,32,98521,1,8,0:0:0:0:
217,318,98794,1,2,0:0:0:0:
315,32,99067,1,8,0:0:0:0:
358,243,99340,6,0,L|460:241,1,85.5
277,182,99613,6,0,P|256:239|299:323,1,142.5
100,241,99885,6,0,L|-2:239,1,85.5
181,180,100158,6,0,P|202:237|159:321,1,142.5
341,69,100431,6,0,B|385:65|385:65|445:71,1,85.5
385,307,100704,6,0,B|392:259|392:259|380:215|380:215|384:166,1,142.5
171,69,100976,6,0,B|127:65|127:65|67:71,1,85.5
127,307,101249,6,0,B|120:259|120:259|132:215|132:215|127:166,1,142.5
219,351,101521,5,8,0:0:0:0:
227,155,101658,1,2,0:0:0:0:
415,351,101794,5,8,0:0:0:0:
423,155,101931,1,2,0:0:0:0:
127,307,102067,5,8,0:0:0:0:
166,73,102203,1,2,0:0:0:0:
392,252,102340,5,8,0:0:0:0:
266,60,102476,1,2,0:0:0:0:
209,368,102613,5,8,0:0:0:0:
101,149,102749,1,2,0:0:0:0:
392,252,102886,5,8,0:0:0:0:
359,22,103022,1,2,0:0:0:0:
153,283,103158,5,8,0:0:0:0:
173,23,103295,1,2,0:0:0:0:
336,338,103431,5,8,0:0:0:0:
437,86,103567,1,2,0:0:0:0:
213,198,103703,5,8,0:0:0:0:
166,207,103772,1,2,0:0:0:0:
122,192,103840,1,8,0:0:0:0:
90,157,103908,1,2,0:0:0:0:
80,112,103976,1,8,0:0:0:0:
93,67,104044,1,2,0:0:0:0:
127,34,104112,1,8,0:0:0:0:
172,22,104180,1,2,0:0:0:0:
225,44,104249,5,8,0:0:0:0:
281,53,104317,1,2,0:0:0:0:
338,54,104385,1,8,0:0:0:0:
394,44,104453,1,2,0:0:0:0:
449,30,104521,1,8,0:0:0:0:
432,85,104590,1,2,0:0:0:0:
433,142,104658,1,8,0:0:0:0:
447,197,104726,1,2,0:0:0:0:
468,250,104794,6,0,P|470:271|470:304,3,47.5
445,337,105067,2,0,P|422:340|375:330,3,47.5
360,309,105340,6,0,P|327:300|299:304,1,47.5
246,369,105476,1,2,0:0:0:0:
204,229,105613,6,0,B|156:228|156:228|109:196|52:235|48:301|108:323,1,213.75
162,336,105886,6,0,B|172:304|202:288|202:288|191:260|212:207,1,123.5
240,82,106158,1,8,0:0:0:0:
442,271,106295,1,0,0:0:0:0:
162,336,106431,5,0,0:0:0:0:
322,148,106567,1,2,0:0:0:0:
344,360,106703,6,0,L|336:288,1,61.75
320,128,106840,1,0,0:0:0:0:
184,344,106976,5,2,0:0:0:0:
488,304,107112,1,0,0:0:0:0:
488,304,107181,1,0,0:0:0:0:
488,304,107249,5,8,0:0:0:0:
424,48,107385,1,0,0:0:0:0:
304,296,107522,6,0,L|392:280,1,61.75
488,176,107658,2,0,L|400:192,1,61.75
232,216,107794,5,8,0:0:0:0:
496,312,107931,1,0,0:0:0:0:
336,104,108067,6,0,B|296:46|392:32|408:120|304:136|352:240,1,213.75
360,240,108340,6,0,P|416:272|480:256,1,114
336,104,108613,1,0,0:0:0:0:
170,177,108749,6,0,L|210:233,1,57
191,371,108886,2,0,L|223:299,1,57
360,240,109022,2,0,L|296:256,1,57
118,286,109158,5,2,0:0:0:0:
280,360,109294,2,0,L|360:344,1,57
352,226,109430,2,0,L|272:242,1,57
272,376,109567,2,0,L|352:360,1,57
496,328,109703,5,2,0:0:0:0:
366,73,109840,2,0,L|358:161,1,57
429,257,109977,2,0,L|437:177,1,57
448,0,110112,1,2,0:0:0:0:
346,308,110249,6,0,P|416:353|495:328,1,171
512,296,110522,2,0,P|440:304|392:384,1,133
141,361,110795,6,0,P|197:297|189:273,1,66.5
221,89,110931,2,0,L|229:177,1,66.5
240,249,111067,1,8,0:0:0:0:
240,249,111136,1,0,0:0:0:0:
240,249,111204,5,0,0:0:0:0:
393,97,111340,1,2,0:0:0:0:
330,317,111477,6,0,L|322:240,1,66.5
298,56,111613,1,8,0:0:0:0:
406,287,111749,1,0,0:0:0:0:
254,133,111885,6,0,P|297:147|337:131,1,66.5
449,197,112022,2,0,P|390:190|367:200,1,66.5
307,274,112158,2,0,P|316:330|332:354,1,66.5
465,366,112294,2,0,P|499:318|502:278,1,66.5
472,104,112430,5,4,0:0:0:0:
307,274,112567,1,0,0:0:0:0:
512,238,112703,1,8,0:0:0:0:
397,64,112840,1,2,0:0:0:0:
393,86,112908,1,0,0:0:0:0:
389,108,112976,1,2,0:0:0:0:
386,130,113044,1,0,0:0:0:0:
383,152,113112,1,2,0:0:0:0:
473,378,113249,2,0,L|468:248,1,114
281,96,113522,5,2,0:0:0:0:
385,306,113658,1,2,0:0:0:0:
491,109,113795,1,8,0:0:0:0:
288,255,113931,1,0,0:0:0:0:
288,255,113999,1,0,0:0:0:0:
288,255,114067,5,0,0:0:0:0:
248,277,114136,1,0,0:0:0:0:
203,286,114204,1,2,0:0:0:0:
158,275,114272,1,0,0:0:0:0:
120,249,114340,5,8,0:0:0:0:
183,223,114408,1,0,0:0:0:0:
250,239,114476,1,2,0:0:0:0:
294,290,114544,1,0,0:0:0:0:
255,359,114612,6,0,P|213:280|317:208,1,199.5
294,290,114885,2,0,P|215:309|154:239,1,133
66,88,115158,5,0,0:0:0:0:
86,333,115294,1,2,0:0:0:0:
176,72,115431,6,0,L|127:137,1,66.5
44,241,115567,1,0,0:0:0:0:
66,88,115703,1,2,0:0:0:0:
310,293,115840,6,0,L|210:278,1,76
44,241,115976,1,8,0:0:0:0:
176,72,116113,1,0,0:0:0:0:
202,313,116249,6,0,B|157:326|157:326|104:311,1,85.5
192,184,116385,2,0,B|228:170|228:170|302:189,1,85.5
417,213,116522,2,0,B|424:258|424:258|409:298,1,85.5
222,358,116658,2,0,B|201:313|201:313|220:250,1,85.5
324,54,116795,6,0,P|266:97|164:58,1,171
155,35,117067,6,0,B|215:35|215:35|255:75|255:75|317:75|317:75|366:121,1,242.25
437,205,117340,5,0,0:0:0:0:
435,213,117408,1,0,0:0:0:0:
433,220,117476,1,2,0:0:0:0:
431,227,117544,1,0,0:0:0:0:
429,234,117612,1,8,0:0:0:0:
427,241,117680,1,0,0:0:0:0:
426,249,117749,1,0,0:0:0:0:
425,256,117817,1,0,0:0:0:0:
422,267,117885,5,0,0:0:0:0:
376,241,117953,1,0,0:0:0:0:
323,236,118021,1,2,0:0:0:0:
271,250,118090,1,0,0:0:0:0:
231,284,118158,1,8,0:0:0:0:
183,304,118226,1,0,0:0:0:0:
130,300,118294,1,0,0:0:0:0:
82,277,118362,1,0,0:0:0:0:
52,232,118431,6,0,B|36:182|36:182|48:115,1,80.75
268,146,118567,2,0,B|280:193|280:193|274:234,1,80.75
148,354,118704,5,10,0:0:0:0:
153,70,118840,1,2,0:0:0:0:
181,373,118976,5,2,0:0:0:0:
407,343,119113,1,0,0:0:0:0:
148,354,119249,2,0,B|190:344|190:344|218:351|218:351|279:336,1,114
438,319,119522,5,0,0:0:0:0:
389,75,119658,1,2,0:0:0:0:
303,249,119795,6,0,L|365:236,1,57
501,209,119931,1,0,0:0:0:0:
243,80,120067,5,2,0:0:0:0:
303,249,120203,2,0,L|214:218,1,66.5
82,171,120339,1,8,0:0:0:0:
275,62,120476,1,0,0:0:0:0:
88,15,120612,6,0,P|121:78|117:121,1,80.75
149,311,120749,6,0,P|164:267|164:236,1,71.25
275,62,120885,6,0,P|287:100|284:139,1,66.5
366,301,121022,6,0,P|381:267|385:238,1,57
457,70,121158,6,0,L|467:211,1,133
327,377,121431,1,8,0:0:0:0:
372,117,121567,1,2,0:0:0:0:
375,150,121635,1,0,0:0:0:0:
378,183,121704,1,2,0:0:0:0:
381,215,121772,1,0,0:0:0:0:
384,247,121840,1,2,0:0:0:0:
265,192,121976,2,0,P|283:153|285:112,1,71.25
268,14,122249,5,8,0:0:0:0:
251,41,122317,1,0,0:0:0:0:
228,64,122386,1,0,0:0:0:0:
201,82,122454,1,0,0:0:0:0:
172,96,122522,1,8,0:0:0:0:
141,104,122590,1,0,0:0:0:0:
108,106,122658,1,0,0:0:0:0:
76,100,122726,1,0,0:0:0:0:
48,84,122794,5,10,0:0:0:0:
98,45,122862,1,0,0:0:0:0:
161,47,122930,1,10,0:0:0:0:
219,74,122999,1,0,0:0:0:0:
257,125,123067,1,10,0:0:0:0:
266,188,123135,1,0,0:0:0:0:
246,248,123203,1,10,0:0:0:0:
192,282,123271,1,0,0:0:0:0:
126,298,123340,6,0,B|224:244|245:357|357:256,1,199.5
335,262,123612,2,0,P|264:290|240:388,1,133
456,284,123885,6,0,B|467:244|467:244|454:178,1,80.75
418,89,124022,1,0,0:0:0:0:
418,89,124090,1,0,0:0:0:0:
418,89,124158,6,0,B|459:76|459:76|518:87,1,80.75
512,207,124294,2,0,B|472:221|472:221|413:210,1,80.75
272,208,124431,6,0,B|285:181|285:181|265:151|272:121,1,80.75
356,14,124567,2,0,B|361:10|405:-22|462:5,1,80.75
417,170,124704,2,0,P|378:162|348:136,1,80.75
512,50,124840,2,0,P|517:87|507:127,1,80.75
435,358,124977,6,0,B|425:326|425:326|425:310|425:310|422:269,1,90.25
297,125,125113,2,0,B|291:146|291:146|276:162|276:162|276:196|276:196|262:234,1,90.25
168,258,125249,6,0,L|99:273,6,45.125
168,258,125522,2,0,P|192:199|176:147,1,90.25
135,77,125658,6,0,B|88:72|88:72|53:100|53:100|102:139|173:34|274:110,1,304
391,149,125999,1,0,0:0:0:0:
391,149,126067,6,0,B|426:186|426:186|436:248,1,76
281,242,126203,6,0,B|276:205|276:205|285:182,1,61.75
404,293,126340,6,0,P|379:317|344:318,1,47.5
284,349,126476,6,0,L|229:338,1,35.625
156,303,126613,6,0,P|119:325|41:303,1,99.75
122,229,126817,6,0,P|177:224|224:255,1,109.25
284,349,127022,6,0,L|358:331,1,54.625
476,275,127158,1,8,0:0:0:0:
476,275,127226,1,0,0:0:0:0:
476,275,127295,1,0,0:0:0:0:
476,275,127363,1,0,0:0:0:0:
476,275,127431,5,8,0:0:0:0:
441,240,127499,1,0,0:0:0:0:
433,191,127567,1,0,0:0:0:0:
455,146,127636,1,0,0:0:0:0:
455,96,127704,6,0,B|437:35|437:35|397:-2,1,109.25
193,153,127976,2,0,L|182:280,1,109.25
180,310,128181,1,0,0:0:0:0:
218,279,128249,1,0,0:0:0:0:
266,269,128317,1,0,0:0:0:0:
312,284,128385,1,2,0:0:0:0:
344,320,128453,1,0,0:0:0:0:
390,336,128521,1,8,0:0:0:0:
437,320,128590,1,0,0:0:0:0:
465,280,128658,1,0,0:0:0:0:
387,180,128794,5,2,0:0:0:0:
254,362,128931,1,0,0:0:0:0:
287,93,129067,2,0,L|273:239,1,109.25
267,250,129272,1,0,0:0:0:0:
231,215,129340,1,0,0:0:0:0:
181,212,129408,1,0,0:0:0:0:
138,236,129476,1,2,0:0:0:0:
89,240,129544,1,0,0:0:0:0:
46,213,129613,1,8,0:0:0:0:
120,107,129749,1,0,0:0:0:0:
200,312,129885,6,0,P|157:335|88:327,1,109.25
274,196,130158,2,0,P|330:191|374:216,1,95
435,288,130363,1,0,0:0:0:0:
435,288,130431,2,0,L|450:158,1,95
340,11,130704,2,0,L|347:130,1,95
368,364,130976,6,0,P|306:347|294:347,1,47.5
223,291,131112,6,0,P|267:268|307:271,1,57
369,195,131249,6,0,P|304:179|271:189,1,66.5
166,127,131385,6,0,P|253:94|297:94,1,85.5
377,20,131521,5,10,0:0:0:0:
377,20,131590,2,0,P|286:5|259:9,1,85.5
233,176,131726,5,10,0:0:0:0:
233,176,131794,2,0,P|249:136|244:94,1,85.5
28,54,131931,6,0,P|18:98|21:137,1,85.5
31,371,132067,6,0,B|98:349|98:349|159:361|159:361|225:337|225:337|301:353,1,256.5
421,274,132340,6,0,P|354:273|290:359,1,142.5
386,365,132613,5,8,0:0:0:0:
473,125,132749,6,0,P|448:99|414:88,1,71.25
330,127,132886,2,0,P|311:156|308:192,1,71.25
402,255,133022,2,0,P|463:220|468:187,1,71.25
504,36,133158,6,0,P|422:7|316:55,1,142.5
123,133,133431,2,0,P|195:156|250:135,1,123.5
403,242,133635,1,0,0:0:0:0:
403,242,133703,6,0,P|325:223|298:229,1,57
212,297,133839,2,0,P|269:280|295:288,1,57
387,366,133976,5,0,0:0:0:0:
356,365,134044,1,0,0:0:0:0:
325,363,134112,1,0,0:0:0:0:
295,363,134180,1,0,0:0:0:0:
264,359,134249,6,0,B|219:348|219:348|209:321|209:321|150:302|150:302|89:292,1,142.5
87,293,134453,2,0,B|112:273|136:277|136:277|165:230|154:192,1,142.5
130,29,134658,5,0,0:0:0:0:
130,29,134726,1,0,0:0:0:0:
130,29,134794,2,0,P|113:96|123:144,1,95
222,285,135067,2,0,P|242:214|223:153,1,95
202,91,135340,5,0,0:0:0:0:
190,290,135476,1,2,0:0:0:0:
469,195,135613,1,8,0:0:0:0:
309,104,135749,1,0,0:0:0:0:
363,292,135886,1,0,0:0:0:0:
420,124,136022,1,2,0:0:0:0:
149,194,136158,5,8,0:0:0:0:
121,227,136226,1,0,0:0:0:0:
102,265,136294,1,2,0:0:0:0:
99,307,136362,1,0,0:0:0:0:
107,348,136431,5,12,0:0:0:0:
363,292,136567,1,2,0:0:0:0:
149,194,136703,1,8,0:0:0:0:
236,382,136840,1,2,0:0:0:0:
279,96,136976,5,8,0:0:0:0:
45,204,137112,1,2,0:0:0:0:
363,292,137249,1,8,0:0:0:0:
162,57,137385,1,2,0:0:0:0:
137,348,137522,5,8,0:0:0:0:
443,233,137658,1,2,0:0:0:0:
162,57,137794,1,8,0:0:0:0:
237,374,137931,1,2,0:0:0:0:
399,100,138067,5,8,0:0:0:0:
77,247,138204,1,2,0:0:0:0:
399,364,138340,1,8,0:0:0:0:
322,39,138477,1,2,0:0:0:0:
47,220,138613,5,12,0:0:0:0:
19,187,138681,1,2,0:0:0:0:
8,146,138749,1,0,0:0:0:0:
10,104,138817,1,2,0:0:0:0:
25,62,138885,5,8,0:0:0:0:
63,80,138954,1,2,0:0:0:0:
108,78,139022,1,0,0:0:0:0:
155,54,139090,1,2,0:0:0:0:
193,8,139158,5,8,0:0:0:0:
197,45,139226,1,2,0:0:0:0:
203,82,139294,1,8,0:0:0:0:
209,119,139362,1,2,0:0:0:0:
214,156,139430,5,8,0:0:0:0:
219,193,139499,1,2,0:0:0:0:
225,230,139567,1,8,0:0:0:0:
230,267,139635,1,2,0:0:0:0:
231,304,139703,6,0,L|226:387,1,47.5
132,354,139840,1,2,0:0:0:0:
132,354,139908,1,2,0:0:0:0:
132,354,139976,2,0,L|137:268,1,47.5
61,227,140112,2,0,L|57:282,1,47.5
45,355,140249,2,0,P|12:344|-10:325,1,47.5
148,176,140385,2,0,L|141:264,1,47.5
132,354,140522,1,10,0:0:0:0:
132,354,140795,6,0,P|227:366|377:341,1,228
424,255,141204,1,2,0:0:0:0:
430,213,141272,1,0,0:0:0:0:
432,170,141340,1,2,0:0:0:0:
430,127,141408,1,0,0:0:0:0:
424,85,141476,1,2,0:0:0:0:
263,163,141613,2,0,L|324:178,1,57
430,127,141749,2,0,L|491:112,1,57
327,79,141885,5,2,0:0:0:0:
214,59,142021,1,0,0:0:0:0:
263,277,142158,1,8,0:0:0:0:
161,329,142294,1,2,0:0:0:0:
149,288,142362,1,0,0:0:0:0:
153,245,142430,1,2,0:0:0:0:
171,207,142498,1,0,0:0:0:0:
203,178,142566,1,2,0:0:0:0:
319,274,142703,2,0,L|249:277,1,57
149,288,142840,2,0,L|79:285,1,57
203,178,142976,6,0,L|201:64,1,114
319,274,143249,1,8,0:0:0:0:
315,160,143385,1,2,0:0:0:0:
315,160,143454,1,0,0:0:0:0:
315,160,143522,1,2,0:0:0:0:
92,174,143658,1,2,0:0:0:0:
413,212,143795,1,8,0:0:0:0:
407,98,143931,1,2,0:0:0:0:
407,98,143999,1,0,0:0:0:0:
407,98,144067,5,2,0:0:0:0:
319,274,144204,1,2,0:0:0:0:
301,49,144340,1,8,0:0:0:0:
216,126,144476,1,2,0:0:0:0:
216,126,144544,1,0,0:0:0:0:
216,126,144612,1,2,0:0:0:0:
413,212,144749,1,2,0:0:0:0:
157,222,144885,1,8,0:0:0:0:
404,207,145021,1,2,0:0:0:0:
146,336,145158,6,0,P|73:299|61:161,1,228
262,179,145567,1,2,0:0:0:0:
236,189,145635,1,0,0:0:0:0:
209,200,145703,1,2,0:0:0:0:
183,211,145771,1,0,0:0:0:0:
157,222,145839,1,2,0:0:0:0:
333,89,145976,2,0,L|391:66,1,57
427,175,146113,2,0,L|375:197,1,57
262,179,146249,5,2,0:0:0:0:
457,293,146386,1,0,0:0:0:0:
458,304,146454,1,0,0:0:0:0:
459,315,146522,1,8,0:0:0:0:
348,338,146658,1,2,0:0:0:0:
349,349,146727,1,0,0:0:0:0:
350,360,146795,1,2,0:0:0:0:
351,371,146863,1,0,0:0:0:0:
352,382,146931,1,2,0:0:0:0:
432,175,147067,2,0,L|442:96,1,57
343,57,147203,2,0,L|333:-22,1,57
190,113,147340,6,0,P|137:126|15:118,1,171
0,112,147612,1,8,0:0:0:0:
110,243,147749,2,0,P|163:230|285:238,1,171
300,244,148022,1,2,0:0:0:0:
79,353,148158,1,8,0:0:0:0:
1,270,148294,1,2,0:0:0:0:
1,270,148363,1,0,0:0:0:0:
1,270,148431,5,2,0:0:0:0:
186,320,148567,1,2,0:0:0:0:
155,124,148704,1,8,0:0:0:0:
155,124,148771,1,2,0:0:0:0:
155,124,148840,1,2,0:0:0:0:
110,229,148976,1,2,0:0:0:0:
300,244,149113,1,0,0:0:0:0:
235,47,149249,1,8,0:0:0:0:
290,234,149386,1,2,0:0:0:0:
436,77,149522,6,0,B|454:140|454:140|457:171|411:199|411:229|411:229|427:326,1,228
335,131,149931,1,2,0:0:0:0:
293,122,149999,1,0,0:0:0:0:
251,129,150067,1,2,0:0:0:0:
215,152,150135,1,0,0:0:0:0:
190,186,150203,2,0,P|181:217|180:248,1,57
372,151,150340,2,0,P|380:119|382:89,1,57
217,36,150476,2,0,P|185:27|155:26,1,57
24,121,150612,5,0,0:0:0:0:
152,34,150749,1,0,0:0:0:0:
179,241,150885,1,8,0:0:0:0:
66,243,151022,1,2,0:0:0:0:
73,201,151090,1,0,0:0:0:0:
95,164,151158,1,2,0:0:0:0:
128,138,151226,1,0,0:0:0:0:
169,125,151294,2,0,P|202:122|252:137,1,57
66,286,151431,2,0,P|32:289|-16:274,1,57
0,105,151567,2,0,P|-3:71|11:22,1,57
225,125,151704,6,0,P|316:132|352:122,1,114
193,13,151976,1,8,0:0:0:0:
115,100,152113,5,2,0:0:0:0:
112,142,152181,1,0,0:0:0:0:
126,182,152249,1,2,0:0:0:0:
154,214,152317,1,0,0:0:0:0:
191,234,152385,1,2,0:0:0:0:
437,175,152522,1,8,0:0:0:0:
464,286,152658,5,2,0:0:0:0:
422,289,152726,1,0,0:0:0:0:
382,275,152794,1,2,0:0:0:0:
350,247,152862,1,0,0:0:0:0:
330,210,152930,1,2,0:0:0:0:
419,4,153067,1,8,0:0:0:0:
329,73,153203,5,2,0:0:0:0:
294,97,153271,1,0,0:0:0:0:
252,106,153339,1,2,0:0:0:0:
210,99,153407,1,0,0:0:0:0:
174,77,153475,1,2,0:0:0:0:
431,118,153612,1,8,0:0:0:0:
214,214,153749,1,2,0:0:0:0:
434,337,153885,6,0,B|448:304|456:260|456:260|416:205|433:101,1,228
339,276,154295,1,2,0:0:0:0:
296,277,154363,1,0,0:0:0:0:
253,278,154431,1,2,0:0:0:0:
210,279,154499,1,0,0:0:0:0:
168,280,154567,2,0,L|99:274,1,57
367,171,154704,2,0,L|436:164,1,57
167,101,154840,2,0,L|97:94,1,57
374,28,154977,5,2,0:0:0:0:
280,96,155113,1,0,0:0:0:0:
454,250,155249,1,8,0:0:0:0:
351,300,155385,1,2,0:0:0:0:
308,294,155453,1,0,0:0:0:0:
266,289,155521,1,2,0:0:0:0:
223,284,155589,1,0,0:0:0:0:
181,278,155658,2,0,L|108:287,1,57
391,310,155794,2,0,L|463:299,1,57
280,96,155930,1,2,0:0:0:0:
274,93,155999,1,0,0:0:0:0:
268,91,156067,5,2,0:0:0:0:
239,87,156135,1,0,0:0:0:0:
211,87,156203,1,2,0:0:0:0:
183,92,156271,1,0,0:0:0:0:
156,100,156340,5,8,0:0:0:0:
131,128,156408,1,0,0:0:0:0:
124,165,156476,1,2,0:0:0:0:
138,200,156544,1,0,0:0:0:0:
167,223,156612,1,2,0:0:0:0:
205,227,156681,1,0,0:0:0:0:
239,211,156749,5,2,0:0:0:0:
295,211,156817,1,0,0:0:0:0:
352,212,156885,5,8,0:0:0:0:
340,238,156953,1,0,0:0:0:0:
329,264,157021,1,2,0:0:0:0:
318,290,157089,1,0,0:0:0:0:
307,317,157157,1,2,0:0:0:0:
296,343,157226,1,0,0:0:0:0:
285,369,157295,5,2,0:0:0:0:
262,316,157363,1,0,0:0:0:0:
239,264,157431,5,8,0:0:0:0:
212,258,157499,1,0,0:0:0:0:
183,255,157567,1,2,0:0:0:0:
155,255,157635,1,0,0:0:0:0:
127,259,157703,1,2,0:0:0:0:
99,266,157772,1,0,0:0:0:0:
73,277,157840,5,2,0:0:0:0:
68,220,157908,1,2,0:0:0:0:
84,166,157976,1,8,0:0:0:0:
118,120,158044,1,2,0:0:0:0:
166,89,158112,1,2,0:0:0:0:
221,77,158181,1,2,0:0:0:0:
294,113,158249,6,0,B|356:134|407:112|407:112|504:104|531:187|417:162,1,285
293,216,158658,6,0,B|342:219|342:219|391:294|503:263,1,209
290,319,159067,2,0,P|240:306|205:269,1,104.5
431,164,159340,5,2,0:0:0:0:
280,91,159476,1,2,0:0:0:0:
280,91,159544,1,2,0:0:0:0:
280,91,159613,1,8,0:0:0:0:
207,165,159749,2,0,L|151:164,1,52.25
292,221,159885,2,0,L|345:221,1,52.25
205,269,160022,1,2,0:0:0:0:
433,274,160158,2,0,P|447:224|426:159,1,104.5
343,324,160431,6,0,P|380:363|436:377,1,104.5
347,120,160704,1,8,0:0:0:0:
260,175,160840,6,0,L|157:169,1,52.25
122,115,160976,1,2,0:0:0:0:
179,272,161112,1,2,0:0:0:0:
215,70,161249,1,8,0:0:0:0:
347,120,161385,6,0,L|421:117,1,52.25
488,67,161521,1,2,0:0:0:0:
447,210,161658,1,2,0:0:0:0:
399,15,161794,1,8,0:0:0:0:
267,70,161931,6,0,L|178:69,1,52.25
121,28,162067,1,2,0:0:0:0:
181,166,162204,1,2,0:0:0:0:
362,112,162340,1,8,0:0:0:0:
188,154,162476,1,2,0:0:0:0:
285,333,162613,6,0,B|377:339|377:339|468:319,1,156.75
479,312,162886,1,8,0:0:0:0:
428,224,163022,1,2,0:0:0:0:
389,232,163090,1,0,0:0:0:0:
351,236,163158,1,2,0:0:0:0:
312,234,163226,1,0,0:0:0:0:
272,231,163294,1,2,0:0:0:0:
388,129,163431,2,0,B|442:123|442:123|513:138,1,104.5
351,236,163703,5,2,0:0:0:0:
319,51,163839,1,2,0:0:0:0:
319,51,163908,1,2,0:0:0:0:
319,51,163976,1,8,0:0:0:0:
234,114,164112,2,0,L|169:121,1,52.25
250,217,164249,2,0,L|185:224,1,52.25
266,320,164385,1,2,0:0:0:0:
449,216,164522,1,10,0:0:0:0:
447,189,164590,1,0,0:0:0:0:
446,163,164658,1,2,0:0:0:0:
445,137,164726,1,0,0:0:0:0:
444,111,164794,5,2,0:0:0:0:
450,242,164931,1,0,0:0:0:0:
358,55,165067,1,8,0:0:0:0:
278,120,165204,5,2,0:0:0:0:
251,122,165272,1,0,0:0:0:0:
225,123,165340,1,2,0:0:0:0:
199,124,165408,1,0,0:0:0:0:
173,125,165476,1,2,0:0:0:0:
364,178,165613,1,8,0:0:0:0:
272,224,165749,5,2,0:0:0:0:
245,226,165817,1,0,0:0:0:0:
219,227,165885,1,2,0:0:0:0:
193,228,165953,1,0,0:0:0:0:
167,229,166021,1,2,0:0:0:0:
358,282,166158,1,8,0:0:0:0:
264,326,166294,5,2,0:0:0:0:
237,328,166362,1,0,0:0:0:0:
211,329,166430,1,2,0:0:0:0:
185,330,166499,1,0,0:0:0:0:
159,331,166567,1,2,0:0:0:0:
350,384,166703,1,8,0:0:0:0:
272,224,166840,1,2,0:0:0:0:
509,285,166976,6,0,B|540:204|522:147|522:147|513:195|482:232,1,209
406,273,167385,1,2,0:0:0:0:
396,249,167453,1,0,0:0:0:0:
391,223,167521,1,2,0:0:0:0:
393,197,167589,1,0,0:0:0:0:
401,172,167657,1,2,0:0:0:0:
448,367,167794,2,0,P|389:375|333:346,1,104.5
171,234,168067,6,0,L|161:352,1,104.5
94,166,168340,1,8,0:0:0:0:
191,132,168477,2,0,L|256:132,1,52.25
325,231,168613,2,0,L|273:231,1,52.25
346,129,168749,1,2,0:0:0:0:
414,279,168885,1,10,0:0:0:0:
414,306,168953,1,0,0:0:0:0:
414,332,169022,1,2,0:0:0:0:
414,358,169090,1,0,0:0:0:0:
414,384,169158,6,0,B|365:384|334:330|334:330|286:318|209:335,1,209
122,340,169567,1,2,0:0:0:0:
89,317,169635,1,0,0:0:0:0:
68,285,169703,1,2,0:0:0:0:
60,247,169771,1,0,0:0:0:0:
67,209,169839,1,2,0:0:0:0:
268,183,169976,1,8,0:0:0:0:
163,245,170113,1,2,0:0:0:0:
172,240,170181,1,0,0:0:0:0:
181,235,170249,5,2,0:0:0:0:
355,238,170385,1,2,0:0:0:0:
180,131,170522,1,8,0:0:0:0:
269,80,170658,1,2,0:0:0:0:
306,67,170727,1,0,0:0:0:0:
344,62,170794,1,2,0:0:0:0:
383,64,170863,1,0,0:0:0:0:
421,74,170931,6,0,P|455:80|499:68,1,52.25
206,0,171067,2,0,P|183:26|172:70,1,52.25
355,238,171204,2,0,P|343:205|310:173,1,52.25
202,225,171340,5,4,0:0:0:0:
430,178,171476,1,2,0:0:0:0:
143,141,171613,1,8,0:0:0:0:
430,178,171749,1,2,0:0:0:0:
100,236,171885,1,8,0:0:0:0:
430,178,172021,1,2,0:0:0:0:
40,151,172158,1,8,0:0:0:0:
430,178,172294,1,2,0:0:0:0:
171,21,172431,5,4,0:0:0:0:
184,295,172567,1,2,0:0:0:0:
393,82,172703,1,8,0:0:0:0:
406,356,172840,1,2,0:0:0:0:
236,100,172976,1,8,0:0:0:0:
98,352,173113,1,2,0:0:0:0:
308,25,173249,1,8,0:0:0:0:
432,257,173385,1,2,0:0:0:0:
144,147,173522,1,4,0:0:0:0:
451,156,173658,6,0,L|353:154,1,52.25
144,147,173795,1,2,0:0:0:0:
432,257,173931,6,0,L|352:227,1,52.25
144,147,174068,1,4,0:0:0:0:
379,344,174204,6,0,L|308:283,1,52.25
144,147,174340,1,2,0:0:0:0:
444,53,174476,5,8,0:0:0:0:
444,53,174544,1,8,0:0:0:0:
444,53,174612,5,14,0:0:0:0:
462,101,174680,1,8,0:0:0:0:
458,153,174748,1,10,0:0:0:0:
432,197,174816,1,8,0:0:0:0:
389,226,174885,5,2,0:0:0:0:
362,226,174953,1,0,0:0:0:0:
336,226,175021,1,2,0:0:0:0:
310,226,175089,1,0,0:0:0:0:
284,226,175158,5,2,0:0:0:0:
241,254,175226,1,0,0:0:0:0:
232,303,175294,1,2,0:0:0:0:
261,345,175362,1,0,0:0:0:0:
315,352,175431,5,10,0:0:0:0:
326,289,175499,1,0,0:0:0:0:
336,226,175567,1,2,0:0:0:0:
346,163,175635,1,0,0:0:0:0:
356,106,175703,1,4,0:0:0:0:
309,263,183885,6,0,L|313:288,2,15.83333
251,272,184022,6,0,L|254:306,2,31.66667
193,272,184158,6,0,L|186:320,2,47.5
131,263,184295,6,0,L|116:324,2,63.33333
224,158,184430,5,4,0:0:0:0:
224,158,184977,6,0,P|260:150|298:154,2,76
266,253,185385,2,0,B|214:278|130:248|121:167|121:167|63:165|36:242|72:282|116:321|116:321|98:334|61:314,1,456
229,158,186613,6,0,P|300:137|395:159,1,152
229,158,187022,2,0,P|207:85|220:11,1,152
229,158,187431,1,0,0:0:0:0:
382,163,187567,2,0,B|354:201|355:259|355:259|281:261|226:308|226:308|189:269|127:269,1,342
100,226,188249,2,0,P|75:227|47:236,3,38
16,258,188521,1,2,0:0:0:0:
215,159,189203,5,0,0:0:0:0:
215,159,189340,2,0,L|306:145,1,76
427,132,189749,1,0,0:0:0:0:
427,132,189817,1,0,0:0:0:0:
427,132,189886,2,0,B|445:185|422:238|422:238|438:292|422:354|422:354|345:314|268:349,1,380
211,169,190840,5,0,0:0:0:0:
68,207,190976,2,0,L|86:323,2,114
184,294,191658,2,0,L|194:369,1,76
261,230,191931,2,0,B|279:181|258:134|258:134|309:100|316:49|316:49|372:68|422:49|422:49|429:94|478:129|478:129|460:176|477:222,1,506.6667
348,173,193567,6,0,L|445:169,2,76
169,120,194112,1,0,0:0:0:0:
169,120,194181,1,0,0:0:0:0:
169,120,194249,2,0,B|282:112,1,114
325,77,194521,2,0,L|373:74,3,38
289,35,194794,2,0,L|241:32,3,38
333,0,195067,1,2,0:0:0:0:
428,161,195340,6,0,L|341:174,1,76
463,258,195613,1,0,0:0:0:0:
463,258,195749,2,0,L|376:271,1,76
499,355,196022,2,0,L|412:368,1,76
323,349,196294,1,0,0:0:0:0:
225,320,196430,6,0,B|215:287|233:251|233:251|257:216|261:173|261:173|230:187|182:175,1,228
222,85,196976,6,0,L|226:50,5,25.33333
159,85,197249,6,2,L|155:52,6,31.66667
295,144,198067,6,0,B|353:149|353:149|412:142,1,114
431,135,198340,1,0,0:0:0:0:
356,52,198477,1,0,0:0:0:0:
356,52,198545,1,0,0:0:0:0:
356,52,198613,2,0,B|301:35|263:46|263:46|206:65|152:47|152:47|102:37|55:56,1,304
277,236,199976,5,0,0:0:0:0:
296,134,200112,1,0,0:0:0:0:
200,169,200249,2,0,P|159:176|103:163,2,76
256,192,200658,12,0,201749,0:0:0:0:
225,272,201885,6,0,P|352:208|316:89,1,285
434,266,202294,2,0,P|306:293|255:172,1,285
317,272,202703,6,0,L|285:305,1,42.75
197,288,202840,2,0,B|175:241|148:136|224:156|181:44|181:44|289:74|271:36|366:56,1,427.5
106,99,203658,2,0,L|63:103,1,42.75
86,200,203795,2,0,L|45:195,1,42.75
68,297,203931,2,0,B|143:338|275:327|379:284|477:161|423:18|179:33|143:203|299:376|404:326,1,769.5
256,192,205226,12,0,206113,0:0:0:0:
314,202,206249,6,0,B|176:223|176:223|19:187,1,285
174,253,206658,2,0,B|312:274|312:274|469:238,1,285
284,344,207067,6,0,L|212:334,1,42.75
326,193,207203,2,0,B|481:157|481:157|445:88|445:88|242:134,1,427.5
191,339,208022,2,0,L|180:297,1,42.75
271,344,208158,2,0,L|261:303,1,42.75
351,349,208294,2,0,B|336:291|336:291|435:298|506:228|488:149|488:149|451:225|361:225|316:157|316:157|384:168|451:113|428:42|428:42|401:48|365:41,1,769.5
259,66,210067,6,0,L|287:61,5,28.5
228,140,210340,6,0,L|195:148,5,31.66667
307,140,210612,5,2,0:0:0:0:
238,278,210885,1,8,0:0:0:0:
307,140,211294,1,2,0:0:0:0:
238,278,211431,1,8,0:0:0:0:
238,278,211704,5,2,0:0:0:0:
47,164,211977,1,8,0:0:0:0:
238,278,212385,1,2,0:0:0:0:
47,164,212522,1,8,0:0:0:0:
47,164,212794,5,2,0:0:0:0:
319,214,213067,1,8,0:0:0:0:
47,164,213476,1,2,0:0:0:0:
319,214,213613,1,8,0:0:0:0:
319,214,214022,5,2,0:0:0:0:
47,164,214158,1,8,0:0:0:0:
47,164,214567,1,2,0:0:0:0:
319,214,214704,1,8,0:0:0:0:
47,264,214840,1,2,0:0:0:0:
147,52,214976,5,8,0:0:0:0:
170,309,215113,1,2,0:0:0:0:
249,64,215249,5,8,0:0:0:0:
272,321,215385,1,2,0:0:0:0:
351,76,215521,5,8,0:0:0:0:
374,333,215657,1,2,0:0:0:0:
453,88,215793,5,8,0:0:0:0:
476,345,215930,1,2,0:0:0:0:
170,309,216066,5,8,0:0:0:0:
476,345,216203,1,2,0:0:0:0:
130,214,216339,5,8,0:0:0:0:
436,250,216475,1,2,0:0:0:0:
90,119,216612,5,8,0:0:0:0:
396,155,216748,1,2,0:0:0:0:
50,24,216885,5,8,0:0:0:0:
356,60,217022,1,2,0:0:0:0:
412,259,217158,5,2,0:0:0:0:
365,269,217226,1,2,0:0:0:0:
318,272,217294,1,2,0:0:0:0:
271,265,217362,1,2,0:0:0:0:
225,252,217430,1,2,0:0:0:0:
180,239,217499,1,2,0:0:0:0:
132,237,217567,1,2,0:0:0:0:
85,244,217635,1,2,0:0:0:0:
40,258,217704,5,2,0:0:0:0:
73,290,217772,1,2,0:0:0:0:
118,306,217840,1,2,0:0:0:0:
165,301,217908,1,2,0:0:0:0:
205,276,217976,1,2,0:0:0:0:
231,237,218044,1,2,0:0:0:0:
238,191,218112,1,2,0:0:0:0:
224,145,218180,1,2,0:0:0:0:
199,105,218249,5,2,0:0:0:0:
222,102,218317,1,2,0:0:0:0:
246,100,218385,1,2,0:0:0:0:
269,98,218453,1,2,0:0:0:0:
293,96,218521,5,0,0:0:0:0:
301,107,218589,1,0,0:0:0:0:
308,119,218657,1,0,0:0:0:0:
312,133,218725,1,0,0:0:0:0:
313,147,218793,5,0,0:0:0:0:
313,151,218862,1,0,0:0:0:0:
313,155,218931,2,0,L|323:217,1,47.5
269,324,219067,2,0,L|263:276,1,47.5
210,161,219203,2,0,L|206:208,1,47.5
141,271,219340,1,2,0:0:0:0:
141,271,219613,5,12,0:0:0:0:
279,8,219749,1,2,0:0:0:0:
316,43,219817,1,0,0:0:0:0:
334,91,219886,1,2,0:0:0:0:
336,142,219954,1,0,0:0:0:0:
315,188,220022,1,2,0:0:0:0:
128,355,220158,2,0,L|273:343,1,114
497,315,220431,5,2,0:0:0:0:
238,113,220567,1,0,0:0:0:0:
327,357,220703,1,8,0:0:0:0:
377,137,220839,1,0,0:0:0:0:
377,137,220908,1,0,0:0:0:0:
377,137,220976,1,2,0:0:0:0:
276,253,221112,1,2,0:0:0:0:
235,0,221249,2,0,L|239:164,1,114
140,260,221454,1,0,0:0:0:0:
140,260,221522,6,0,P|163:162|100:31,1,228
244,135,221931,1,2,0:0:0:0:
289,159,221999,1,0,0:0:0:0:
339,163,222067,1,2,0:0:0:0:
387,148,222135,1,0,0:0:0:0:
429,118,222204,1,2,0:0:0:0:
326,51,222340,1,8,0:0:0:0:
243,241,222476,1,2,0:0:0:0:
243,241,222545,1,0,0:0:0:0:
243,241,222613,6,0,L|255:366,1,114
429,118,222886,2,0,L|417:-12,1,114
418,4,223090,1,0,0:0:0:0:
418,4,223158,1,2,0:0:0:0:
183,158,223294,1,2,0:0:0:0:
475,212,223431,1,8,0:0:0:0:
225,63,223567,1,2,0:0:0:0:
253,354,223703,6,0,B|336:340|336:340|377:354|377:354|491:339,1,228
332,75,224112,2,0,L|325:168,1,57
317,247,224249,1,2,0:0:0:0:
317,247,224317,1,0,0:0:0:0:
317,247,224386,1,2,0:0:0:0:
493,140,224522,2,0,L|481:0,1,114
278,49,224794,6,0,B|268:99|247:120|247:120|254:159|254:159|208:205|221:291,1,228
316,367,225204,1,0,0:0:0:0:
430,235,225340,2,0,L|289:249,1,114
79,333,225613,1,8,0:0:0:0:
316,367,225749,1,0,0:0:0:0:
234,35,225885,6,0,B|233:109|233:109|214:155|214:155|218:270,1,228
387,361,226294,2,0,P|323:262|334:233,1,114
446,72,226567,2,0,P|436:161|377:224,1,123.5
262,352,226840,6,0,B|136:283|134:395|-7:314,1,247
154,177,227249,1,8,0:0:0:0:
262,352,227385,1,2,0:0:0:0:
316,364,227454,1,0,0:0:0:0:
370,352,227522,1,2,0:0:0:0:
411,315,227590,1,0,0:0:0:0:
431,263,227658,1,2,0:0:0:0:
334,17,227795,2,0,L|338:193,1,123.5
479,363,228067,6,0,L|493:122,1,228
235,47,228477,1,2,0:0:0:0:
242,97,228545,1,0,0:0:0:0:
227,146,228613,1,2,0:0:0:0:
194,185,228681,1,0,0:0:0:0:
147,206,228749,1,2,0:0:0:0:
127,31,228885,2,0,P|204:30|254:66,1,114
419,257,229158,6,0,L|184:276,1,228
34,346,229567,1,2,0:0:0:0:
34,346,229635,1,0,0:0:0:0:
34,346,229703,1,2,0:0:0:0:
134,208,229840,1,2,0:0:0:0:
38,20,229976,2,0,L|49:160,1,114
138,338,230249,6,0,P|209:350|326:227,1,228
241,44,230658,2,0,L|252:185,1,114
400,341,230931,2,0,L|409:227,1,114
419,31,231204,1,0,0:0:0:0:
323,220,231340,6,0,B|238:203|238:203|191:223|191:223|85:202,1,228
0,103,231749,1,2,0:0:0:0:
37,76,231817,1,0,0:0:0:0:
81,64,231885,1,2,0:0:0:0:
126,62,231953,1,0,0:0:0:0:
169,75,232021,1,2,0:0:0:0:
108,319,232158,2,0,L|100:172,1,114
282,19,232431,6,0,L|266:266,1,228
186,368,232840,1,2,0:0:0:0:
186,368,232908,1,0,0:0:0:0:
186,368,232976,1,2,0:0:0:0:
127,169,233113,1,2,0:0:0:0:
385,198,233249,2,0,L|518:215,1,114
392,92,233522,6,0,P|277:118|174:38,1,228
44,248,233931,1,2,0:0:0:0:
44,248,233999,1,0,0:0:0:0:
44,248,234067,2,0,L|54:371,1,114
369,324,234340,1,8,0:0:0:0:
299,15,234476,1,0,0:0:0:0:
37,135,234612,5,2,0:0:0:0:
70,166,234680,1,0,0:0:0:0:
114,177,234749,1,0,0:0:0:0:
158,168,234817,1,0,0:0:0:0:
193,139,234885,1,8,0:0:0:0:
233,118,234953,1,0,0:0:0:0:
278,113,235021,1,0,0:0:0:0:
323,120,235090,1,0,0:0:0:0:
362,143,235158,1,2,0:0:0:0:
390,178,235226,1,0,0:0:0:0:
403,221,235294,1,2,0:0:0:0:
399,266,235363,1,0,0:0:0:0:
378,306,235431,1,8,0:0:0:0:
341,332,235499,1,0,0:0:0:0:
296,339,235567,1,0,0:0:0:0:
251,331,235635,1,0,0:0:0:0:
218,298,235704,6,0,L|195:217,1,57
300,118,235840,2,0,L|294:200,1,57
187,55,235976,1,8,0:0:0:0:
227,33,236045,1,0,0:0:0:0:
271,23,236113,1,0,0:0:0:0:
316,28,236181,1,0,0:0:0:0:
359,41,236249,6,0,L|350:117,1,57
224,216,236386,2,0,L|213:160,1,57
123,21,236522,1,8,0:0:0:0:
122,29,236590,1,0,0:0:0:0:
121,37,236658,1,2,0:0:0:0:
120,45,236726,1,0,0:0:0:0:
118,53,236795,5,4,0:0:0:0:
73,301,236931,2,0,L|131:280,1,52.25
144,172,237067,2,0,L|76:194,1,52.25
70,319,237203,2,0,L|146:297,1,52.25
297,264,237340,6,0,P|315:193|290:128,1,104.5
145,40,237612,2,0,P|197:79|270:67,1,104.5
429,30,237817,1,0,0:0:0:0:
429,30,237885,6,0,P|342:50|319:88,1,104.5
196,300,238158,1,8,0:0:0:0:
106,117,238294,5,2,0:0:0:0:
106,117,238363,1,0,0:0:0:0:
106,117,238431,2,0,L|81:181,1,52.25
196,300,238567,2,0,L|188:231,1,52.25
206,66,238704,5,8,0:0:0:0:
241,27,238772,1,0,0:0:0:0:
290,11,238840,1,2,0:0:0:0:
341,20,238908,1,0,0:0:0:0:
379,54,238976,6,0,P|394:123|328:204,1,156.75
315,208,239249,2,0,P|375:192|463:242,1,123.5
431,210,239454,1,0,0:0:0:0:
431,210,239522,5,2,0:0:0:0:
347,48,239658,1,2,0:0:0:0:
377,277,239794,1,8,0:0:0:0:
468,140,239930,1,2,0:0:0:0:
202,179,240067,6,0,P|270:214|338:194,1,123.5
276,108,240340,1,8,0:0:0:0:
184,288,240476,1,0,0:0:0:0:
184,288,240544,1,0,0:0:0:0:
184,288,240612,6,0,P|200:352|208:368,1,61.75
384,240,240749,2,0,P|384:176|376:144,1,61.75
257,15,240885,1,8,0:0:0:0:
216,216,241021,1,0,0:0:0:0:
408,104,241158,5,0,0:0:0:0:
208,88,241295,2,0,P|183:153|194:183,1,61.75
290,202,241431,2,0,L|279:105,1,61.75
275,2,241567,1,2,0:0:0:0:
232,270,241704,6,0,P|302:288|380:231,1,123.5
211,51,241977,2,0,P|160:128|162:211,1,123.5
114,279,242181,1,0,0:0:0:0:
114,279,242249,2,0,B|118:227|118:227|106:189|106:189|113:97,1,133
331,92,242521,2,0,B|357:142|357:142|356:214,1,114
350,245,242726,1,0,0:0:0:0:
338,288,242794,5,2,0:0:0:0:
109,148,242930,1,2,0:0:0:0:
402,128,243067,1,8,0:0:0:0:
405,184,243135,1,0,0:0:0:0:
408,240,243203,1,2,0:0:0:0:
412,297,243272,1,0,0:0:0:0:
412,353,243340,5,2,0:0:0:0:
489,136,243476,1,0,0:0:0:0:
216,258,243613,1,8,0:0:0:0:
499,328,243749,1,2,0:0:0:0:
499,328,243817,1,0,0:0:0:0:
499,328,243885,5,2,0:0:0:0:
382,51,244022,1,2,0:0:0:0:
286,302,244158,1,8,0:0:0:0:
491,173,244295,1,0,0:0:0:0:
265,42,244431,6,0,P|275:121|228:189,1,114
184,218,244636,1,0,0:0:0:0:
184,218,244704,2,0,L|340:194,1,114
491,173,244976,5,2,0:0:0:0:
483,240,245044,1,0,0:0:0:0:
444,296,245112,1,2,0:0:0:0:
379,318,245181,1,0,0:0:0:0:
310,309,245249,1,8,0:0:0:0:
263,259,245317,1,0,0:0:0:0:
199,234,245385,1,2,0:0:0:0:
131,244,245453,1,0,0:0:0:0:
79,289,245521,6,0,P|138:210|119:113,1,142.5
43,118,245726,1,0,0:0:0:0:
43,118,245794,2,0,P|30:152|30:187,1,71.25
261,178,245931,2,0,P|256:93|245:72,1,71.25
212,13,246067,2,0,B|285:-2|285:-2|357:31,1,142.5
503,182,246340,1,8,0:0:0:0:
394,290,246476,1,2,0:0:0:0:
354,320,246544,1,0,0:0:0:0:
303,316,246613,5,2,0:0:0:0:
311,66,246749,1,0,0:0:0:0:
470,238,246885,2,0,P|474:329|433:382,1,133
407,384,247090,1,0,0:0:0:0:
352,375,247158,5,2,0:0:0:0:
402,119,247295,1,2,0:0:0:0:
299,317,247431,1,8,0:0:0:0:
242,352,247499,1,0,0:0:0:0:
175,356,247567,1,2,0:0:0:0:
112,333,247635,1,0,0:0:0:0:
69,282,247704,6,0,P|58:189|82:133,1,133
229,17,247976,2,0,L|60:41,1,133
155,255,248249,1,2,0:0:0:0:
155,255,248317,1,0,0:0:0:0:
155,255,248385,2,0,P|221:261|247:249,1,66.5
278,155,248521,2,0,L|115:174,1,133
24,336,248794,5,2,0:0:0:0:
248,240,248931,1,2,0:0:0:0:
146,16,249067,1,8,0:0:0:0:
145,170,249204,1,2,0:0:0:0:
365,81,249340,1,2,0:0:0:0:
207,91,249476,1,2,0:0:0:0:
277,276,249613,2,0,L|289:97,1,133
295,9,249818,1,0,0:0:0:0:
295,9,249886,5,12,0:0:0:0:
424,146,250022,1,2,0:0:0:0:
277,276,250158,1,8,0:0:0:0:
207,91,250295,1,2,0:0:0:0:
461,61,250431,5,8,0:0:0:0:
211,196,250567,1,2,0:0:0:0:
295,9,250703,1,8,0:0:0:0:
512,161,250839,1,2,0:0:0:0:
260,341,250976,5,8,0:0:0:0:
376,7,251112,1,2,0:0:0:0:
462,295,251249,1,8,0:0:0:0:
175,161,251385,1,2,0:0:0:0:
200,121,251454,1,0,0:0:0:0:
224,81,251522,5,8,0:0:0:0:
505,192,251658,1,2,0:0:0:0:
201,267,251794,1,8,0:0:0:0:
376,7,251931,1,2,0:0:0:0:
355,346,252067,1,12,0:0:0:0:
157,74,252204,6,0,L|271:86,1,66.5
494,111,252340,1,8,0:0:0:0:
274,355,252476,6,0,L|279:263,1,66.5
290,29,252613,1,8,0:0:0:0:
468,249,252749,6,0,L|376:199,1,66.5
157,74,252886,1,8,0:0:0:0:
411,42,253022,6,0,L|355:99,1,66.5
187,288,253158,1,2,0:0:0:0:
187,288,253226,1,2,0:0:0:0:
187,288,253294,1,2,0:0:0:0:
187,288,253362,1,2,0:0:0:0:
187,288,253430,5,8,0:0:0:0:
128,303,253499,1,2,0:0:0:0:
72,280,253567,1,2,0:0:0:0:
48,225,253635,1,2,0:0:0:0:
61,166,253703,1,8,0:0:0:0:
108,130,253771,1,2,0:0:0:0:
167,132,253840,1,8,0:0:0:0:
217,163,253908,1,2,0:0:0:0:
275,178,253976,2,0,P|347:154|365:133,1,66.5
443,31,254112,2,0,L|446:110,1,66.5
458,316,254249,6,0,B|426:343|426:343|360:313|268:345,1,190
186,353,254658,1,2,0:0:0:0:
185,329,254726,1,0,0:0:0:0:
190,306,254794,1,2,0:0:0:0:
201,285,254862,1,0,0:0:0:0:
217,267,254930,1,2,0:0:0:0:
90,334,255067,2,0,P|39:329|-3:289,1,95
73,250,255272,1,0,0:0:0:0:
73,250,255340,6,0,L|84:136,1,95
214,80,255613,1,8,0:0:0:0:
303,112,255749,1,2,0:0:0:0:
291,132,255817,1,0,0:0:0:0:
276,150,255885,1,2,0:0:0:0:
256,164,255953,1,0,0:0:0:0:
234,172,256021,1,2,0:0:0:0:
287,15,256158,2,0,P|340:21|381:53,1,95
214,80,256430,6,0,L|84:67,1,95
234,172,256703,1,8,0:0:0:0:
257,174,256771,1,0,0:0:0:0:
281,176,256839,1,2,0:0:0:0:
304,178,256907,1,0,0:0:0:0:
328,181,256975,1,2,0:0:0:0:
352,183,257044,1,0,0:0:0:0:
375,185,257113,2,0,L|430:191,1,47.5
470,277,257249,2,0,L|415:283,1,47.5
327,287,257386,1,0,0:0:0:0:
322,286,257454,1,0,0:0:0:0:
317,284,257522,5,2,0:0:0:0:
412,96,257658,2,0,L|339:82,1,47.5
224,59,257795,1,8,0:0:0:0:
236,157,257931,1,0,0:0:0:0:
237,162,257999,1,0,0:0:0:0:
239,167,258067,1,2,0:0:0:0:
38,96,258204,2,0,L|107:83,1,47.5
224,59,258340,1,8,0:0:0:0:
224,264,258476,1,2,0:0:0:0:
423,321,258613,6,0,B|431:255|431:255|414:198|414:198|425:130,1,190
335,265,259021,2,0,L|278:263,1,47.5
328,172,259158,2,0,L|271:170,1,47.5
321,79,259294,1,2,0:0:0:0:
200,224,259431,2,0,L|105:222,1,95
2,100,259703,6,0,L|96:98,1,95
234,96,259976,1,8,0:0:0:0:
105,222,260113,2,0,P|81:226|57:224,1,47.5
96,98,260249,2,0,P|120:94|143:95,1,47.5
200,224,260385,1,2,0:0:0:0:
328,75,260522,2,0,P|388:65|447:84,1,95
301,164,260795,5,2,0:0:0:0:
234,96,260931,1,0,0:0:0:0:
193,318,261068,1,8,0:0:0:0:
282,286,261204,1,2,0:0:0:0:
304,281,261272,1,0,0:0:0:0:
328,278,261340,1,2,0:0:0:0:
352,278,261408,1,0,0:0:0:0:
375,282,261476,1,2,0:0:0:0:
207,223,261612,2,0,P|198:170|213:120,1,95
210,126,261817,1,0,0:0:0:0:
212,122,261885,5,2,0:0:0:0:
282,286,262021,1,2,0:0:0:0:
107,189,262158,1,8,0:0:0:0:
62,272,262294,1,2,0:0:0:0:
60,276,262362,1,0,0:0:0:0:
58,280,262431,2,0,L|38:332,1,47.5
174,315,262567,2,0,L|157:271,1,47.5
224,203,262703,2,0,L|241:158,1,47.5
174,89,262840,2,0,L|156:44,1,47.5
322,107,262976,6,0,B|363:109|396:124|396:124|430:111|487:108,1,152
337,201,263658,2,0,P|296:195|261:203,1,76
302,298,264067,5,2,0:0:0:0:
298,91,264339,1,8,0:0:0:0:
302,298,264749,1,2,0:0:0:0:
298,91,264885,1,8,0:0:0:0:
215,234,265158,6,0,L|214:159,1,76
125,123,265431,2,0,L|129:274,1,152
207,330,265840,1,2,0:0:0:0:
398,325,265976,2,0,B|439:316|439:316|467:269|432:203,1,152
192,344,266386,5,2,0:0:0:0:
383,339,266522,2,0,B|425:334|425:334|457:290|429:221,1,152
177,358,266931,5,2,0:0:0:0:
368,353,267067,1,8,0:0:0:0:
269,200,267203,1,2,0:0:0:0:
177,358,267340,5,2,0:0:0:0:
135,61,267612,1,8,0:0:0:0:
135,61,268022,5,2,0:0:0:0:
413,95,268158,1,8,0:0:0:0:
110,276,268431,5,2,0:0:0:0:
413,95,268704,1,8,0:0:0:0:
413,95,269113,5,2,0:0:0:0:
135,61,269249,1,8,0:0:0:0:
57,193,269522,5,2,0:0:0:0:
57,193,269590,1,0,0:0:0:0:
57,193,269658,1,2,0:0:0:0:
57,193,269726,1,0,0:0:0:0:
57,193,269794,5,8,0:0:0:0:
68,199,269862,1,0,0:0:0:0:
80,205,269930,1,0,0:0:0:0:
92,210,269998,1,0,0:0:0:0:
105,213,270066,1,2,0:0:0:0:
118,215,270135,1,0,0:0:0:0:
132,216,270203,2,0,P|164:216|186:209,1,38
309,170,270340,5,8,0:0:0:0:
313,195,270408,1,0,0:0:0:0:
314,220,270476,1,0,0:0:0:0:
313,245,270544,1,0,0:0:0:0:
310,270,270612,1,2,0:0:0:0:
305,295,270681,1,0,0:0:0:0:
297,319,270749,2,0,P|290:344|279:363,1,38
114,354,270885,5,8,0:0:0:0:
89,338,270953,1,0,0:0:0:0:
76,311,271021,1,0,0:0:0:0:
80,281,271089,1,0,0:0:0:0:
98,258,271158,6,0,L|171:272,1,38
190,70,271295,2,0,L|227:62,1,38
305,295,271431,6,0,L|378:309,1,38
383,33,271567,2,0,L|420:25,1,38
512,336,271704,5,4,0:0:0:0:
