osu file format v14

[General]
AudioFilename: audio.mp3
AudioLeadIn: 0
PreviewTime: 297085
Countdown: 1
SampleSet: Normal
StackLeniency: 0.7
Mode: 1
LetterboxInBreaks: 0
WidescreenStoryboard: 0

[Editor]
Bookmarks: 933,40991,91708,158513,264170
DistanceSpacing: 1.1
BeatDivisor: 4
GridSize: 32
TimelineZoom: 2.5

[Metadata]
Title:2199's Beatmaps Compilation 2016
TitleUnicode:2199's Beatmaps Compilation 2016
Artist:Various Artists
ArtistUnicode:Various Artists
Creator:gaston_2199
Version:Marathon
Source:
Tags:Xi 六十年目の神速裁判 ~ Rapidity is a justice Rokujuu Nenme no Shinsoku Saiban ~ Rapidity is a justice 東方Project Touhou AQUAELIE Shikieiki Yamaxanadu ZUN U2 和楽器バンド Wagakki Band 天樂 Tengaku Hanatan Instruments Japanese vocaloid Yuuyu Project DIVA Vocalo Zanmai Cover ZUN COOL&CREATE U.N. Owen Was Her? 東方Project Flandre Scarlet remix full version Avenged Sevenfold Trashed and Scattered Heavy Metal Hard Rock A7X City of Evil Muzzy Endgame drum and bass dnb neurofunk Monstercat 016 - expedition electronic
BeatmapID:1942271
BeatmapSetID:930003

[Difficulty]
HPDrainRate:6
CircleSize:2
OverallDifficulty:6
ApproachRate:10
SliderMultiplier:1.4
SliderTickRate:1

[Events]
//Background and Video events
0,0,"BG.png",0,0
//Break Periods
2,34056,40541
2,82570,88858
2,149508,156709
2,251865,260978
//Storyboard Layer 0 (Background)
//Storyboard Layer 1 (Fail)
//Storyboard Layer 2 (Pass)
//Storyboard Layer 3 (Foreground)
//Storyboard Sound Samples

[TimingPoints]
933,307.692307692308,4,1,0,100,1,0
933,-90.9090909090909,4,2,0,80,0,0
4086,-90.9090909090909,4,1,0,80,0,0
14471,-86.9565217391304,4,1,0,90,0,1
18163,-90.9090909090909,4,1,0,90,0,1
24317,-90.9090909090909,4,1,0,90,0,0
40991,258.620689655172,4,1,0,70,1,0
40991,-100,4,1,0,80,0,0
45128,-100,4,1,0,100,0,1
57542,-100,4,1,0,80,0,0
61680,-95.2380952380952,4,1,0,80,0,0
62197,-90.9090909090909,4,1,0,80,0,0
62715,-86.9565217391304,4,1,0,80,0,0
63232,-83.3333333333333,4,1,0,80,0,0
63620,-80,4,1,0,80,0,0
65301,-111.111111111111,4,1,0,80,0,0
65818,-100,4,1,0,80,0,0
89308,300,4,1,0,80,1,0
120508,-100,4,1,0,80,0,1
130108,-100,4,1,0,80,0,0
131308,-90.9090909090909,4,1,0,80,0,0
132508,-100,4,1,0,80,0,0
133708,-90.9090909090909,4,1,0,80,0,0
134908,-100,4,1,0,80,0,0
136108,-90.9090909090909,4,1,0,80,0,0
137308,-100,4,1,0,80,0,0
138508,-90.9090909090909,4,1,0,80,0,0
139708,-100,4,1,0,80,0,0
140908,-90.9090909090909,4,1,0,80,0,0
142108,-100,4,1,0,80,0,0
143308,-90.9090909090909,4,1,0,80,0,0
144508,-100,4,1,0,80,0,0
145708,-90.9090909090909,4,1,0,80,0,0
146908,-100,4,1,0,80,0,0
148108,-90.9090909090909,4,1,0,80,0,0
149308,-100,4,1,0,80,0,0
157159,342.857142857143,4,1,0,80,1,0
157159,-95.2380952380952,4,1,0,80,0,0
158513,342.075256556442,4,1,0,80,1,0
158513,-100,4,1,0,80,0,0
168689,-99.009900990099,4,1,0,80,0,0
168775,-98.0392156862745,4,1,0,80,0,0
168860,-97.0873786407767,4,1,0,80,0,0
168946,-96.1538461538461,4,1,0,80,0,0
169117,-94.3396226415094,4,1,0,80,0,0
169288,-92.5925925925926,4,1,0,80,0,0
169459,-90.9090909090909,4,1,0,90,0,1
180447,342.075256556442,4,1,0,90,1,0
180447,-90.9090909090909,4,1,0,90,0,1
190880,-94.3396226415094,4,1,0,80,0,1
191051,-96.1538461538461,4,1,0,80,0,1
191222,-98.0392156862745,4,1,0,80,0,1
191379,342.857142857143,4,1,0,80,1,0
191379,-100,4,1,0,60,0,0
196864,342.465753424658,4,1,0,60,1,0
196864,-90.9090909090909,4,1,0,90,0,1
200802,-90.9090909090909,4,1,0,90,0,0
201316,-90.9090909090909,4,1,0,90,0,1
206281,-90.9090909090909,4,1,0,80,0,0
207822,-95.2380952380952,4,1,0,80,0,0
240694,342.857142857143,4,1,0,80,1,0
240694,-95.2380952380952,4,1,0,80,0,0
261428,342.857142857143,4,1,0,100,1,0
261428,-100,4,1,0,80,0,0
264170,-133.333333333333,4,1,0,80,0,0
286113,-133.333333333333,4,1,0,80,0,0
288855,-125,4,1,0,80,0,0
291598,-117.647058823529,4,1,0,80,0,0
292970,-111.111111111111,4,1,0,80,0,0
294341,-100,4,1,0,80,0,0
297084,-100,4,1,0,100,0,1
338398,-97.0873786407767,4,1,0,100,0,1
338569,-91.743119266055,4,1,0,100,0,1
338741,-89.2857142857143,4,1,0,100,0,1
338912,-86.9565217391304,4,1,0,100,0,1
339084,-84.7457627118644,4,1,0,100,0,1
339255,-81.9672131147541,4,1,0,100,0,1
339427,-80,4,1,0,100,0,1
339598,-78.125,4,1,0,100,0,1
340970,-66.6666666666667,4,1,0,100,0,1
341313,-66.6666666666667,4,1,0,100,0,0

[HitObjects]
256,192,933,5,0,0:0:0:0:
256,192,1240,5,8,0:0:0:0:
256,192,1394,1,8,0:0:0:0:
256,192,1548,1,0,0:0:0:0:
256,192,1702,1,0,0:0:0:0:
256,192,1856,1,8,0:0:0:0:
256,192,2009,1,0,0:0:0:0:
256,192,2163,1,8,0:0:0:0:
256,192,2317,1,8,0:0:0:0:
256,192,2471,1,0,0:0:0:0:
256,192,2625,1,0,0:0:0:0:
256,192,2779,1,8,0:0:0:0:
256,192,2933,1,0,0:0:0:0:
256,192,3086,1,8,0:0:0:0:
256,192,3240,1,0,0:0:0:0:
256,192,3394,1,8,0:0:0:0:
256,192,3548,1,0,0:0:0:0:
256,192,3702,1,8,0:0:0:0:
256,192,3856,1,0,0:0:0:0:
256,192,4009,1,0,0:0:0:0:
256,192,4163,1,8,0:0:0:0:
256,192,4317,1,8,0:0:0:0:
256,192,4471,1,0,0:0:0:0:
256,192,4625,1,0,0:0:0:0:
256,192,4702,1,0,0:0:0:0:
256,192,4779,1,8,0:0:0:0:
256,192,4933,1,0,0:0:0:0:
256,192,5086,1,8,0:0:0:0:
256,192,5240,1,0,0:0:0:0:
256,192,5394,1,8,0:0:0:0:
256,192,5548,1,8,0:0:0:0:
256,192,5625,1,0,0:0:0:0:
256,192,5702,1,8,0:0:0:0:
256,192,5856,1,8,0:0:0:0:
256,192,5933,1,0,0:0:0:0:
256,192,6009,1,0,0:0:0:0:
256,192,6163,1,0,0:0:0:0:
256,192,6317,1,8,0:0:0:0:
256,192,6471,1,0,0:0:0:0:
256,192,6625,1,8,0:0:0:0:
256,192,6779,1,8,0:0:0:0:
256,192,6856,1,0,0:0:0:0:
256,192,6933,1,8,0:0:0:0:
256,192,7086,1,8,0:0:0:0:
256,192,7163,1,0,0:0:0:0:
256,192,7240,1,0,0:0:0:0:
256,192,7394,1,0,0:0:0:0:
256,192,7548,1,8,0:0:0:0:
256,192,7702,1,0,0:0:0:0:
256,192,7779,1,0,0:0:0:0:
256,192,7856,1,0,0:0:0:0:
256,192,8009,1,0,0:0:0:0:
256,192,8163,1,8,0:0:0:0:
256,192,8317,1,0,0:0:0:0:
256,192,8394,1,0,0:0:0:0:
256,192,8471,1,0,0:0:0:0:
256,192,8625,1,0,0:0:0:0:
256,192,8779,1,8,0:0:0:0:
256,192,8933,1,8,0:0:0:0:
256,192,9009,1,8,0:0:0:0:
256,192,9086,1,8,0:0:0:0:
256,192,9240,1,0,0:0:0:0:
256,192,9394,1,0,0:0:0:0:
256,192,9548,1,8,0:0:0:0:
256,192,9702,1,0,0:0:0:0:
256,192,9779,1,0,0:0:0:0:
256,192,9856,1,0,0:0:0:0:
256,192,10009,1,8,0:0:0:0:
256,192,10163,1,0,0:0:0:0:
256,192,10317,1,0,0:0:0:0:
256,192,10471,1,8,0:0:0:0:
256,192,10548,1,0,0:0:0:0:
256,192,10625,1,0,0:0:0:0:
256,192,10779,1,8,0:0:0:0:
256,192,10933,1,0,0:0:0:0:
256,192,11086,1,8,0:0:0:0:
256,192,11163,1,0,0:0:0:0:
256,192,11240,1,8,0:0:0:0:
256,192,11394,1,0,0:0:0:0:
256,192,11548,1,0,0:0:0:0:
256,192,11702,1,8,0:0:0:0:
256,192,11779,1,0,0:0:0:0:
256,192,11856,1,0,0:0:0:0:
256,192,12009,1,8,0:0:0:0:
256,192,12086,1,0,0:0:0:0:
256,192,12163,1,0,0:0:0:0:
256,192,12317,1,0,0:0:0:0:
256,192,12471,1,0,0:0:0:0:
256,192,12625,1,0,0:0:0:0:
256,192,12702,1,0,0:0:0:0:
256,192,12779,1,0,0:0:0:0:
256,192,12933,1,0,0:0:0:0:
256,192,13086,1,0,0:0:0:0:
256,192,13240,1,8,0:0:0:0:
256,192,13317,1,0,0:0:0:0:
256,192,13394,1,0,0:0:0:0:
256,192,13548,1,0,0:0:0:0:
256,192,13702,1,0,0:0:0:0:
256,192,13856,1,8,0:0:0:0:
256,192,13933,1,0,0:0:0:0:
256,192,14009,1,0,0:0:0:0:
256,192,14163,1,8,0:0:0:0:
256,192,14240,1,8,0:0:0:0:
256,192,14317,1,8,0:0:0:0:
256,192,14471,1,12,0:0:0:0:
256,192,14779,1,12,0:0:0:0:
256,192,15086,1,12,0:0:0:0:
256,192,15317,1,12,0:0:0:0:
256,192,15548,1,12,0:0:0:0:
256,192,15702,1,4,0:0:0:0:
256,192,15856,1,12,0:0:0:0:
256,192,16009,1,12,0:0:0:0:
256,192,16317,1,4,0:0:0:0:
256,192,16548,1,12,0:0:0:0:
256,192,16779,1,12,0:0:0:0:
256,192,16933,1,4,0:0:0:0:
256,192,17240,1,4,0:0:0:0:
256,192,17548,1,12,0:0:0:0:
256,192,17779,1,4,0:0:0:0:
256,192,18009,1,12,0:0:0:0:
256,192,18163,1,0,0:0:0:0:
256,192,18240,1,0,0:0:0:0:
256,192,18317,1,8,0:0:0:0:
256,192,18471,1,0,0:0:0:0:
256,192,18625,1,8,0:0:0:0:
256,192,18779,1,0,0:0:0:0:
256,192,18856,1,0,0:0:0:0:
256,192,18933,1,8,0:0:0:0:
256,192,19086,1,0,0:0:0:0:
256,192,19240,1,8,0:0:0:0:
256,192,19394,1,8,0:0:0:0:
256,192,19471,1,0,0:0:0:0:
256,192,19548,1,0,0:0:0:0:
256,192,19702,1,8,0:0:0:0:
256,192,19856,1,8,0:0:0:0:
256,192,20009,1,0,0:0:0:0:
256,192,20086,1,0,0:0:0:0:
256,192,20163,1,8,0:0:0:0:
256,192,20317,1,8,0:0:0:0:
256,192,20471,1,0,0:0:0:0:
256,192,20548,1,0,0:0:0:0:
256,192,20625,1,8,0:0:0:0:
256,192,20702,1,8,0:0:0:0:
256,192,20779,1,0,0:0:0:0:
256,192,20856,1,0,0:0:0:0:
256,192,20933,1,8,0:0:0:0:
256,192,21086,1,8,0:0:0:0:
256,192,21240,1,0,0:0:0:0:
256,192,21317,1,0,0:0:0:0:
256,192,21394,1,8,0:0:0:0:
256,192,21548,1,8,0:0:0:0:
256,192,21702,1,0,0:0:0:0:
256,192,21779,1,0,0:0:0:0:
256,192,21856,1,8,0:0:0:0:
256,192,22163,1,8,0:0:0:0:
256,192,22240,1,8,0:0:0:0:
256,192,22317,1,0,0:0:0:0:
256,192,22394,1,0,0:0:0:0:
256,192,22471,1,8,0:0:0:0:
256,192,22548,1,8,0:0:0:0:
256,192,22625,1,0,0:0:0:0:
256,192,22702,1,0,0:0:0:0:
256,192,22779,1,8,0:0:0:0:
256,192,22856,1,0,0:0:0:0:
256,192,22933,1,0,0:0:0:0:
256,192,23009,1,0,0:0:0:0:
256,192,23086,1,8,0:0:0:0:
256,192,23240,1,0,0:0:0:0:
256,192,23317,1,8,0:0:0:0:
256,192,23394,1,0,0:0:0:0:
256,192,23471,1,0,0:0:0:0:
256,192,23548,1,8,0:0:0:0:
256,192,23702,1,8,0:0:0:0:
256,192,23779,1,8,0:0:0:0:
256,192,23856,1,0,0:0:0:0:
256,192,23933,1,0,0:0:0:0:
256,192,24009,1,8,0:0:0:0:
256,192,24317,1,12,0:0:0:0:
256,192,24625,1,0,0:0:0:0:
256,192,24779,1,8,0:0:0:0:
256,192,24933,1,8,0:0:0:0:
256,192,25009,1,8,0:0:0:0:
256,192,25086,1,0,0:0:0:0:
256,192,25240,1,0,0:0:0:0:
256,192,25394,1,8,0:0:0:0:
256,192,25548,1,8,0:0:0:0:
256,192,25625,1,0,0:0:0:0:
256,192,25702,1,8,0:0:0:0:
256,192,25779,1,0,0:0:0:0:
256,192,25856,1,8,0:0:0:0:
256,192,26009,1,0,0:0:0:0:
256,192,26163,1,8,0:0:0:0:
256,192,26240,1,8,0:0:0:0:
256,192,26317,1,0,0:0:0:0:
256,192,26394,1,0,0:0:0:0:
256,192,26471,1,8,0:0:0:0:
256,192,26548,1,0,0:0:0:0:
256,192,26625,1,0,0:0:0:0:
256,192,26702,1,0,0:0:0:0:
256,192,26779,1,8,0:0:0:0:
256,192,27086,1,0,0:0:0:0:
256,192,27240,1,8,0:0:0:0:
256,192,27394,1,8,0:0:0:0:
256,192,27471,1,8,0:0:0:0:
256,192,27548,1,0,0:0:0:0:
256,192,27625,1,0,0:0:0:0:
256,192,27702,1,8,0:0:0:0:
256,192,27856,1,0,0:0:0:0:
256,192,28009,1,0,0:0:0:0:
256,192,28086,1,8,0:0:0:0:
256,192,28163,1,8,0:0:0:0:
256,192,28240,1,8,0:0:0:0:
256,192,28317,1,0,0:0:0:0:
256,192,28471,1,0,0:0:0:0:
256,192,28625,1,8,0:0:0:0:
256,192,28702,1,0,0:0:0:0:
256,192,28779,1,0,0:0:0:0:
256,192,28856,1,0,0:0:0:0:
256,192,28933,1,8,0:0:0:0:
256,192,29086,1,0,0:0:0:0:
256,192,29240,1,8,0:0:0:0:
256,192,29548,1,0,0:0:0:0:
256,192,29702,1,0,0:0:0:0:
256,192,29856,1,8,0:0:0:0:
256,192,29933,1,8,0:0:0:0:
256,192,30009,1,0,0:0:0:0:
256,192,30163,1,0,0:0:0:0:
256,192,30317,1,8,0:0:0:0:
256,192,30471,1,8,0:0:0:0:
256,192,30548,1,0,0:0:0:0:
256,192,30625,1,8,0:0:0:0:
256,192,30779,1,8,0:0:0:0:
256,192,30933,1,0,0:0:0:0:
256,192,31086,1,8,0:0:0:0:
256,192,31163,1,8,0:0:0:0:
256,192,31240,1,0,0:0:0:0:
256,192,31317,1,0,0:0:0:0:
256,192,31394,1,8,0:0:0:0:
256,192,31471,1,8,0:0:0:0:
256,192,31548,1,0,0:0:0:0:
256,192,31702,1,8,0:0:0:0:
256,192,32009,1,8,0:0:0:0:
256,192,32163,1,0,0:0:0:0:
256,192,32317,1,8,0:0:0:0:
256,192,32394,1,0,0:0:0:0:
256,192,32471,1,8,0:0:0:0:
256,192,32548,1,0,0:0:0:0:
256,192,32625,1,0,0:0:0:0:
256,192,32779,1,0,0:0:0:0:
256,192,32933,1,8,0:0:0:0:
256,192,33009,1,8,0:0:0:0:
256,192,33086,1,8,0:0:0:0:
256,192,33163,1,0,0:0:0:0:
256,192,33240,1,0,0:0:0:0:
256,192,33394,1,0,0:0:0:0:
256,192,33471,1,8,0:0:0:0:
256,192,33548,1,0,0:0:0:0:
256,192,33625,1,0,0:0:0:0:
256,192,33702,1,8,0:0:0:0:
256,192,33856,1,4,0:0:0:0:
256,192,40991,5,0,0:0:0:0:
256,192,41249,1,8,0:0:0:0:
256,192,41508,1,0,0:0:0:0:
256,192,41766,1,8,0:0:0:0:
256,192,41896,1,0,0:0:0:0:
256,192,42284,1,8,0:0:0:0:
256,192,42542,1,0,0:0:0:0:
256,192,42801,1,8,0:0:0:0:
256,192,43059,1,4,0:0:0:0:
256,192,43189,1,4,0:0:0:0:
256,192,43318,1,4,0:0:0:0:
256,192,43447,1,4,0:0:0:0:
256,192,43577,1,12,0:0:0:0:
256,192,43706,1,12,0:0:0:0:
256,192,43835,1,4,0:0:0:0:
256,192,43965,1,4,0:0:0:0:
256,192,44611,1,0,0:0:0:0:
256,192,45128,1,12,0:0:0:0:
256,192,45387,1,0,0:0:0:0:
256,192,45452,1,0,0:0:0:0:
256,192,45516,1,0,0:0:0:0:
256,192,45646,1,8,0:0:0:0:
256,192,45775,1,0,0:0:0:0:
256,192,45904,1,8,0:0:0:0:
256,192,45969,1,8,0:0:0:0:
256,192,46034,1,0,0:0:0:0:
256,192,46098,1,0,0:0:0:0:
256,192,46163,1,8,0:0:0:0:
256,192,46228,1,8,0:0:0:0:
256,192,46292,1,0,0:0:0:0:
256,192,46357,1,0,0:0:0:0:
256,192,46422,1,0,0:0:0:0:
256,192,46551,1,8,0:0:0:0:
256,192,46615,1,8,0:0:0:0:
256,192,46680,1,8,0:0:0:0:
256,192,46809,1,0,0:0:0:0:
256,192,46939,1,8,0:0:0:0:
256,192,47068,1,0,0:0:0:0:
256,192,47133,1,0,0:0:0:0:
256,192,47197,1,8,0:0:0:0:
256,192,47262,1,8,0:0:0:0:
256,192,47327,1,0,0:0:0:0:
256,192,47456,1,0,0:0:0:0:
256,192,47521,1,0,0:0:0:0:
256,192,47585,1,8,0:0:0:0:
256,192,47650,1,8,0:0:0:0:
256,192,47715,1,8,0:0:0:0:
256,192,47844,1,0,0:0:0:0:
256,192,47973,1,8,0:0:0:0:
256,192,48103,1,0,0:0:0:0:
256,192,48167,1,0,0:0:0:0:
256,192,48232,1,8,0:0:0:0:
256,192,48297,1,0,0:0:0:0:
256,192,48361,1,0,0:0:0:0:
256,192,48426,1,0,0:0:0:0:
256,192,48490,1,0,0:0:0:0:
256,192,48620,1,8,0:0:0:0:
256,192,48684,1,0,0:0:0:0:
256,192,48749,1,0,0:0:0:0:
256,192,48814,1,0,0:0:0:0:
256,192,48878,1,0,0:0:0:0:
256,192,49008,1,0,0:0:0:0:
256,192,49137,1,0,0:0:0:0:
256,192,49202,1,0,0:0:0:0:
256,192,49266,1,8,0:0:0:0:
256,192,49525,1,0,0:0:0:0:
256,192,49590,1,0,0:0:0:0:
256,192,49654,1,0,0:0:0:0:
256,192,49719,1,0,0:0:0:0:
256,192,49784,1,8,0:0:0:0:
256,192,49913,1,0,0:0:0:0:
256,192,50042,1,8,0:0:0:0:
256,192,50107,1,0,0:0:0:0:
256,192,50172,1,0,0:0:0:0:
256,192,50301,1,8,0:0:0:0:
256,192,50365,1,8,0:0:0:0:
256,192,50430,1,0,0:0:0:0:
256,192,50689,1,0,0:0:0:0:
256,192,50818,1,8,0:0:0:0:
256,192,50883,1,8,0:0:0:0:
256,192,50947,1,0,0:0:0:0:
256,192,51077,1,8,0:0:0:0:
256,192,51206,1,0,0:0:0:0:
256,192,51335,1,12,0:0:0:0:
256,192,51465,1,12,0:0:0:0:
256,192,51594,1,4,0:0:0:0:
256,192,51723,1,4,0:0:0:0:
256,192,51853,1,12,0:0:0:0:
256,192,51982,1,12,0:0:0:0:
256,192,52111,1,4,0:0:0:0:
256,192,52240,1,4,0:0:0:0:
256,192,52370,1,12,0:0:0:0:
256,192,52499,1,12,0:0:0:0:
256,192,52628,1,4,0:0:0:0:
256,192,52758,1,4,0:0:0:0:
256,192,52887,1,8,0:0:0:0:
256,192,52952,1,0,0:0:0:0:
256,192,53016,1,0,0:0:0:0:
256,192,53081,1,0,0:0:0:0:
256,192,53146,1,8,0:0:0:0:
256,192,53210,1,0,0:0:0:0:
256,192,53275,1,0,0:0:0:0:
256,192,53340,1,0,0:0:0:0:
256,192,53404,1,8,0:0:0:0:
256,192,53663,1,0,0:0:0:0:
256,192,53792,1,0,0:0:0:0:
256,192,53857,1,0,0:0:0:0:
256,192,53922,1,8,0:0:0:0:
256,192,54051,1,0,0:0:0:0:
256,192,54180,1,8,0:0:0:0:
256,192,54245,1,8,0:0:0:0:
256,192,54309,1,0,0:0:0:0:
256,192,54374,1,0,0:0:0:0:
256,192,54439,1,8,0:0:0:0:
256,192,54503,1,8,0:0:0:0:
256,192,54568,1,0,0:0:0:0:
256,192,54697,1,0,0:0:0:0:
256,192,54827,1,8,0:0:0:0:
256,192,54891,1,8,0:0:0:0:
256,192,54956,1,8,0:0:0:0:
256,192,55085,1,0,0:0:0:0:
256,192,55150,1,0,0:0:0:0:
256,192,55215,1,0,0:0:0:0:
256,192,55344,1,0,0:0:0:0:
256,192,55473,1,8,0:0:0:0:
256,192,55538,1,8,0:0:0:0:
256,192,55603,1,8,0:0:0:0:
256,192,55667,1,0,0:0:0:0:
256,192,55732,1,0,0:0:0:0:
256,192,55861,1,8,0:0:0:0:
256,192,55926,1,8,0:0:0:0:
256,192,55990,1,0,0:0:0:0:
256,192,56120,1,0,0:0:0:0:
256,192,56249,1,0,0:0:0:0:
256,192,56314,1,0,0:0:0:0:
256,192,56378,1,0,0:0:0:0:
256,192,56508,1,8,0:0:0:0:
256,192,56572,1,0,0:0:0:0:
256,192,56637,1,0,0:0:0:0:
256,192,56702,1,0,0:0:0:0:
256,192,56766,1,0,0:0:0:0:
256,192,56896,1,0,0:0:0:0:
256,192,56960,1,0,0:0:0:0:
256,192,57025,1,0,0:0:0:0:
256,192,57090,1,0,0:0:0:0:
256,192,57154,1,0,0:0:0:0:
256,192,57284,1,8,0:0:0:0:
256,192,57348,1,0,0:0:0:0:
256,192,57413,1,0,0:0:0:0:
256,192,57542,1,8,0:0:0:0:
256,192,57607,1,8,0:0:0:0:
256,192,57672,1,0,0:0:0:0:
256,192,57736,1,8,0:0:0:0:
256,192,57801,1,8,0:0:0:0:
256,192,57865,1,0,0:0:0:0:
256,192,57930,1,8,0:0:0:0:
256,192,58059,1,4,0:0:0:0:
256,192,58297,1,4,0:0:0:0:
256,192,58577,1,8,0:0:0:0:
256,192,58641,1,8,0:0:0:0:
256,192,58706,1,0,0:0:0:0:
256,192,58771,1,0,0:0:0:0:
256,192,58835,1,8,0:0:0:0:
256,192,58900,1,0,0:0:0:0:
256,192,58965,1,8,0:0:0:0:
256,192,59094,1,4,0:0:0:0:
256,192,59353,1,4,0:0:0:0:
256,192,59611,1,8,0:0:0:0:
256,192,59676,1,8,0:0:0:0:
256,192,59740,1,0,0:0:0:0:
256,192,59805,1,8,0:0:0:0:
256,192,59870,1,0,0:0:0:0:
256,192,59934,1,0,0:0:0:0:
256,192,59999,1,8,0:0:0:0:
256,192,60128,1,4,0:0:0:0:
256,192,60387,1,4,0:0:0:0:
256,192,60646,1,8,0:0:0:0:
256,192,60710,1,8,0:0:0:0:
256,192,60775,1,0,0:0:0:0:
256,192,60840,1,8,0:0:0:0:
256,192,60904,1,8,0:0:0:0:
256,192,60969,1,0,0:0:0:0:
256,192,61034,1,0,0:0:0:0:
256,192,61163,1,4,0:0:0:0:
256,192,61422,1,4,0:0:0:0:
256,192,61680,1,8,0:0:0:0:
256,192,61745,1,0,0:0:0:0:
256,192,61809,1,0,0:0:0:0:
256,192,61874,1,0,0:0:0:0:
256,192,61939,1,8,0:0:0:0:
256,192,62003,1,0,0:0:0:0:
256,192,62068,1,8,0:0:0:0:
256,192,62197,1,8,0:0:0:0:
256,192,62262,1,0,0:0:0:0:
256,192,62327,1,0,0:0:0:0:
256,192,62456,1,8,0:0:0:0:
256,192,62521,1,0,0:0:0:0:
256,192,62585,1,8,0:0:0:0:
256,192,62715,1,8,0:0:0:0:
256,192,62779,1,8,0:0:0:0:
256,192,62844,1,0,0:0:0:0:
256,192,62909,1,0,0:0:0:0:
256,192,62973,1,8,0:0:0:0:
256,192,63103,1,0,0:0:0:0:
256,192,63232,1,8,0:0:0:0:
256,192,63297,1,0,0:0:0:0:
256,192,63361,1,8,0:0:0:0:
256,192,63426,1,0,0:0:0:0:
256,192,63490,1,0,0:0:0:0:
256,192,63620,1,12,0:0:0:0:
256,192,65301,1,8,0:0:0:0:
256,192,65559,1,0,0:0:0:0:
256,192,65624,1,0,0:0:0:0:
256,192,65689,1,0,0:0:0:0:
256,192,65818,1,12,0:0:0:0:
256,192,66077,1,8,0:0:0:0:
256,192,66141,1,0,0:0:0:0:
256,192,66206,1,0,0:0:0:0:
256,192,66335,1,8,0:0:0:0:
256,192,66465,1,0,0:0:0:0:
256,192,66594,1,8,0:0:0:0:
256,192,66723,1,8,0:0:0:0:
256,192,66788,1,8,0:0:0:0:
256,192,66853,1,8,0:0:0:0:
256,192,66982,1,0,0:0:0:0:
256,192,67111,1,8,0:0:0:0:
256,192,67240,1,0,0:0:0:0:
256,192,67305,1,0,0:0:0:0:
256,192,67370,1,8,0:0:0:0:
256,192,67499,1,0,0:0:0:0:
256,192,67628,1,8,0:0:0:0:
256,192,67758,1,8,0:0:0:0:
256,192,67822,1,8,0:0:0:0:
256,192,67887,1,0,0:0:0:0:
256,192,68016,1,0,0:0:0:0:
256,192,68146,1,8,0:0:0:0:
256,192,68210,1,0,0:0:0:0:
256,192,68275,1,0,0:0:0:0:
256,192,68404,1,8,0:0:0:0:
256,192,68469,1,0,0:0:0:0:
256,192,68534,1,0,0:0:0:0:
256,192,68663,1,8,0:0:0:0:
256,192,68792,1,8,0:0:0:0:
256,192,68857,1,8,0:0:0:0:
256,192,68922,1,0,0:0:0:0:
256,192,69051,1,0,0:0:0:0:
256,192,69180,1,8,0:0:0:0:
256,192,69309,1,0,0:0:0:0:
256,192,69439,1,8,0:0:0:0:
256,192,69503,1,0,0:0:0:0:
256,192,69568,1,0,0:0:0:0:
256,192,69697,1,8,0:0:0:0:
256,192,69827,1,8,0:0:0:0:
256,192,69956,1,4,0:0:0:0:
256,192,70215,1,8,0:0:0:0:
256,192,70473,1,0,0:0:0:0:
256,192,70603,1,0,0:0:0:0:
256,192,70732,1,8,0:0:0:0:
256,192,70861,1,8,0:0:0:0:
256,192,70926,1,8,0:0:0:0:
256,192,70990,1,8,0:0:0:0:
256,192,71120,1,0,0:0:0:0:
256,192,71249,1,8,0:0:0:0:
256,192,71378,1,0,0:0:0:0:
256,192,71508,1,8,0:0:0:0:
256,192,71572,1,0,0:0:0:0:
256,192,71637,1,0,0:0:0:0:
256,192,71702,1,0,0:0:0:0:
256,192,71766,1,8,0:0:0:0:
256,192,71896,1,8,0:0:0:0:
256,192,71960,1,8,0:0:0:0:
256,192,72025,1,0,0:0:0:0:
256,192,72154,1,0,0:0:0:0:
256,192,72219,1,0,0:0:0:0:
256,192,72284,1,8,0:0:0:0:
256,192,72413,1,0,0:0:0:0:
256,192,72542,1,8,0:0:0:0:
256,192,72607,1,0,0:0:0:0:
256,192,72672,1,0,0:0:0:0:
256,192,72801,1,8,0:0:0:0:
256,192,72930,1,8,0:0:0:0:
256,192,72995,1,8,0:0:0:0:
256,192,73059,1,0,0:0:0:0:
256,192,73189,1,0,0:0:0:0:
256,192,73318,1,8,0:0:0:0:
256,192,73447,1,0,0:0:0:0:
256,192,73512,1,0,0:0:0:0:
256,192,73577,1,8,0:0:0:0:
256,192,73706,1,0,0:0:0:0:
256,192,73835,1,0,0:0:0:0:
256,192,73965,1,0,0:0:0:0:
256,192,74094,1,4,0:0:0:0:
256,192,74353,1,8,0:0:0:0:
256,192,74482,1,0,0:0:0:0:
256,192,74611,1,8,0:0:0:0:
256,192,74676,1,0,0:0:0:0:
256,192,74805,1,0,0:0:0:0:
256,192,74870,1,8,0:0:0:0:
256,192,74999,1,8,0:0:0:0:
256,192,75064,1,8,0:0:0:0:
256,192,75128,1,8,0:0:0:0:
256,192,75258,1,0,0:0:0:0:
256,192,75387,1,8,0:0:0:0:
256,192,75516,1,0,0:0:0:0:
256,192,75581,1,0,0:0:0:0:
256,192,75646,1,8,0:0:0:0:
256,192,75775,1,0,0:0:0:0:
256,192,75904,1,8,0:0:0:0:
256,192,76034,1,8,0:0:0:0:
256,192,76098,1,8,0:0:0:0:
256,192,76163,1,0,0:0:0:0:
256,192,76292,1,0,0:0:0:0:
256,192,76422,1,8,0:0:0:0:
256,192,76551,1,0,0:0:0:0:
256,192,76680,1,8,0:0:0:0:
256,192,76745,1,0,0:0:0:0:
256,192,76809,1,0,0:0:0:0:
256,192,76939,1,8,0:0:0:0:
256,192,77068,1,8,0:0:0:0:
256,192,77133,1,8,0:0:0:0:
256,192,77197,1,8,0:0:0:0:
256,192,77327,1,0,0:0:0:0:
256,192,77456,1,8,0:0:0:0:
256,192,77521,1,0,0:0:0:0:
256,192,77585,1,0,0:0:0:0:
256,192,77715,1,8,0:0:0:0:
256,192,77779,1,0,0:0:0:0:
256,192,77844,1,8,0:0:0:0:
256,192,77973,1,0,0:0:0:0:
256,192,78103,1,0,0:0:0:0:
256,192,78232,1,12,0:0:0:0:
256,192,78490,1,0,0:0:0:0:
256,192,78620,1,0,0:0:0:0:
256,192,78749,1,8,0:0:0:0:
256,192,78814,1,0,0:0:0:0:
256,192,78878,1,0,0:0:0:0:
256,192,79008,1,8,0:0:0:0:
256,192,79137,1,8,0:0:0:0:
256,192,79202,1,8,0:0:0:0:
256,192,79266,1,0,0:0:0:0:
256,192,79396,1,0,0:0:0:0:
256,192,79460,1,0,0:0:0:0:
256,192,79525,1,8,0:0:0:0:
256,192,79654,1,0,0:0:0:0:
256,192,79784,1,0,0:0:0:0:
256,192,79913,1,0,0:0:0:0:
256,192,79978,1,0,0:0:0:0:
256,192,80042,1,8,0:0:0:0:
256,192,80107,1,0,0:0:0:0:
256,192,80172,1,0,0:0:0:0:
256,192,80301,1,12,0:0:0:0:
256,192,80430,1,4,0:0:0:0:
256,192,80689,1,12,0:0:0:0:
256,192,80818,1,4,0:0:0:0:
256,192,81077,1,12,0:0:0:0:
256,192,81206,1,4,0:0:0:0:
256,192,81465,1,12,0:0:0:0:
256,192,81594,1,4,0:0:0:0:
256,192,81723,1,0,0:0:0:0:
256,192,81853,1,0,0:0:0:0:
256,192,81917,1,0,0:0:0:0:
256,192,81982,1,0,0:0:0:0:
256,192,82111,1,8,0:0:0:0:
256,192,82176,1,8,0:0:0:0:
256,192,82240,1,0,0:0:0:0:
256,192,82305,1,0,0:0:0:0:
256,192,82370,1,0,0:0:0:0:
256,192,89308,5,4,0:0:0:0:
256,192,89908,1,4,0:0:0:0:
256,192,90358,1,4,0:0:0:0:
256,192,90658,1,4,0:0:0:0:
256,192,90808,1,4,0:0:0:0:
256,192,91108,1,4,0:0:0:0:
256,192,91408,1,0,0:0:0:0:
256,192,91483,1,0,0:0:0:0:
256,192,91558,1,0,0:0:0:0:
256,192,91633,1,0,0:0:0:0:
256,192,91708,5,8,0:0:0:0:
256,192,92008,1,8,0:0:0:0:
256,192,92308,1,0,0:0:0:0:
256,192,92608,1,8,0:0:0:0:
256,192,92758,1,8,0:0:0:0:
256,192,92833,1,8,0:0:0:0:
256,192,92908,1,0,0:0:0:0:
256,192,93058,1,0,0:0:0:0:
256,192,93208,1,8,0:0:0:0:
256,192,93508,1,0,0:0:0:0:
256,192,93808,1,8,0:0:0:0:
256,192,94108,1,0,0:0:0:0:
256,192,94258,1,8,0:0:0:0:
256,192,94408,1,0,0:0:0:0:
256,192,94483,1,0,0:0:0:0:
256,192,94558,1,8,0:0:0:0:
256,192,94708,1,0,0:0:0:0:
256,192,94858,1,8,0:0:0:0:
256,192,95008,1,0,0:0:0:0:
256,192,95083,1,0,0:0:0:0:
256,192,95158,1,8,0:0:0:0:
256,192,95308,1,0,0:0:0:0:
256,192,95383,1,0,0:0:0:0:
256,192,95458,1,8,0:0:0:0:
256,192,95533,1,8,0:0:0:0:
256,192,95608,1,0,0:0:0:0:
256,192,95758,1,8,0:0:0:0:
256,192,95908,1,0,0:0:0:0:
256,192,95983,1,0,0:0:0:0:
256,192,96058,1,8,0:0:0:0:
256,192,96208,1,0,0:0:0:0:
256,192,96358,1,8,0:0:0:0:
256,192,96508,1,0,0:0:0:0:
256,192,96808,1,8,0:0:0:0:
256,192,97108,1,0,0:0:0:0:
256,192,97408,1,8,0:0:0:0:
256,192,97558,1,0,0:0:0:0:
256,192,97633,1,0,0:0:0:0:
256,192,97708,1,0,0:0:0:0:
256,192,97858,1,0,0:0:0:0:
256,192,98008,1,8,0:0:0:0:
256,192,98308,1,0,0:0:0:0:
256,192,98608,1,8,0:0:0:0:
256,192,98908,1,0,0:0:0:0:
256,192,99058,1,8,0:0:0:0:
256,192,99208,1,0,0:0:0:0:
256,192,99283,1,0,0:0:0:0:
256,192,99358,1,8,0:0:0:0:
256,192,99508,1,0,0:0:0:0:
256,192,99658,1,8,0:0:0:0:
256,192,99808,1,0,0:0:0:0:
256,192,99883,1,0,0:0:0:0:
256,192,99958,1,8,0:0:0:0:
256,192,100108,1,0,0:0:0:0:
256,192,100183,1,0,0:0:0:0:
256,192,100258,1,8,0:0:0:0:
256,192,100333,1,8,0:0:0:0:
256,192,100408,1,0,0:0:0:0:
256,192,100558,1,8,0:0:0:0:
256,192,100708,1,0,0:0:0:0:
256,192,100783,1,0,0:0:0:0:
256,192,100858,1,8,0:0:0:0:
256,192,100933,1,8,0:0:0:0:
256,192,101008,1,0,0:0:0:0:
256,192,101158,1,8,0:0:0:0:
256,192,101308,1,0,0:0:0:0:
256,192,101608,1,8,0:0:0:0:
256,192,101908,1,0,0:0:0:0:
256,192,102208,1,8,0:0:0:0:
256,192,102358,1,8,0:0:0:0:
256,192,102433,1,8,0:0:0:0:
256,192,102508,1,8,0:0:0:0:
256,192,102658,1,0,0:0:0:0:
256,192,102808,5,8,0:0:0:0:
256,192,103108,1,0,0:0:0:0:
256,192,103408,1,8,0:0:0:0:
256,192,103708,1,0,0:0:0:0:
256,192,103858,1,8,0:0:0:0:
256,192,104008,1,0,0:0:0:0:
256,192,104083,1,0,0:0:0:0:
256,192,104158,1,8,0:0:0:0:
256,192,104308,1,0,0:0:0:0:
256,192,104383,1,0,0:0:0:0:
256,192,104458,1,8,0:0:0:0:
256,192,104533,1,8,0:0:0:0:
256,192,104608,1,0,0:0:0:0:
256,192,104758,1,8,0:0:0:0:
256,192,104908,1,0,0:0:0:0:
256,192,104983,1,0,0:0:0:0:
256,192,105058,1,8,0:0:0:0:
256,192,105208,1,0,0:0:0:0:
256,192,105358,1,8,0:0:0:0:
256,192,105508,1,0,0:0:0:0:
256,192,105583,1,0,0:0:0:0:
256,192,105658,1,8,0:0:0:0:
256,192,105733,1,0,0:0:0:0:
256,192,105808,1,0,0:0:0:0:
256,192,105958,1,8,0:0:0:0:
256,192,106108,1,0,0:0:0:0:
256,192,106408,1,8,0:0:0:0:
256,192,106708,1,0,0:0:0:0:
256,192,107008,1,8,0:0:0:0:
256,192,107158,1,0,0:0:0:0:
256,192,107233,1,0,0:0:0:0:
256,192,107308,1,0,0:0:0:0:
256,192,107458,1,0,0:0:0:0:
256,192,107608,1,8,0:0:0:0:
256,192,107908,1,0,0:0:0:0:
256,192,108208,1,8,0:0:0:0:
256,192,108508,1,0,0:0:0:0:
256,192,108658,1,8,0:0:0:0:
256,192,108808,1,0,0:0:0:0:
256,192,108883,1,0,0:0:0:0:
256,192,108958,1,8,0:0:0:0:
256,192,109108,1,0,0:0:0:0:
256,192,109258,1,8,0:0:0:0:
256,192,109333,1,8,0:0:0:0:
256,192,109408,1,0,0:0:0:0:
256,192,109483,1,0,0:0:0:0:
256,192,109558,1,8,0:0:0:0:
256,192,109708,1,0,0:0:0:0:
256,192,109858,1,8,0:0:0:0:
256,192,109933,1,8,0:0:0:0:
256,192,110008,1,0,0:0:0:0:
256,192,110158,1,8,0:0:0:0:
256,192,110308,1,0,0:0:0:0:
256,192,110458,1,8,0:0:0:0:
256,192,110533,1,8,0:0:0:0:
256,192,110608,1,0,0:0:0:0:
256,192,110683,1,0,0:0:0:0:
256,192,110758,1,0,0:0:0:0:
256,192,110833,1,0,0:0:0:0:
256,192,110908,1,8,0:0:0:0:
256,192,111208,1,8,0:0:0:0:
256,192,111508,1,0,0:0:0:0:
256,192,111808,1,8,0:0:0:0:
256,192,111958,1,0,0:0:0:0:
256,192,112033,1,0,0:0:0:0:
256,192,112108,1,0,0:0:0:0:
256,192,112258,1,0,0:0:0:0:
256,192,112408,1,8,0:0:0:0:
256,192,112483,1,8,0:0:0:0:
256,192,112558,1,0,0:0:0:0:
256,192,112708,1,0,0:0:0:0:
256,192,113008,1,12,0:0:0:0:
256,192,113308,1,8,0:0:0:0:
256,192,113458,1,0,0:0:0:0:
256,192,113608,1,8,0:0:0:0:
256,192,113683,1,8,0:0:0:0:
256,192,113758,1,0,0:0:0:0:
256,192,113833,1,0,0:0:0:0:
256,192,113908,1,8,0:0:0:0:
256,192,114058,1,8,0:0:0:0:
256,192,114133,1,8,0:0:0:0:
256,192,114208,1,0,0:0:0:0:
256,192,114358,1,8,0:0:0:0:
256,192,114508,1,0,0:0:0:0:
256,192,114583,1,0,0:0:0:0:
256,192,114658,1,0,0:0:0:0:
256,192,114808,1,8,0:0:0:0:
256,192,114883,1,0,0:0:0:0:
256,192,114958,1,0,0:0:0:0:
256,192,115108,1,0,0:0:0:0:
256,192,115183,1,0,0:0:0:0:
256,192,115258,1,0,0:0:0:0:
256,192,115333,1,0,0:0:0:0:
256,192,115408,1,0,0:0:0:0:
256,192,115483,1,0,0:0:0:0:
256,192,115558,1,0,0:0:0:0:
256,192,115633,1,0,0:0:0:0:
256,192,115708,1,8,0:0:0:0:
256,192,116008,1,8,0:0:0:0:
256,192,116308,1,0,0:0:0:0:
256,192,116608,1,8,0:0:0:0:
256,192,116758,1,0,0:0:0:0:
256,192,116833,1,0,0:0:0:0:
256,192,116908,1,0,0:0:0:0:
256,192,117058,1,8,0:0:0:0:
256,192,117208,1,0,0:0:0:0:
256,192,117283,1,0,0:0:0:0:
256,192,117358,1,8,0:0:0:0:
256,192,117508,1,0,0:0:0:0:
256,192,117808,1,12,0:0:0:0:
256,192,118108,1,8,0:0:0:0:
256,192,118183,1,8,0:0:0:0:
256,192,118258,1,0,0:0:0:0:
256,192,118408,1,0,0:0:0:0:
256,192,118483,1,0,0:0:0:0:
256,192,118558,1,8,0:0:0:0:
256,192,118633,1,8,0:0:0:0:
256,192,118708,1,0,0:0:0:0:
256,192,118858,1,8,0:0:0:0:
256,192,118933,1,0,0:0:0:0:
256,192,119008,1,8,0:0:0:0:
256,192,119158,1,8,0:0:0:0:
256,192,119308,1,4,0:0:0:0:
256,192,119458,1,8,0:0:0:0:
256,192,119608,1,4,0:0:0:0:
256,192,119758,1,8,0:0:0:0:
256,192,119908,1,8,0:0:0:0:
256,192,119983,1,0,0:0:0:0:
256,192,120058,1,8,0:0:0:0:
256,192,120133,1,8,0:0:0:0:
256,192,120208,1,0,0:0:0:0:
256,192,120283,1,0,0:0:0:0:
256,192,120358,1,8,0:0:0:0:
256,192,120433,1,0,0:0:0:0:
256,192,120508,1,8,0:0:0:0:
256,192,120658,1,0,0:0:0:0:
256,192,120808,1,8,0:0:0:0:
256,192,120883,1,0,0:0:0:0:
256,192,120958,1,0,0:0:0:0:
256,192,121108,1,8,0:0:0:0:
256,192,121258,1,0,0:0:0:0:
256,192,121408,1,8,0:0:0:0:
256,192,121483,1,0,0:0:0:0:
256,192,121558,1,8,0:0:0:0:
256,192,121633,1,8,0:0:0:0:
256,192,121708,1,0,0:0:0:0:
256,192,121783,1,0,0:0:0:0:
256,192,121858,1,8,0:0:0:0:
256,192,122008,1,0,0:0:0:0:
256,192,122083,1,0,0:0:0:0:
256,192,122158,1,8,0:0:0:0:
256,192,122308,1,0,0:0:0:0:
256,192,122458,1,0,0:0:0:0:
256,192,122533,1,0,0:0:0:0:
256,192,122608,1,8,0:0:0:0:
256,192,122683,1,8,0:0:0:0:
256,192,122758,1,8,0:0:0:0:
256,192,122908,1,8,0:0:0:0:
256,192,122983,1,0,0:0:0:0:
256,192,123058,1,8,0:0:0:0:
256,192,123208,1,8,0:0:0:0:
256,192,123283,1,0,0:0:0:0:
256,192,123358,1,0,0:0:0:0:
256,192,123433,1,0,0:0:0:0:
256,192,123508,1,8,0:0:0:0:
256,192,123583,1,0,0:0:0:0:
256,192,123658,1,8,0:0:0:0:
256,192,123733,1,8,0:0:0:0:
256,192,123808,1,0,0:0:0:0:
256,192,123883,1,0,0:0:0:0:
256,192,123958,1,8,0:0:0:0:
256,192,124108,1,0,0:0:0:0:
256,192,124258,1,8,0:0:0:0:
256,192,124408,1,0,0:0:0:0:
256,192,124558,1,8,0:0:0:0:
256,192,124708,1,0,0:0:0:0:
256,192,124783,1,0,0:0:0:0:
256,192,124858,1,0,0:0:0:0:
256,192,124933,1,0,0:0:0:0:
256,192,125008,1,0,0:0:0:0:
256,192,125083,1,0,0:0:0:0:
256,192,125158,1,0,0:0:0:0:
256,192,125233,1,0,0:0:0:0:
256,192,125308,1,8,0:0:0:0:
256,192,125458,1,0,0:0:0:0:
256,192,125608,1,8,0:0:0:0:
256,192,125683,1,8,0:0:0:0:
256,192,125758,1,0,0:0:0:0:
256,192,125908,1,8,0:0:0:0:
256,192,126058,1,0,0:0:0:0:
256,192,126208,1,8,0:0:0:0:
256,192,126283,1,0,0:0:0:0:
256,192,126358,1,8,0:0:0:0:
256,192,126433,1,8,0:0:0:0:
256,192,126508,1,0,0:0:0:0:
256,192,126583,1,0,0:0:0:0:
256,192,126658,1,8,0:0:0:0:
256,192,126808,1,0,0:0:0:0:
256,192,126958,1,8,0:0:0:0:
256,192,127108,1,0,0:0:0:0:
256,192,127183,1,0,0:0:0:0:
256,192,127258,1,8,0:0:0:0:
256,192,127408,1,8,0:0:0:0:
256,192,127483,1,8,0:0:0:0:
256,192,127558,1,8,0:0:0:0:
256,192,127633,1,8,0:0:0:0:
256,192,127708,1,0,0:0:0:0:
256,192,127858,1,0,0:0:0:0:
256,192,128008,1,8,0:0:0:0:
256,192,128083,1,0,0:0:0:0:
256,192,128158,1,8,0:0:0:0:
256,192,128233,1,8,0:0:0:0:
256,192,128308,1,0,0:0:0:0:
256,192,128383,1,0,0:0:0:0:
256,192,128458,1,8,0:0:0:0:
256,192,128533,1,8,0:0:0:0:
256,192,128608,1,0,0:0:0:0:
256,192,128758,1,8,0:0:0:0:
256,192,128908,1,4,0:0:0:0:
256,192,129058,1,8,0:0:0:0:
256,192,129208,1,4,0:0:0:0:
256,192,129358,1,8,0:0:0:0:
256,192,129508,1,8,0:0:0:0:
256,192,129583,1,8,0:0:0:0:
256,192,129658,1,0,0:0:0:0:
256,192,129733,1,8,0:0:0:0:
256,192,129808,1,0,0:0:0:0:
256,192,129883,1,0,0:0:0:0:
256,192,129958,1,8,0:0:0:0:
256,192,130033,1,0,0:0:0:0:
256,192,130108,1,8,0:0:0:0:
256,192,130258,1,0,0:0:0:0:
256,192,130408,1,0,0:0:0:0:
256,192,130558,1,8,0:0:0:0:
256,192,130708,1,0,0:0:0:0:
256,192,130858,1,0,0:0:0:0:
256,192,131008,1,8,0:0:0:0:
256,192,131158,1,0,0:0:0:0:
256,192,131308,1,12,0:0:0:0:
256,192,131758,1,12,0:0:0:0:
256,192,132208,1,4,0:0:0:0:
256,192,132508,1,8,0:0:0:0:
256,192,132658,1,0,0:0:0:0:
256,192,132808,1,0,0:0:0:0:
256,192,132958,1,8,0:0:0:0:
256,192,133108,1,0,0:0:0:0:
256,192,133258,1,0,0:0:0:0:
256,192,133408,1,8,0:0:0:0:
256,192,133558,1,0,0:0:0:0:
256,192,133708,1,4,0:0:0:0:
256,192,134158,1,4,0:0:0:0:
256,192,134608,1,12,0:0:0:0:
256,192,134908,1,8,0:0:0:0:
256,192,135058,1,0,0:0:0:0:
256,192,135208,1,0,0:0:0:0:
256,192,135358,1,8,0:0:0:0:
256,192,135508,1,0,0:0:0:0:
256,192,135658,1,0,0:0:0:0:
256,192,135808,1,8,0:0:0:0:
256,192,135958,1,0,0:0:0:0:
256,192,136108,1,12,0:0:0:0:
256,192,136558,1,12,0:0:0:0:
256,192,137008,1,4,0:0:0:0:
256,192,137308,1,8,0:0:0:0:
256,192,137458,1,0,0:0:0:0:
256,192,137608,1,0,0:0:0:0:
256,192,137758,1,8,0:0:0:0:
256,192,137908,1,0,0:0:0:0:
256,192,138058,1,0,0:0:0:0:
256,192,138208,1,8,0:0:0:0:
256,192,138358,1,0,0:0:0:0:
256,192,138508,1,4,0:0:0:0:
256,192,138958,1,4,0:0:0:0:
256,192,139408,1,12,0:0:0:0:
256,192,139708,1,8,0:0:0:0:
256,192,139858,1,8,0:0:0:0:
256,192,140008,1,0,0:0:0:0:
256,192,140158,1,8,0:0:0:0:
256,192,140308,1,8,0:0:0:0:
256,192,140458,1,0,0:0:0:0:
256,192,140608,1,8,0:0:0:0:
256,192,140758,1,8,0:0:0:0:
256,192,140908,1,4,0:0:0:0:
256,192,141358,1,4,0:0:0:0:
256,192,141808,1,12,0:0:0:0:
256,192,142108,1,8,0:0:0:0:
256,192,142258,1,8,0:0:0:0:
256,192,142408,1,0,0:0:0:0:
256,192,142558,1,8,0:0:0:0:
256,192,142708,1,8,0:0:0:0:
256,192,142858,1,0,0:0:0:0:
256,192,143008,1,8,0:0:0:0:
256,192,143158,1,8,0:0:0:0:
256,192,143308,1,4,0:0:0:0:
256,192,143758,1,4,0:0:0:0:
256,192,144208,1,12,0:0:0:0:
256,192,144508,1,8,0:0:0:0:
256,192,144658,1,0,0:0:0:0:
256,192,144808,1,0,0:0:0:0:
256,192,144958,1,8,0:0:0:0:
256,192,145108,1,0,0:0:0:0:
256,192,145258,1,0,0:0:0:0:
256,192,145408,1,8,0:0:0:0:
256,192,145558,1,0,0:0:0:0:
256,192,145708,1,4,0:0:0:0:
256,192,146158,1,4,0:0:0:0:
256,192,146608,1,12,0:0:0:0:
256,192,146908,1,8,0:0:0:0:
256,192,147058,1,0,0:0:0:0:
256,192,147208,1,0,0:0:0:0:
256,192,147358,1,8,0:0:0:0:
256,192,147508,1,0,0:0:0:0:
256,192,147658,1,0,0:0:0:0:
256,192,147808,1,8,0:0:0:0:
256,192,147958,1,8,0:0:0:0:
256,192,148108,1,12,0:0:0:0:
256,192,148558,1,4,0:0:0:0:
256,192,149008,1,12,0:0:0:0:
256,192,149308,1,0,0:0:0:0:
256,192,157159,5,0,0:0:0:0:
256,192,157244,1,0,0:0:0:0:
256,192,157330,1,8,0:0:0:0:
256,192,157416,1,8,0:0:0:0:
256,192,157501,1,0,0:0:0:0:
256,192,157587,1,0,0:0:0:0:
256,192,157673,1,8,0:0:0:0:
256,192,157759,1,0,0:0:0:0:
256,192,157844,1,8,0:0:0:0:
256,192,157930,1,8,0:0:0:0:
256,192,158016,1,0,0:0:0:0:
256,192,158101,1,0,0:0:0:0:
256,192,158187,1,8,0:0:0:0:
256,192,158273,1,0,0:0:0:0:
256,192,158359,1,0,0:0:0:0:
256,192,158513,1,4,0:0:0:0:
256,192,158855,1,8,0:0:0:0:
256,192,159197,1,0,0:0:0:0:
256,192,159282,1,0,0:0:0:0:
256,192,159368,1,0,0:0:0:0:
256,192,159539,1,8,0:0:0:0:
256,192,159710,1,0,0:0:0:0:
256,192,160052,1,0,0:0:0:0:
256,192,160223,1,8,0:0:0:0:
256,192,160394,1,0,0:0:0:0:
256,192,160565,1,8,0:0:0:0:
256,192,160736,1,8,0:0:0:0:
256,192,161078,1,0,0:0:0:0:
256,192,161249,1,0,0:0:0:0:
256,192,161335,1,0,0:0:0:0:
256,192,161420,1,0,0:0:0:0:
256,192,161591,1,8,0:0:0:0:
256,192,161762,1,0,0:0:0:0:
256,192,161933,1,0,0:0:0:0:
256,192,162019,1,0,0:0:0:0:
256,192,162104,1,0,0:0:0:0:
256,192,162275,1,8,0:0:0:0:
256,192,162446,1,0,0:0:0:0:
256,192,162788,5,8,0:0:0:0:
256,192,162959,1,0,0:0:0:0:
256,192,163131,1,0,0:0:0:0:
256,192,163302,1,8,0:0:0:0:
256,192,163473,1,8,0:0:0:0:
256,192,163815,1,0,0:0:0:0:
256,192,163986,1,0,0:0:0:0:
256,192,164071,1,0,0:0:0:0:
256,192,164157,1,0,0:0:0:0:
256,192,164328,1,8,0:0:0:0:
256,192,164499,1,0,0:0:0:0:
256,192,164670,1,0,0:0:0:0:
256,192,164841,1,0,0:0:0:0:
256,192,164926,1,0,0:0:0:0:
256,192,165012,1,8,0:0:0:0:
256,192,165183,1,0,0:0:0:0:
256,192,165525,1,8,0:0:0:0:
256,192,165696,1,0,0:0:0:0:
256,192,165867,1,8,0:0:0:0:
256,192,166038,1,8,0:0:0:0:
256,192,166209,1,0,0:0:0:0:
256,192,166551,1,0,0:0:0:0:
256,192,166722,1,8,0:0:0:0:
256,192,166808,1,0,0:0:0:0:
256,192,166893,1,0,0:0:0:0:
256,192,167064,1,8,0:0:0:0:
256,192,167235,1,0,0:0:0:0:
256,192,167406,1,0,0:0:0:0:
256,192,167492,1,0,0:0:0:0:
256,192,167577,1,0,0:0:0:0:
256,192,167749,1,8,0:0:0:0:
256,192,167920,1,0,0:0:0:0:
256,192,168005,1,0,0:0:0:0:
256,192,168091,1,8,0:0:0:0:
256,192,168262,1,0,0:0:0:0:
256,192,168433,1,8,0:0:0:0:
256,192,168604,1,0,0:0:0:0:
256,192,168689,1,0,0:0:0:0:
256,192,168775,1,8,0:0:0:0:
256,192,168860,1,8,0:0:0:0:
256,192,168946,1,0,0:0:0:0:
256,192,169117,1,8,0:0:0:0:
256,192,169288,1,0,0:0:0:0:
256,192,169459,1,12,0:0:0:0:
256,192,169801,1,12,0:0:0:0:
256,192,170143,1,0,0:0:0:0:
256,192,170314,1,0,0:0:0:0:
256,192,170485,1,8,0:0:0:0:
256,192,170656,1,4,0:0:0:0:
256,192,170998,1,0,0:0:0:0:
256,192,171169,1,8,0:0:0:0:
256,192,171340,1,0,0:0:0:0:
256,192,171511,1,8,0:0:0:0:
256,192,171682,1,0,0:0:0:0:
256,192,171768,1,0,0:0:0:0:
256,192,171853,1,8,0:0:0:0:
256,192,172024,1,0,0:0:0:0:
256,192,172196,1,12,0:0:0:0:
256,192,172538,1,8,0:0:0:0:
256,192,172709,1,4,0:0:0:0:
256,192,173051,1,0,0:0:0:0:
256,192,173222,1,12,0:0:0:0:
256,192,173564,1,0,0:0:0:0:
256,192,173735,1,0,0:0:0:0:
256,192,173820,1,0,0:0:0:0:
256,192,173906,1,8,0:0:0:0:
256,192,174077,1,8,0:0:0:0:
256,192,174248,1,0,0:0:0:0:
256,192,174419,1,0,0:0:0:0:
256,192,174505,1,0,0:0:0:0:
256,192,174590,1,8,0:0:0:0:
256,192,174761,1,0,0:0:0:0:
256,192,174932,1,4,0:0:0:0:
256,192,175274,1,8,0:0:0:0:
256,192,175616,1,0,0:0:0:0:
256,192,175787,1,0,0:0:0:0:
256,192,175958,1,8,0:0:0:0:
256,192,176129,1,4,0:0:0:0:
256,192,176471,1,0,0:0:0:0:
256,192,176642,1,8,0:0:0:0:
256,192,176814,1,0,0:0:0:0:
256,192,176899,1,0,0:0:0:0:
256,192,176985,1,8,0:0:0:0:
256,192,177156,1,8,0:0:0:0:
256,192,177327,1,0,0:0:0:0:
256,192,177498,1,0,0:0:0:0:
256,192,177669,1,12,0:0:0:0:
256,192,178011,1,8,0:0:0:0:
256,192,178182,1,0,0:0:0:0:
256,192,178353,1,0,0:0:0:0:
256,192,178524,1,0,0:0:0:0:
256,192,178695,1,8,0:0:0:0:
256,192,178866,1,4,0:0:0:0:
256,192,179208,1,0,0:0:0:0:
256,192,179379,1,8,0:0:0:0:
256,192,179550,1,4,0:0:0:0:
256,192,179721,1,8,0:0:0:0:
256,192,179807,1,8,0:0:0:0:
256,192,179892,1,0,0:0:0:0:
256,192,179978,1,0,0:0:0:0:
256,192,180063,1,8,0:0:0:0:
256,192,180149,1,8,0:0:0:0:
256,192,180234,1,0,0:0:0:0:
256,192,180447,1,12,0:0:0:0:
256,192,180789,1,12,0:0:0:0:
256,192,181131,1,0,0:0:0:0:
256,192,181302,1,0,0:0:0:0:
256,192,181473,1,8,0:0:0:0:
256,192,181644,1,4,0:0:0:0:
256,192,181986,1,0,0:0:0:0:
256,192,182157,1,8,0:0:0:0:
256,192,182328,1,0,0:0:0:0:
256,192,182413,1,0,0:0:0:0:
256,192,182499,1,8,0:0:0:0:
256,192,182670,1,0,0:0:0:0:
256,192,182841,1,8,0:0:0:0:
256,192,183012,1,0,0:0:0:0:
256,192,183183,1,12,0:0:0:0:
256,192,183525,1,8,0:0:0:0:
256,192,183696,1,4,0:0:0:0:
256,192,184038,1,0,0:0:0:0:
256,192,184209,1,12,0:0:0:0:
256,192,184551,1,0,0:0:0:0:
256,192,184722,1,0,0:0:0:0:
256,192,184808,1,0,0:0:0:0:
256,192,184893,1,8,0:0:0:0:
256,192,185065,1,8,0:0:0:0:
256,192,185236,1,0,0:0:0:0:
256,192,185407,1,0,0:0:0:0:
256,192,185578,1,8,0:0:0:0:
256,192,185749,1,0,0:0:0:0:
256,192,185920,1,4,0:0:0:0:
256,192,186262,1,8,0:0:0:0:
256,192,186604,1,0,0:0:0:0:
256,192,186775,1,0,0:0:0:0:
256,192,186946,1,8,0:0:0:0:
256,192,187117,1,12,0:0:0:0:
256,192,187459,1,0,0:0:0:0:
256,192,187630,1,8,0:0:0:0:
256,192,187801,1,0,0:0:0:0:
256,192,187887,1,0,0:0:0:0:
256,192,187972,1,8,0:0:0:0:
256,192,188143,1,0,0:0:0:0:
256,192,188314,1,8,0:0:0:0:
256,192,188485,1,0,0:0:0:0:
256,192,188656,1,4,0:0:0:0:
256,192,188998,1,8,0:0:0:0:
256,192,189340,1,0,0:0:0:0:
256,192,189511,1,0,0:0:0:0:
256,192,189683,1,8,0:0:0:0:
256,192,189854,1,4,0:0:0:0:
256,192,190196,1,0,0:0:0:0:
256,192,190367,1,8,0:0:0:0:
256,192,190538,1,4,0:0:0:0:
256,192,190880,1,0,0:0:0:0:
256,192,191051,1,8,0:0:0:0:
256,192,191222,1,8,0:0:0:0:
256,192,191379,1,4,0:0:0:0:
256,192,191721,1,8,0:0:0:0:
256,192,192064,1,0,0:0:0:0:
256,192,192236,1,0,0:0:0:0:
256,192,192407,1,8,0:0:0:0:
256,192,192579,1,0,0:0:0:0:
256,192,192921,1,0,0:0:0:0:
256,192,193093,1,8,0:0:0:0:
256,192,193264,1,0,0:0:0:0:
256,192,193436,1,0,0:0:0:0:
256,192,193607,1,0,0:0:0:0:
256,192,193779,1,8,0:0:0:0:
256,192,193950,1,0,0:0:0:0:
256,192,194007,1,0,0:0:0:0:
256,192,194064,1,0,0:0:0:0:
256,192,194121,1,8,0:0:0:0:
256,192,194293,1,0,0:0:0:0:
256,192,194464,1,0,0:0:0:0:
256,192,194636,1,8,0:0:0:0:
256,192,194807,1,0,0:0:0:0:
256,192,194979,1,8,0:0:0:0:
256,192,195150,1,8,0:0:0:0:
256,192,195321,1,0,0:0:0:0:
256,192,196864,1,8,0:0:0:0:
256,192,197035,1,0,0:0:0:0:
256,192,197120,1,0,0:0:0:0:
256,192,197206,1,0,0:0:0:0:
256,192,197292,1,0,0:0:0:0:
256,192,197377,1,8,0:0:0:0:
256,192,197548,1,0,0:0:0:0:
256,192,197634,1,0,0:0:0:0:
256,192,197720,1,0,0:0:0:0:
256,192,197805,1,0,0:0:0:0:
256,192,197891,1,8,0:0:0:0:
256,192,198062,1,0,0:0:0:0:
256,192,198148,1,0,0:0:0:0:
256,192,198233,1,8,0:0:0:0:
256,192,198405,1,0,0:0:0:0:
256,192,198490,1,0,0:0:0:0:
256,192,198576,1,0,0:0:0:0:
256,192,198661,1,0,0:0:0:0:
256,192,198747,1,8,0:0:0:0:
256,192,198918,1,0,0:0:0:0:
256,192,199004,1,0,0:0:0:0:
256,192,199090,1,0,0:0:0:0:
256,192,199175,1,0,0:0:0:0:
256,192,199261,1,8,0:0:0:0:
256,192,199432,1,0,0:0:0:0:
256,192,199518,1,0,0:0:0:0:
256,192,199603,1,8,0:0:0:0:
256,192,199774,1,0,0:0:0:0:
256,192,199860,1,0,0:0:0:0:
256,192,199946,1,0,0:0:0:0:
256,192,200031,1,0,0:0:0:0:
256,192,200117,1,8,0:0:0:0:
256,192,200288,1,0,0:0:0:0:
256,192,200374,1,0,0:0:0:0:
256,192,200459,1,8,0:0:0:0:
256,192,200631,1,0,0:0:0:0:
256,192,200716,1,0,0:0:0:0:
256,192,200802,1,8,0:0:0:0:
256,192,201316,1,12,0:0:0:0:
256,192,201658,1,8,0:0:0:0:
256,192,201744,1,8,0:0:0:0:
256,192,201829,1,8,0:0:0:0:
256,192,201915,1,8,0:0:0:0:
256,192,202000,1,8,0:0:0:0:
256,192,202086,1,8,0:0:0:0:
256,192,202172,1,8,0:0:0:0:
256,192,202343,1,8,0:0:0:0:
256,192,202514,1,0,0:0:0:0:
256,192,202600,1,0,0:0:0:0:
256,192,202685,1,0,0:0:0:0:
256,192,202771,1,0,0:0:0:0:
256,192,202857,1,8,0:0:0:0:
256,192,203028,1,0,0:0:0:0:
256,192,203114,1,0,0:0:0:0:
256,192,203199,1,0,0:0:0:0:
256,192,203285,1,0,0:0:0:0:
256,192,203370,1,8,0:0:0:0:
256,192,203456,1,0,0:0:0:0:
256,192,203542,1,8,0:0:0:0:
256,192,203627,1,0,0:0:0:0:
256,192,203713,1,8,0:0:0:0:
256,192,203884,1,0,0:0:0:0:
256,192,203970,1,0,0:0:0:0:
256,192,204055,1,0,0:0:0:0:
256,192,204141,1,0,0:0:0:0:
256,192,204227,1,8,0:0:0:0:
256,192,204398,1,0,0:0:0:0:
256,192,204483,1,0,0:0:0:0:
256,192,204569,1,0,0:0:0:0:
256,192,204655,1,0,0:0:0:0:
256,192,204740,1,8,0:0:0:0:
256,192,204911,1,0,0:0:0:0:
256,192,204997,1,0,0:0:0:0:
256,192,205083,1,8,0:0:0:0:
256,192,205254,1,0,0:0:0:0:
256,192,205340,1,0,0:0:0:0:
256,192,205425,1,0,0:0:0:0:
256,192,205511,1,0,0:0:0:0:
256,192,205596,1,8,0:0:0:0:
256,192,205768,1,0,0:0:0:0:
256,192,205853,1,0,0:0:0:0:
256,192,205939,1,8,0:0:0:0:
256,192,206110,1,0,0:0:0:0:
256,192,206196,1,0,0:0:0:0:
256,192,206281,1,8,0:0:0:0:
256,192,207822,1,4,0:0:0:0:
256,192,207994,1,0,0:0:0:0:
256,192,208079,1,0,0:0:0:0:
256,192,208165,1,0,0:0:0:0:
256,192,208250,1,0,0:0:0:0:
256,192,208336,1,8,0:0:0:0:
256,192,208507,1,0,0:0:0:0:
256,192,208593,1,0,0:0:0:0:
256,192,208679,1,8,0:0:0:0:
256,192,208764,1,0,0:0:0:0:
256,192,208850,1,0,0:0:0:0:
256,192,208935,1,0,0:0:0:0:
256,192,209021,1,8,0:0:0:0:
256,192,209192,1,0,0:0:0:0:
256,192,209364,1,0,0:0:0:0:
256,192,209449,1,0,0:0:0:0:
256,192,209535,1,0,0:0:0:0:
256,192,209620,1,0,0:0:0:0:
256,192,209706,1,8,0:0:0:0:
256,192,209877,1,0,0:0:0:0:
256,192,209963,1,0,0:0:0:0:
256,192,210048,1,8,0:0:0:0:
256,192,210134,1,0,0:0:0:0:
256,192,210220,1,0,0:0:0:0:
256,192,210305,1,0,0:0:0:0:
256,192,210391,1,8,0:0:0:0:
256,192,210562,1,0,0:0:0:0:
256,192,210733,1,8,0:0:0:0:
256,192,210819,1,0,0:0:0:0:
256,192,210905,1,0,0:0:0:0:
256,192,210990,1,0,0:0:0:0:
256,192,211076,1,8,0:0:0:0:
256,192,211247,1,0,0:0:0:0:
256,192,211333,1,0,0:0:0:0:
256,192,211418,1,8,0:0:0:0:
256,192,211504,1,0,0:0:0:0:
256,192,211590,1,0,0:0:0:0:
256,192,211675,1,0,0:0:0:0:
256,192,211761,1,8,0:0:0:0:
256,192,211932,1,0,0:0:0:0:
256,192,212103,1,0,0:0:0:0:
256,192,212189,1,0,0:0:0:0:
256,192,212274,1,0,0:0:0:0:
256,192,212360,1,0,0:0:0:0:
256,192,212446,1,8,0:0:0:0:
256,192,212617,1,0,0:0:0:0:
256,192,212788,1,8,0:0:0:0:
256,192,212874,1,0,0:0:0:0:
256,192,213045,1,0,0:0:0:0:
256,192,213131,1,8,0:0:0:0:
256,192,213302,1,0,0:0:0:0:
256,192,213473,1,8,0:0:0:0:
256,192,213559,1,0,0:0:0:0:
256,192,213644,1,0,0:0:0:0:
256,192,213730,1,0,0:0:0:0:
256,192,213816,1,8,0:0:0:0:
256,192,213987,1,0,0:0:0:0:
256,192,214072,1,0,0:0:0:0:
256,192,214158,1,8,0:0:0:0:
256,192,214244,1,0,0:0:0:0:
256,192,214329,1,0,0:0:0:0:
256,192,214415,1,0,0:0:0:0:
256,192,214500,1,8,0:0:0:0:
256,192,214672,1,0,0:0:0:0:
256,192,214843,1,8,0:0:0:0:
256,192,214929,1,0,0:0:0:0:
256,192,215014,1,0,0:0:0:0:
256,192,215100,1,0,0:0:0:0:
256,192,215185,1,8,0:0:0:0:
256,192,215357,1,0,0:0:0:0:
256,192,215442,1,0,0:0:0:0:
256,192,215528,1,8,0:0:0:0:
256,192,215614,1,0,0:0:0:0:
256,192,215699,1,0,0:0:0:0:
256,192,215785,1,0,0:0:0:0:
256,192,215870,1,8,0:0:0:0:
256,192,216042,1,0,0:0:0:0:
256,192,216213,1,8,0:0:0:0:
256,192,216298,1,0,0:0:0:0:
256,192,216384,1,0,0:0:0:0:
256,192,216470,1,0,0:0:0:0:
256,192,216555,1,8,0:0:0:0:
256,192,216727,1,0,0:0:0:0:
256,192,216898,1,8,0:0:0:0:
256,192,216983,1,0,0:0:0:0:
256,192,217069,1,0,0:0:0:0:
256,192,217155,1,0,0:0:0:0:
256,192,217240,1,8,0:0:0:0:
256,192,217411,1,0,0:0:0:0:
256,192,217583,1,8,0:0:0:0:
256,192,217668,1,8,0:0:0:0:
256,192,217754,1,0,0:0:0:0:
256,192,217840,1,0,0:0:0:0:
256,192,217925,1,8,0:0:0:0:
256,192,218096,1,0,0:0:0:0:
256,192,218268,1,8,0:0:0:0:
256,192,218353,1,8,0:0:0:0:
256,192,218439,1,0,0:0:0:0:
256,192,218524,1,0,0:0:0:0:
256,192,218610,1,8,0:0:0:0:
256,192,218781,1,4,0:0:0:0:
256,192,218953,1,0,0:0:0:0:
256,192,219038,1,0,0:0:0:0:
256,192,219124,1,0,0:0:0:0:
256,192,219209,1,0,0:0:0:0:
256,192,219295,1,8,0:0:0:0:
256,192,219466,1,0,0:0:0:0:
256,192,219552,1,0,0:0:0:0:
256,192,219637,1,8,0:0:0:0:
256,192,219723,1,0,0:0:0:0:
256,192,219809,1,0,0:0:0:0:
256,192,219894,1,0,0:0:0:0:
256,192,219980,1,8,0:0:0:0:
256,192,220151,1,0,0:0:0:0:
256,192,220322,1,0,0:0:0:0:
256,192,220408,1,0,0:0:0:0:
256,192,220494,1,0,0:0:0:0:
256,192,220579,1,0,0:0:0:0:
256,192,220665,1,8,0:0:0:0:
256,192,220836,1,0,0:0:0:0:
256,192,220922,1,0,0:0:0:0:
256,192,221007,1,8,0:0:0:0:
256,192,221093,1,0,0:0:0:0:
256,192,221179,1,0,0:0:0:0:
256,192,221264,1,0,0:0:0:0:
256,192,221350,1,8,0:0:0:0:
256,192,221521,1,0,0:0:0:0:
256,192,221692,1,0,0:0:0:0:
256,192,221778,1,0,0:0:0:0:
256,192,221864,1,0,0:0:0:0:
256,192,221949,1,0,0:0:0:0:
256,192,222035,1,8,0:0:0:0:
256,192,222206,1,0,0:0:0:0:
256,192,222292,1,0,0:0:0:0:
256,192,222377,1,8,0:0:0:0:
256,192,222463,1,0,0:0:0:0:
256,192,222548,1,0,0:0:0:0:
256,192,222634,1,0,0:0:0:0:
256,192,222720,1,8,0:0:0:0:
256,192,222891,1,0,0:0:0:0:
256,192,222977,1,0,0:0:0:0:
256,192,223062,1,8,0:0:0:0:
256,192,223148,1,8,0:0:0:0:
256,192,223233,1,0,0:0:0:0:
256,192,223319,1,0,0:0:0:0:
256,192,223405,1,8,0:0:0:0:
256,192,223576,1,0,0:0:0:0:
256,192,223747,1,8,0:0:0:0:
256,192,223833,1,0,0:0:0:0:
256,192,224004,1,0,0:0:0:0:
256,192,224090,1,8,0:0:0:0:
256,192,224261,1,0,0:0:0:0:
256,192,224432,1,0,0:0:0:0:
256,192,224518,1,0,0:0:0:0:
256,192,224603,1,0,0:0:0:0:
256,192,224689,1,0,0:0:0:0:
256,192,224774,1,8,0:0:0:0:
256,192,224946,1,0,0:0:0:0:
256,192,225117,1,8,0:0:0:0:
256,192,225203,1,0,0:0:0:0:
256,192,225288,1,0,0:0:0:0:
256,192,225374,1,0,0:0:0:0:
256,192,225459,1,8,0:0:0:0:
256,192,225631,1,0,0:0:0:0:
256,192,225802,1,0,0:0:0:0:
256,192,225887,1,0,0:0:0:0:
256,192,225973,1,0,0:0:0:0:
256,192,226059,1,0,0:0:0:0:
256,192,226144,1,8,0:0:0:0:
256,192,226316,1,0,0:0:0:0:
256,192,226487,1,8,0:0:0:0:
256,192,226572,1,0,0:0:0:0:
256,192,226658,1,0,0:0:0:0:
256,192,226744,1,0,0:0:0:0:
256,192,226829,1,8,0:0:0:0:
256,192,227000,1,0,0:0:0:0:
256,192,227172,1,8,0:0:0:0:
256,192,227257,1,8,0:0:0:0:
256,192,227343,1,0,0:0:0:0:
256,192,227429,1,0,0:0:0:0:
256,192,227514,1,8,0:0:0:0:
256,192,227685,1,0,0:0:0:0:
256,192,227857,1,8,0:0:0:0:
256,192,227942,1,8,0:0:0:0:
256,192,228028,1,0,0:0:0:0:
256,192,228114,1,0,0:0:0:0:
256,192,228199,1,8,0:0:0:0:
256,192,228370,1,0,0:0:0:0:
256,192,228542,1,8,0:0:0:0:
256,192,228627,1,8,0:0:0:0:
256,192,228713,1,0,0:0:0:0:
256,192,228798,1,0,0:0:0:0:
256,192,228884,1,8,0:0:0:0:
256,192,228970,1,8,0:0:0:0:
256,192,229055,1,0,0:0:0:0:
256,192,229141,1,0,0:0:0:0:
256,192,229227,1,8,0:0:0:0:
256,192,229312,1,8,0:0:0:0:
256,192,229398,1,0,0:0:0:0:
256,192,229483,1,0,0:0:0:0:
256,192,229569,1,8,0:0:0:0:
256,192,229655,1,8,0:0:0:0:
256,192,229740,1,0,0:0:0:0:
256,192,229911,1,0,0:0:0:0:
256,192,229997,1,0,0:0:0:0:
256,192,230083,1,0,0:0:0:0:
256,192,230168,1,0,0:0:0:0:
256,192,230254,1,8,0:0:0:0:
256,192,230425,1,0,0:0:0:0:
256,192,230511,1,0,0:0:0:0:
256,192,230596,1,8,0:0:0:0:
256,192,230682,1,0,0:0:0:0:
256,192,230768,1,0,0:0:0:0:
256,192,230939,1,8,0:0:0:0:
256,192,231110,1,0,0:0:0:0:
256,192,231281,1,8,0:0:0:0:
256,192,231367,1,0,0:0:0:0:
256,192,231453,1,0,0:0:0:0:
256,192,231538,1,0,0:0:0:0:
256,192,231624,1,8,0:0:0:0:
256,192,231795,1,0,0:0:0:0:
256,192,231881,1,0,0:0:0:0:
256,192,231966,1,8,0:0:0:0:
256,192,232052,1,0,0:0:0:0:
256,192,232137,1,0,0:0:0:0:
256,192,232309,1,8,0:0:0:0:
256,192,232480,1,0,0:0:0:0:
256,192,232651,1,0,0:0:0:0:
256,192,232737,1,0,0:0:0:0:
256,192,232822,1,0,0:0:0:0:
256,192,232908,1,0,0:0:0:0:
256,192,232994,1,8,0:0:0:0:
256,192,233165,1,0,0:0:0:0:
256,192,233250,1,0,0:0:0:0:
256,192,233336,1,8,0:0:0:0:
256,192,233422,1,0,0:0:0:0:
256,192,233507,1,0,0:0:0:0:
256,192,233679,1,8,0:0:0:0:
256,192,233850,1,0,0:0:0:0:
256,192,234021,1,8,0:0:0:0:
256,192,234107,1,0,0:0:0:0:
256,192,234192,1,0,0:0:0:0:
256,192,234278,1,0,0:0:0:0:
256,192,234364,1,8,0:0:0:0:
256,192,234535,1,0,0:0:0:0:
256,192,234620,1,0,0:0:0:0:
256,192,234706,1,8,0:0:0:0:
256,192,234792,1,8,0:0:0:0:
256,192,234877,1,0,0:0:0:0:
256,192,234963,1,0,0:0:0:0:
256,192,235048,1,8,0:0:0:0:
256,192,235220,1,4,0:0:0:0:
256,192,235391,1,8,0:0:0:0:
256,192,235562,1,0,0:0:0:0:
256,192,235733,1,8,0:0:0:0:
256,192,235819,1,0,0:0:0:0:
256,192,235905,1,0,0:0:0:0:
256,192,235990,1,0,0:0:0:0:
256,192,236076,1,8,0:0:0:0:
256,192,236247,1,0,0:0:0:0:
256,192,236333,1,0,0:0:0:0:
256,192,236418,1,8,0:0:0:0:
256,192,236590,1,0,0:0:0:0:
256,192,236675,1,0,0:0:0:0:
256,192,236761,1,8,0:0:0:0:
256,192,236846,1,0,0:0:0:0:
256,192,236932,1,0,0:0:0:0:
256,192,237018,1,0,0:0:0:0:
256,192,237103,1,8,0:0:0:0:
256,192,237274,1,0,0:0:0:0:
256,192,237446,1,8,0:0:0:0:
256,192,237531,1,0,0:0:0:0:
256,192,237617,1,0,0:0:0:0:
256,192,237703,1,0,0:0:0:0:
256,192,237788,1,8,0:0:0:0:
256,192,237959,1,0,0:0:0:0:
256,192,238131,1,8,0:0:0:0:
256,192,238216,1,8,0:0:0:0:
256,192,238302,1,0,0:0:0:0:
256,192,238387,1,0,0:0:0:0:
256,192,238473,1,8,0:0:0:0:
256,192,238644,1,0,0:0:0:0:
256,192,238816,1,8,0:0:0:0:
256,192,238901,1,8,0:0:0:0:
256,192,238987,1,0,0:0:0:0:
256,192,239072,1,0,0:0:0:0:
256,192,239158,1,8,0:0:0:0:
256,192,239329,1,0,0:0:0:0:
256,192,239415,1,0,0:0:0:0:
256,192,239500,1,8,0:0:0:0:
256,192,239586,1,8,0:0:0:0:
256,192,239672,1,0,0:0:0:0:
256,192,239757,1,0,0:0:0:0:
256,192,239843,1,8,0:0:0:0:
256,192,240014,1,0,0:0:0:0:
256,192,240100,1,0,0:0:0:0:
256,192,240185,1,8,0:0:0:0:
256,192,240271,1,8,0:0:0:0:
256,192,240357,1,0,0:0:0:0:
256,192,240442,1,8,0:0:0:0:
256,192,240528,1,8,0:0:0:0:
256,192,240694,1,4,0:0:0:0:
256,192,240865,1,0,0:0:0:0:
256,192,240951,1,0,0:0:0:0:
256,192,241036,1,0,0:0:0:0:
256,192,241122,1,0,0:0:0:0:
256,192,241208,1,8,0:0:0:0:
256,192,241379,1,0,0:0:0:0:
256,192,241465,1,0,0:0:0:0:
256,192,241551,1,8,0:0:0:0:
256,192,241636,1,0,0:0:0:0:
256,192,241722,1,0,0:0:0:0:
256,192,241808,1,0,0:0:0:0:
256,192,241894,1,8,0:0:0:0:
256,192,242065,1,0,0:0:0:0:
256,192,242236,1,8,0:0:0:0:
256,192,242322,1,0,0:0:0:0:
256,192,242494,1,0,0:0:0:0:
256,192,242579,1,8,0:0:0:0:
256,192,242751,1,0,0:0:0:0:
256,192,242922,1,8,0:0:0:0:
256,192,243008,1,0,0:0:0:0:
256,192,243094,1,0,0:0:0:0:
256,192,243179,1,0,0:0:0:0:
256,192,243265,1,8,0:0:0:0:
256,192,243436,1,0,0:0:0:0:
256,192,243608,1,0,0:0:0:0:
256,192,243694,1,0,0:0:0:0:
256,192,243779,1,0,0:0:0:0:
256,192,243865,1,0,0:0:0:0:
256,192,243951,1,8,0:0:0:0:
256,192,244122,1,0,0:0:0:0:
256,192,244208,1,0,0:0:0:0:
256,192,244294,1,8,0:0:0:0:
256,192,244379,1,0,0:0:0:0:
256,192,244465,1,0,0:0:0:0:
256,192,244551,1,0,0:0:0:0:
256,192,244636,1,8,0:0:0:0:
256,192,244808,1,0,0:0:0:0:
256,192,244979,1,8,0:0:0:0:
256,192,245065,1,0,0:0:0:0:
256,192,245236,1,0,0:0:0:0:
256,192,245322,1,8,0:0:0:0:
256,192,245494,1,0,0:0:0:0:
256,192,245665,1,8,0:0:0:0:
256,192,245751,1,0,0:0:0:0:
256,192,245836,1,0,0:0:0:0:
256,192,245922,1,0,0:0:0:0:
256,192,246008,1,8,0:0:0:0:
256,192,246179,1,0,0:0:0:0:
256,192,246351,1,0,0:0:0:0:
256,192,246436,1,0,0:0:0:0:
256,192,246522,1,0,0:0:0:0:
256,192,246608,1,0,0:0:0:0:
256,192,246694,1,8,0:0:0:0:
256,192,246865,1,0,0:0:0:0:
256,192,246951,1,0,0:0:0:0:
256,192,247036,1,8,0:0:0:0:
256,192,247122,1,0,0:0:0:0:
256,192,247208,1,0,0:0:0:0:
256,192,247294,1,0,0:0:0:0:
256,192,247379,1,8,0:0:0:0:
256,192,247551,1,0,0:0:0:0:
256,192,247722,1,0,0:0:0:0:
256,192,247808,1,0,0:0:0:0:
256,192,247894,1,0,0:0:0:0:
256,192,247979,1,0,0:0:0:0:
256,192,248065,1,8,0:0:0:0:
256,192,248236,1,0,0:0:0:0:
256,192,248322,1,0,0:0:0:0:
256,192,248408,1,8,0:0:0:0:
256,192,248494,1,0,0:0:0:0:
256,192,248579,1,0,0:0:0:0:
256,192,248665,1,0,0:0:0:0:
256,192,248751,1,8,0:0:0:0:
256,192,248922,1,0,0:0:0:0:
256,192,249094,1,8,0:0:0:0:
256,192,249179,1,0,0:0:0:0:
256,192,249265,1,0,0:0:0:0:
256,192,249351,1,0,0:0:0:0:
256,192,249436,1,8,0:0:0:0:
256,192,249608,1,0,0:0:0:0:
256,192,249779,1,8,0:0:0:0:
256,192,249865,1,0,0:0:0:0:
256,192,249951,1,0,0:0:0:0:
256,192,250036,1,0,0:0:0:0:
256,192,250122,1,8,0:0:0:0:
256,192,250294,1,8,0:0:0:0:
256,192,250379,1,8,0:0:0:0:
256,192,250465,1,0,0:0:0:0:
256,192,250551,1,0,0:0:0:0:
256,192,250636,1,8,0:0:0:0:
256,192,250722,1,8,0:0:0:0:
256,192,250808,1,0,0:0:0:0:
256,192,250894,1,0,0:0:0:0:
256,192,250979,1,8,0:0:0:0:
256,192,251065,1,8,0:0:0:0:
256,192,251151,1,0,0:0:0:0:
256,192,251236,1,0,0:0:0:0:
256,192,251322,1,8,0:0:0:0:
256,192,251408,1,8,0:0:0:0:
256,192,251494,1,0,0:0:0:0:
256,192,251665,1,4,0:0:0:0:
256,192,261428,12,8,263999,0:0:0:0:
256,192,264170,5,8,0:0:0:0:
256,192,264513,1,8,0:0:0:0:
256,192,264856,1,0,0:0:0:0:
256,192,265199,1,8,0:0:0:0:
256,192,265542,1,0,0:0:0:0:
256,192,265885,1,0,0:0:0:0:
256,192,266228,1,8,0:0:0:0:
256,192,266570,1,8,0:0:0:0:
256,192,266913,1,0,0:0:0:0:
256,192,267256,1,0,0:0:0:0:
256,192,267599,1,8,0:0:0:0:
256,192,267942,1,0,0:0:0:0:
64,192,268285,2,0,L|384:192,1,315.000012016297
256,192,269656,1,0,0:0:0:0:
256,192,269999,1,0,0:0:0:0:
256,192,270342,1,8,0:0:0:0:
256,192,270685,1,0,0:0:0:0:
256,192,271028,1,8,0:0:0:0:
256,192,271370,1,8,0:0:0:0:
256,192,271713,1,0,0:0:0:0:
256,192,272056,1,8,0:0:0:0:
256,192,272399,1,0,0:0:0:0:
256,192,272742,1,0,0:0:0:0:
256,192,273085,1,8,0:0:0:0:
256,192,273428,1,0,0:0:0:0:
64,192,273770,2,0,L|384:192,1,315.000012016297
256,192,275142,1,8,0:0:0:0:
256,192,275485,1,8,0:0:0:0:
256,192,275828,1,0,0:0:0:0:
256,192,276170,1,0,0:0:0:0:
256,192,276513,1,8,0:0:0:0:
256,192,276856,1,0,0:0:0:0:
256,192,277199,1,8,0:0:0:0:
256,192,277542,1,8,0:0:0:0:
256,192,277885,1,0,0:0:0:0:
256,192,278228,1,0,0:0:0:0:
256,192,278570,1,8,0:0:0:0:
256,192,278913,1,0,0:0:0:0:
64,192,279256,2,0,L|384:192,1,315.000012016297
256,192,280628,1,0,0:0:0:0:
256,192,280970,1,0,0:0:0:0:
256,192,281313,1,8,0:0:0:0:
256,192,281656,1,0,0:0:0:0:
256,192,281999,1,8,0:0:0:0:
256,192,282342,1,8,0:0:0:0:
256,192,282685,1,0,0:0:0:0:
256,192,283028,1,8,0:0:0:0:
256,192,283370,1,0,0:0:0:0:
256,192,283713,1,0,0:0:0:0:
256,192,284056,1,8,0:0:0:0:
256,192,284399,1,0,0:0:0:0:
64,192,284742,2,0,L|384:192,1,315.000012016297
256,192,286113,1,0,0:0:0:0:
256,192,286456,1,8,0:0:0:0:
256,192,286799,1,0,0:0:0:0:
256,192,287142,1,8,0:0:0:0:
256,192,287485,1,0,0:0:0:0:
256,192,287656,1,0,0:0:0:0:
256,192,287828,1,8,0:0:0:0:
256,192,287999,1,8,0:0:0:0:
256,192,288170,1,0,0:0:0:0:
256,192,288342,1,0,0:0:0:0:
256,192,288513,1,8,0:0:0:0:
256,192,288685,1,8,0:0:0:0:
256,192,288856,1,0,0:0:0:0:
256,192,289199,1,8,0:0:0:0:
256,192,289542,1,0,0:0:0:0:
256,192,289885,1,8,0:0:0:0:
256,192,290228,1,0,0:0:0:0:
256,192,290399,1,0,0:0:0:0:
256,192,290570,1,8,0:0:0:0:
256,192,290742,1,8,0:0:0:0:
256,192,290913,1,0,0:0:0:0:
256,192,291085,1,0,0:0:0:0:
256,192,291256,1,8,0:0:0:0:
256,192,291428,1,8,0:0:0:0:
256,192,291599,1,0,0:0:0:0:
256,192,291770,1,0,0:0:0:0:
256,192,291942,1,0,0:0:0:0:
256,192,292113,1,0,0:0:0:0:
256,192,292285,1,8,0:0:0:0:
256,192,292456,1,8,0:0:0:0:
256,192,292628,1,8,0:0:0:0:
256,192,292799,1,8,0:0:0:0:
256,192,292970,1,0,0:0:0:0:
256,192,293142,1,0,0:0:0:0:
256,192,293313,1,0,0:0:0:0:
256,192,293485,1,0,0:0:0:0:
256,192,293656,1,8,0:0:0:0:
256,192,293828,1,8,0:0:0:0:
256,192,293999,1,8,0:0:0:0:
256,192,294170,1,8,0:0:0:0:
256,192,294342,1,8,0:0:0:0:
256,192,294428,1,0,0:0:0:0:
256,192,294513,1,8,0:0:0:0:
256,192,294599,1,8,0:0:0:0:
256,192,294685,1,0,0:0:0:0:
256,192,294770,1,0,0:0:0:0:
256,192,294856,1,8,0:0:0:0:
256,192,294942,1,0,0:0:0:0:
256,192,295028,1,8,0:0:0:0:
256,192,295113,1,8,0:0:0:0:
256,192,295199,1,0,0:0:0:0:
256,192,295285,1,0,0:0:0:0:
256,192,295370,1,8,0:0:0:0:
256,192,295456,1,8,0:0:0:0:
256,192,295542,1,0,0:0:0:0:
256,192,295628,1,0,0:0:0:0:
256,192,295713,1,8,0:0:0:0:
256,192,295799,1,0,0:0:0:0:
256,192,295885,1,8,0:0:0:0:
256,192,295970,1,8,0:0:0:0:
256,192,296056,1,0,0:0:0:0:
256,192,296142,1,0,0:0:0:0:
256,192,296228,1,8,0:0:0:0:
256,192,296313,1,0,0:0:0:0:
256,192,296399,1,8,0:0:0:0:
256,192,296485,1,0,0:0:0:0:
256,192,296570,1,8,0:0:0:0:
256,192,296656,1,0,0:0:0:0:
256,192,296742,1,8,0:0:0:0:
256,192,296828,1,8,0:0:0:0:
256,192,296913,1,0,0:0:0:0:
256,192,297085,1,4,0:0:0:0:
256,192,297256,1,0,0:0:0:0:
256,192,297342,1,0,0:0:0:0:
256,192,297428,1,8,0:0:0:0:
256,192,297599,1,0,0:0:0:0:
256,192,297685,1,0,0:0:0:0:
256,192,297770,1,8,0:0:0:0:
256,192,297856,1,0,0:0:0:0:
256,192,297942,1,0,0:0:0:0:
256,192,298113,1,8,0:0:0:0:
256,192,298285,1,8,0:0:0:0:
256,192,298370,1,8,0:0:0:0:
256,192,298456,1,0,0:0:0:0:
256,192,298542,1,0,0:0:0:0:
256,192,298628,1,8,0:0:0:0:
256,192,298799,1,8,0:0:0:0:
256,192,298970,1,0,0:0:0:0:
256,192,299056,1,0,0:0:0:0:
256,192,299142,1,8,0:0:0:0:
256,192,299313,1,0,0:0:0:0:
256,192,299485,1,8,0:0:0:0:
256,192,299656,1,0,0:0:0:0:
256,192,299828,1,0,0:0:0:0:
256,192,299999,1,0,0:0:0:0:
256,192,300085,1,0,0:0:0:0:
256,192,300170,1,8,0:0:0:0:
256,192,300342,1,0,0:0:0:0:
256,192,300428,1,0,0:0:0:0:
256,192,300513,1,8,0:0:0:0:
256,192,300599,1,8,0:0:0:0:
256,192,300685,1,0,0:0:0:0:
256,192,300856,1,8,0:0:0:0:
256,192,301028,1,0,0:0:0:0:
256,192,301113,1,8,0:0:0:0:
256,192,301199,1,8,0:0:0:0:
256,192,301285,1,0,0:0:0:0:
256,192,301370,1,8,0:0:0:0:
256,192,301542,1,8,0:0:0:0:
256,192,301713,1,0,0:0:0:0:
256,192,301799,1,0,0:0:0:0:
256,192,301885,1,8,0:0:0:0:
256,192,302056,1,0,0:0:0:0:
256,192,302228,1,8,0:0:0:0:
256,192,302399,1,0,0:0:0:0:
256,192,302570,1,0,0:0:0:0:
256,192,302742,1,0,0:0:0:0:
256,192,302828,1,0,0:0:0:0:
256,192,302913,1,8,0:0:0:0:
256,192,303085,1,0,0:0:0:0:
256,192,303170,1,0,0:0:0:0:
256,192,303256,1,8,0:0:0:0:
256,192,303342,1,0,0:0:0:0:
256,192,303428,1,0,0:0:0:0:
256,192,303599,1,8,0:0:0:0:
256,192,303770,1,8,0:0:0:0:
256,192,303856,1,8,0:0:0:0:
256,192,303942,1,0,0:0:0:0:
256,192,304028,1,0,0:0:0:0:
256,192,304113,1,8,0:0:0:0:
256,192,304285,1,8,0:0:0:0:
256,192,304456,1,0,0:0:0:0:
256,192,304542,1,0,0:0:0:0:
256,192,304628,1,8,0:0:0:0:
256,192,304799,1,0,0:0:0:0:
256,192,304970,1,8,0:0:0:0:
256,192,305142,1,0,0:0:0:0:
256,192,305313,1,0,0:0:0:0:
256,192,305485,1,0,0:0:0:0:
256,192,305570,1,0,0:0:0:0:
256,192,305656,1,8,0:0:0:0:
256,192,305828,1,0,0:0:0:0:
256,192,305913,1,0,0:0:0:0:
256,192,305999,1,8,0:0:0:0:
256,192,306085,1,8,0:0:0:0:
256,192,306170,1,0,0:0:0:0:
256,192,306342,1,8,0:0:0:0:
256,192,306513,1,0,0:0:0:0:
256,192,306599,1,8,0:0:0:0:
256,192,306685,1,8,0:0:0:0:
256,192,306770,1,0,0:0:0:0:
256,192,306856,1,8,0:0:0:0:
256,192,306942,1,0,0:0:0:0:
256,192,307028,1,8,0:0:0:0:
256,192,307199,1,0,0:0:0:0:
256,192,307370,1,8,0:0:0:0:
256,192,307456,1,0,0:0:0:0:
256,192,307542,1,8,0:0:0:0:
256,192,307628,1,0,0:0:0:0:
256,192,307713,1,8,0:0:0:0:
256,192,307885,1,0,0:0:0:0:
256,192,308056,1,0,0:0:0:0:
256,192,308228,1,0,0:0:0:0:
256,192,308313,1,0,0:0:0:0:
256,192,308399,1,8,0:0:0:0:
256,192,308570,1,0,0:0:0:0:
256,192,308656,1,0,0:0:0:0:
256,192,308742,1,8,0:0:0:0:
256,192,308828,1,0,0:0:0:0:
256,192,308913,1,0,0:0:0:0:
256,192,309085,1,8,0:0:0:0:
256,192,309256,1,8,0:0:0:0:
256,192,309342,1,8,0:0:0:0:
256,192,309428,1,0,0:0:0:0:
256,192,309513,1,0,0:0:0:0:
256,192,309599,1,8,0:0:0:0:
256,192,309770,1,8,0:0:0:0:
256,192,309942,1,0,0:0:0:0:
256,192,310028,1,0,0:0:0:0:
256,192,310113,1,8,0:0:0:0:
256,192,310285,1,0,0:0:0:0:
256,192,310456,1,8,0:0:0:0:
256,192,310628,1,0,0:0:0:0:
256,192,310799,1,0,0:0:0:0:
256,192,310970,1,0,0:0:0:0:
256,192,311056,1,0,0:0:0:0:
256,192,311142,5,8,0:0:0:0:
256,192,311313,1,0,0:0:0:0:
256,192,311399,1,0,0:0:0:0:
256,192,311485,1,8,0:0:0:0:
256,192,311570,1,8,0:0:0:0:
256,192,311656,1,0,0:0:0:0:
256,192,311828,1,8,0:0:0:0:
256,192,311999,1,0,0:0:0:0:
256,192,312085,1,8,0:0:0:0:
256,192,312170,1,8,0:0:0:0:
256,192,312256,1,0,0:0:0:0:
256,192,312342,1,8,0:0:0:0:
256,192,312513,1,8,0:0:0:0:
256,192,312685,1,0,0:0:0:0:
256,192,312770,1,0,0:0:0:0:
256,192,312856,1,8,0:0:0:0:
256,192,313028,1,0,0:0:0:0:
256,192,313199,1,8,0:0:0:0:
256,192,313370,1,0,0:0:0:0:
256,192,313542,1,0,0:0:0:0:
256,192,313713,1,0,0:0:0:0:
256,192,313799,1,0,0:0:0:0:
256,192,313885,1,8,0:0:0:0:
256,192,314056,1,0,0:0:0:0:
256,192,314142,1,0,0:0:0:0:
256,192,314228,1,8,0:0:0:0:
256,192,314313,1,0,0:0:0:0:
256,192,314399,1,0,0:0:0:0:
256,192,314570,1,8,0:0:0:0:
256,192,314742,1,8,0:0:0:0:
256,192,314828,1,8,0:0:0:0:
256,192,314913,1,0,0:0:0:0:
256,192,314999,1,0,0:0:0:0:
256,192,315085,1,8,0:0:0:0:
256,192,315256,1,8,0:0:0:0:
256,192,315428,1,0,0:0:0:0:
256,192,315513,1,0,0:0:0:0:
256,192,315599,1,8,0:0:0:0:
256,192,315770,1,0,0:0:0:0:
256,192,315942,1,8,0:0:0:0:
256,192,316113,1,0,0:0:0:0:
256,192,316285,1,0,0:0:0:0:
256,192,316456,1,0,0:0:0:0:
256,192,316542,1,0,0:0:0:0:
256,192,316628,1,8,0:0:0:0:
256,192,316799,1,0,0:0:0:0:
256,192,316885,1,0,0:0:0:0:
256,192,316970,1,8,0:0:0:0:
256,192,317056,1,8,0:0:0:0:
256,192,317142,1,0,0:0:0:0:
256,192,317313,1,8,0:0:0:0:
256,192,317485,1,0,0:0:0:0:
256,192,317570,1,8,0:0:0:0:
256,192,317656,1,8,0:0:0:0:
256,192,317742,1,0,0:0:0:0:
256,192,317828,1,8,0:0:0:0:
256,192,317913,1,0,0:0:0:0:
256,192,317999,1,8,0:0:0:0:
256,192,318170,1,0,0:0:0:0:
256,192,318342,1,8,0:0:0:0:
256,192,318428,1,0,0:0:0:0:
256,192,318513,1,8,0:0:0:0:
256,192,318599,1,0,0:0:0:0:
256,192,318685,1,8,0:0:0:0:
256,192,318856,1,0,0:0:0:0:
256,192,319028,1,0,0:0:0:0:
256,192,319199,1,0,0:0:0:0:
256,192,319285,1,0,0:0:0:0:
256,192,319370,1,8,0:0:0:0:
256,192,319542,1,0,0:0:0:0:
256,192,319628,1,0,0:0:0:0:
256,192,319713,1,8,0:0:0:0:
256,192,319799,1,0,0:0:0:0:
256,192,319885,1,0,0:0:0:0:
256,192,319970,1,0,0:0:0:0:
256,192,320056,1,8,0:0:0:0:
256,192,320228,1,8,0:0:0:0:
256,192,320313,1,8,0:0:0:0:
256,192,320399,1,0,0:0:0:0:
256,192,320485,1,0,0:0:0:0:
256,192,320570,1,8,0:0:0:0:
256,192,320656,1,0,0:0:0:0:
256,192,320742,1,8,0:0:0:0:
256,192,320913,1,0,0:0:0:0:
256,192,321085,1,8,0:0:0:0:
256,192,321170,1,0,0:0:0:0:
256,192,321256,1,8,0:0:0:0:
256,192,321342,1,0,0:0:0:0:
256,192,321428,1,8,0:0:0:0:
256,192,321599,1,0,0:0:0:0:
256,192,321770,1,0,0:0:0:0:
256,192,321942,1,0,0:0:0:0:
256,192,322028,1,0,0:0:0:0:
256,192,322113,1,8,0:0:0:0:
256,192,322285,1,0,0:0:0:0:
256,192,322370,1,0,0:0:0:0:
256,192,322456,1,8,0:0:0:0:
256,192,322542,1,8,0:0:0:0:
256,192,322628,1,0,0:0:0:0:
256,192,322713,1,0,0:0:0:0:
256,192,322799,1,8,0:0:0:0:
256,192,322970,1,0,0:0:0:0:
256,192,323056,1,8,0:0:0:0:
256,192,323142,1,8,0:0:0:0:
256,192,323228,1,0,0:0:0:0:
256,192,323313,1,8,0:0:0:0:
256,192,323399,1,0,0:0:0:0:
256,192,323485,1,8,0:0:0:0:
256,192,323656,1,0,0:0:0:0:
256,192,323828,1,8,0:0:0:0:
256,192,323913,1,0,0:0:0:0:
256,192,323999,1,8,0:0:0:0:
256,192,324085,1,0,0:0:0:0:
256,192,324170,1,8,0:0:0:0:
256,192,324342,1,0,0:0:0:0:
256,192,324513,1,0,0:0:0:0:
256,192,324685,1,0,0:0:0:0:
256,192,324770,1,0,0:0:0:0:
256,192,324856,1,8,0:0:0:0:
256,192,325028,1,0,0:0:0:0:
256,192,325113,1,0,0:0:0:0:
256,192,325199,1,8,0:0:0:0:
256,192,325285,1,8,0:0:0:0:
256,192,325370,1,0,0:0:0:0:
256,192,325456,1,0,0:0:0:0:
256,192,325542,1,8,0:0:0:0:
256,192,325713,1,8,0:0:0:0:
256,192,325799,1,8,0:0:0:0:
256,192,325885,1,0,0:0:0:0:
256,192,325970,1,0,0:0:0:0:
256,192,326056,1,8,0:0:0:0:
256,192,326142,1,0,0:0:0:0:
256,192,326228,1,8,0:0:0:0:
256,192,326399,1,0,0:0:0:0:
256,192,326570,1,8,0:0:0:0:
256,192,326656,1,0,0:0:0:0:
256,192,326742,1,8,0:0:0:0:
256,192,326828,1,0,0:0:0:0:
256,192,326913,1,8,0:0:0:0:
256,192,327085,1,0,0:0:0:0:
256,192,327256,1,0,0:0:0:0:
256,192,327428,1,0,0:0:0:0:
256,192,327513,1,0,0:0:0:0:
256,192,327599,1,8,0:0:0:0:
256,192,327770,1,0,0:0:0:0:
256,192,327942,1,8,0:0:0:0:
256,192,328028,1,8,0:0:0:0:
256,192,328113,1,0,0:0:0:0:
256,192,328199,1,0,0:0:0:0:
256,192,328285,1,8,0:0:0:0:
256,192,328456,1,0,0:0:0:0:
256,192,328628,1,8,0:0:0:0:
256,192,328799,1,0,0:0:0:0:
256,192,328970,1,8,0:0:0:0:
256,192,329142,1,0,0:0:0:0:
256,192,329313,1,8,0:0:0:0:
256,192,329485,1,0,0:0:0:0:
256,192,329570,1,0,0:0:0:0:
256,192,329656,1,8,0:0:0:0:
256,192,329828,1,0,0:0:0:0:
256,192,329999,1,12,0:0:0:0:
256,192,330170,1,0,0:0:0:0:
256,192,330256,1,0,0:0:0:0:
256,192,330342,1,0,0:0:0:0:
256,192,330513,1,12,0:0:0:0:
256,192,330685,1,0,0:0:0:0:
256,192,330770,1,0,0:0:0:0:
256,192,330856,1,0,0:0:0:0:
256,192,331028,1,12,0:0:0:0:
256,192,331199,1,0,0:0:0:0:
256,192,331370,1,12,0:0:0:0:
256,192,331542,1,0,0:0:0:0:
256,192,331628,1,0,0:0:0:0:
256,192,331713,1,0,0:0:0:0:
256,192,331885,1,12,0:0:0:0:
256,192,332056,1,0,0:0:0:0:
256,192,332142,1,0,0:0:0:0:
256,192,332228,1,0,0:0:0:0:
256,192,332399,1,12,0:0:0:0:
256,192,332570,1,0,0:0:0:0:
256,192,332742,1,12,0:0:0:0:
256,192,332913,1,0,0:0:0:0:
256,192,332999,1,0,0:0:0:0:
256,192,333085,1,0,0:0:0:0:
256,192,333256,1,12,0:0:0:0:
256,192,333428,1,0,0:0:0:0:
256,192,333513,1,0,0:0:0:0:
256,192,333599,1,0,0:0:0:0:
256,192,333770,1,12,0:0:0:0:
256,192,333942,1,0,0:0:0:0:
256,192,334113,1,12,0:0:0:0:
256,192,334285,1,0,0:0:0:0:
256,192,334370,1,0,0:0:0:0:
256,192,334456,1,0,0:0:0:0:
256,192,334628,1,12,0:0:0:0:
256,192,334799,1,0,0:0:0:0:
256,192,334885,1,0,0:0:0:0:
256,192,334970,1,0,0:0:0:0:
256,192,335142,1,12,0:0:0:0:
256,192,335313,1,0,0:0:0:0:
256,192,335485,1,12,0:0:0:0:
256,192,335656,1,0,0:0:0:0:
256,192,335742,1,0,0:0:0:0:
256,192,335828,1,0,0:0:0:0:
256,192,335999,1,12,0:0:0:0:
256,192,336170,1,0,0:0:0:0:
256,192,336256,1,0,0:0:0:0:
256,192,336342,1,0,0:0:0:0:
256,192,336513,1,12,0:0:0:0:
256,192,336685,1,0,0:0:0:0:
256,192,336856,1,12,0:0:0:0:
256,192,337028,1,0,0:0:0:0:
256,192,337113,1,0,0:0:0:0:
256,192,337199,1,0,0:0:0:0:
256,192,337370,1,12,0:0:0:0:
256,192,337542,1,0,0:0:0:0:
256,192,337628,1,0,0:0:0:0:
256,192,337713,1,0,0:0:0:0:
256,192,337885,1,12,0:0:0:0:
256,192,338056,1,0,0:0:0:0:
256,192,338142,1,0,0:0:0:0:
256,192,338228,1,8,0:0:0:0:
256,192,338399,5,8,0:0:0:0:
256,192,338570,1,8,0:0:0:0:
256,192,338742,1,8,0:0:0:0:
256,192,338913,1,8,0:0:0:0:
256,192,339085,1,8,0:0:0:0:
256,192,339256,1,8,0:0:0:0:
256,192,339428,1,8,0:0:0:0:
256,192,339599,1,8,0:0:0:0:
256,192,339685,1,0,0:0:0:0:
256,192,339770,1,8,0:0:0:0:
256,192,339856,1,8,0:0:0:0:
256,192,339942,1,0,0:0:0:0:
256,192,340028,1,0,0:0:0:0:
256,192,340113,1,8,0:0:0:0:
256,192,340199,1,0,0:0:0:0:
256,192,340285,1,8,0:0:0:0:
256,192,340370,1,0,0:0:0:0:
256,192,340456,1,8,0:0:0:0:
256,192,340542,1,8,0:0:0:0:
256,192,340628,1,0,0:0:0:0:
256,192,340713,1,0,0:0:0:0:
256,192,340799,1,8,0:0:0:0:
256,192,340970,1,12,0:0:0:0:
256,192,341313,1,4,0:0:0:0:
