osu file format v14

[General]
AudioFilename: audio.mp3
AudioLeadIn: 0
PreviewTime: 288695
Countdown: 0
SampleSet: Soft
StackLeniency: 0.4
Mode: 0
LetterboxInBreaks: 0
EpilepsyWarning: 1
WidescreenStoryboard: 1

[Editor]
DistanceSpacing: 1.4
BeatDivisor: 4
GridSize: 16
TimelineZoom: 2.600002

[Metadata]
Title:2020 Visual Novel Songs Compilation
TitleUnicode:2020 Visual Novel Songs Compilation
Artist:Various Artists
ArtistUnicode:Various Artists
Creator:Kuse
Version:Snowy Delight
Source:
Tags:KuBsNia_ZhoYL_ japanese eroge op opening video game pop 恋するキリギリス Koisuru Kirigirisu Hakuchuumu no Aojashin case3 First Time 夢乃ゆき Yumeno Yuki ペトリコール -Petrichor- MY WAKER 米倉千尋 9-nine- Yonekura Chihiro yukiiro yukihana yukinoato 桜爛ロマンシア Ouran Romancia KyoKa さくらの雲*スカアレットの恋 Sakura no Kumo * Scarlet no Koi The of my life まり子 Mariko あの日の旅人、ふれあう未来 anohi no tabibito, fureau mirai Love's Oracle 佐咲紗花 Sasaki Sayaka 保健室のセンセーとシャボン玉中毒の助手 Hokenshitsu no Sensei to Shabondama Chuudoku no Joshu Kagi o Kakushita Kago no Tori 霜月はるか Shimotsuki Haruka 鍵を隠したカゴのトリ -BIRD IN CAGE HIDING THE KEY- Love♡Vacation love vacation 松下/nayuta Matsushita かけぬけ★青春スパーキング! Kakenuke★Seishun Sparking! 光放て! Hikari Hanate! 柳麻美 Yanagi Mami Makura ATRI -My Dear Moments- 紅ノ刃 kurenai no yaiba No:R noa 紅月ゆれる恋あかり akatsuki yureru koi akari Answer Duca アインシュタインより愛を込めて Einstein yori aiwokomete 飢餓と宝玉 Kiga to Hougyoku konore マルコと銀河竜 ~MARCO & GALAXY DRAGON~ Unreal Creation! 櫻川めぐ Sakuragawa Megu Hamidashi Creative ハミダシクリエイティブ ハミクリ Hamikuri
BeatmapID:2728319
BeatmapSetID:1316762

[Difficulty]
HPDrainRate:4
CircleSize:4.2
OverallDifficulty:8.5
ApproachRate:9.3
SliderMultiplier:1.8
SliderTickRate:1

[Events]
//Background and Video events
0,0,"bg.jpg",0,0
//Break Periods
2,39620,46431
2,95558,103211
2,158449,165289
2,213021,222500
2,272896,283340
2,330165,339772
2,404664,415780
2,462755,470536
2,498963,508911
2,558865,567565
2,635204,641830
2,682634,689972
//Storyboard Layer 0 (Background)
//Storyboard Layer 1 (Fail)
//Storyboard Layer 2 (Pass)
//Storyboard Layer 3 (Foreground)
//Storyboard Layer 4 (Overlay)
//Storyboard Sound Samples

[TimingPoints]
2185,422.535211267606,4,2,3,60,1,0
3663,-142.857142857143,4,2,3,60,0,0
5143,-142.857142857143,4,2,3,60,0,0
10213,-142.857142857143,4,2,3,40,0,0
10635,-100,4,2,3,75,0,1
13910,-100,4,2,3,5,0,1
14015,-100,4,2,3,75,0,1
17290,-100,4,2,3,5,0,1
17396,-100,4,2,3,75,0,1
20670,-100,4,2,3,5,0,1
20776,-100,4,2,3,75,0,1
27431,-100,4,2,3,5,0,1
27537,-100,4,2,3,75,0,1
34192,-100,4,2,3,5,0,1
34297,-100,4,2,3,75,0,1
37677,-100,4,2,3,60,0,0
38523,-100,4,2,3,45,0,0
39420,-100,4,2,3,30,0,0
43265,465.116279069768,4,2,3,60,1,0
46985,-100,4,2,3,60,0,0
48613,-83.3333333333333,4,2,3,60,0,0
49078,-100,4,2,3,60,0,0
51869,-142.857142857143,4,2,3,60,0,0
52044,-100,4,2,3,5,0,0
52102,-100,4,2,3,60,0,0
52567,-64.5161290322581,4,2,3,75,0,1
54078,-90.9090909090909,4,2,3,75,0,1
54311,-90.9090909090909,4,2,3,5,0,1
54427,-64.5161290322581,4,2,3,75,0,1
55939,-90.9090909090909,4,2,3,75,0,1
56171,-76.9230769230769,4,2,3,5,0,1
56288,-64.5161290322581,4,2,3,75,0,1
57683,-142.857142857143,4,2,3,75,0,1
58613,-100,4,2,3,75,0,1
59544,-142.857142857143,4,2,3,75,0,1
59892,-142.857142857143,4,2,3,5,0,1
60009,-76.923076923077,4,2,3,75,0,1
61753,-76.923076923077,4,2,3,5,0,1
61869,-76.923076923077,4,2,3,75,0,1
63730,-76.923076923077,4,2,3,75,0,1
64427,-100,4,2,3,75,0,1
64602,-76.923076923077,4,2,3,5,0,1
64660,-76.923076923077,4,2,3,75,0,1
65358,-64.5161290322581,4,2,3,75,0,1
66288,-90.9090909090909,4,2,3,75,0,1
66695,-90.9090909090909,4,2,3,5,0,1
66753,-76.9230769230769,4,2,3,75,0,1
67451,-64.5161290322581,4,2,3,75,0,1
68962,-90.9090909090909,4,2,3,75,0,1
69195,-76.9230769230769,4,2,3,5,0,1
69311,-64.5161290322581,4,2,3,75,0,1
70823,-90.9090909090909,4,2,3,75,0,1
71055,-90.9090909090909,4,2,3,5,0,1
71171,-64.5161290322581,4,2,3,75,0,1
72799,-83.3333333333333,4,2,3,75,0,1
74427,-142.857142857143,4,2,3,75,0,1
74776,-142.857142857143,4,2,3,5,0,1
74892,-142.857142857143,4,2,3,75,0,1
75590,-125,4,2,3,75,0,1
76520,-142.857142857143,4,2,3,75,0,1
77683,-142.857142857143,4,2,3,40,0,1
78148,-142.857142857143,4,2,3,50,0,1
78613,-100,4,2,3,60,0,0
86055,-100,4,2,3,60,0,0
91637,-100,4,2,3,50,0,0
92567,-100,4,2,3,40,0,0
93497,-100,4,2,3,30,0,0
94427,-100,4,2,3,20,0,0
95358,-100,4,2,3,10,0,0
100393,428.571428571429,4,2,2,70,1,0
105535,-217.391304347826,4,2,2,70,0,0
105589,-217.391304347826,4,2,2,40,0,0
105964,-217.391304347826,4,2,2,50,0,0
106393,-217.391304347826,4,2,2,60,0,0
106821,-217.391304347826,4,2,2,70,0,0
106928,-217.391304347826,4,2,2,75,0,0
107035,-217.391304347826,4,2,2,20,0,0
107250,-66.6666666666667,4,2,2,85,0,1
111750,-111.111111111111,4,2,2,85,0,1
111964,-90.9090909090909,4,2,2,85,0,1
112178,-76.9230769230769,4,2,2,85,0,1
112393,-66.6666666666667,4,2,2,85,0,1
119357,-52.6315789473684,4,2,2,85,0,1
120964,-66.6666666666667,4,2,2,85,0,1
126107,-58.8235294117647,4,2,2,85,0,1
126535,-66.6666666666667,4,2,2,85,0,1
136393,-270.27027027027,4,2,2,85,0,1
137678,-270.27027027027,4,2,2,40,0,1
138107,-76.9230769230769,4,2,2,70,0,0
143250,-58.8235294117647,4,2,2,70,0,0
143893,-76.9230769230769,4,2,2,70,0,0
150107,-58.8235294117647,4,2,2,70,0,0
151178,-76.9230769230769,4,2,2,70,0,0
151821,-166.666666666667,4,2,2,30,0,0
153321,-200,4,2,2,55,0,0
153535,-500,4,2,2,70,0,0
154393,-500,4,2,2,60,0,0
155250,-500,4,2,2,50,0,0
156107,-500,4,2,2,40,0,0
156964,-500,4,2,2,30,0,0
157821,-500,4,2,2,20,0,0
158250,-500,4,2,2,20,0,0
164275,405.405405405405,4,2,6,70,1,0
165896,-100,4,2,6,70,0,0
167518,-76.9230769230769,4,2,6,70,0,0
169950,-142.857142857143,4,2,6,70,0,0
170153,-111.111111111111,4,2,6,70,0,0
170356,-90.9090909090909,4,2,6,70,0,0
170558,-76.9230769230769,4,2,6,70,0,0
170761,-66.6666666666667,4,2,6,85,0,1
180491,-83.3333333333333,4,2,6,85,0,1
182112,-66.6666666666667,4,2,6,85,0,1
183734,-83.3333333333333,4,2,6,85,0,1
186166,-66.6666666666667,4,2,6,85,0,1
194274,-55.5555555555556,4,2,6,85,0,1
195085,-66.6666666666667,4,2,6,85,0,1
196099,-55.5555555555556,4,2,6,85,0,1
196707,-76.9230769230769,4,2,6,70,0,0
200254,-66.6666666666667,4,2,6,70,0,0
200558,-76.9230769230769,4,2,6,70,0,0
206741,-66.6666666666667,4,2,6,70,0,0
207045,-76.9230769230769,4,2,6,70,0,0
220197,357.142857142857,4,2,2,70,1,0
223054,-100,4,2,2,70,0,0
229125,-125,4,2,2,70,0,0
229661,-83.3333333333333,4,2,2,85,0,1
229839,357.142857142857,4,2,2,85,1,1
229839,-83.3333333333333,4,2,2,85,0,1
255553,-100,4,2,2,70,0,0
268410,-100,4,2,2,60,0,0
269839,-100,4,2,2,50,0,0
271267,-100,4,2,2,40,0,0
272696,-100,4,2,2,30,0,0
278180,357.142857142857,4,2,5,70,1,0
288269,-100,4,2,5,5,0,0
288358,-100,4,2,5,70,0,0
289608,-80,4,2,5,85,0,1
303894,-68.9655172413793,4,2,5,85,0,1
304162,-68.9655172413793,4,2,5,5,0,1
304251,-68.9655172413793,4,2,5,85,0,1
304697,-68.9655172413793,4,2,5,5,0,1
304787,-68.9655172413793,4,2,5,85,0,1
305501,-80,4,2,5,85,0,1
312733,-80,4,2,5,5,0,1
312822,-80,4,2,5,85,0,1
313269,-80,4,2,5,5,0,1
313358,-80,4,2,5,85,0,1
316215,-80,4,2,5,55,0,1
316305,-80,4,2,5,5,0,1
316394,-125,4,2,5,55,0,1
316662,-125,4,2,5,5,0,1
316751,-100,4,2,5,70,0,0
328001,-133.333333333333,4,2,5,70,0,0
328269,-100,4,2,5,5,0,0
328358,-100,4,2,5,70,0,0
329697,-100,4,2,5,5,0,0
329787,-100,4,2,5,70,0,0
338258,344.827586206897,3,2,7,60,1,0
340326,-166.666666666667,3,2,7,60,0,0
343775,-166.666666666667,3,2,7,20,0,0
343832,-166.666666666667,3,2,7,25,0,0
343890,-166.666666666667,3,2,7,30,0,0
343947,-166.666666666667,3,2,7,35,0,0
344005,-166.666666666667,3,2,7,40,0,0
344062,-166.666666666667,3,2,7,45,0,0
344120,-166.666666666667,3,2,7,50,0,0
344177,-166.666666666667,3,2,7,55,0,0
344235,-166.666666666667,3,2,7,60,0,0
344292,-166.666666666667,3,2,7,65,0,0
344349,-166.666666666667,3,2,7,70,0,0
344407,-166.666666666667,3,2,7,75,0,0
344464,-83.3333333333333,3,2,7,75,0,1
348516,-83.3333333333333,3,2,7,5,0,1
348602,-83.3333333333333,3,2,7,75,0,1
362999,-83.3333333333333,3,2,7,5,0,1
363085,-83.3333333333333,3,2,7,75,0,1
375413,-83.3333333333333,3,2,7,5,0,1
375499,-83.3333333333333,3,2,7,75,0,1
378085,-111.111111111111,3,2,7,75,0,1
378602,-166.666666666667,3,2,7,75,0,1
379637,-166.666666666667,3,2,7,60,0,0
396189,-312.5,3,2,7,60,0,0
397223,-312.5,3,2,7,52,0,0
398258,-312.5,3,2,7,46,0,0
399292,-312.5,3,2,7,40,0,0
400326,-312.5,3,2,7,34,0,0
401361,-312.5,3,2,7,28,0,0
402395,-312.5,3,2,7,22,0,0
403430,-312.5,3,2,7,16,0,0
404464,-312.5,3,2,7,10,0,0
413718,348.837209302326,4,2,2,70,1,0
416508,-100,4,2,2,70,0,0
417206,-83.3333333333333,4,2,2,70,0,0
417904,-100,4,2,2,70,0,0
418601,-71.4285714285714,4,2,2,70,0,0
419299,-400,4,2,2,70,0,0
419997,-83.3333333333333,4,2,2,70,0,0
421741,-66.6666666666667,4,2,2,70,0,0
422002,-66.6666666666667,4,2,2,5,0,0
422090,-76.9230769230769,4,2,2,85,0,1
424270,-76.9230769230769,4,2,2,5,0,1
424357,-76.9230769230769,4,2,2,85,0,1
424444,-76.9230769230769,4,2,2,5,0,1
424531,-76.9230769230769,4,2,2,85,0,1
424619,-76.9230769230769,4,2,2,5,0,1
424706,-76.9230769230769,4,2,2,85,0,1
426276,-64.5161290322581,4,2,2,85,0,1
426537,-64.5161290322581,4,2,2,5,0,1
426624,-64.5161290322581,4,2,2,85,0,1
426886,-64.5161290322581,4,2,2,5,0,1
426973,-64.5161290322581,4,2,2,85,0,1
427671,-76.9230769230769,4,2,2,85,0,1
428630,-76.9230769230769,4,2,2,5,0,1
428718,-68.9655172413793,4,2,2,85,0,1
428979,-68.9655172413793,4,2,2,5,0,1
429066,-68.9655172413793,4,2,2,85,0,1
429764,-76.9230769230769,4,2,2,85,0,1
433252,-76.9230769230769,4,2,2,85,0,1
434299,-64.5161290322581,4,2,2,85,0,1
434561,-64.5161290322581,4,2,2,5,0,1
434648,-76.9230769230769,4,2,2,85,0,1
435694,-64.5161290322581,4,2,2,85,0,1
435956,-64.5161290322581,4,2,2,5,0,1
436043,-76.9230769230769,4,2,2,85,0,1
439880,-64.5161290322581,4,2,2,85,0,1
440229,-76.9230769230769,4,2,2,85,0,1
441276,-64.5161290322581,4,2,2,85,0,1
441624,-76.9230769230769,4,2,2,85,0,1
444415,-90.9090909090909,4,2,2,70,0,0
447555,-76.9230769230769,4,2,2,70,0,0
448427,-90.9090909090909,4,2,2,70,0,0
449997,-76.9230769230769,4,2,2,70,0,0
450345,-90.9090909090909,4,2,2,70,0,0
452090,-76.9230769230769,4,2,2,70,0,0
452351,-76.9230769230769,4,2,2,5,0,0
452438,-90.9090909090909,4,2,2,70,0,0
454008,-76.9230769230769,4,2,2,70,0,0
454270,-76.9230769230769,4,2,2,5,0,0
454357,-76.9230769230769,4,2,2,70,0,0
454619,-76.9230769230769,4,2,2,5,0,0
454706,-90.9090909090909,4,2,2,70,0,0
461072,-90.9090909090909,4,2,2,70,0,0
461857,-90.9090909090909,4,2,2,55,0,0
462555,-90.9090909090909,4,2,2,40,0,0
468332,344.827586206897,4,2,2,70,1,0
471090,-83.3333333333333,4,2,2,70,0,0
473849,-74.0740740740741,4,2,2,85,0,1
476263,-90.9090909090909,4,2,2,85,0,1
476607,-74.0740740740741,4,2,2,85,0,1
490400,-90.9090909090909,4,2,2,70,0,0
496263,-90.9090909090909,4,2,2,60,0,0
497297,-90.9090909090909,4,2,2,50,0,0
498332,-90.9090909090909,4,2,2,40,0,0
506722,342.857142857143,4,2,4,70,1,0
512207,-90.9090909090909,4,2,4,70,0,0
514607,-400,4,2,4,85,0,0
514864,-400,4,2,4,5,0,0
514950,-74.0740740740741,4,2,4,85,0,1
518893,-62.5,4,2,4,85,0,1
519150,-62.5,4,2,4,5,0,1
519236,-62.5,4,2,4,85,0,1
519493,-62.5,4,2,4,5,0,1
519579,-62.5,4,2,4,85,0,1
519836,-62.5,4,2,4,5,0,1
519922,-62.5,4,2,4,85,0,1
520436,-74.0740740740741,4,2,4,85,0,1
524379,-62.5,4,2,4,85,0,1
524636,-62.5,4,2,4,5,0,1
524722,-62.5,4,2,4,85,0,1
524979,-62.5,4,2,4,5,0,1
525064,-62.5,4,2,4,85,0,1
525579,-74.0740740740741,4,2,4,85,0,1
529864,-62.5,4,2,4,85,0,1
530122,-62.5,4,2,4,5,0,1
530207,-62.5,4,2,4,85,0,1
530464,-62.5,4,2,4,5,0,1
530550,-62.5,4,2,4,85,0,1
530807,-62.5,4,2,4,5,0,1
530893,-62.5,4,2,4,85,0,1
531407,-74.0740740740741,4,2,4,85,0,1
535350,-64.5161290322581,4,2,4,85,0,1
535436,-64.5161290322581,4,2,4,5,0,1
535522,-64.5161290322581,4,2,4,85,0,1
536722,-74.0740740740741,4,2,4,85,0,1
536807,-74.0740740740741,4,2,4,5,0,1
536893,-74.0740740740741,4,2,4,85,0,1
538350,-74.0740740740741,4,2,4,5,0,1
538436,-74.0740740740741,4,2,4,85,0,1
538522,-74.0740740740741,4,2,4,5,0,1
538607,-74.0740740740741,4,2,4,85,0,1
539293,-90.9090909090909,4,2,4,85,0,1
539550,-90.9090909090909,4,2,4,5,0,1
539636,-90.9090909090909,4,2,4,85,0,1
539722,-90.9090909090909,4,2,4,5,0,1
539807,-90.9090909090909,4,2,4,85,0,1
542464,-90.9090909090909,4,2,4,5,0,1
542550,-90.9090909090909,4,2,4,85,0,1
543579,-71.4285714285714,4,2,4,85,0,1
543836,-71.4285714285714,4,2,4,5,0,1
543922,-71.4285714285714,4,2,4,85,0,1
544007,-71.4285714285714,4,2,4,5,0,1
544093,-71.4285714285714,4,2,4,85,0,1
544779,-62.5,4,2,4,85,0,1
545036,-62.5,4,2,4,5,0,1
545122,-76.9230769230769,4,2,4,85,0,1
545293,-76.9230769230769,4,2,4,5,0,1
545379,-76.9230769230769,4,2,4,85,0,1
545550,-76.9230769230769,4,2,4,5,0,1
545636,-76.9230769230769,4,2,4,85,0,1
545722,-76.9230769230769,4,2,4,5,0,1
545807,-62.5,4,2,4,85,0,1
546322,-76.9230769230769,4,2,4,85,0,1
546579,-76.9230769230769,4,2,4,5,0,1
546664,-76.9230769230769,4,2,4,85,0,1
546750,-76.9230769230769,4,2,4,5,0,1
546836,-76.9230769230769,4,2,4,85,0,1
547864,-90.9090909090909,4,2,4,70,0,0
548636,-90.9090909090909,4,2,4,5,0,0
548722,-90.9090909090909,4,2,4,70,0,0
550522,-90.9090909090909,4,2,4,5,0,0
550607,-90.9090909090909,4,2,4,70,0,0
551036,-90.9090909090909,4,2,4,5,0,0
551122,-90.9090909090909,4,2,4,70,0,0
554036,-90.9090909090909,4,2,4,70,0,0
554122,-90.9090909090909,4,2,4,5,0,0
554207,-90.9090909090909,4,2,4,70,0,0
557207,-90.9090909090909,4,2,4,5,0,0
557293,-62.5,4,2,4,70,0,0
557550,-62.5,4,2,4,5,0,0
557636,-62.5,4,2,4,70,0,0
557893,-62.5,4,2,4,5,0,0
557979,-62.5,4,2,4,70,0,0
558150,-62.5,4,2,4,70,0,0
558322,-90.9090909090909,4,2,4,70,0,0
558579,-90.9090909090909,4,2,4,5,0,0
558664,-90.9090909090909,4,2,4,70,0,0
568119,327.868852459016,4,2,3,70,1,0
568119,-76.9230769230769,4,2,3,70,0,0
572053,-200,4,2,3,70,0,0
573692,-200,4,2,3,40,0,0
574020,-90.9090909090909,4,2,3,70,0,0
574512,-74.0740740740741,4,2,3,85,0,1
579758,-62.5,4,2,3,85,0,1
580250,-74.0740740740741,4,2,3,85,0,1
582545,-62.5,4,2,3,85,0,1
582791,-74.0740740740741,4,2,3,5,0,1
582873,-74.0740740740741,4,2,3,85,0,1
583037,-74.0740740740741,4,2,3,85,0,1
583282,-74.0740740740741,4,2,3,5,0,1
583364,-74.0740740740741,4,2,3,85,0,1
583692,-62.5,4,2,3,85,0,1
583938,-62.5,4,2,3,5,0,1
584020,-62.5,4,2,3,85,0,1
584348,-74.0740740740741,4,2,3,85,0,1
593037,-62.5,4,2,3,85,0,1
593282,-62.5,4,2,3,5,0,1
593364,-62.5,4,2,3,85,0,1
593528,-74.0740740740741,4,2,3,85,0,1
593774,-74.0740740740741,4,2,3,5,0,1
593856,-74.0740740740741,4,2,3,85,0,1
594184,-62.5,4,2,3,85,0,1
595496,-74.0740740740741,4,2,3,85,0,1
600741,-62.5,4,2,3,85,0,1
601233,-74.0740740740741,4,2,3,85,0,1
603528,-62.5,4,2,3,85,0,1
603774,-62.5,4,2,3,5,0,1
603856,-62.5,4,2,3,85,0,1
604020,-74.0740740740741,4,2,3,85,0,1
604266,-74.0740740740741,4,2,3,5,0,1
604348,-74.0740740740741,4,2,3,85,0,1
604676,-62.5,4,2,3,85,0,1
604922,-62.5,4,2,3,5,0,1
605004,-74.0740740740741,4,2,3,85,0,1
616479,-90.9090909090909,4,2,3,70,0,0
626971,-100,4,2,3,70,0,0
627791,-100,4,2,3,65,0,0
628446,-100,4,2,3,60,0,0
629102,-100,4,2,3,55,0,0
629758,-100,4,2,3,50,0,0
630414,-100,4,2,3,45,0,0
631069,-100,4,2,3,40,0,0
631725,-100,4,2,3,35,0,0
632381,-100,4,2,3,30,0,0
633037,-100,4,2,3,25,0,0
633692,-100,4,2,3,20,0,0
634348,-100,4,2,3,15,0,0
635004,-100,4,2,3,10,0,0
641169,314.13612565445,4,2,1,70,1,0
643682,-200,4,2,1,70,0,0
644310,-86.9565217391304,4,2,1,70,0,0
644938,-71.4285714285714,4,2,1,85,0,1
649886,-71.4285714285714,4,2,1,5,0,1
649964,-71.4285714285714,4,2,1,85,0,1
652477,-60.6060606060606,4,2,1,85,0,1
654833,-71.4285714285714,4,2,1,85,0,1
659388,-60.6060606060606,4,2,1,85,0,1
660017,-71.4285714285714,4,2,1,85,0,1
663472,-222.222222222222,4,2,1,85,0,1
663708,-333.333333333333,4,2,1,5,0,1
663786,-71.4285714285714,4,2,1,85,0,1
672582,-60.6060606060606,4,2,1,85,0,1
673682,-71.4285714285714,4,2,1,85,0,1
678865,-60.6060606060606,4,2,1,85,0,1
680121,-71.4285714285714,4,2,1,85,0,1
680750,-60.6060606060606,4,2,1,85,0,1
682163,-90.9090909090909,4,2,1,60,0,1
682634,-100,4,2,1,70,0,0
688316,315.789473684211,4,2,2,70,1,0
690684,-83.3333333333333,4,2,2,70,0,0
691631,-68.9655172413793,4,2,2,70,0,0
692894,-250,4,2,2,55,0,0
693289,-250,4,2,2,5,0,0
693368,-62.5,4,2,2,85,0,1
698737,-51.2820512820513,4,2,2,85,0,1
699052,-62.5,4,2,2,85,0,1
700000,-51.2820512820513,4,2,2,85,0,1
700316,-62.5,4,2,2,85,0,1
702526,-76.9230769230769,4,2,2,85,0,1
703473,-62.5,4,2,2,85,0,1
708842,-51.2820512820513,4,2,2,85,0,1
709158,-62.5,4,2,2,85,0,1
710105,-51.2820512820513,4,2,2,85,0,1
710421,-62.5,4,2,2,85,0,1
712631,-90.9090909090909,4,2,2,85,0,1
713579,-71.4285714285714,4,2,2,70,0,0
714131,-71.4285714285714,4,2,2,5,0,0
714210,-71.4285714285714,4,2,2,70,0,0
716026,-71.4285714285714,4,2,2,5,0,0
716105,-71.4285714285714,4,2,2,70,0,0
716658,-71.4285714285714,4,2,2,5,0,0
716737,-71.4285714285714,4,2,2,70,0,0
719184,-71.4285714285714,4,2,2,5,0,0
719263,-71.4285714285714,4,2,2,70,0,0
721079,-71.4285714285714,4,2,2,5,0,0
721158,-71.4285714285714,4,2,2,70,0,0
721710,-71.4285714285714,4,2,2,5,0,0
721789,-71.4285714285714,4,2,2,70,0,0
722737,-90.9090909090909,4,2,2,70,0,0
724394,-71.4285714285714,4,2,2,5,0,0
724473,-71.4285714285714,4,2,2,70,0,0
726210,-71.4285714285714,4,2,2,60,0,0
727473,-71.4285714285714,4,2,2,50,0,0
728737,-71.4285714285714,4,2,2,40,0,0
729526,-71.4285714285714,4,2,2,30,0,0

[Colours]
Combo1 : 79,79,255
Combo2 : 255,162,117
Combo3 : 255,128,128
Combo4 : 255,108,38
Combo5 : 255,70,70
Combo6 : 140,198,255
Combo7 : 77,166,255
Combo8 : 70,121,255

[HitObjects]
84,15,3663,6,0,B|157:26|110:79|181:92,1,125.999996154785,4|0,1:2|0:0,0:0:0:0:
243,138,4297,5,0,1:0:0:0:
350,71,4720,1,0,1:0:0:0:
418,183,5142,2,0,L|406:274,1,62.9999980773926,8|0,0:0|0:0,0:0:0:0:
343,299,5565,5,0,1:0:0:0:
231,240,5987,1,0,1:0:0:0:
143,331,6410,1,0,1:0:0:0:
56,239,6832,1,8,0:0:0:0:
125,204,7044,6,0,P|61:211|53:145,1,125.999996154785,0|0,1:0|0:0,0:0:0:0:
90,86,7677,1,0,1:0:0:0:
173,55,7889,1,2,0:0:0:0:
256,83,8100,1,0,1:0:0:0:
303,157,8311,1,2,0:0:0:0:
296,244,8523,1,8,0:0:0:0:
363,88,8734,69,0,1:0:0:0:
424,249,9156,1,0,1:0:0:0:
214,183,9579,2,0,B|132:149|137:276|25:196,1,188.999994232178,0|8,1:0|0:0,0:0:0:0:
41,206,10635,6,0,P|95:206|122:262,1,90,4|2,1:2|0:0,0:0:0:0:
149,342,11058,1,8,0:0:0:0:
226,238,11269,1,2,0:0:0:0:
317,339,11480,2,0,P|328:290|353:246,1,90,0|2,1:0|0:0,0:0:0:0:
456,191,11903,1,8,0:0:0:0:
350,119,12114,1,2,0:0:0:0:
465,27,12325,6,0,P|447:88|412:129,1,90,0|2,1:0|0:0,0:0:0:0:
255,137,12748,2,0,P|273:76|308:35,1,90,8|2,0:0|0:0,0:0:0:0:
327,216,13170,1,2,1:2:0:0:
305,198,13276,2,0,B|279:218|279:218|180:200,1,90,8|0,0:0|0:0,0:0:0:0:
196,223,13593,2,0,B|190:248|190:248|206:376,1,135,8|0,0:0|0:0,0:0:0:0:
226,374,14015,6,0,P|251:354|279:283,1,90,2|0,1:2|0:0,0:0:0:0:
108,277,14438,2,0,L|16:297,1,90,10|0,0:0|0:0,0:0:0:0:
0,156,14861,1,0,1:0:0:0:
127,192,15072,1,2,0:0:0:0:
137,36,15283,1,8,0:0:0:0:
75,118,15494,1,2,0:0:0:0:
205,226,15706,70,0,B|301:219|257:137|353:129,1,180,2|8,1:2|0:0,0:0:0:0:
428,78,16339,1,2,0:0:0:0:
491,242,16551,1,2,1:2:0:0:
456,221,16656,2,0,P|416:239|379:283,1,90,8|0,0:0|0:0,0:0:0:0:
363,288,16973,2,0,P|313:276|235:242,1,135,8|0,0:0|0:0,0:0:0:0:
215,230,17396,6,0,P|235:180|264:136,1,90,4|2,1:2|0:0,0:0:0:0:
312,42,17818,1,8,0:0:0:0:
376,154,18030,1,2,0:0:0:0:
481,39,18241,2,0,P|423:53|363:85,1,90,0|2,1:0|0:0,0:0:0:0:
376,154,18663,1,8,0:0:0:0:
435,278,18875,1,2,0:0:0:0:
316,341,19086,6,0,P|303:298|266:230,1,90,0|2,1:0|0:0,0:0:0:0:
106,249,19508,2,0,P|119:292|156:360,1,90,8|2,0:0|0:0,0:0:0:0:
194,201,19931,1,2,1:2:0:0:
183,174,20037,2,0,B|213:156|213:156|271:172,1,90,8|0,0:0|0:0,0:0:0:0:
291,163,20354,2,0,L|281:27,1,135,8|0,0:0|0:0,0:0:0:0:
266,11,20776,6,0,P|195:42|157:68,1,90,2|0,1:2|0:0,0:0:0:0:
100,144,21199,1,10,0:0:0:0:
1,66,21410,1,0,0:0:0:0:
105,162,21621,2,0,P|149:172|221:211,1,90,2|0,1:2|0:0,0:0:0:0:
286,282,22044,1,8,0:0:0:0:
367,180,22255,1,2,0:0:0:0:
271,297,22466,70,0,P|213:318|160:349,1,90,2|0,1:2|3:0,0:0:0:0:
174,358,22783,1,0,3:0:0:0:
174,358,22889,2,0,P|141:353|101:341,1,45,8|0,0:0|0:0,0:0:0:0:
43,298,23100,2,0,P|66:287|104:277,1,45,4|0,0:3|0:0,0:0:0:0:
170,227,23311,1,0,1:0:0:0:
171,208,23417,1,4,0:3:0:0:
172,189,23523,1,0,1:3:0:0:
74,0,23734,5,8,0:0:0:0:
76,35,23839,1,8,0:0:0:0:
78,71,23945,1,8,0:0:0:0:
81,106,24051,1,8,0:0:0:0:
108,134,24156,6,0,P|150:109|228:87,1,90,4|2,1:2|0:0,0:0:0:0:
306,147,24579,1,8,0:0:0:0:
358,44,24790,1,2,0:0:0:0:
453,138,25001,2,0,P|432:190|420:248,1,90,0|2,1:0|0:0,0:0:0:0:
478,334,25424,1,8,0:0:0:0:
350,333,25635,1,2,0:0:0:0:
411,210,25846,6,0,P|395:156|373:121,1,90,0|2,1:0|0:0,0:0:0:0:
201,130,26269,2,0,P|212:173|234:212,1,90,8|2,0:0|0:0,0:0:0:0:
236,359,26692,1,2,1:2:0:0:
261,333,26797,2,0,B|236:306|236:306|180:303,1,90,8|0,0:0|0:0,0:0:0:0:
172,314,27114,2,0,L|25:306,1,135,8|0,0:0|0:0,0:0:0:0:
23,295,27537,70,0,P|33:241|46:201,1,90,2|0,1:2|0:0,0:0:0:0:
163,115,27959,2,0,P|153:61|140:21,1,90,10|0,0:0|0:0,0:0:0:0:
85,140,28382,1,0,1:0:0:0:
209,196,28593,1,2,0:0:0:0:
99,312,28804,1,8,0:0:0:0:
124,220,29015,1,2,0:0:0:0:
238,351,29227,6,0,B|273:301|337:311|337:311|359:354|411:356,1,180,2|8,1:2|0:0,0:0:0:0:
476,326,29861,1,2,0:0:0:0:
373,237,30072,1,2,1:2:0:0:
400,222,30177,2,0,B|419:207|419:207|432:134,1,90,8|0,0:0|0:0,0:0:0:0:
419,119,30494,1,8,0:0:0:0:
294,197,30706,1,8,0:0:0:0:
278,176,30811,1,8,0:0:0:0:
297,154,30917,6,0,P|251:138|196:138,1,90,4|2,1:2|0:0,0:0:0:0:
130,215,31339,1,8,0:0:0:0:
48,114,31551,1,2,0:0:0:0:
150,8,31762,2,0,P|144:63|125:119,1,90,0|2,1:0|0:0,0:0:0:0:
54,193,32185,1,8,0:0:0:0:
149,295,32396,1,2,0:0:0:0:
0,313,32607,6,0,P|38:279|87:276,1,90,2|0,1:2|0:0,0:0:0:0:
221,347,33030,2,0,P|265:367|319:369,1,90,10|0,0:0|0:0,0:0:0:0:
483,302,33452,1,2,1:2:0:0:
457,286,33558,2,0,B|436:285|436:285|370:330,1,90,8|0,0:0|0:0,0:0:0:0:
372,337,33875,2,0,L|383:188,1,135,8|0,0:0|0:0,0:0:0:0:
383,183,34297,70,0,P|333:191|266:218,1,90,2|0,1:2|0:0,0:0:0:0:
208,267,34720,1,8,0:0:0:0:
142,165,34931,1,2,0:0:0:0:
215,278,35142,2,0,P|268:297|330:340,1,90,2|0,1:2|0:0,0:0:0:0:
414,383,35565,1,8,0:0:0:0:
507,293,35776,1,2,0:0:0:0:
406,374,35987,6,0,P|413:309|428:267,1,90,2|0,1:2|3:0,0:0:0:0:
432,268,36304,1,0,3:0:0:0:
432,268,36410,2,0,P|426:245|420:223,1,45,8|0,0:0|0:0,0:0:0:0:
349,177,36621,2,0,P|358:148|371:122,1,45,4|0,0:3|0:0,0:0:0:0:
435,67,36832,1,0,1:0:0:0:
450,94,36938,1,4,0:3:0:0:
453,128,37044,1,0,1:0:0:0:
312,60,37255,5,8,0:0:0:0:
268,68,37361,1,8,0:0:0:0:
228,99,37466,1,8,0:0:0:0:
184,110,37572,1,8,0:0:0:0:
144,141,37677,1,0,0:0:0:0:
256,192,37783,12,0,39420,0:0:0:0:
119,196,46985,21,8,0:0:0:0:
63,125,47218,1,8,0:2:0:0:
134,69,47451,1,8,0:0:0:0:
190,138,47683,1,8,0:2:0:0:
114,229,47916,5,8,0:0:0:0:
28,120,48148,1,8,0:2:0:0:
137,34,48381,1,8,0:0:0:0:
223,140,48613,2,0,P|302:157|415:161,1,161.999995056153,4|0,1:2|0:0,0:0:0:0:
453,123,49078,5,8,0:0:0:0:
436,85,49195,1,8,0:0:0:0:
402,89,49311,1,8,0:0:0:0:
344,242,49544,2,0,L|398:238,1,45,8|0,0:0|1:0,0:0:0:0:
476,194,49776,5,8,0:0:0:0:
486,237,49892,1,8,0:0:0:0:
456,274,50009,1,8,0:3:0:0:
452,318,50125,1,4,0:3:0:0:
479,353,50241,1,8,0:0:0:0:
344,242,50474,1,0,3:0:0:0:
298,339,50706,69,2,0:0:0:0:
298,339,51869,2,0,L|350:349,1,47.2499985580445,0|0,3:0|0:0,0:0:0:0:
373,301,52102,1,8,0:0:0:0:
351,251,52218,1,8,0:0:0:0:
379,205,52334,1,8,0:0:0:0:
352,157,52451,1,8,0:0:0:0:
399,86,52567,6,0,P|331:126|236:122,1,139.500001064301,6|0,1:2|0:0,0:0:0:0:
205,88,52916,1,2,1:2:0:0:
211,70,53032,1,10,0:0:0:0:
279,226,53265,1,2,1:2:0:0:
213,272,53381,1,8,0:0:0:0:
213,272,53497,6,0,P|180:254|132:249,1,69.7500005321503,2|0,3:2|0:0,0:0:0:0:
4,304,53730,1,2,1:2:0:0:
66,365,53846,2,0,P|101:336|121:297,1,69.7500005321503,2|8,0:0|0:0,0:0:0:0:
39,198,54078,2,0,P|49:149|68:91,1,99.0000030212403,2|0,0:0|0:0,0:0:0:0:
20,25,54427,6,0,B|75:68|75:68|164:48,1,139.500001064301,2|0,1:2|0:0,0:0:0:0:
222,84,54776,1,2,1:2:0:0:
243,76,54892,1,10,0:0:0:0:
387,169,55125,1,2,1:2:0:0:
428,104,55241,1,10,0:0:0:0:
428,104,55358,70,0,P|462:142|469:199,1,69.7500005321503,2|0,3:2|0:0,0:0:0:0:
436,287,55590,1,2,1:2:0:0:
356,316,55706,2,0,P|360:276|373:223,1,69.7500005321503,2|8,1:2|0:0,0:0:0:0:
387,169,55939,2,0,B|318:150|318:150|337:183,1,99.0000030212403,2|0,0:0|0:0,0:0:0:0:
365,247,56288,6,0,P|322:286|246:265,1,139.500001064301,6|0,1:2|0:0,0:0:0:0:
183,226,56637,1,2,1:2:0:0:
190,202,56753,1,10,0:0:0:0:
32,61,56985,1,2,1:2:0:0:
100,106,57102,1,10,0:0:0:0:
100,106,57218,6,0,P|98:156|83:189,1,69.7500005321503,2|2,3:2|0:0,0:0:0:0:
32,323,57451,1,2,0:0:0:0:
99,275,57567,1,2,1:2:0:0:
161,330,57683,6,0,P|131:349|113:382,1,62.9999980773926,8|2,0:0|0:0,0:0:0:0:
256,352,58148,1,2,1:2:0:0:
330,192,58381,1,2,0:0:0:0:
246,336,58613,70,0,P|223:292|212:250,1,90,10|2,0:0|1:2,0:0:0:0:
232,215,58962,1,8,0:0:0:0:
217,183,59078,1,0,0:0:0:0:
274,63,59311,1,0,1:0:0:0:
330,192,59544,2,0,P|360:214|420:205,1,94.499997116089,8|0,0:0|0:0,0:0:0:0:
489,186,60009,5,2,1:2:0:0:
499,229,60125,1,2,0:0:0:0:
469,273,60241,1,2,0:0:0:0:
482,315,60358,1,2,1:2:0:0:
418,375,60474,2,0,P|347:356|286:303,1,116.999994644165,10|2,0:0|1:2,0:0:0:0:
250,378,60823,1,10,0:0:0:0:
271,235,61055,5,2,1:2:0:0:
244,202,61171,1,2,1:2:0:0:
291,37,61404,2,0,P|243:9|207:109,1,175.499991966248,10|0,0:0|0:0,0:0:0:0:
280,132,61869,5,2,1:2:0:0:
314,104,61985,1,2,0:0:0:0:
357,117,62102,1,2,0:0:0:0:
451,236,62334,1,10,0:0:0:0:
512,90,62567,1,2,1:2:0:0:
444,125,62683,70,0,P|463:191|519:236,1,116.999994644165,8|0,0:0|1:0,0:0:0:0:
477,305,63032,2,0,P|464:331|455:359,1,58.4999973220826,2|0,1:2|1:0,0:0:0:0:
310,256,63265,2,0,P|300:228|288:201,1,58.4999973220826,10|0,0:0|3:0,0:0:0:0:
451,236,63497,2,0,P|458:211|491:162,1,58.4999973220826,10|8,0:0|0:0,0:0:0:0:
374,340,63730,5,14,0:0:0:0:
340,330,63846,1,0,1:0:0:0:
297,367,63962,1,8,0:0:0:0:
263,376,64078,1,0,1:0:0:0:
219,344,64195,1,8,0:0:0:0:
185,335,64311,1,0,1:0:0:0:
120,380,64427,2,0,P|78:366|73:337,1,67.5,0|0,1:0|0:0,0:0:0:0:
72,333,64660,6,0,P|45:326|7:321,1,58.4999973220826,2|0,1:2|0:0,0:0:0:0:
189,261,64892,2,0,P|207:266|252:274,1,58.4999973220826,10|0,0:0|0:0,0:0:0:0:
100,187,65125,2,0,P|102:229|118:275,1,58.4999973220826,10|0,0:0|0:0,0:0:0:0:
308,162,65358,6,0,P|287:108|200:95,1,139.500001064301,10|0,0:0|0:0,0:0:0:0:
135,98,65706,1,0,1:0:0:0:
124,50,65823,1,0,3:0:0:0:
277,0,66055,1,8,0:0:0:0:
361,224,66288,70,0,B|420:221|446:177|446:177|459:218|497:236,1,173.250005287171,4|0,1:2|0:0,0:0:0:0:
497,227,66753,2,0,L|504:142,1,58.4999973220826,10|0,0:0|0:0,0:0:0:0:
399,312,66985,5,8,0:0:0:0:
359,300,67102,1,8,0:0:0:0:
319,288,67218,1,8,0:0:0:0:
279,275,67334,1,8,0:0:0:0:
328,202,67451,6,0,P|260:235|167:249,1,139.500001064301,6|2,1:2|0:0,0:0:0:0:
129,261,67799,1,2,1:2:0:0:
147,193,67916,1,10,0:0:0:0:
15,260,68148,1,2,1:2:0:0:
28,186,68265,1,10,0:0:0:0:
28,186,68381,6,0,P|32:149|42:103,1,69.7500005321503,2|0,3:2|0:0,0:0:0:0:
123,112,68613,1,2,1:2:0:0:
191,66,68730,2,0,P|186:33|168:-11,1,69.7500005321503,2|8,0:2|0:0,0:0:0:0:
123,112,68962,2,0,P|176:116|237:165,1,99.0000030212403,2|0,0:0|0:0,0:0:0:0:
268,215,69311,70,0,B|244:151|244:151|296:87,1,139.500001064301,2|2,1:2|0:0,0:0:0:0:
400,74,69660,1,2,1:2:0:0:
357,137,69776,1,10,0:0:0:0:
419,308,70009,1,2,1:2:0:0:
489,268,70125,1,10,0:0:0:0:
489,268,70241,6,0,P|450:235|403:235,1,69.7500005321503,2|0,3:2|0:0,0:0:0:0:
346,346,70474,1,2,1:2:0:0:
283,295,70590,2,0,P|316:271|358:270,1,69.7500005321503,2|8,1:2|0:0,0:0:0:0:
471,154,70823,2,0,P|443:130|458:163,1,99.0000030212403,2|0,0:0|0:0,0:0:0:0:
490,57,71171,6,0,P|436:100|368:112,1,139.500001064301,6|0,1:2|0:0,0:0:0:0:
286,110,71520,1,0,1:0:0:0:
324,43,71637,1,8,0:0:0:0:
233,272,71869,1,2,1:2:0:0:
288,340,71985,1,8,0:0:0:0:
184,368,72102,6,0,P|161:318|176:264,1,69.7500005321503,4|8,0:3|0:3,0:0:0:0:
372,367,72334,1,10,0:0:0:0:
426,311,72451,1,8,0:0:0:0:
395,240,72567,1,10,0:0:0:0:
233,272,72799,70,0,P|235:213|323:212,1,161.999995056153,6|0,1:2|0:0,0:0:0:0:
321,209,73265,1,2,1:2:0:0:
267,41,73497,1,10,0:0:0:0:
233,272,73730,6,0,P|139:288|135:187,1,215.999993408203,6|0,1:2|1:0,0:0:0:0:
137,198,74311,1,0,1:0:0:0:
137,198,74427,2,0,P|164:237|147:300,1,94.499997116089,8|0,0:0|0:0,0:0:0:0:
115,356,74892,5,6,1:2:0:0:
49,205,75125,1,2,0:0:0:0:
205,156,75358,1,10,0:0:0:0:
122,57,75590,2,0,L|118:152,1,72,6|0,1:2|0:0,0:0:0:0:
297,184,76055,2,0,L|301:96,1,72,2|8,1:2|0:0,0:0:0:0:
354,27,76520,6,0,B|392:49|427:109|401:173|401:173|388:204|388:228|418:252|453:247|472:231|478:183,1,314.999990386963,6|0,1:2|0:0,0:0:0:0:
474,201,78148,69,8,0:0:0:0:
430,182,78265,1,8,0:0:0:0:
385,198,78381,1,8,0:0:0:0:
369,242,78497,1,8,0:0:0:0:
394,284,78613,6,0,P|406:319|410:384,1,90,6|2,1:2|0:0,0:0:0:0:
294,384,78962,1,2,1:2:0:0:
278,364,79078,2,0,P|281:325|308:265,1,90,8|2,0:0|1:2,0:0:0:0:
303,192,79427,1,8,0:0:0:0:
296,167,79544,5,2,1:2:0:0:
380,245,79776,2,0,L|442:260,1,45,0|2,1:0|0:0,0:0:0:0:
499,267,80009,1,8,0:0:0:0:
429,159,80241,1,2,3:2:0:0:
505,43,80474,6,0,P|452:71|387:86,1,90,2|2,1:2|0:0,0:0:0:0:
312,64,80823,1,2,1:2:0:0:
277,28,80939,2,0,P|234:8|165:5,1,90,8|2,0:0|1:2,0:0:0:0:
120,48,81288,1,8,0:0:0:0:
132,72,81404,69,2,1:2:0:0:
45,145,81637,2,0,L|37:192,1,45,0|2,1:0|1:2,0:0:0:0:
24,273,81869,1,8,0:0:0:0:
164,225,82102,1,10,0:0:0:0:
176,252,82218,1,8,0:0:0:0:
229,253,82334,6,0,P|272:233|350:230,1,90,2|2,1:2|0:0,0:0:0:0:
456,350,82683,1,2,1:2:0:0:
478,330,82799,2,0,P|459:280|418:227,1,90,8|2,0:0|1:2,0:0:0:0:
380,193,83148,1,8,0:0:0:0:
384,163,83265,5,0,1:0:0:0:
271,196,83497,2,0,L|253:139,1,45,0|2,1:0|0:0,0:0:0:0:
231,80,83730,1,8,0:0:0:0:
312,4,83962,1,2,3:2:0:0:
106,121,84195,6,0,P|152:132|169:204,1,90,2|0,1:2|0:0,0:0:0:0:
117,252,84544,1,2,1:2:0:0:
88,298,84660,2,8,P|104:346|131:400,1,90,8|2,0:0|1:2,0:0:0:0:
243,377,85009,1,8,0:0:0:0:
256,349,85125,69,0,1:0:0:0:
366,361,85358,1,0,1:0:0:0:
359,330,85474,1,0,1:0:0:0:
402,296,85590,2,0,L|452:302,1,45,8|0,0:0|3:0,0:0:0:0:
487,221,85823,2,0,L|432:214,1,45,8|0,0:0|0:0,0:0:0:0:
277,140,86055,6,0,P|272:188|305:230,1,90,6|2,1:2|0:0,0:0:0:0:
372,167,86404,1,2,1:2:0:0:
397,148,86520,2,0,P|441:144|491:147,1,90,8|2,0:0|1:2,0:0:0:0:
504,241,86869,1,8,0:0:0:0:
492,263,86985,5,2,1:2:0:0:
410,362,87218,2,0,P|395:333|374:305,1,45,0|2,1:0|0:0,0:0:0:0:
337,252,87451,1,8,0:0:0:0:
269,373,87683,1,2,3:2:0:0:
155,257,87916,6,0,P|190:262|251:284,1,90,2|2,1:2|0:0,0:0:0:0:
337,252,88265,1,2,1:2:0:0:
360,201,88381,2,0,P|351:145|328:95,1,90,8|2,0:0|1:2,0:0:0:0:
256,87,88730,1,8,0:0:0:0:
231,95,88846,69,2,1:2:0:0:
151,0,89078,2,0,L|140:62,1,45,0|2,1:0|1:2,0:0:0:0:
129,122,89311,1,8,0:0:0:0:
208,201,89544,1,10,0:0:0:0:
183,219,89660,1,8,0:0:0:0:
209,262,89776,6,0,P|210:320|202:370,1,90,2|2,1:2|0:0,0:0:0:0:
59,359,90125,1,2,1:2:0:0:
33,329,90241,2,0,P|32:271|40:221,1,90,8|2,0:0|1:2,0:0:0:0:
105,183,90590,1,8,0:0:0:0:
85,153,90706,6,0,L|90:100,1,45,2|0,1:2|1:0,0:0:0:0:
157,0,90939,1,4,0:3:0:0:
228,7,91055,1,8,0:3:0:0:
185,65,91171,1,8,0:0:0:0:
256,192,91404,1,6,1:2:0:0:
256,192,91520,12,0,95358,0:0:0:0:
126,106,103821,22,0,P|108:115|71:125,1,45,0|8,1:0|0:0,0:0:0:0:
199,47,104035,2,0,P|225:46|269:52,1,45,8|8,0:0|0:0,0:0:0:0:
154,227,104250,2,0,P|131:219|98:197,1,45,8|8,0:0|0:0,0:0:0:0:
283,215,104464,2,0,P|309:230|336:254,1,45,8|8,0:0|0:0,0:0:0:0:
173,356,104678,1,8,0:0:0:0:
132,296,104785,1,8,0:0:0:0:
100,361,104893,1,8,0:0:0:0:
263,317,105107,5,8,0:0:0:0:
303,322,105214,1,8,0:0:0:0:
342,327,105321,1,8,0:3:0:0:
381,334,105428,1,4,0:3:0:0:
423,354,105535,6,0,B|475:293|463:212|387:184|387:184|353:230|376:267,1,289.799990271607,0|0,1:0|0:0,0:0:0:0:
372,260,107250,6,0,P|389:209|330:155,1,135.000005149842,6|0,1:2|0:0,0:0:0:0:
206,229,107571,1,2,1:2:0:0:
142,171,107678,2,0,P|168:100|272:110,1,135.000005149842,10|0,0:0|0:0,0:0:0:0:
315,323,108107,69,2,1:2:0:0:
280,252,108214,2,0,B|232:262|232:262|205:294|205:294|140:311,1,135.000005149842,8|0,0:0|0:0,0:0:0:0:
23,176,108535,1,10,0:0:0:0:
0,201,108643,2,0,P|37:255|118:214,1,135.000005149842,2|2,0:0|0:0,0:0:0:0:
125,163,108964,6,0,P|194:137|275:127,1,135.000005149842,2|0,1:2|0:0,0:0:0:0:
378,156,109285,1,0,1:0:0:0:
450,116,109393,2,0,P|456:83|456:33,1,67.5000025749208,10|0,0:0|0:0,0:0:0:0:
305,190,109607,6,0,P|315:222|430:248,1,135.000005149842,2|0,1:2|0:0,0:0:0:0:
512,166,109928,1,8,0:0:0:0:
450,116,110035,2,0,P|442:147|441:206,1,67.5000025749208,0|0,1:0|0:0,0:0:0:0:
415,352,110250,1,8,0:0:0:0:
350,310,110357,2,0,B|316:318|316:318|288:341|288:341|259:334|259:334|209:344,1,135.000005149842,0|0,1:0|0:0,0:0:0:0:
163,205,110678,6,0,B|178:200|190:191|190:191|261:190|271:275|269:280,1,135.000005149842,2|0,1:2|0:0,0:0:0:0:
375,197,111000,1,2,1:2:0:0:
322,141,111107,2,0,B|292:156|292:156|269:202|265:253,1,135.000005149842,8|2,0:0|1:2,0:0:0:0:
225,340,111428,70,0,B|128:327|128:327|195:308,1,135.000005149842,8|0,0:0|0:0,0:0:0:0:
144,244,111750,2,0,L|73:260,1,40.4999987640381,2|0,1:2|0:0,0:0:0:0:
0,300,111964,2,0,L|49:308,1,49.5000015106202,10|0,0:0|1:0,0:0:0:0:
134,165,112178,2,0,L|74:179,1,58.4999973220826,2|0,0:0|0:0,0:0:0:0:
51,45,112393,6,0,P|128:47|168:122,1,135.000005149842,4|0,1:2|0:0,0:0:0:0:
271,166,112714,1,0,1:0:0:0:
328,105,112821,2,0,P|337:81|347:37,1,67.5000025749208,8|0,0:0|0:0,0:0:0:0:
413,139,113035,1,0,1:0:0:0:
266,29,113250,5,0,1:0:0:0:
227,46,113357,1,8,0:0:0:0:
195,20,113464,1,0,1:0:0:0:
16,144,113678,1,8,0:0:0:0:
73,95,113785,2,0,B|64:75|43:64|43:64|-29:88|19:179,1,135.000005149842,0|0,1:0|0:0,0:0:0:0:
72,201,114107,6,0,P|137:210|242:266,1,135.000005149842,6|0,1:2|0:0,0:0:0:0:
332,341,114428,1,2,1:2:0:0:
385,283,114535,2,0,P|306:303|234:338,1,135.000005149842,10|0,0:0|0:0,0:0:0:0:
115,327,114857,1,2,0:0:0:0:
54,384,114964,70,0,P|34:334|26:285,1,67.5000025749208,2|8,1:2|0:0,0:0:0:0:
72,201,115178,1,2,0:0:0:0:
134,254,115285,2,0,P|147:217|144:171,1,67.5000025749208,2|10,1:2|0:0,0:0:0:0:
251,46,115607,1,2,1:2:0:0:
177,78,115714,1,8,0:0:0:0:
244,123,115821,6,0,P|241:195|222:280,1,135.000005149842,2|0,1:2|0:0,0:0:0:0:
352,341,116143,1,0,1:0:0:0:
278,345,116250,2,0,L|352:350,1,67.5000025749208,10|2,0:0|0:0,0:0:0:0:
487,231,116464,6,0,P|451:270|368:237,1,135.000005149842,2|0,1:2|0:0,0:0:0:0:
332,179,116785,1,8,0:0:0:0:
366,161,116893,1,0,1:0:0:0:
294,45,117107,1,8,0:0:0:0:
322,27,117214,2,0,B|254:-6|259:96|177:46,1,135.000005149842,0|0,1:0|0:0,0:0:0:0:
54,28,117535,6,0,B|36:41|36:41|40:92|88:109|133:79,1,135.000005149842,2|0,1:2|0:0,0:0:0:0:
214,171,117857,1,2,1:2:0:0:
149,211,117964,2,0,P|201:201|324:200,1,135.000005149842,8|2,0:0|0:0,0:0:0:0:
347,255,118285,70,0,P|423:271|515:266,1,135.000005149842,0|8,1:0|0:0,0:0:0:0:
512,192,118607,1,0,1:0:0:0:
325,87,118821,1,8,0:0:0:0:
384,36,118928,2,0,B|406:56|406:56|428:108|430:175,1,135.000005149842,0|0,1:0|0:0,0:0:0:0:
347,255,119250,5,6,1:2:0:0:
282,196,119357,2,0,B|219:164|184:275|100:201,1,170.999995433807,8|0,0:0|1:0,0:0:0:0:
47,116,119678,2,0,P|58:98|58:134,1,85.4999977169037,10|0,0:0|0:0,0:0:0:0:
38,256,119893,2,0,P|77:233|155:229,1,85.4999977169037,2|8,1:2|0:0,0:0:0:0:
244,302,120107,5,8,0:0:0:0:
272,274,120214,1,8,0:0:0:0:
312,267,120321,1,8,0:0:0:0:
347,282,120428,1,8,0:0:0:0:
381,347,120535,5,8,0:0:0:0:
428,366,120643,1,8,0:3:0:0:
478,355,120750,1,4,0:3:0:0:
506,310,120857,1,0,1:0:0:0:
468,237,120964,70,0,B|435:253|432:291|432:291|415:256|338:255,1,135.000005149842,6|0,1:2|0:0,0:0:0:0:
291,127,121285,1,2,1:2:0:0:
250,199,121393,2,0,P|187:219|118:231,1,135.000005149842,10|2,0:0|0:0,0:0:0:0:
0,37,121821,5,2,1:2:0:0:
60,94,121928,2,0,P|125:106|202:136,1,135.000005149842,8|2,0:0|0:0,0:0:0:0:
257,242,122250,1,10,0:0:0:0:
224,268,122357,2,0,P|194:244|266:221,1,135.000005149842,0|0,1:0|0:0,0:0:0:0:
328,243,122678,6,0,P|394:274|493:277,1,135.000005149842,2|0,1:2|0:0,0:0:0:0:
420,169,123000,1,0,1:0:0:0:
475,110,123107,2,0,P|446:94|407:89,1,67.5000025749208,10|2,0:0|0:0,0:0:0:0:
312,135,123321,6,0,P|245:164|164:164,1,135.000005149842,2|0,1:2|0:0,0:0:0:0:
142,102,123643,1,8,0:0:0:0:
149,75,123750,1,0,1:0:0:0:
0,111,123964,1,8,0:0:0:0:
8,80,124071,2,0,B|37:97|37:97|53:140|59:235,1,135.000005149842,0|0,1:0|0:0,0:0:0:0:
10,267,124393,70,0,P|80:224|157:226,1,135.000005149842,2|0,1:2|0:0,0:0:0:0:
264,274,124714,1,2,1:2:0:0:
196,294,124821,2,0,P|244:320|345:312,1,135.000005149842,8|2,0:0|1:2,0:0:0:0:
449,226,125143,1,8,0:0:0:0:
376,180,125250,6,0,P|326:196|292:233,1,67.5000025749208,0|8,1:0|0:0,0:0:0:0:
422,320,125464,1,2,1:2:0:0:
464,75,125678,2,0,P|460:128|438:165,1,67.5000025749208,10|0,0:0|1:0,0:0:0:0:
249,159,125893,2,0,P|253:118|270:85,1,67.5000025749208,2|0,0:2|0:0,0:0:0:0:
299,283,126107,6,0,P|242:245|136:264,1,153.000002918243,4|0,1:2|0:0,0:0:0:0:
19,356,126428,1,0,1:0:0:0:
11,274,126535,2,0,P|43:282|74:296,1,67.5000025749208,8|0,0:0|0:0,0:0:0:0:
167,357,126750,1,0,1:0:0:0:
70,127,126964,5,0,1:0:0:0:
91,162,127071,1,8,0:0:0:0:
68,196,127178,1,0,1:0:0:0:
190,246,127393,1,8,0:0:0:0:
249,192,127500,2,0,B|281:153|254:107|225:107|194:116|193:143,1,135.000005149842,0|0,1:0|0:0,0:0:0:0:
257,202,127821,70,0,P|317:174|410:196,1,135.000005149842,6|0,1:2|0:0,0:0:0:0:
492,330,128143,1,2,1:2:0:0:
422,374,128250,2,0,B|404:345|404:345|408:302|446:216,1,135.000005149842,10|0,0:0|1:0,0:0:0:0:
390,97,128571,1,8,0:0:0:0:
445,40,128678,6,0,P|388:68|301:70,1,135.000005149842,2|0,1:2|0:0,0:0:0:0:
161,18,129000,1,2,1:2:0:0:
104,76,129107,2,0,P|127:110|126:181,1,67.5000025749208,10|0,0:0|0:0,0:0:0:0:
84,335,129321,1,2,1:2:0:0:
84,335,129428,1,8,0:0:0:0:
61,257,129535,6,0,P|126:211|194:204,1,135.000005149842,6|0,1:2|0:0,0:0:0:0:
266,202,129857,1,2,1:2:0:0:
304,284,129964,1,10,0:0:0:0:
238,347,130071,1,2,0:0:0:0:
158,302,130178,6,0,P|174:218|235:95,1,202.500007724762,2|8,1:2|0:0,0:0:0:0:
308,37,130607,1,0,1:0:0:0:
438,230,130821,1,8,0:0:0:0:
512,196,130928,2,0,B|533:163|512:119|512:119|514:152|496:173,1,135.000005149842,0|0,1:0|0:0,0:0:0:0:
438,230,131250,70,0,P|373:199|306:195,1,135.000005149842,6|0,1:2|0:0,0:0:0:0:
175,316,131571,1,2,1:2:0:0:
98,289,131678,2,0,P|148:269|248:256,1,135.000005149842,8|2,0:0|1:2,0:0:0:0:
282,329,132000,6,0,P|347:358|426:356,1,135.000005149842,0|8,1:0|0:0,0:0:0:0:
512,295,132321,1,0,1:0:0:0:
347,211,132535,1,8,0:0:0:0:
412,161,132643,2,0,B|422:24,1,135.000005149842,0|0,1:0|0:0,0:0:0:0:
420,170,132964,6,0,B|356:207|346:120|281:158,1,135.000005149842,6|0,1:2|0:0,0:0:0:0:
219,121,133285,1,0,1:0:0:0:
187,127,133393,1,8,0:0:0:0:
290,268,133607,1,0,1:0:0:0:
288,71,133821,5,0,1:0:0:0:
260,32,133928,1,8,0:0:0:0:
213,40,134035,1,0,1:0:0:0:
3,140,134250,1,8,0:0:0:0:
25,98,134357,1,0,1:0:0:0:
69,81,134464,1,8,0:0:0:0:
111,100,134571,1,8,0:0:0:0:
139,137,134678,70,0,P|128:169|121:202,1,67.5000025749208,4|8,1:2|0:0,0:0:0:0:
270,267,134893,2,0,P|277:233|295:191,1,67.5000025749208,8|8,0:0|0:0,0:0:0:0:
394,112,135107,2,0,P|411:144|427:192,1,67.5000025749208,8|8,0:0|0:0,0:0:0:0:
245,74,135321,2,0,P|226:120|216:161,1,67.5000025749208,8|8,0:0|0:0,0:0:0:0:
203,313,135535,1,8,0:0:0:0:
255,366,135643,1,8,0:0:0:0:
320,331,135750,1,0,1:0:0:0:
146,188,135964,5,8,0:0:0:0:
90,199,136071,1,8,0:0:0:0:
56,242,136178,1,8,0:3:0:0:
0,251,136285,1,4,0:3:0:0:
9,234,136393,6,0,B|102:202|78:320|198:278,1,199.80000487793,4|0,1:2|0:0,0:0:0:0:
189,280,138107,6,0,P|204:221|263:167,1,116.999994644165,6|0,1:2|0:0,0:0:0:0:
314,162,138428,1,2,1:2:0:0:
264,104,138535,1,10,0:0:0:0:
309,269,138750,2,0,P|371:267|442:306,1,116.999994644165,2|0,1:2|0:0,0:0:0:0:
512,349,139071,1,8,0:0:0:0:
433,371,139178,1,2,1:2:0:0:
511,221,139393,1,10,0:0:0:0:
392,98,139607,2,0,P|416:84|455:82,1,58.4999973220826,2|0,1:2|0:0,0:0:0:0:
436,188,139821,70,0,P|375:179|294:131,1,116.999994644165,2|0,1:2|0:0,0:0:0:0:
298,83,140143,1,2,1:2:0:0:
244,136,140250,1,10,0:0:0:0:
169,0,140464,2,0,P|107:16|28:83,1,116.999994644165,2|0,1:2|1:0,0:0:0:0:
6,167,140785,1,8,0:0:0:0:
69,209,140893,2,0,P|81:244|81:283,1,58.4999973220826,2|0,1:2|0:0,0:0:0:0:
2,377,141107,2,0,P|26:349|60:329,1,58.4999973220826,10|0,0:0|1:0,0:0:0:0:
187,352,141321,2,0,P|150:344|116:325,1,58.4999973220826,2|0,0:0|0:0,0:0:0:0:
207,229,141535,6,0,P|258:201|315:191,1,116.999994644165,2|0,1:2|0:0,0:0:0:0:
392,190,141857,1,2,1:2:0:0:
358,258,141964,1,10,0:0:0:0:
351,83,142178,2,0,P|318:146|318:209,1,116.999994644165,2|0,1:2|1:0,0:0:0:0:
358,258,142500,1,8,0:0:0:0:
316,321,142607,1,2,1:2:0:0:
186,204,142821,1,10,0:0:0:0:
65,331,143035,2,0,P|89:343|133:342,1,58.4999973220826,2|0,1:2|0:0,0:0:0:0:
38,255,143250,6,0,B|5:268|-10:297|-10:297|-2:241|58:212,1,153.000002918243,12|0,0:0|1:0,0:0:0:0:
153,146,143571,2,0,P|176:103|99:98,1,153.000002918243,8|0,0:0|1:0,0:0:0:0:
96,179,143893,6,0,P|130:161|190:166,1,58.4999973220826,8|0,0:0|1:0,0:0:0:0:
302,313,144107,2,0,P|274:331|234:335,1,58.4999973220826,0|8,1:0|0:0,0:0:0:0:
180,252,144321,2,0,P|216:234|253:234,1,58.4999973220826,8|8,0:0|0:0,0:0:0:0:
429,354,144535,1,8,0:0:0:0:
496,331,144642,1,8,0:0:0:0:
495,261,144750,1,8,0:0:0:0:
427,240,144857,1,8,0:0:0:0:
387,298,144964,70,0,B|368:274|368:274|362:229|397:166,1,116.999994644165,6|0,1:2|0:0,0:0:0:0:
430,131,145285,1,2,1:2:0:0:
487,181,145393,1,10,0:0:0:0:
386,8,145607,2,0,P|357:84|353:141,1,116.999994644165,2|0,1:2|1:0,0:0:0:0:
385,191,145928,1,8,0:0:0:0:
317,226,146035,1,2,1:2:0:0:
219,85,146250,1,10,0:0:0:0:
127,243,146464,2,0,P|135:218|153:181,1,58.4999973220826,2|0,1:2|0:0,0:0:0:0:
93,133,146678,6,0,P|57:198|45:279,1,116.999994644165,2|0,1:2|0:0,0:0:0:0:
85,305,147000,1,2,1:2:0:0:
127,243,147107,1,10,0:0:0:0:
227,384,147321,2,0,P|288:371|318:298,1,116.999994644165,2|0,1:2|1:0,0:0:0:0:
215,247,147643,1,8,0:0:0:0:
279,189,147750,2,0,P|306:189|352:222,1,58.4999973220826,2|0,1:2|0:0,0:0:0:0:
316,327,147964,2,0,P|300:304|296:258,1,58.4999973220826,10|0,0:0|0:0,0:0:0:0:
415,221,148178,2,0,P|402:250|356:280,1,58.4999973220826,2|0,0:0|1:0,0:0:0:0:
473,324,148393,6,0,P|434:294|427:221,1,116.999994644165,2|0,1:2|0:0,0:0:0:0:
487,188,148714,1,2,1:2:0:0:
436,131,148821,1,10,0:0:0:0:
290,34,149035,2,0,P|282:103|301:164,1,116.999994644165,2|0,1:2|1:0,0:0:0:0:
353,195,149357,1,8,0:0:0:0:
298,247,149464,1,2,1:2:0:0:
199,103,149678,2,0,P|168:115|134:138,1,58.4999973220826,10|0,0:0|1:0,0:0:0:0:
53,192,149893,2,0,P|101:210|147:242,1,58.4999973220826,2|8,1:2|0:0,0:0:0:0:
259,384,150107,86,0,P|226:285|177:230,1,153.000002918243,12|0,0:0|0:0,0:0:0:0:
108,214,150428,2,0,P|194:211|297:160,1,153.000002918243,8|0,0:0|1:0,0:0:0:0:
309,114,150750,2,8,P|291:219|302:301,1,153.000002918243
357,333,151071,1,0,1:0:0:0:
357,333,151178,6,0,P|386:318|434:311,1,58.4999973220826,0|0,1:0|0:0,0:0:0:0:
494,223,151393,1,8,0:0:0:0:
433,168,151500,1,8,0:0:0:0:
354,190,151607,1,8,0:0:0:0:
418,240,151714,1,8,0:0:0:0:
422,236,153321,6,0,B|439:234,2,15,8|8|4,0:3|0:3|0:3,0:0:0:0:
418,240,153535,6,0,B|346:102|485:128|467:50|425:13|425:13|459:52|441:117|392:132,1,396,4|0,1:2|0:0,0:0:0:0:
105,74,165896,21,2,1:2:0:0:
174,92,166099,1,2,0:0:0:0:
242,113,166302,1,10,0:0:0:0:
315,56,166504,1,2,0:0:0:0:
105,74,166707,5,2,1:2:0:0:
174,92,166910,1,2,1:2:0:0:
242,113,167113,1,10,0:0:0:0:
306,241,167315,1,2,0:0:0:0:
109,284,167518,6,0,B|126:139|233:259|244:84,1,233.999989288331,4|0,3:2|1:0,0:0:0:0:
198,19,168126,1,2,1:0:0:0:
244,197,168329,70,0,P|303:222|402:84,1,233.999989288331,4|0,3:2|1:0,0:0:0:0:
361,37,168937,1,2,1:0:0:0:
408,221,169139,6,0,P|430:254|460:282,1,58.4999973220826,8|0,0:0|0:0,0:0:0:0:
355,379,169342,2,0,P|370:357|401:330,1,58.4999973220826,0|8,1:0|0:0,0:0:0:0:
320,240,169545,1,0,1:0:0:0:
291,273,169646,2,0,P|229:257|203:341,1,116.999994644165,8|0,0:0|0:0,0:0:0:0:
127,348,169950,6,0,P|101:361|89:363,1,31.4999990386963,0|0,3:0|0:0,0:0:0:0:
122,262,170153,2,0,P|99:255|74:234,1,40.4999987640381,0|0,3:0|0:0,0:0:0:0:
177,170,170356,2,0,P|158:137|154:105,1,49.5000015106202,0|0,3:0|0:0,0:0:0:0:
300,130,170558,2,0,P|306:99|320:62,1,58.4999973220826,0|0,3:0|0:0,0:0:0:0:
507,186,170761,6,0,P|422:193|344:219,1,135.000005149842,6|8,1:2|0:0,0:0:0:0:
314,286,171065,1,0,1:0:0:0:
314,286,171166,2,0,P|324:324|331:380,1,67.5000025749208,0|0,1:0|0:0,0:0:0:0:
207,261,171369,2,0,P|214:233|233:181,1,67.5000025749208,10|0,0:0|0:0,0:0:0:0:
110,293,171572,70,0,P|84:306|34:314,1,67.5000025749208,2|0,1:2|0:0,0:0:0:0:
16,195,171775,2,0,P|42:182|92:174,1,67.5000025749208,10|0,0:0|1:0,0:0:0:0:
124,281,171977,2,0,P|87:272|53:255,1,67.5000025749208,2|0,1:2|0:0,0:0:0:0:
95,153,172180,2,0,P|132:162|166:179,1,67.5000025749208,8|0,0:0|0:0,0:0:0:0:
266,27,172383,6,0,B|239:49|239:49|227:102|245:171,1,135.000005149842,2|10,1:2|0:0,0:0:0:0:
305,214,172687,1,0,1:0:0:0:
305,214,172788,2,0,P|352:201|397:176,1,67.5000025749208,2|0,1:2|0:0,0:0:0:0:
402,93,172991,2,0,P|355:106|310:131,1,67.5000025749208,10|0,0:0|0:0,0:0:0:0:
463,196,173193,6,0,P|394:219|388:308,1,135.000005149842,2|8,1:2|0:0,0:0:0:0:
333,373,173497,1,0,1:0:0:0:
333,373,173599,2,0,P|298:358|219:352,1,67.5000025749208,2|0,1:2|0:0,0:0:0:0:
139,307,173802,2,0,P|191:294|236:269,1,67.5000025749208,10|8,0:0|0:0,0:0:0:0:
385,182,174004,6,0,B|327:148|327:148|221:154,1,135.000005149842,6|8,1:2|0:0,0:0:0:0:
159,164,174308,1,0,1:0:0:0:
159,164,174410,2,0,P|158:128|181:78,1,67.5000025749208,2|0,1:2|0:0,0:0:0:0:
243,3,174612,2,0,P|258:36|260:96,1,67.5000025749208,8|0,0:0|0:0,0:0:0:0:
227,226,174815,70,0,P|209:262|206:322,1,67.5000025749208,2|0,1:2|0:0,0:0:0:0:
313,357,175018,1,10,0:0:0:0:
335,341,175119,1,2,1:2:0:0:
351,319,175220,2,0,P|369:283|372:223,1,67.5000025749208,2|0,1:2|0:0,0:0:0:0:
290,141,175423,2,0,P|302:185|331:224,1,67.5000025749208,10|0,0:0|0:0,0:0:0:0:
486,130,175626,6,0,B|431:125|408:175|408:175|393:146|351:133,1,135.000005149842,2|8,1:2|0:0,0:0:0:0:
326,64,175930,1,0,1:0:0:0:
326,64,176031,2,0,P|293:44|248:28,1,67.5000025749208,0|0,1:0|0:0,0:0:0:0:
216,149,176234,2,0,P|179:173|110:182,1,67.5000025749208,8|0,0:0|0:0,0:0:0:0:
33,156,176437,6,0,B|68:172|68:172|95:212|108:285,1,135.000005149842,0|8,1:0|0:0,0:0:0:0:
170,358,176741,1,0,1:0:0:0:
170,358,176842,2,0,P|211:373|268:382,1,67.5000025749208,2|0,1:2|0:0,0:0:0:0:
260,266,177045,2,0,P|219:251|162:242,1,67.5000025749208,10|8,0:0|0:0,0:0:0:0:
367,298,177247,6,0,L|400:126,1,135.000005149842,6|8,1:2|0:0,0:0:0:0:
440,94,177552,1,0,1:0:0:0:
440,94,177653,2,0,P|426:42|403:0,1,67.5000025749208,0|0,1:0|0:0,0:0:0:0:
279,13,177856,2,0,P|293:65|316:107,1,67.5000025749208,10|0,0:0|0:0,0:0:0:0:
428,191,178058,70,0,P|389:221|340:234,1,67.5000025749208,2|0,1:2|0:0,0:0:0:0:
262,167,178261,2,0,P|231:148|202:110,1,67.5000025749208,10|0,0:0|1:0,0:0:0:0:
83,201,178464,2,0,B|114:182|114:182|181:184,1,67.5000025749208,2|0,1:2|0:0,0:0:0:0:
267,311,178666,2,0,B|304:313|304:313|330:289,1,67.5000025749208,10|0,0:0|0:0,0:0:0:0:
189,291,178869,6,0,P|177:328|173:376,1,67.5000025749208,2|0,1:2|0:0,0:0:0:0:
277,232,179072,2,0,P|271:198|261:166,1,67.5000025749208,10|0,0:0|1:0,0:0:0:0:
176,297,179275,2,0,P|161:340|156:389,1,67.5000025749208,2|0,1:2|0:0,0:0:0:0:
294,223,179478,2,0,P|288:184|275:146,1,67.5000025749208,10|0,0:0|0:0,0:0:0:0:
179,110,179680,6,0,L|84:134,1,67.5000025749208,6|0,1:2|0:0,0:0:0:0:
0,23,179883,2,0,B|66:8|66:8|134:57,2,135.000005149842,0|0|8,3:0|3:0|0:0,0:0:0:0:
32,284,180491,6,0,P|48:251|76:161,1,107.999996704102,4|2,1:2|0:0,0:0:0:0:
204,135,180896,1,10,0:0:0:0:
167,246,181099,1,2,0:0:0:0:
349,189,181302,70,0,P|372:241|387:329,1,107.999996704102,2|2,1:2|0:0,0:0:0:0:
308,384,181707,1,10,0:0:0:0:
240,268,181910,1,2,0:0:0:0:
370,187,182112,5,10,0:0:0:0:
370,187,182214,2,0,P|390:140|397:76,1,67.5000025749208,8|0,0:0|0:0,0:0:0:0:
341,47,182416,2,0,P|291:25|190:18,1,135.000005149842,8|0,0:0|1:0,0:0:0:0:
143,80,182720,2,0,P|106:93|56:91,1,67.5000025749208,8|0,0:0|0:0,0:0:0:0:
31,178,182923,6,0,P|24:189|48:177,1,67.5000025749208,8|0,0:0|0:0,0:0:0:0:
199,234,183126,2,0,P|199:261|175:243,1,67.5000025749208,8|0,0:0|0:0,0:0:0:0:
327,284,183329,1,8,0:0:0:0:
345,293,183430,1,8,0:0:0:0:
358,308,183531,1,0,1:0:0:0:
367,326,183633,1,0,1:0:0:0:
417,349,183734,6,0,B|495:297|483:180|400:151|400:151|381:188|344:211,1,323.999990112305,14|0,0:0|0:0,0:0:0:0:
192,144,184545,2,0,B|165:103|190:64|190:64|283:47|302:134|302:134|255:162|261:228,1,323.999990112305,12|0,0:0|0:2,0:0:0:0:
160,346,185356,69,10,0:0:0:0:
128,351,185457,1,0,1:0:0:0:
96,343,185558,1,0,1:0:0:0:
72,320,185660,1,0,1:0:0:0:
67,267,185761,5,10,0:0:0:0:
109,260,185863,1,0,1:0:0:0:
150,270,185964,1,0,1:0:0:0:
191,304,186065,1,0,1:0:0:0:
228,363,186166,6,0,B|295:378|295:378|379:343,2,135.000005149842,10|0|0,0:0|3:0|3:0,0:0:0:0:
262,331,186673,1,0,1:0:0:0:
283,281,186774,1,8,0:0:0:0:
276,227,186876,1,8,0:0:0:0:
248,180,186977,6,0,P|228:115|226:42,1,135.000005149842,6|8,1:2|0:0,0:0:0:0:
298,1,187281,1,0,1:0:0:0:
298,1,187383,2,0,P|333:9|390:32,1,67.5000025749208,2|0,1:2|0:0,0:0:0:0:
491,66,187585,2,0,P|448:80|386:113,1,67.5000025749208,8|0,0:0|0:0,0:0:0:0:
383,187,187788,70,0,P|400:224|414:283,1,67.5000025749208,2|0,1:2|0:0,0:0:0:0:
341,358,187991,1,10,0:0:0:0:
317,344,188092,1,2,1:2:0:0:
301,321,188193,2,0,P|309:278|331:244,1,67.5000025749208,2|0,1:2|0:0,0:0:0:0:
465,299,188396,2,0,P|454:331|440:361,1,67.5000025749208,10|0,0:0|0:0,0:0:0:0:
383,187,188599,6,0,B|324:221|324:221|209:196,1,135.000005149842,2|8,1:2|0:0,0:0:0:0:
182,166,188903,1,0,1:0:0:0:
182,166,189004,2,0,L|72:143,1,67.5000025749208,0|0,1:0|0:0,0:0:0:0:
85,260,189207,2,0,L|195:283,1,67.5000025749208,8|0,0:0|0:0,0:0:0:0:
258,206,189410,6,0,P|279:142|275:45,1,135.000005149842,0|8,1:0|0:0,0:0:0:0:
217,22,189714,1,0,1:0:0:0:
217,22,189815,2,0,P|187:22|204:49,1,67.5000025749208,2|0,0:0|0:0,0:0:0:0:
363,86,190018,2,0,P|364:46|357:9,1,67.5000025749208,10|0,0:0|0:0,0:0:0:0:
466,170,190220,6,0,P|486:145|501:95,1,67.5000025749208,6|0,1:2|1:0,0:0:0:0:
365,189,190423,2,0,P|379:220|412:265,1,67.5000025749208,10|0,0:0|1:0,0:0:0:0:
468,356,190626,2,0,P|427:337|347:326,1,67.5000025749208,2|0,1:2|1:0,0:0:0:0:
310,286,190829,2,0,P|274:308|218:314,1,67.5000025749208,10|0,0:0|1:0,0:0:0:0:
106,246,191031,70,0,L|115:179,1,67.5000025749208,2|0,1:2|1:0,0:0:0:0:
226,125,191234,2,0,L|237:192,1,67.5000025749208,10|0,0:0|1:0,0:0:0:0:
91,250,191437,2,0,L|100:183,1,67.5000025749208,2|0,1:2|1:0,0:0:0:0:
241,118,191639,2,0,L|252:185,1,67.5000025749208,10|0,0:0|1:0,0:0:0:0:
410,222,191842,6,0,P|449:213|493:178,1,67.5000025749208,2|0,1:2|1:0,0:0:0:0:
380,93,192045,2,0,P|347:78|274:62,1,67.5000025749208,10|0,0:0|1:0,0:0:0:0:
176,36,192247,2,0,P|210:20|275:12,1,67.5000025749208,2|0,1:2|1:0,0:0:0:0:
331,161,192450,2,0,L|322:250,1,67.5000025749208,10|0,0:0|1:0,0:0:0:0:
248,343,192653,5,2,1:2:0:0:
228,324,192754,1,0,1:0:0:0:
217,299,192856,2,0,P|232:260|265:221,1,67.5000025749208,10|0,0:0|1:0,0:0:0:0:
405,226,193058,1,2,1:2:0:0:
425,245,193159,1,0,1:0:0:0:
436,270,193261,2,0,P|421:309|388:348,1,67.5000025749208,10|8,0:0|0:0,0:0:0:0:
356,154,193464,6,0,B|416:188|416:188|527:172,1,135.000005149842,6|10,1:2|0:0,0:0:0:0:
506,94,193768,1,0,0:0:0:0:
506,94,193869,2,0,P|453:103|419:119,1,67.5000025749208,2|8,1:2|0:0,0:0:0:0:
333,77,194072,1,0,0:0:0:0:
312,59,194173,1,0,1:0:0:0:
288,46,194274,70,0,B|190:60|256:129|125:127,1,161.999995056153,10|0,0:0|1:0,0:0:0:0:
63,90,194579,2,0,P|135:144|73:202,1,161.999995056153,8|0,0:0|0:0,0:0:0:0:
62,270,194883,2,0,B|9:284|9:284|63:290,1,80.9999975280763,8|0,0:0|0:0,0:0:0:0:
187,353,195085,6,0,P|223:311|269:308,1,67.5000025749208,6|0,1:2|0:0,0:0:0:0:
364,231,195288,1,0,1:0:0:0:
397,226,195389,1,0,1:0:0:0:
426,243,195491,2,0,P|428:277|408:324,1,67.5000025749208,10|0,0:0|0:0,0:0:0:0:
283,217,195693,2,0,P|281:183|301:136,1,67.5000025749208,8|0,0:0|0:0,0:0:0:0:
430,49,195896,5,0,1:0:0:0:
448,92,195997,1,0,1:0:0:0:
444,139,196099,2,0,B|394:133|394:133|351:89|351:89|281:77,2,161.999995056153,8|8|8,0:0|3:2|3:2,0:0:0:0:
339,6,196707,6,0,P|261:49|184:59,1,116.999994644165,6|8,1:2|0:0,0:0:0:0:
172,120,197011,2,0,P|129:93|40:78,1,116.999994644165,2|0,1:2|0:0,0:0:0:0:
1,135,197315,2,0,B|-1:193|-1:193|35:269,1,116.999994644165,10|0,0:0|1:0,0:0:0:0:
91,292,197619,1,0,0:0:0:0:
91,292,197720,70,0,P|120:269|187:249,1,58.4999973220826,10|0,0:0|1:0,0:0:0:0:
227,308,197923,2,0,B|250:331|250:331|308:325,1,58.4999973220826,2|0,1:2|0:0,0:0:0:0:
311,213,198126,2,0,B|285:194|285:194|227:198,1,58.4999973220826,10|0,0:0|0:0,0:0:0:0:
349,299,198329,6,0,P|382:279|470:276,1,116.999994644165,2|8,1:0|0:0,0:0:0:0:
504,169,198633,2,0,P|469:215|458:272,1,116.999994644165,2|0,1:2|0:0,0:0:0:0:
452,384,198937,2,0,L|370:338,1,58.4999973220826,10|0,0:0|0:0,0:0:0:0:
322,204,199139,6,0,L|422:255,1,58.4999973220826,2|0,1:2|0:0,0:0:0:0:
364,136,199342,2,0,P|299:169|201:160,1,116.999994644165,8|0,0:0|1:0,0:0:0:0:
172,131,199646,1,0,1:0:0:0:
172,131,199747,2,0,P|125:121|78:118,1,58.4999973220826,8|8,0:0|0:0,0:0:0:0:
7,240,199950,6,0,P|40:230|99:228,1,58.4999973220826,2|0,3:2|1:0,0:0:0:0:
136,313,200153,1,10,0:0:0:0:
157,304,200254,2,0,B|206:319|206:319|214:332|214:332|230:327|230:327|294:342,1,135.000005149842,0|0,3:0|1:0,0:0:0:0:
360,299,200558,2,0,P|327:267|294:254,1,58.4999973220826,10|0,3:2|1:0,0:0:0:0:
427,352,200761,70,0,P|461:339|501:312,1,58.4999973220826,2|0,3:2|1:0,0:0:0:0:
502,199,200964,1,10,0:0:0:0:
502,199,201065,2,0,P|460:176|427:166,1,58.4999973220826,0|2,3:0|1:2,0:0:0:0:
312,163,201268,1,0,1:0:0:0:
312,163,201369,2,0,P|341:148|394:135,1,58.4999973220826,10|0,3:2|1:0,0:0:0:0:
284,0,201572,6,0,B|289:38|289:38|277:89|227:142,1,116.999994644165,2|10,3:2|0:0,0:0:0:0:
217,132,201876,1,0,3:0:0:0:
188,171,201977,1,2,1:2:0:0:
190,219,202078,1,0,3:0:0:0:
223,255,202180,1,10,3:2:0:0:
271,262,202281,1,0,3:0:0:0:
313,238,202382,1,2,0:0:0:0:
317,242,202585,6,0,L|307:331,1,58.4999973220826,0|0,3:0|0:0,0:0:0:0:
363,361,202788,2,0,P|387:295|306:311,1,175.499991966248,8|0,0:1|0:0,0:0:0:0:
244,344,203193,6,0,P|163:368|87:357,1,116.999994644165,6|0,1:2|0:0,0:0:0:0:
74,302,203497,2,0,P|90:233|134:173,1,116.999994644165,2|0,1:2|1:0,0:0:0:0:
169,129,203802,2,0,B|168:62|168:62|135:-5,1,116.999994644165,2|0,0:0|1:0,0:0:0:0:
37,58,204105,1,8,0:0:0:0:
37,58,204207,70,0,L|116:90,1,58.4999973220826,2|0,1:2|0:0,0:0:0:0:
214,59,204409,2,0,L|285:34,1,58.4999973220826,10|0,0:0|0:0,0:0:0:0:
396,105,204612,2,0,L|321:88,1,58.4999973220826
226,234,204815,6,0,P|237:180|285:110,1,116.999994644165,2|0,1:0|0:0,0:0:0:0:
337,213,205119,2,0,P|274:209|211:247,1,116.999994644165,2|0,0:0|0:0,0:0:0:0:
143,349,205423,2,0,L|139:265,1,58.4999973220826,2|0,0:0|0:0,0:0:0:0:
264,321,205625,6,0,L|269:398,1,58.4999973220826,2|10,1:2|0:0,0:0:0:0:
382,275,205828,2,0,P|375:214|388:152,1,116.999994644165,0|10,0:0|0:0,0:0:0:0:
408,126,206132,1,8,0:0:0:0:
402,85,206234,1,8,0:0:0:0:
361,77,206335,1,8,0:0:0:0:
331,104,206436,6,0,P|298:115|250:122,1,58.4999973220826,2|0,3:2|1:0,0:0:0:0:
188,74,206639,1,10,0:0:0:0:
169,96,206741,2,0,L|196:270,1,135.000005149842,0|0,3:0|1:0,0:0:0:0:
302,314,207045,2,0,P|269:282|237:269,1,58.4999973220826,10|0,3:2|1:0,0:0:0:0:
132,291,207247,70,0,P|106:305|78:315,1,58.4999973220826,2|0,3:2|1:0,0:0:0:0:
0,204,207450,1,10,0:0:0:0:
0,204,207551,2,0,P|42:181|75:171,1,58.4999973220826,0|2,3:0|1:2,0:0:0:0:
144,132,207754,1,0,1:0:0:0:
144,132,207855,2,0,P|177:153|229:160,1,58.4999973220826,10|0,3:2|1:0,0:0:0:0:
316,18,208058,6,0,P|297:94|259:160,1,116.999994644165,2|10,3:2|0:0,0:0:0:0:
313,238,208362,2,0,P|300:163|260:107,1,116.999994644165,0|0,3:0|0:0,0:0:0:0:
209,38,208666,2,0,P|186:54|218:51,1,58.4999973220826,10|0,3:2|0:0,0:0:0:0:
354,92,208869,5,0,1:0:0:0:
390,110,208970,1,4,0:3:0:0:
398,125,209072,1,8,0:3:0:0:
401,142,209173,1,8,0:3:0:0:
443,172,209274,5,8,0:0:0:0:
420,212,209376,1,8,0:0:0:0:
416,257,209477,1,8,0:0:0:0:
435,299,209579,1,8,0:0:0:0:
503,328,209680,70,0,P|428:342|376:377,1,116.999994644165,6|0,3:2|1:0,0:0:0:0:
310,342,209984,1,2,3:2:0:0:
310,342,210085,2,0,P|271:322|226:313,1,58.4999973220826,8|0,0:0|0:0,0:0:0:0:
151,234,210288,2,0,P|199:254|241:281,1,58.4999973220826,2|0,3:2|0:0,0:0:0:0:
94,283,210491,6,0,L|118:135,1,116.999994644165,2|0,3:2|1:0,0:0:0:0:
57,103,210795,1,2,3:2:0:0:
57,103,210896,2,0,L|-19:120,1,58.4999973220826,8|0,0:0|0:0,0:0:0:0:
167,39,211099,2,0,L|236:53,1,58.4999973220826,2|0,3:2|0:0,0:0:0:0:
227,179,211302,6,0,P|276:129|352:160,1,116.999994644165,6|0,3:2|0:0,0:0:0:0:
410,187,211606,1,0,3:0:0:0:
410,187,211707,2,0,P|461:181|492:164,1,58.4999973220826,10|0,0:0|0:0,0:0:0:0:
369,281,211910,2,0,P|341:289|289:293,1,58.4999973220826,0|0,3:0|1:0,0:0:0:0:
159,244,212112,6,0,P|197:261|245:311,1,58.4999973220826,12|0,3:2|0:0,0:0:0:0:
113,348,212315,2,0,P|75:331|27:281,1,58.4999973220826,8|0,3:2|0:0,0:0:0:0:
189,218,212518,2,0,B|218:239|218:239|233:283,1,58.4999973220826,8|0,3:2|0:0,0:0:0:0:
73,382,212720,2,0,B|48:363|48:363|41:310,1,58.4999973220826,8|0,3:2|0:0,0:0:0:0:
139,44,223054,22,0,P|199:47|236:86,1,90,2|0,1:2|0:0,0:0:0:0:
278,171,223411,1,10,0:0:0:0:
389,121,223589,2,0,P|413:63|406:14,1,90,2|0,0:0|1:0,0:0:0:0:
278,171,223947,2,0,P|254:229|264:280,1,90,2|8,1:2|0:0,0:0:0:0:
463,329,224304,6,0,P|379:285|307:281,1,135,6|0,1:2|0:0,0:0:0:0:
314,303,224661,2,0,P|285:323|217:317,1,90,2|8,1:2|0:0,0:0:0:0:
122,247,225018,2,0,L|131:132,1,90,2|0,0:0|1:0,0:0:0:0:
189,25,225375,1,0,1:0:0:0:
57,97,225554,1,8,0:0:0:0:
217,163,225732,1,0,1:0:0:0:
249,142,225822,1,8,0:0:0:0:
284,156,225911,5,0,1:0:0:0:
284,156,226625,1,8,0:0:0:0:
362,261,226804,2,0,P|410:232|402:148,1,135,12|0,0:0|0:0,0:0:0:0:
374,123,227161,69,0,1:0:0:0:
434,1,227339,1,8,0:0:0:0:
487,100,227518,1,0,3:0:0:0:
487,100,227607,1,0,3:0:0:0:
487,100,227697,1,8,0:0:0:0:
361,41,227875,1,0,1:0:0:0:
289,168,228054,1,8,0:0:0:0:
219,36,228232,6,0,P|145:19|54:11,1,135,8|0,0:0|0:0,0:0:0:0:
57,26,228589,1,8,0:0:0:0:
13,180,228768,1,8,0:0:0:0:
52,323,229036,5,8,0:0:0:0:
78,305,229125,2,0,P|94:262|98:219,2,72,0|0|8,1:0|1:0|0:0,0:0:0:0:
13,180,229661,6,0,B|131:136|98:269|240:214,1,215.999993408203,6|2,1:2|1:2,0:0:0:0:
304,188,230196,1,10,0:0:0:0:
270,36,230374,2,0,P|234:98|220:166,1,107.999996704102,2|0,0:0|1:0,0:0:0:0:
285,283,230731,1,2,1:2:0:0:
361,122,230910,1,10,0:0:0:0:
481,205,231089,70,0,P|420:211|368:254,1,107.999996704102,2|0,1:2|0:0,0:0:0:0:
274,368,231446,1,2,1:2:0:0:
416,308,231624,1,10,0:0:0:0:
244,199,231803,2,0,B|201:231|201:231|129:234,1,107.999996704102,2|0,0:0|1:0,0:0:0:0:
0,110,232160,2,0,B|49:131|49:131|87:192,1,107.999996704102,2|8,1:2|0:0,0:0:0:0:
132,376,232517,6,0,P|57:376|75:255,1,215.999993408203,2|2,1:2|1:2,0:0:0:0:
146,233,233053,1,10,0:0:0:0:
116,77,233231,2,0,P|84:141|77:196,1,107.999996704102,2|0,1:2|0:0,0:0:0:0:
211,287,233589,1,2,1:2:0:0:
257,130,233767,1,10,0:0:0:0:
421,289,233946,6,0,P|370:209|241:245,1,215.999993408203,2|0,1:2|1:0,0:0:0:0:
234,359,234481,2,0,P|290:346|330:288,1,107.999996704102,10|0,0:0|0:0,0:0:0:0:
176,203,234839,1,0,1:0:0:0:
340,164,235017,1,2,1:2:0:0:
196,86,235196,1,8,0:0:0:0:
260,220,235374,1,2,1:2:0:0:
284,6,235553,6,0,L|259:233,1,215.999993408203,6|8,1:2|0:0,0:0:0:0:
398,308,236089,2,0,P|423:262|422:200,1,107.999996704102,2|0,0:0|1:0,0:0:0:0:
257,297,236446,1,2,1:2:0:0:
184,136,236624,1,10,0:0:0:0:
74,227,236803,1,2,1:2:0:0:
120,63,236981,69,2,0:0:0:0:
176,219,237160,2,0,P|167:275|137:345,1,107.999996704102,2|8,1:2|0:0,0:0:0:0:
32,153,237517,2,0,B|150:109|117:242|252:166,1,215.999993408203,2|0,1:2|1:0,0:0:0:0:
363,100,238053,2,0,P|422:114|464:168,1,107.999996704102,8|0,0:0|1:2,0:0:0:0:
386,372,238410,6,0,B|336:332|336:332|383:143,1,215.999993408203,2|8,1:2|0:0,0:0:0:0:
441,11,238946,2,0,L|453:131,1,107.999996704102,2|0,0:0|1:0,0:0:0:0:
329,37,239303,1,2,1:2:0:0:
266,181,239481,1,10,0:0:0:0:
171,90,239660,1,2,1:2:0:0:
327,124,239839,5,2,1:2:0:0:
189,232,240017,1,2,1:2:0:0:
90,105,240196,1,8,0:0:0:0:
26,221,240374,1,0,1:0:0:0:
28,239,240464,1,0,1:0:0:0:
30,258,240553,1,8,0:0:0:0:
100,350,240731,1,0,1:0:0:0:
189,232,240910,1,8,0:0:0:0:
210,248,240999,1,8,0:0:0:0:
225,271,241089,6,0,P|259:330|399:298,1,215.999993408203,6|2,1:2|1:2,0:0:0:0:
466,182,241624,1,10,0:0:0:0:
326,140,241803,2,0,P|332:205|365:261,1,107.999996704102,2|0,0:0|1:0,0:0:0:0:
399,90,242160,1,2,1:2:0:0:
247,176,242339,1,10,0:0:0:0:
195,24,242517,70,0,P|261:30|320:80,1,107.999996704102,2|0,1:2|0:0,0:0:0:0:
166,149,242874,1,2,1:2:0:0:
52,40,243053,1,10,0:0:0:0:
166,149,243231,2,0,B|185:199|185:199|171:289,1,107.999996704102,2|0,0:0|1:0,0:0:0:0:
11,347,243589,2,0,B|-8:297|-8:297|6:207,1,107.999996704102,2|8,1:2|0:0,0:0:0:0:
157,331,243946,6,0,B|315:358|315:358|254:294,1,215.999993408203,2|0,1:2|1:0,0:0:0:0:
176,252,244481,1,10,0:0:0:0:
319,173,244660,2,0,P|344:230|339:281,1,107.999996704102,2|0,1:2|0:0,0:0:0:0:
245,138,245017,1,2,1:2:0:0:
176,252,245196,1,10,0:0:0:0:
82,29,245374,6,0,B|32:76|32:76|73:228,1,215.999993408203,6|0,1:2|1:0,0:0:0:0:
176,252,245910,2,0,P|223:221|318:230,1,107.999996704102,10|0,0:0|0:0,0:0:0:0:
414,250,246267,1,0,1:0:0:0:
319,130,246446,1,2,1:2:0:0:
278,289,246624,1,8,0:0:0:0:
393,168,246803,1,2,1:2:0:0:
471,350,246981,6,0,B|348:379|397:251|248:295,1,215.999993408203,4|8,1:2|0:0,0:0:0:0:
196,347,247517,1,2,0:0:0:0:
236,176,247696,1,2,1:2:0:0:
90,239,247874,2,0,P|169:241|211:286,1,107.999996704102,2|8,1:2|0:0,0:0:0:0:
52,384,248231,2,0,B|20:341|20:341|26:254,1,107.999996704102,2|0,1:2|0:0,0:0:0:0:
108,158,248589,69,2,1:2:0:0:
199,299,248767,1,10,0:0:0:0:
299,187,248946,2,0,L|281:75,1,107.999996704102,2|0,1:2|0:0,0:0:0:0:
235,0,249303,1,2,1:2:0:0:
191,142,249481,1,10,0:0:0:0:
335,22,249660,1,2,1:2:0:0:
478,188,249839,6,0,P|380:170|321:268,1,215.999993408203,6|8,1:2|0:0,0:0:0:0:
440,384,250374,2,0,P|427:325|401:282,1,107.999996704102,0|0,0:0|1:0,0:0:0:0:
266,323,250731,1,0,1:0:0:0:
219,177,250910,1,8,0:0:0:0:
67,279,251089,6,0,B|185:235|152:368|294:313,1,215.999993408203,6|2,1:2|1:2,0:0:0:0:
305,182,251624,1,10,0:0:0:0:
146,242,251803,1,0,1:0:0:0:
125,216,251892,1,0,1:0:0:0:
124,183,251981,1,8,0:0:0:0:
199,64,252160,1,0,1:0:0:0:
305,182,252339,1,8,0:0:0:0:
340,189,252428,1,8,0:0:0:0:
376,198,252517,1,8,0:0:0:0:
497,66,252696,6,0,B|469:13|469:13|437:208,1,215.999993408203,6|8,1:2|0:0,0:0:0:0:
511,293,253231,1,0,1:0:0:0:
376,198,253410,1,0,0:0:0:0:
326,380,253589,1,2,1:2:0:0:
486,293,253767,1,8,0:0:0:0:
296,229,253946,70,0,B|170:230|248:342|96:342,1,215.999993408203,6|0,1:2|1:0,0:0:0:0:
70,223,254481,1,8,0:0:0:0:
167,110,254660,1,0,1:0:0:0:
195,105,254749,1,0,1:0:0:0:
221,121,254839,1,8,0:0:0:0:
296,229,255017,1,0,1:0:0:0:
389,58,255196,1,8,0:0:0:0:
418,56,255285,1,8,0:0:0:0:
445,65,255374,1,8,0:0:0:0:
468,83,255464,1,8,0:0:0:0:
481,102,255553,6,0,P|475:153|455:213,1,90,6|0,1:2|0:0,0:0:0:0:
416,334,255910,1,10,0:0:0:0:
296,229,256089,2,0,P|339:203|417:217,1,90,2|0,1:2|1:0,0:0:0:0:
252,300,256446,1,2,0:0:0:0:
395,338,256624,1,10,0:0:0:0:
252,300,256803,2,0,L|261:189,1,90,2|0,1:2|0:0,0:0:0:0:
204,83,257160,5,2,1:2:0:0:
325,164,257339,1,10,0:0:0:0:
373,18,257517,2,0,P|307:23|266:54,1,90,2|0,1:2|0:0,0:0:0:0:
166,170,257874,2,0,P|115:168|71:131,1,90,2|8,1:2|0:0,0:0:0:0:
9,55,258231,6,0,P|34:108|42:255,1,180,6|0,1:2|1:0,0:0:0:0:
4,353,258767,1,10,0:0:0:0:
176,343,258946,2,0,P|133:314|75:305,1,90,2|0,0:0|1:0,0:0:0:0:
177,187,259303,1,0,1:0:0:0:
253,321,259481,2,0,P|296:350|354:359,1,90,10|0,0:0|1:0,0:0:0:0:
477,272,259839,69,0,0:0:0:0:
477,272,260017,1,2,1:2:0:0:
349,183,260196,2,0,L|340:290,1,90,8|0,0:0|1:0,0:0:0:0:
432,137,260553,1,0,0:0:0:0:
265,96,260731,1,2,1:2:0:0:
373,0,260910,1,8,0:0:0:0:
252,187,261089,6,0,B|168:239|168:122|59:202,1,180,6|0,1:2|1:0,0:0:0:0:
12,276,261624,1,10,0:0:0:0:
155,357,261803,2,0,P|151:306|129:247,1,90,2|0,0:0|1:0,0:0:0:0:
20,124,262160,1,2,1:2:0:0:
156,155,262339,1,10,0:0:0:0:
20,124,262517,2,0,L|34:10,1,90,2|0,1:2|0:0,0:0:0:0:
156,155,262874,5,2,1:2:0:0:
224,26,263053,1,10,0:0:0:0:
307,147,263231,2,0,P|282:211|279:273,1,90,2|0,0:0|1:0,0:0:0:0:
394,374,263589,2,0,P|419:310|422:248,1,90,2|8,1:2|0:0,0:0:0:0:
297,134,263946,6,0,P|232:131|116:175,1,180,6|0,1:2|1:0,0:0:0:0:
84,299,264481,1,10,0:0:0:0:
12,172,264660,2,0,P|20:121|45:66,1,90,2|0,0:0|1:0,0:0:0:0:
157,14,265017,1,0,1:0:0:0:
211,142,265196,1,10,0:0:0:0:
327,40,265374,1,2,1:2:0:0:
416,195,265553,69,0,1:0:0:0:
307,134,265731,1,8,0:0:0:0:
371,263,265910,1,8,0:0:0:0:
266,336,266089,1,0,1:0:0:0:
240,331,266178,1,0,1:0:0:0:
214,326,266267,1,8,0:0:0:0:
150,233,266446,1,0,1:0:0:0:
283,112,266624,1,8,0:0:0:0:
304,123,266714,1,8,0:0:0:0:
319,140,266803,6,0,P|292:214|212:180,1,180,4|0,1:2|0:0,0:0:0:0:
244,77,267339,1,8,0:0:0:0:
282,258,267517,1,6,1:2:0:0:
256,192,267606,12,0,272696,0:0:0:0:
163,282,283894,117,12,0:0:0:0:
229,127,284072,1,0,1:2:0:0:
287,298,284251,1,8,0:0:0:0:
237,147,284430,1,0,1:2:0:0:
212,346,284608,2,0,P|257:378|330:378,1,90,8|0,0:0|1:2,0:0:0:0:
360,251,284965,2,0,P|315:219|242:219,1,90,8|0,0:0|1:2,0:0:0:0:
98,260,285322,5,8,0:0:0:0:
203,160,285501,1,0,1:2:0:0:
79,128,285680,1,8,0:0:0:0:
216,163,285858,1,0,1:2:0:0:
101,53,286037,2,0,P|48:51|10:78,1,90,8|0,0:0|1:2,0:0:0:0:
49,201,286394,2,0,P|101:202|140:175,1,90,8|0,0:0|1:2,0:0:0:0:
223,27,286751,5,12,0:0:0:0:
325,155,286930,1,0,1:0:0:0:
351,158,287019,1,0,1:0:0:0:
377,162,287108,1,0,1:0:0:0:
212,13,287287,85,12,0:0:0:0:
409,94,287465,1,0,1:0:0:0:
433,82,287555,1,0,1:0:0:0:
458,72,287644,1,0,1:0:0:0:
199,3,287822,5,12,0:0:0:0:
55,120,288001,2,0,P|75:175|75:277,1,135,8|0,0:0|0:0,0:0:0:0:
73,275,288358,1,8,0:0:0:0:
158,128,288537,1,8,0:0:0:0:
158,128,289608,6,0,B|283:77|232:220|379:155,1,225,6|10,1:2|0:0,0:0:0:0:
470,16,290144,2,0,P|406:51|403:112,1,112.5,2|0,0:0|1:0,0:0:0:0:
504,242,290501,2,0,P|495:186|442:164,1,112.5,2|8,1:2|0:0,0:0:0:0:
355,347,290858,70,0,B|320:281|260:286|260:286|233:354|161:347,1,225,2|0,1:2|1:0,0:0:0:0:
22,252,291394,2,0,P|87:261|142:315,1,112.5,8|0,0:0|0:0,0:0:0:0:
101,369,291751,1,0,1:0:0:0:
187,231,291930,1,2,1:2:0:0:
41,165,292108,1,10,0:0:0:0:
206,223,292287,1,2,0:0:0:0:
208,22,292465,6,0,B|143:58|143:58|160:167,1,168.75,6|0,1:2|0:0,0:0:0:0:
157,151,292822,1,10,0:0:0:0:
331,148,293001,2,0,P|293:113|216:107,1,112.5,2|0,1:2|0:0,0:0:0:0:
338,234,293358,1,2,1:2:0:0:
383,71,293537,1,10,0:0:0:0:
331,148,293715,6,0,B|378:111|378:111|478:162|419:261,1,225,0|0,1:0|1:0,0:0:0:0:
264,343,294251,2,0,P|302:318|394:323,1,112.5,8|0,0:0|0:0,0:0:0:0:
431,377,294608,1,2,1:2:0:0:
338,234,294787,1,2,1:2:0:0:
502,190,294965,1,10,0:0:0:0:
412,65,295144,1,2,3:2:0:0:
385,75,295233,1,0,3:0:0:0:
366,97,295322,6,0,B|249:110|310:201|165:204,2,225,6|10|2,1:2|0:0|1:2,0:0:0:0:
419,196,296215,1,2,1:2:0:0:
451,45,296394,2,0,P|413:16|346:4,1,112.5,10|0,0:0|0:0,0:0:0:0:
175,123,296751,70,0,P|264:136|398:209,2,225,2|10|2,1:2|0:0|1:2,0:0:0:0:
83,185,297644,1,2,1:2:0:0:
1,74,297822,2,0,P|33:123|11:246,1,168.75,8|0,0:0|0:0,0:0:0:0:
6,259,298180,6,0,P|84:279|131:325,1,112.5,6|0,1:2|0:0,0:0:0:0:
286,201,298537,2,0,P|224:222|178:264,1,112.5,10|0,0:0|0:0,0:0:0:0:
288,309,298894,1,2,1:2:0:0:
256,131,299072,1,0,1:0:0:0:
288,309,299251,2,0,L|426:337,1,112.5,10|0,0:0|3:0,0:0:0:0:
433,319,299519,1,0,3:0:0:0:
463,310,299608,5,6,1:2:0:0:
508,191,299787,1,2,1:2:0:0:
309,296,299965,1,10,0:0:0:0:
392,107,300144,2,0,P|425:148|428:224,1,112.5,2|0,1:2|3:0,0:0:0:0:
360,235,300412,1,0,3:0:0:0:
360,235,300501,6,0,P|321:208|278:202,1,56.25,8|8,0:0|0:0,0:0:0:0:
207,307,300680,1,8,0:3:0:0:
184,323,300769,1,8,0:3:0:0:
158,334,300858,1,4,0:3:0:0:
130,335,300947,1,0,1:3:0:0:
101,318,301037,70,0,B|43:200|191:222|102:91,1,225,6|10,1:2|0:0,0:0:0:0:
0,0,301572,2,0,P|48:40|110:21,1,112.5,2|0,0:0|1:0,0:0:0:0:
273,132,301930,2,0,B|299:82|299:82|283:24,1,112.5,2|8,1:2|0:0,0:0:0:0:
198,191,302287,6,0,B|312:129|298:280|429:180,1,225,2|0,1:2|1:0,0:0:0:0:
476,74,302822,1,8,0:0:0:0:
510,227,303001,2,0,P|460:199|390:198,1,112.5,8|0,0:0|1:0,0:0:0:0:
434,378,303358,1,2,1:2:0:0:
305,318,303537,1,10,0:0:0:0:
462,298,303715,1,2,0:0:0:0:
281,336,303894,6,0,B|154:298|154:298|131:341|57:324,1,195.750005973816,14|0,0:0|0:0,0:0:0:0:
102,328,304251,1,2,1:2:0:0:
100,86,304430,6,0,P|49:159|43:271,1,195.750005973816,14|0,0:0|0:0,0:0:0:0:
41,263,304787,1,2,1:2:0:0:
181,121,304965,70,0,B|328:138|215:258|411:273,1,261.000007965088,14|0,0:0|0:0,0:0:0:0:
512,145,305501,1,0,1:0:0:0:
491,126,305590,1,0,3:0:0:0:
463,117,305680,2,0,P|419:120|368:169,1,112.5,8|0,0:0|0:0,0:0:0:0:
471,285,306037,1,2,1:2:0:0:
305,342,306215,1,2,1:2:0:0:
178,218,306394,2,0,P|146:164|218:63,1,168.75,10|0,0:0|0:0,0:0:0:0:
219,51,306751,5,6,1:2:0:0:
311,178,306930,1,2,0:0:0:0:
370,12,307108,1,10,0:0:0:0:
219,51,307287,2,0,P|163:45|89:5,1,112.5,2|0,0:0|1:0,0:0:0:0:
0,125,307644,2,0,P|25:162|28:240,1,112.5,2|8,1:2|0:0,0:0:0:0:
202,352,308001,6,0,B|168:284|101:286|101:286|70:348|2:343,1,225,2|0,1:2|1:0,0:0:0:0:
77,132,308537,2,0,P|33:193|40:259,1,112.5,10|0,0:0|0:0,0:0:0:0:
180,142,308894,2,0,P|171:87|133:45,1,112.5,2|0,1:2|1:0,0:0:0:0:
209,220,309251,1,10,0:0:0:0:
352,104,309430,1,2,0:0:0:0:
297,12,309608,6,0,B|325:56|325:56|283:250,1,225,6|8,1:2|0:0,0:0:0:0:
257,334,310144,1,0,0:0:0:0:
447,293,310322,2,0,P|406:211|278:237,1,225,2|8,1:2|0:0,0:0:0:0:
257,334,310858,1,0,0:0:0:0:
171,176,311037,70,0,B|89:154|89:154|23:206,1,168.75,6|0,1:2|0:0,0:0:0:0:
14,229,311394,2,0,P|34:272|40:349,1,112.5,8|0,0:0|0:0,0:0:0:0:
148,246,311751,1,2,1:2:0:0:
257,334,311930,1,10,0:0:0:0:
282,323,312019,1,8,0:0:0:0:
308,313,312108,2,0,L|367:323,1,56.25,0|4,1:0|0:3,0:0:0:0:
432,212,312287,2,0,L|347:197,1,56.25,8|8,0:3|0:3,0:0:0:0:
238,17,312465,6,0,B|226:73|269:123|269:123|305:132|322:179,1,168.75,14|0,0:0|0:0,0:0:0:0:
310,155,312822,1,2,1:2:0:0:
157,319,313001,6,0,P|163:256|255:200,1,168.75,14|0,0:0|0:0,0:0:0:0:
245,200,313358,1,2,1:2:0:0:
158,78,313537,1,0,1:0:0:0:
80,255,313715,1,14,0:0:0:0:
408,56,316215,6,0,L|397:124,1,56.25,0|0,1:0|0:0,0:0:0:0:
410,132,316394,2,0,B|454:133|454:133|365:161,1,108,8|0,0:0|0:0,0:0:0:0:
321,113,316751,70,0,P|263:88|133:72,1,180,6|10,1:2|0:0,0:0:0:0:
6,157,317287,2,0,P|68:154|116:121,1,90,2|0,0:0|1:0,0:0:0:0:
148,71,317644,1,0,1:0:0:0:
207,218,317822,1,10,0:0:0:0:
101,363,318001,6,0,B|65:283|65:283|125:211,1,180,0|0,1:0|1:0,0:0:0:0:
188,146,318537,2,0,P|229:173|298:172,1,90,8|0,0:0|0:0,0:0:0:0:
362,75,318894,1,2,1:2:0:0:
403,212,319072,1,0,1:0:0:0:
512,138,319251,2,0,P|477:102|412:87,1,90,8|0,0:0|0:0,0:0:0:0:
321,230,319608,6,0,B|279:278|214:271|214:271|192:235|149:243,1,180,2|8,1:2|0:0,0:0:0:0:
48,370,320144,2,0,P|67:313|105:287,1,90,0|0,0:0|1:0,0:0:0:0:
183,338,320501,1,2,1:2:0:0:
221,187,320680,1,10,0:0:0:0:
83,105,320858,6,0,B|37:160|37:160|75:273,1,180,2|2,1:2|1:2,0:0:0:0:
221,187,321394,2,0,L|238:70,1,90,10|0,0:0|0:0,0:0:0:0:
370,38,321751,2,0,L|387:155,1,90,0|0,1:0|1:0,0:0:0:0:
457,244,322108,2,0,P|491:233|530:233,2,60,10|2|2,0:0|0:0|0:0,0:0:0:0:
413,316,322465,70,0,B|382:268|333:266|333:266|317:318|235:320,1,180,6|8,1:2|0:0,0:0:0:0:
200,166,323001,2,0,P|237:192|253:264,1,90,0|0,0:0|1:0,0:0:0:0:
128,347,323358,1,2,1:2:0:0:
0,278,323537,1,10,0:0:0:0:
128,347,323715,6,0,B|150:224|150:224|121:197|126:149,1,180,6|0,1:2|1:0,0:0:0:0:
251,113,324251,1,8,0:0:0:0:
132,18,324430,2,0,P|163:63|167:130,1,90,2|0,1:2|0:0,0:0:0:0:
126,175,324787,1,0,1:0:0:0:
30,60,324965,2,0,P|64:66|100:89,1,45,8|8,0:0|0:3,0:0:0:0:
211,203,325144,1,4,0:3:0:0:
241,192,325233,1,0,1:0:0:0:
270,179,325322,6,0,P|354:192|454:250,1,180,6|8,1:2|0:0,0:0:0:0:
366,384,325858,2,0,P|378:324|401:280,1,90,0|0,0:0|1:0,0:0:0:0:
464,160,326215,1,0,1:0:0:0:
390,52,326394,1,10,0:0:0:0:
304,145,326572,1,2,1:2:0:0:
113,47,326751,6,0,B|197:52|243:97|243:97|261:73|315:67,1,180,6|10,1:2|0:0,0:0:0:0:
378,182,327287,2,0,P|334:220|272:219,1,90,2|0,1:2|0:0,0:0:0:0:
178,142,327644,1,2,1:2:0:0:
114,269,327822,1,8,0:0:0:0:
70,207,328001,2,0,B|112:209|112:209|124:218|124:218|172:220,1,101.250003862381,0|0,1:0|0:0,0:0:0:0:
169,219,328358,69,12,0:0:0:0:
279,357,328537,2,0,L|296:249,1,90,8|0,0:0|1:0,0:0:0:0:
249,168,328894,1,8,0:0:0:0:
385,285,329072,2,0,L|371:171,1,90,8|0,0:0|1:0,0:0:0:0:
294,95,329430,6,0,P|238:127|138:128,1,135,12|0,0:0|0:0,0:0:0:0:
168,134,329787,1,8,0:0:0:0:
256,0,329965,1,12,0:0:0:0:
125,104,340326,54,0,P|165:112|182:123,1,53.9999983520508,2|2,0:0|0:0,0:0:0:0:
253,145,340671,2,0,P|299:125|323:63,1,107.999996704102,2|0,0:0|0:0,0:0:0:0:
383,20,341361,2,0,P|422:16|488:63,2,107.999996704102,2|0|0,0:0|0:0|0:0,0:0:0:0:
412,96,342395,6,0,L|402:161,1,53.9999983520508,2|2,0:0|0:0,0:0:0:0:
406,275,342740,2,0,P|448:240|349:221,1,215.999993408203,2|0,0:0|0:0,0:0:0:0:
287,263,343602,1,0,1:0:0:0:
361,347,343775,2,0,L|388:343,11,17.9999994506836,0|0|0|0|0|0|0|0|0|0|0|0,1:0|1:0|1:0|1:0|1:0|1:0|1:0|1:0|1:0|1:0|1:0|1:0,0:0:0:0:
332,370,344464,6,0,P|259:336|118:332,1,215.999993408203,4|0,1:2|1:0,0:0:0:0:
89,126,344982,2,0,P|126:195|121:339,1,215.999993408203,8|0,0:0|1:0,0:0:0:0:
0,358,345499,2,0,P|16:298|39:255,1,107.999996704102,6|0,0:3|0:0,0:0:0:0:
219,205,345844,2,0,P|203:145|180:102,1,107.999996704102,2|2,1:2|1:2,0:0:0:0:
62,19,346189,1,8,0:0:0:0:
0,156,346361,1,0,0:0:0:0:
154,20,346533,70,0,B|255:-21|239:100|357:43,1,215.999993408203,8|0,1:3|1:0,0:0:0:0:
498,127,347051,2,0,P|411:142|362:17,1,215.999993408203,8|0,0:0|1:0,0:0:0:0:
468,11,347568,1,6,0:3:0:0:
472,15,347913,1,0,1:0:0:0:
385,163,348085,1,2,0:0:0:0:
475,280,348258,2,0,P|412:278|321:321,1,161.999995056153,8|0,0:0|0:0,0:0:0:0:
255,358,348602,6,0,B|87:331|87:331|148:310,1,215.999993408203,0|0,1:0|1:0,0:0:0:0:
85,126,349120,2,0,P|65:191|137:320,1,215.999993408203,8|0,0:0|1:0,0:0:0:0:
281,209,349637,1,6,0:3:0:0:
285,213,349982,1,2,1:2:0:0:
199,163,350154,1,8,0:0:0:0:
362,91,350326,1,2,1:2:0:0:
274,45,350499,1,8,0:0:0:0:
283,294,350671,6,0,B|315:242|370:255|370:255|400:316|473:309,1,215.999993408203,0|0,1:0|1:0,0:0:0:0:
501,125,351189,2,0,B|445:161|445:161|462:324,1,215.999993408203,8|0,0:0|1:0,0:0:0:0:
361,380,351706,1,6,0:3:0:0:
365,384,352051,1,2,1:2:0:0:
299,254,352223,1,2,1:2:0:0:
385,132,352395,1,8,0:0:0:0:
387,115,352482,1,2,0:0:0:0:
388,102,352568,1,2,0:0:0:0:
458,41,352740,6,0,B|377:81|309:84|309:84|290:45|226:45,1,215.999993408203,4|0,1:2|1:0,0:0:0:0:
96,106,353258,2,0,P|227:111|264:47,1,215.999993408203,8|0,0:0|1:0,0:0:0:0:
108,28,353775,2,0,L|-11:20,1,107.999996704102,6|0,0:3|0:0,0:0:0:0:
49,221,354120,2,0,L|168:213,1,107.999996704102,0|0,1:0|0:0,0:0:0:0:
267,271,354464,1,8,0:0:0:0:
202,384,354637,1,0,1:0:0:0:
127,141,354809,70,0,B|183:121|228:153|237:204|237:204|256:195|283:192|316:214,1,215.999993408203,8|0,1:3|1:0,0:0:0:0:
440,300,355326,2,0,P|389:317|314:183,1,215.999993408203,8|0,0:0|1:0,0:0:0:0:
351,102,355844,1,6,0:3:0:0:
355,106,356189,1,0,1:0:0:0:
264,49,356361,1,0,1:2:0:0:
171,185,356533,1,8,0:0:0:0:
73,139,356706,1,0,1:0:0:0:
6,318,356878,6,0,B|159:345|159:345|108:302,1,215.999993408203,0|0,1:0|1:0,0:0:0:0:
152,107,357395,2,0,P|103:190|115:311,1,215.999993408203,8|0,0:0|0:0,0:0:0:0:
260,377,357913,2,0,P|293:325|363:318,1,107.999996704102,6|0,0:3|1:2,0:0:0:0:
491,204,358258,2,0,P|458:256|388:263,1,107.999996704102,2|0,1:2|1:2,0:0:0:0:
320,226,358602,1,8,0:0:0:0:
423,359,358775,1,0,1:0:0:0:
477,131,358947,6,0,B|374:97|374:97|262:159,1,215.999993408203,0|0,1:0|1:0,0:0:0:0:
224,265,359464,2,0,B|247:311|247:311|285:124,1,215.999993408203,8|0,0:0|1:0,0:0:0:0:
226,37,359982,1,6,0:3:0:0:
230,41,360326,1,0,1:0:0:0:
166,185,360499,1,8,0:0:0:0:
255,317,360671,1,8,0:0:0:0:
253,334,360758,1,0,0:0:0:0:
252,347,360844,1,0,0:0:0:0:
64,339,361016,6,0,B|25:293|25:293|201:326,1,215.999993408203,4|0,1:2|1:0,0:0:0:0:
323,282,361533,2,0,P|263:237|178:323,1,215.999993408203,8|0,0:0|1:0,0:0:0:0:
50,182,362051,2,0,P|88:208|156:198,1,107.999996704102,6|0,0:3|0:0,0:0:0:0:
271,37,362395,2,0,P|233:11|165:21,1,107.999996704102,2|2,1:2|1:2,0:0:0:0:
302,151,362740,2,0,P|347:128|467:123,1,161.999995056153,8|0,0:0|0:0,0:0:0:0:
512,175,363085,70,0,B|490:323|490:323|434:363,1,215.999993408203,8|0,1:3|1:0,0:0:0:0:
246,313,363602,2,0,B|355:293|355:293|435:361,1,215.999993408203,8|0,0:0|1:0,0:0:0:0:
428,238,364120,1,6,0:3:0:0:
432,242,364464,1,0,1:0:0:0:
334,382,364637,1,2,0:0:0:0:
244,215,364809,1,8,0:0:0:0:
335,266,364982,1,0,0:0:0:0:
430,128,365154,6,0,B|407:185|343:176|343:176|313:113|232:124,1,215.999993408203,0|0,1:0|1:0,0:0:0:0:
107,39,365671,2,0,P|183:22|247:157,1,215.999993408203,8|0,0:0|1:0,0:0:0:0:
160,208,366189,2,0,P|107:180|34:172,1,107.999996704102,6|0,0:3|1:0,0:0:0:0:
238,278,366533,2,0,P|290:267|337:241,1,107.999996704102,4|0,0:0|1:0,0:0:0:0:
209,363,366878,1,2,1:2:0:0:
76,270,367051,1,8,0:0:0:0:
220,79,367223,6,0,B|263:131|263:131|232:311,1,215.999993408203,4|0,1:2|1:0,0:0:0:0:
328,229,367740,2,0,B|388:242|388:242|206:284,1,215.999993408203,8|0,0:0|1:0,0:0:0:0:
127,212,368258,1,6,0:3:0:0:
131,216,368602,1,2,1:2:0:0:
192,85,368775,1,2,1:2:0:0:
47,63,368947,1,8,0:0:0:0:
48,89,369033,1,0,0:0:0:0:
49,115,369120,1,0,1:0:0:0:
131,216,369292,6,0,B|186:240|186:240|221:187|276:178|337:206,1,215.999993408203,4|0,1:2|1:0,0:0:0:0:
434,354,369809,2,0,B|371:344|371:344|319:187,1,215.999993408203,8|0,0:0|1:0,0:0:0:0:
419,48,370326,2,0,L|397:162,1,107.999996704102,6|0,0:3|0:0,0:0:0:0:
230,114,370671,2,0,L|208:0,1,107.999996704102,0|0,1:0|0:0,0:0:0:0:
145,84,371016,1,8,0:0:0:0:
314,141,371189,1,0,1:0:0:0:
251,321,371361,70,0,B|135:398|157:256|35:336,1,215.999993408203,8|0,1:3|1:0,0:0:0:0:
59,185,371878,2,0,B|19:160|19:160|52:334,1,215.999993408203,8|0,0:0|1:0,0:0:0:0:
169,240,372395,1,6,0:3:0:0:
173,244,372740,1,2,1:2:0:0:
274,208,372913,1,2,1:2:0:0:
365,354,373085,1,8,0:0:0:0:
466,318,373258,1,0,1:0:0:0:
449,65,373430,6,0,P|401:141|389:266,1,215.999993408203,4|0,1:2|1:0,0:0:0:0:
198,178,373947,2,0,P|271:187|404:286,1,215.999993408203,8|0,0:0|1:0,0:0:0:0:
276,379,374464,2,0,P|262:328|270:256,1,107.999996704102,4|0,1:2|0:0,0:0:0:0:
295,61,374809,2,0,P|309:112|301:184,1,107.999996704102,0|0,1:0|0:0,0:0:0:0:
153,116,375154,2,0,B|47:154|47:154|-1:136,1,161.999995056153,8|0,0:0|0:0,0:0:0:0:
39,72,375499,6,0,B|189:131|189:131|275:93,1,215.999993408203,4|0,1:2|1:0,0:0:0:0:
387,52,376016,2,0,P|284:26|250:142,1,215.999993408203,8|0,0:0|1:0,0:0:0:0:
353,170,376533,1,6,0:3:0:0:
357,174,376878,1,2,1:2:0:0:
312,273,377051,1,8,0:0:0:0:
485,334,377223,1,8,0:0:0:0:
461,230,377395,1,0,1:0:0:0:
331,355,377568,6,0,B|228:384|239:265|127:297,1,215.999993408203,4|0,1:2|1:0,0:0:0:0:
110,155,378085,2,0,B|96:244|96:244|94:277|111:300|159:293,1,161.999995056153,8|0,0:0|1:0,0:0:0:0:
276,221,378602,2,0,P|335:217|384:257,1,107.999996704102,0|0,1:0|1:0,0:0:0:0:
375,243,379637,70,0,P|436:242|486:200,1,107.999996704102,6|0,0:0|0:0,0:0:0:0:
442,139,380154,1,2,0:0:0:0:
442,139,380326,2,0,L|449:80,1,53.9999983520508
372,52,380671,2,0,P|337:36|265:27,2,107.999996704102,2|2|2,0:0|0:0|0:0,0:0:0:0:
208,79,381706,6,0,L|193:206,1,107.999996704102,2|0,0:0|0:0,0:0:0:0:
126,237,382223,1,2,0:0:0:0:
126,237,382395,2,0,L|133:307,1,53.9999983520508,0|2,0:0|0:0,0:0:0:0:
196,333,382740,2,0,P|125:339|84:374,2,107.999996704102,2|2|2,0:0|0:0|0:0,0:0:0:0:
265,379,383602,1,0,0:0:0:0:
307,264,383775,6,0,L|323:143,1,107.999996704102,6|0,0:0|0:0,0:0:0:0:
399,148,384292,1,2,0:0:0:0:
399,148,384464,2,0,L|391:83,1,53.9999983520508,0|2,0:0|0:0,0:0:0:0:
467,62,384809,2,0,L|484:183,2,107.999996704102,2|2|2,0:0|0:0|0:0,0:0:0:0:
405,15,385671,1,2,0:0:0:0:
320,115,385844,6,0,P|271:84|205:93,1,107.999996704102,6|0,0:0|0:0,0:0:0:0:
161,144,386361,1,2,0:0:0:0:
161,144,386533,2,0,P|132:164|91:164,1,53.9999983520508
4,95,386878,2,0,P|58:76|110:110,2,107.999996704102,2|2|2,0:0|0:0|0:0,0:0:0:0:
37,163,387740,1,2,0:0:0:0:
4,275,387913,70,0,L|22:389,1,107.999996704102,6|0,0:0|0:0,0:0:0:0:
107,317,388430,1,2,0:0:0:0:
107,317,388602,2,0,L|97:387,1,53.9999983520508,0|2,0:0|0:0,0:0:0:0:
189,278,388947,2,0,L|207:390,2,107.999996704102,2|2|2,0:0|0:0|0:0,0:0:0:0:
221,203,389809,1,2,0:0:0:0:
283,300,389982,6,0,P|317:319|386:323,1,107.999996704102,2|0,0:0|0:0,0:0:0:0:
449,266,390499,1,2,0:0:0:0:
390,203,390671,2,0,L|385:136,1,53.9999983520508,2|0,0:0|0:0,0:0:0:0:
409,71,391016,1,2,0:0:0:0:
461,131,391189,1,2,0:0:0:0:
496,61,391361,1,2,0:0:0:0:
500,65,391706,1,2,0:0:0:0:
447,4,391878,1,2,0:0:0:0:
334,88,392051,6,0,B|289:57|223:61,1,107.999996704102,6|0,0:0|0:0,0:0:0:0:
172,121,392568,2,0,P|178:180|210:238,1,107.999996704102,2|0,0:0|0:0,0:0:0:0:
274,261,393085,2,0,P|264:317|234:378,2,107.999996704102,2|2|2,0:0|0:0|0:0,0:0:0:0:
265,181,393947,1,2,0:0:0:0:
181,301,394120,6,0,P|137:279|123:212,1,107.999996704102,6|0,0:0|0:0,0:0:0:0:
157,151,394637,1,2,0:0:0:0:
157,151,394809,2,0,L|162:92,1,53.9999983520508
225,38,395154,2,0,P|178:13|125:17,2,107.999996704102,2|2|2,0:0|0:0|0:0,0:0:0:0:
432,60,396189,86,0,B|389:51|389:51|344:-10|250:2|206:82|270:169|270:169|115:282|115:282|88:240|88:240|82:258|82:258|59:259|59:259|51:281|51:281|33:278|33:278|63:319|63:319|32:342|32:342|47:363|47:363|285:190|285:190|333:257|401:263|456:231|471:165|434:113|434:113|440:64,1,1382.4,4|0,0:0|0:0,0:0:0:0:
51,159,416334,53,2,1:2:0:0:
78,70,416508,2,0,P|146:51|132:134,1,180,10|4,2:2|1:2,0:0:0:0:
51,159,417031,5,2,1:2:0:0:
78,70,417206,2,0,P|160:43|130:132,1,215.999993408203,10|4,2:2|0:2,0:0:0:0:
51,159,417729,1,10,0:2:0:0:
120,262,417904,6,0,P|185:273|252:343,2,135,8|8|8,2:2|2:2|2:2,0:0:0:0:
328,100,418601,70,0,P|301:206|317:311,2,188.999994232178,6|8|8,1:2|2:2|2:2,0:0:0:0:
439,40,419299,6,0,L|443:117,1,67.5,14|0,2:2|1:0,0:0:0:0:
251,137,419997,1,12,2:2:0:0:
328,8,420171,1,8,2:2:0:0:
442,107,420345,1,0,1:0:0:0:
371,229,420520,1,8,2:2:0:0:
375,233,420869,5,0,1:0:0:0:
233,131,421044,1,12,2:2:0:0:
136,274,421218,1,8,2:2:0:0:
33,160,421392,1,0,1:0:0:0:
54,157,421479,1,0,1:0:0:0:
74,162,421566,1,0,1:0:0:0:
91,175,421654,1,0,1:0:0:0:
107,188,421741,6,0,B|137:39|137:39|152:123,1,202.500007724762,12|0,2:2|0:0,0:0:0:0:
145,88,422090,70,0,P|211:82|259:11,1,116.999994644165,6|2,1:2|0:2,0:0:0:0:
372,1,422438,1,10,2:2:0:0:
372,1,422613,1,2,2:2:0:0:
492,108,422787,2,0,P|421:113|378:159,1,116.999994644165,2|2,1:2|0:2,0:0:0:0:
501,249,423136,1,10,2:2:0:0:
479,347,423311,1,2,1:2:0:0:
322,202,423485,6,0,B|209:209|278:327|142:341,1,233.999989288331,2|10,1:2|2:2,0:0:0:0:
27,191,424008,1,2,0:2:0:0:
45,176,424095,1,0,0:0:0:0:
68,170,424183,2,0,P|95:183|143:180,1,58.4999973220826,2|0,1:2|0:0,0:0:0:0:
180,130,424357,2,0,P|203:116|260:119,1,58.4999973220826,2|0,0:0|0:0,0:0:0:0:
290,173,424531,2,0,P|317:186|365:183,1,58.4999973220826,10|0,2:2|0:0,0:0:0:0:
465,40,424706,6,0,P|417:81|403:144,1,116.999994644165,2|0,1:2|0:0,0:0:0:0:
486,232,425055,1,2,1:2:0:0:
442,363,425229,1,10,2:2:0:0:
315,272,425404,1,2,2:2:0:0:
184,362,425578,1,2,1:2:0:0:
172,341,425665,1,2,0:0:0:0:
169,317,425752,2,0,P|182:285|214:259,1,58.4999973220826,2|2,0:2|0:2,0:0:0:0:
340,344,425927,1,10,2:2:0:0:
284,203,426101,1,2,0:2:0:0:
356,20,426276,6,0,B|405:88|342:157|342:157|323:122|277:125,1,209.250001596451,6|0,1:2|0:0,0:0:0:0:
218,153,426624,2,0,P|164:192|180:99,1,209.250001596451,8|0,2:2|0:0,0:0:0:0:
255,7,426973,70,0,P|242:43|238:84,1,69.7500005321503,6|0,1:2|0:0,0:0:0:0:
284,203,427148,1,0,3:0:0:0:
166,317,427322,1,8,2:2:0:0:
35,241,427497,1,0,3:2:0:0:
51,211,427584,1,0,3:2:0:0:
77,200,427671,6,0,L|214:240,1,116.999994644165,6|2,1:2|0:2,0:0:0:0:
376,168,428020,1,10,2:2:0:0:
376,168,428194,1,2,2:2:0:0:
491,315,428369,2,0,P|522:268|424:228,1,175.499991966248,2|0,1:2|0:0,0:0:0:0:
376,168,428718,2,0,P|324:110|425:105,1,195.750005973816,10|0,2:2|0:0,0:0:0:0:
406,75,429066,5,2,1:2:0:0:
355,254,429241,1,2,2:2:0:0:
290,89,429415,1,10,2:2:0:0:
462,147,429590,1,2,0:2:0:0:
290,307,429764,2,0,B|150:290|258:173|97:175,1,233.999989288331,2|8,1:2|2:2,0:0:0:0:
77,17,430287,6,0,P|120:44|146:124,1,116.999994644165,6|0,1:2|0:0,0:0:0:0:
61,259,430636,1,2,1:2:0:0:
7,116,430811,1,10,2:2:0:0:
61,259,430985,1,2,2:2:0:0:
206,165,431159,1,6,1:2:0:0:
270,328,431334,1,2,0:2:0:0:
72,349,431508,1,10,2:2:0:0:
85,326,431595,1,2,0:0:0:0:
106,317,431683,70,0,B|234:350|234:350|257:320|314:330,1,175.499991966248,6|0,1:2|0:0,0:0:0:0:
270,328,432031,1,0,1:0:0:0:
420,374,432206,1,10,2:2:0:0:
336,231,432380,2,0,P|369:214|418:208,1,58.4999973220826,2|0,2:2|0:0,0:0:0:0:
509,167,432555,5,2,1:2:0:0:
482,208,432642,1,0,1:0:0:0:
437,224,432729,1,4,0:3:0:0:
390,210,432816,1,8,0:3:0:0:
359,165,432904,5,10,2:2:0:0:
319,126,432991,1,8,0:0:0:0:
267,110,433078,1,8,0:0:0:0:
212,117,433165,1,8,2:0:0:0:
176,163,433252,6,0,B|184:193|202:205|202:205|184:295,1,116.999994644165,4|0,1:2|0:0,0:0:0:0:
43,340,433601,2,0,P|129:291|250:291,1,175.499991966248,10|0,2:2|0:0,0:0:0:0:
259,339,433950,2,0,B|317:322|317:322|392:366,1,116.999994644165,2|0,1:2|0:0,0:0:0:0:
487,246,434299,2,0,B|447:283|452:340|452:340|433:286|381:267,1,209.250001596451,10|0,0:0|0:0,0:0:0:0:
323,207,434648,70,0,P|341:134|376:88,1,116.999994644165,0|0,1:0|0:0,0:0:0:0:
512,31,434997,2,0,B|483:72|483:72|325:90,1,175.499991966248,10|0,2:2|0:0,0:0:0:0:
289,39,435345,2,0,B|229:22|229:22|173:55,1,116.999994644165,2|0,1:2|0:0,0:0:0:0:
96,127,435694,2,0,B|28:147|-10:79|-10:79|29:42|74:63,1,209.250001596451,10|0,0:0|0:0,0:0:0:0:
177,123,436043,6,0,L|157:264,1,116.999994644165,2|0,1:2|2:0,0:0:0:0:
104,371,436392,1,10,2:2:0:0:
104,371,436566,1,2,2:2:0:0:
61,232,436741,1,2,1:2:0:0:
184,350,436915,1,2,2:2:0:0:
334,254,437090,1,10,2:2:0:0:
263,119,437264,6,0,B|240:283|240:283|281:302|274:350,1,233.999989288331,6|2,1:2|1:2,0:0:0:0:
40,194,437787,2,0,P|88:155|150:152,1,116.999994644165,10|0,2:2|3:0,0:0:0:0:
195,212,438049,1,0,3:0:0:0:
195,212,438136,2,0,B|245:239|245:239|323:219,1,116.999994644165,6|0,1:2|0:0,0:0:0:0:
475,180,438485,2,0,P|491:155|494:110,1,58.4999973220826,8|8,2:2|0:0,0:0:0:0:
369,173,438659,1,8,0:3:0:0:
376,198,438747,1,4,0:3:0:0:
395,214,438834,6,0,P|414:266|391:336,1,116.999994644165,4|0,1:2|2:0,0:0:0:0:
291,282,439183,2,0,B|170:308|170:308|127:366,1,175.499991966248,10|0,2:2|0:0,0:0:0:0:
63,352,439531,2,0,B|47:294|47:294|81:241,1,116.999994644165,2|0,1:2|0:0,0:0:0:0:
133,175,439880,2,0,B|-9:140|-9:140|53:193,1,209.250001596451,10|0,0:0|0:0,0:0:0:0:
147,200,440229,70,0,P|214:150|223:85,1,116.999994644165,0|0,1:0|0:0,0:0:0:0:
82,41,440578,2,0,B|109:92|109:92|232:123,1,175.499991966248,10|0,2:2|0:0,0:0:0:0:
286,76,440927,2,0,B|333:42|333:42|409:71,1,116.999994644165,2|0,1:2|0:0,0:0:0:0:
406,196,441276,2,0,P|460:216|417:137,1,209.250001596451,10|0,0:0|0:0,0:0:0:0:
384,215,441624,5,6,1:2:0:0:
207,242,441799,2,0,P|168:216|81:209,1,116.999994644165,2|8,0:2|2:2,0:0:0:0:
319,303,442148,1,2,0:2:0:0:
143,348,442322,1,6,1:2:0:0:
319,303,442497,2,0,P|359:264|462:267,1,116.999994644165,2|10,0:2|2:2,0:0:0:0:
463,32,442845,6,0,P|473:119|408:261,1,233.999989288331,6|2,1:2|1:2,0:0:0:0:
352,95,443369,1,10,2:2:0:0:
176,175,443543,1,0,2:0:0:0:
257,31,443718,2,0,P|271:59|277:118,1,58.4999973220826,6|2,1:2|0:0,0:0:0:0:
247,207,443892,1,0,3:0:0:0:
274,224,443979,1,0,3:0:0:0:
313,220,444066,1,10,2:2:0:0:
413,146,444241,1,0,3:2:0:0:
484,337,444415,6,0,P|425:308|364:308,1,99.0000030212403,6|0,1:2|2:0,0:0:0:0:
221,363,444764,2,0,B|246:319|225:278|225:278|186:260|203:216,1,148.50000453186,10|0,2:2|0:0,0:0:0:0:
243,160,445113,2,0,B|124:122|152:231|45:178,1,198.000006042481,2|8,1:2|2:2,0:0:0:0:
22,39,445636,70,0,P|70:71|85:140,1,99.0000030212403,2|0,1:2|2:0,0:0:0:0:
23,257,445985,1,2,1:2:0:0:
144,355,446159,1,10,2:2:0:0:
179,242,446334,1,2,0:2:0:0:
272,320,446508,2,0,B|408:349|408:349,1,99.0000030212403,2|0,1:2|3:0,0:0:0:0:
433,292,446770,1,0,3:0:0:0:
433,292,446857,2,0,P|411:240|362:216,1,99.0000030212403,10|0,2:2|2:0,0:0:0:0:
293,75,447206,5,2,1:2:0:0:
272,90,447293,1,2,0:2:0:0:
257,110,447380,1,2,3:2:0:0:
311,177,447555,2,0,L|452:159,1,116.999994644165,10|2,2:2|0:2,0:0:0:0:
301,48,447904,5,2,1:2:0:0:
273,57,447991,1,2,0:2:0:0:
250,75,448078,1,2,3:2:0:0:
235,97,448165,1,2,0:2:0:0:
230,123,448252,1,10,2:2:0:0:
190,192,448427,2,0,B|208:228|208:228|183:322,1,99.0000030212403,2|0,1:2|2:0,0:0:0:0:
95,226,448776,5,2,1:2:0:0:
153,80,448950,1,10,2:2:0:0:
0,120,449124,1,2,0:2:0:0:
111,236,449299,2,0,B|145:252|145:252|165:220|232:217,1,99.0000030212403,6|0,1:2|3:0,0:0:0:0:
348,282,449648,2,0,L|332:388,1,99.0000030212403,10|0,2:2|3:0,0:0:0:0:
260,328,449909,1,0,3:0:0:0:
260,328,449997,70,0,L|285:170,1,116.999994644165,4|0,1:2|2:0,0:0:0:0:
165,74,450345,2,0,P|223:96|246:156,1,99.0000030212403,10|0,2:2|2:2,0:0:0:0:
379,212,450694,2,0,P|427:211|493:79,1,198.000006042481,2|8,1:2|2:2,0:0:0:0:
368,6,451218,6,0,L|389:119,1,99.0000030212403,2|0,1:2|2:0,0:0:0:0:
241,125,451566,1,2,1:2:0:0:
155,229,451741,1,10,2:2:0:0:
288,266,451915,1,0,2:0:0:0:
228,113,452090,2,0,P|159:99|100:189,1,175.499991966248,2|0,1:2|0:0,0:0:0:0:
155,229,452438,2,0,B|181:237|193:257|193:257|157:255|113:278,1,99.0000030212403,10|2,2:2|3:2,0:0:0:0:
34,232,452787,5,6,1:2:0:0:
32,256,452874,1,2,0:2:0:0:
30,280,452962,1,2,3:2:0:0:
98,355,453136,1,10,2:2:0:0:
191,325,453311,1,2,2:2:0:0:
24,202,453485,5,6,1:2:0:0:
20,227,453572,1,2,0:2:0:0:
18,252,453659,1,2,3:2:0:0:
16,277,453747,1,2,0:2:0:0:
15,302,453834,1,10,2:2:0:0:
98,355,454008,70,0,B|219:380|219:380|234:347|287:342,1,175.499991966248,6|0,1:2|0:0,0:0:0:0:
339,367,454357,2,0,B|362:278|362:278|371:249|358:208|302:209,1,175.499991966248,6|0,1:2|0:0,0:0:0:0:
252,239,454706,2,0,L|185:228,1,49.5000015106202,10|0,2:2|0:0,0:0:0:0:
101,156,454880,2,0,L|149:148,1,49.5000015106202,6|0,1:2|0:0,0:0:0:0:
234,254,455055,6,0,L|173:263,1,49.5000015106202,0|0,3:0|2:0,0:0:0:0:
279,78,455229,1,10,2:2:0:0:
311,47,455316,1,8,2:2:0:0:
356,40,455404,1,8,2:2:0:0:
395,60,455491,1,8,2:2:0:0:
424,92,455578,5,14,2:2:0:0:
467,285,455752,1,2,1:2:0:0:
387,162,455927,1,10,2:2:0:0:
397,239,456101,1,2,1:2:0:0:
467,285,456450,5,2,1:2:0:0:
321,253,456624,1,10,2:2:0:0:
397,239,456799,1,2,1:2:0:0:
397,239,457148,69,2,1:2:0:0:
321,253,457323,1,10,2:2:0:0:
262,202,457497,1,2,1:2:0:0:
266,126,457671,5,14,2:2:0:0:
291,345,458020,1,14,2:2:0:0:
53,53,458369,5,14,2:2:0:0:
187,86,458543,1,2,1:2:0:0:
129,32,458718,1,10,2:2:0:0:
176,161,458892,1,2,1:2:0:0:
176,161,459241,5,2,1:2:0:0:
43,199,459415,1,10,2:2:0:0:
100,142,459590,1,2,1:2:0:0:
100,142,459938,69,6,1:2:0:0:
43,199,460112,1,10,2:2:0:0:
48,282,460287,1,2,1:2:0:0:
142,253,460461,5,14,2:2:0:0:
237,278,460636,1,2,1:2:0:0:
298,355,460811,1,2,1:2:0:0:
325,185,460985,5,12,0:0:0:0:
256,192,461072,12,4,462555,1:3:0:0:
73,59,471090,22,0,B|193:84|193:84|143:107,1,161.999995056153,6|0,1:2|0:0,0:0:0:0:
101,149,471435,2,0,P|126:186|184:159,1,107.999996704102,8|0,0:0|0:0,0:0:0:0:
286,21,471780,6,0,L|256:190,1,161.999995056153,2|0,1:2|0:0,0:0:0:0:
319,232,472125,2,0,L|335:358,1,107.999996704102,8|0,0:0|0:0,0:0:0:0:
474,219,472469,6,0,P|424:179|362:182,1,107.999996704102,2|0,1:2|0:0,0:0:0:0:
333,340,472814,2,0,P|383:380|445:377,1,107.999996704102,8|0,0:0|0:0,0:0:0:0:
216,302,473159,2,0,L|140:310,1,53.9999983520508,0|0,1:0|0:0,0:0:0:0:
52,259,473332,2,0,L|130:252,1,53.9999983520508,8|0,0:0|0:0,0:0:0:0:
207,185,473504,2,0,L|131:193,1,53.9999983520508,0|0,1:0|0:0,0:0:0:0:
10,122,473676,1,8,0:0:0:0:
21,92,473763,1,8,0:0:0:0:
51,73,473849,6,0,B|146:41|122:161|256:93,1,182.250000695229,6|0,1:2|0:0,0:0:0:0:
282,162,474194,2,0,P|347:171|401:118,1,121.500000463486,8|0,0:0|0:0,0:0:0:0:
323,88,474538,1,0,1:0:0:0:
304,251,474711,1,0,1:0:0:0:
449,195,474883,2,0,P|483:260|484:323,1,121.500000463486,8|0,0:0|0:0,0:0:0:0:
304,251,475228,70,0,B|184:273|184:273|226:280|242:333,1,182.250000695229,0|0,1:0|0:0,0:0:0:0:
181,367,475573,2,0,L|318:338,1,121.500000463486,10|0,0:0|1:0,0:0:0:0:
263,176,475918,2,0,L|143:199,1,121.500000463486,2|0,0:0|1:0,0:0:0:0:
48,85,476263,2,0,B|91:65|91:65|68:194,1,148.50000453186,10|0,0:0|0:0,0:0:0:0:
17,219,476607,6,0,P|38:306|144:286,1,182.250000695229,6|0,1:2|0:0,0:0:0:0:
140,276,476952,1,10,0:0:0:0:
293,310,477125,2,0,B|244:351|244:351|176:335,1,121.500000463486,2|0,0:0|1:0,0:0:0:0:
283,224,477469,1,0,1:0:0:0:
361,366,477642,1,10,0:0:0:0:
504,296,477814,1,2,0:0:0:0:
408,118,477987,5,0,1:0:0:0:
378,280,478159,1,0,0:0:0:0:
408,118,478332,2,0,B|469:101|469:101|537:138,1,121.500000463486,8|0,0:0|1:0,0:0:0:0:
450,225,478676,1,0,0:0:0:0:
316,143,478849,1,0,1:0:0:0:
386,15,479021,1,10,0:0:0:0:
222,104,479194,1,2,1:2:0:0:
45,19,479366,6,0,P|133:12|120:93,1,182.250000695229,6|0,1:2|0:0,0:0:0:0:
89,89,479711,1,10,0:0:0:0:
79,198,479883,2,0,B|106:233|106:233|88:344,1,121.500000463486,2|0,0:0|1:0,0:0:0:0:
0,331,480228,1,0,1:0:0:0:
156,372,480400,2,0,B|216:363|216:363|255:305,1,121.500000463486,10|0,0:0|0:0,0:0:0:0:
268,96,480745,70,0,P|339:119|382:192,1,121.500000463486,2|0,1:2|0:0,0:0:0:0:
489,52,481090,2,0,P|478:125|414:180,1,121.500000463486,10|0,0:0|1:0,0:0:0:0:
207,214,481435,2,0,P|274:238|351:185,1,121.500000463486,2|0,0:0|1:0,0:0:0:0:
448,160,481780,2,0,B|443:219|443:219|424:240|424:240|438:264|438:264|432:361,1,182.250000695229,10|0,0:0|0:0,0:0:0:0:
363,378,482125,6,0,P|323:329|251:317,1,121.500000463486,6|0,0:2|1:0,0:0:0:0:
115,367,482469,1,10,0:0:0:0:
145,184,482642,2,0,P|188:213|193:297,1,121.500000463486,2|0,0:0|1:0,0:0:0:0:
57,201,482987,1,0,1:0:0:0:
229,146,483159,2,0,B|255:90|255:90|237:32,1,121.500000463486,10|2,0:0|0:0,0:0:0:0:
1,82,483504,6,0,B|128:113|128:113|150:76|195:79,1,182.250000695229,2|0,1:2|0:0,0:0:0:0:
229,146,483849,2,0,B|292:161|292:161|358:125,1,121.500000463486,10|0,0:0|1:0,0:0:0:0:
480,16,484194,2,0,B|417:1|417:1|351:37,1,121.500000463486,0|8,0:0|0:0,0:0:0:0:
509,140,484538,2,0,L|498:204,1,60.7500002317429,8|4,0:0|0:3,0:0:0:0:
434,258,484711,1,8,0:3:0:0:
428,300,484797,1,0,1:0:0:0:
449,336,484883,6,0,B|318:364|318:364|347:334|346:293,1,182.250000695229,6|0,1:2|0:0,0:0:0:0:
316,280,485228,1,10,0:0:0:0:
338,110,485400,2,0,P|372:143|362:245,1,121.500000463486,2|0,0:0|1:0,0:0:0:0:
245,318,485745,1,0,1:0:0:0:
194,133,485918,1,10,0:0:0:0:
105,282,486090,1,2,0:0:0:0:
24,145,486263,70,0,B|142:109|142:109|167:144|227:127,1,182.250000695229,0|0,1:0|0:0,0:0:0:0:
292,2,486607,2,0,P|234:9|200:75,1,121.500000463486,10|0,0:0|1:0,0:0:0:0:
149,203,486952,2,0,P|199:172|252:198,1,121.500000463486,2|0,0:0|1:0,0:0:0:0:
418,39,487297,2,0,B|417:151|331:61|324:221,1,182.250000695229,10|0,0:0|0:0,0:0:0:0:
386,243,487642,6,0,P|399:319|300:343,1,182.250000695229,6|0,1:2|0:0,0:0:0:0:
282,310,487987,1,10,0:0:0:0:
159,364,488159,2,0,B|137:306|137:306|161:241,1,121.500000463486,2|0,0:0|1:0,0:0:0:0:
227,78,488504,1,0,1:0:0:0:
245,201,488676,2,0,P|201:162|104:174,1,121.500000463486,10|0,0:0|0:0,0:0:0:0:
59,299,489021,6,0,B|26:200|26:200|15:147|101:118,1,182.250000695229,6|0,1:2|0:0,0:0:0:0:
140,156,489366,2,0,P|184:114|172:45,1,121.500000463486,10|0,0:0|1:0,0:0:0:0:
126,0,489711,1,0,0:0:0:0:
60,136,489883,1,0,1:0:0:0:
215,205,490056,1,10,0:0:0:0:
339,92,490228,1,2,1:2:0:0:
470,240,490400,6,0,B|346:255|429:349|281:340,1,198.000006042481,6|0,1:2|0:0,0:0:0:0:
276,252,490918,1,0,1:0:0:0:
150,301,491090,2,0,B|134:383|134:383|208:382,2,148.50000453186,8|0|0,0:0|1:0|1:0,0:0:0:0:
186,121,491780,70,0,P|101:141|99:264,1,198.000006042481,0|2,1:0|1:2,0:0:0:0:
150,301,492297,1,0,0:0:0:0:
243,179,492469,2,0,B|360:164,1,99.0000030212403,10|0,0:0|1:0,0:0:0:0:
494,29,492814,2,0,B|377:44,1,99.0000030212403,2|0,1:2|0:0,0:0:0:0:
512,206,493159,6,0,B|477:348|477:348|449:292,1,198.000006042481,4|0,1:2|0:0,0:0:0:0:
421,228,493676,1,0,1:0:0:0:
306,375,493849,2,0,B|262:334|262:334|283:246,2,148.50000453186,8|0|0,0:0|1:0|1:0,0:0:0:0:
351,202,494538,6,0,L|190:226,2,148.50000453186,10|0|0,0:0|1:0|1:0,0:0:0:0:
447,237,495228,1,0,1:0:0:0:
354,110,495400,2,0,L|278:122,1,49.5000015106202,8|8,0:0|0:0,0:0:0:0:
133,167,495573,1,8,0:3:0:0:
123,119,495659,1,8,0:3:0:0:
144,75,495745,1,4,0:3:0:0:
187,52,495831,1,4,0:3:0:0:
235,60,495917,1,4,1:2:0:0:
256,192,496004,12,0,498763,0:0:0:0:
267,252,509465,21,12,0:0:0:0:
448,327,509636,1,0,1:0:0:0:
298,177,509807,1,8,0:0:0:0:
373,357,509979,5,0,1:0:0:0:
373,146,510150,1,8,0:0:0:0:
298,327,510322,1,0,1:0:0:0:
448,177,510493,1,8,0:0:0:0:
267,252,510665,1,0,1:0:0:0:
478,252,510836,5,12,0:2:0:0:
389,70,511007,1,8,0:0:0:0:
394,58,511350,1,8,0:0:0:0:
399,45,511693,1,8,0:0:0:0:
404,31,512036,1,8,0:0:0:0:
314,106,512207,5,8,0:0:0:0:
314,106,512293,2,0,P|295:95|245:89,1,49.5000015106202,8|0,0:0|1:0,0:0:0:0:
215,27,512464,1,8,0:0:0:0:
215,27,512550,2,0,P|191:42|166:70,1,49.5000015106202,8|0,0:0|1:0,0:0:0:0:
86,31,512722,2,0,P|80:57|84:104,1,49.5000015106202,8|0,0:0|1:0,0:0:0:0:
132,140,512893,69,8,0:0:0:0:
149,164,512979,1,8,0:0:0:0:
160,191,513065,1,8,0:0:0:0:
160,220,513150,1,8,0:0:0:0:
147,264,513236,5,8,0:0:0:0:
114,298,513322,1,8,0:0:0:0:
126,344,513407,1,8,0:0:0:0:
173,357,513493,1,8,0:0:0:0:
206,322,513579,5,4,1:2:0:0:
226,31,514607,2,0,B|221:65,1,33.75,2|0,0:3|0:0,0:0:0:0:
182,96,514950,5,6,1:2:0:0:
333,182,515122,1,8,0:0:0:0:
301,14,515293,1,2,1:2:0:0:
336,197,515465,1,8,0:0:0:0:
477,95,515636,1,2,1:2:0:0:
324,209,515807,2,0,B|287:246|287:246|276:352,1,121.500000463486,2|8,1:2|0:0,0:0:0:0:
423,350,516150,70,0,B|461:318|461:318|320:344|320:344|259:300,1,243.000000926971,2|0,1:2|1:2,0:0:0:0:
211,193,516665,1,10,0:0:0:0:
163,342,516836,1,0,1:2:0:0:
218,179,517007,1,2,1:2:0:0:
56,278,517179,1,2,1:2:0:0:
52,247,517265,1,0,1:0:0:0:
48,217,517350,1,8,0:0:0:0:
176,47,517522,6,0,P|126:105|50:100,1,121.500000463486,2|0,1:2|0:0,0:0:0:0:
50,89,517779,1,0,1:0:0:0:
50,89,517865,1,2,1:2:0:0:
121,0,518036,1,8,0:0:0:0:
173,173,518207,1,2,1:2:0:0:
331,63,518379,1,0,1:0:0:0:
356,252,518550,1,2,1:2:0:0:
283,163,518722,1,10,0:0:0:0:
428,0,518893,6,0,B|396:152|396:152|432:215,1,216,12|0,0:0|0:0,0:0:0:0:
477,269,519236,2,0,B|506:215|506:215|294:266,1,216,12|0,0:0|0:0,0:0:0:0:
219,340,519579,2,0,B|371:372|371:372|385:365|385:365|401:298,1,216,12|0,0:0|0:0,0:0:0:0:
355,251,519922,5,0,1:0:0:0:
320,261,520007,1,0,1:0:0:0:
285,272,520093,1,8,0:0:0:0:
202,212,520265,1,2,1:2:0:0:
247,25,520436,70,0,B|286:66|286:66|257:191|257:191|203:212,1,243.000000926971,4|8,1:2|0:0,0:0:0:0:
20,234,520950,1,2,0:0:0:0:
11,263,521036,1,2,0:0:0:0:
17,292,521122,2,0,L|84:286,1,60.7500002317429,2|0,0:0|0:0,0:0:0:0:
125,213,521293,1,2,1:2:0:0:
174,364,521465,1,8,0:0:0:0:
298,271,521636,6,0,B|470:309|470:309|391:328,1,243.000000926971,2|0,1:2|1:0,0:0:0:0:
301,359,522150,1,10,0:0:0:0:
198,239,522322,1,2,0:0:0:0:
360,183,522493,1,2,0:0:0:0:
264,48,522665,1,2,1:2:0:0:
261,78,522750,1,0,1:0:0:0:
258,109,522836,1,8,0:0:0:0:
433,152,523007,6,0,B|481:98|452:27|373:5|373:5|335:53,1,243.000000926971,2|0,1:2|1:0,0:0:0:0:
283,183,523522,1,8,0:0:0:0:
138,98,523693,2,0,B|162:22|162:22|180:63,1,121.500000463486,2|0,1:2|0:0,0:0:0:0:
114,174,524036,2,0,B|53:192|53:192|0:165,1,121.500000463486,2|8,1:2|0:0,0:0:0:0:
136,366,524379,6,0,B|170:238|170:238|56:270,1,216,12|0,0:0|0:0,0:0:0:0:
136,366,524722,2,0,B|247:390|247:390|336:308,1,216,12|0,0:0|0:0,0:0:0:0:
350,294,525065,1,8,0:0:0:0:
267,165,525236,69,8,0:0:0:0:
252,181,525322,1,8,0:0:0:0:
245,201,525407,1,0,1:0:0:0:
248,222,525493,1,0,1:0:0:0:
262,241,525579,2,0,L|326:226,1,60.7500002317429,8|8,0:0|0:0,0:0:0:0:
459,200,525750,2,0,L|370:185,1,60.7500002317429,8|8,0:0|0:0,0:0:0:0:
327,112,525922,5,6,1:2:0:0:
169,208,526093,1,8,0:0:0:0:
205,39,526265,1,2,1:2:0:0:
165,226,526436,1,8,0:0:0:0:
52,85,526607,1,2,1:2:0:0:
173,244,526779,2,0,B|196:302|196:302|163:370,1,121.500000463486,2|8,1:2|0:0,0:0:0:0:
72,204,527122,6,0,B|255:223|255:223|269:261|312:272,1,243.000000926971,2|2,1:2|1:2,0:0:0:0:
466,242,527636,1,8,0:0:0:0:
377,375,527807,1,2,1:2:0:0:
478,230,527979,1,2,0:0:0:0:
339,151,528150,1,2,1:2:0:0:
343,127,528236,1,0,1:0:0:0:
346,102,528322,1,8,0:0:0:0:
512,63,528493,6,0,L|386:40,1,121.500000463486,2|0,1:2|0:0,0:0:0:0:
371,12,528750,1,0,1:0:0:0:
371,12,528836,1,2,1:2:0:0:
263,113,529007,1,8,0:0:0:0:
409,206,529179,1,2,0:0:0:0:
227,267,529350,1,0,1:0:0:0:
365,372,529522,1,2,1:2:0:0:
335,277,529694,1,10,0:0:0:0:
167,363,529865,70,0,B|127:293|134:219|134:219|167:203|172:149,1,216,12|0,0:0|0:0,0:0:0:0:
74,105,530207,2,0,B|19:135|19:135|177:168,1,216,12|0,0:0|0:0,0:0:0:0:
219,98,530550,2,0,B|287:19|287:19|407:21,1,216,12|0,0:0|0:0,0:0:0:0:
470,88,530893,5,0,1:0:0:0:
443,99,530979,1,0,1:0:0:0:
415,109,531065,1,8,0:0:0:0:
353,193,531236,1,2,1:2:0:0:
481,384,531407,6,0,B|520:342|520:342|491:217|491:217|438:197,1,243.000000926971,6|8,1:2|0:0,0:0:0:0:
306,264,531922,1,2,0:0:0:0:
463,310,532093,1,2,0:0:0:0:
291,258,532265,1,2,1:2:0:0:
410,121,532436,1,8,0:0:0:0:
274,253,532607,6,0,B|91:291|91:291|59:341,1,243.000000926971,2|0,1:2|1:0,0:0:0:0:
189,348,533122,1,10,0:0:0:0:
239,186,533293,1,2,0:0:0:0:
64,158,533465,1,0,0:0:0:0:
144,197,533636,1,2,1:2:0:0:
152,174,533722,1,0,1:0:0:0:
153,149,533807,1,8,0:0:0:0:
103,39,533979,70,0,B|163:25|163:25|250:82,1,121.500000463486,6|0,1:2|0:0,0:0:0:0:
327,213,534322,2,0,B|389:205|389:205|426:154,1,121.500000463486,2|8,0:0|0:0,0:0:0:0:
309,49,534665,1,2,1:2:0:0:
228,198,534836,1,0,0:0:0:0:
377,317,535007,2,0,P|363:252|313:205,1,121.500000463486,2|8,1:2|0:0,0:0:0:0:
147,260,535350,6,0,B|129:246|129:246|218:266,1,69.7500005321503,12|0,1:2|0:0,0:0:0:0:
228,198,535522,2,0,L|209:40,1,139.500001064301,8|2,1:2|0:0,0:0:0:0:
82,0,535865,1,8,0:0:0:0:
22,130,536036,5,8,0:0:0:0:
46,157,536122,1,8,0:0:0:0:
78,172,536207,1,8,0:0:0:0:
114,176,536293,1,8,0:0:0:0:
149,166,536379,1,0,1:0:0:0:
240,48,536550,1,2,0:0:0:0:
305,227,536722,2,0,P|366:197|396:166,1,60.7500002317429,8|0,0:0|0:0,0:0:0:0:
452,220,536893,5,4,1:2:0:0:
381,38,537065,1,0,1:0:0:0:
381,38,538093,70,0,B|334:52|320:102|320:102|321:50|270:21,1,182.250000695229,4|0,1:2|0:0,0:0:0:0:
279,26,538436,2,0,P|244:56|180:54,1,60.7500002317429,0|0,1:0|0:0,0:0:0:0:
138,13,538607,1,0,1:0:0:0:
127,48,539122,5,0,1:0:0:0:
131,30,539207,1,0,1:0:0:0:
138,13,539293,2,0,L|152:189,1,148.50000453186,8|0,0:0|0:0,0:0:0:0:
77,196,539636,2,0,L|71:126,1,49.5000015106202,4|0,1:2|0:0,0:0:0:0:
185,91,539807,1,0,1:0:0:0:
185,91,540836,5,0,1:0:0:0:
331,324,541179,1,0,1:0:0:0:
422,284,541350,2,0,P|382:237|314:225,1,99.0000030212403,0|0,1:0|0:0,0:0:0:0:
253,382,541693,1,8,0:0:0:0:
161,289,541865,1,0,1:0:0:0:
166,259,541950,1,0,1:0:0:0:
188,239,542036,1,8,0:0:0:0:
251,297,542207,1,0,1:0:0:0:
300,129,542379,6,0,P|271:114|218:110,1,49.5000015106202,4|0,1:2|0:0,0:0:0:0:
120,179,542550,1,0,1:0:0:0:
120,179,543579,70,0,P|177:137|84:111,1,188.999994232178,4|0,1:2|0:0,0:0:0:0:
63,161,543922,2,0,P|96:162|130:196,1,62.9999980773926,0|0,1:0|0:0,0:0:0:0:
69,254,544093,1,0,1:0:0:0:
119,270,544607,5,0,1:0:0:0:
94,262,544693,1,0,1:0:0:0:
69,254,544779,2,0,B|219:224|219:224|173:213|169:168,1,216,8|0,0:0|0:0,0:0:0:0:
278,52,545122,6,0,P|279:107|208:162,1,116.999994644165,2|0,1:0|0:0,0:0:0:0:
79,77,545379,2,0,P|131:68|186:138,1,116.999994644165,2|0,1:0|0:0,0:0:0:0:
172,185,545636,2,0,L|162:257,1,58.4999973220826,2|0,1:0|0:0,0:0:0:0:
55,327,545807,6,0,B|40:292|40:292|148:317|148:317|151:325|151:325|252:347|252:347|244:320,1,288,2|0,1:0|0:0,0:0:0:0:
281,143,546322,2,0,B|259:108|259:108|239:272,1,175.499991966248,2|0,1:0|0:0,0:0:0:0:
315,286,546665,2,0,L|377:274,1,58.4999973220826,2|0,1:0|0:0,0:0:0:0:
475,175,546836,2,0,L|332:206,1,116.999994644165,2|0,1:0|0:0,0:0:0:0:
427,331,547179,70,0,P|446:304|448:267,1,58.4999973220826,0|0,1:0|0:0,0:0:0:0:
405,143,547350,1,0,1:0:0:0:
392,109,547436,1,0,1:0:0:0:
399,74,547522,1,8,0:0:0:0:
485,102,547693,1,8,0:0:0:0:
292,162,547865,5,6,1:2:0:0:
275,63,548036,1,2,0:0:0:0:
132,147,548207,1,8,0:0:0:0:
166,63,548379,2,0,B|141:-8|141:-8|93:64,1,148.50000453186,2|0,0:0|0:0,0:0:0:0:
132,147,548722,2,0,P|177:141|209:191,1,99.0000030212403,2|8,1:2|0:0,0:0:0:0:
232,270,549065,6,0,L|225:368,1,99.0000030212403,2|0,0:0|1:0,0:0:0:0:
148,263,549407,1,2,0:0:0:0:
310,312,549579,1,10,0:0:0:0:
453,210,549750,2,0,P|405:220|357:264,1,99.0000030212403,2|0,0:0|0:0,0:0:0:0:
468,310,550093,1,2,1:2:0:0:
467,339,550179,1,0,1:0:0:0:
451,364,550265,1,8,0:0:0:0:
292,227,550436,2,0,L|300:178,1,49.5000015106202,2|0,1:2|0:0,0:0:0:0:
289,80,550607,5,2,0:0:0:0:
263,56,550693,1,2,0:0:0:0:
231,42,550779,1,2,0:0:0:0:
196,43,550865,1,2,0:0:0:0:
166,61,550950,2,0,P|149:74|98:80,1,49.5000015106202,10|0,0:0|0:0,0:0:0:0:
33,15,551122,2,0,B|53:141|53:141|18:169|16:220,1,198.000006042481,2|2,0:0|1:2,0:0:0:0:
139,281,551636,1,8,0:0:0:0:
23,356,551807,2,0,P|35:288|73:256,1,99.0000030212403,2|0,0:0|1:0,0:0:0:0:
203,340,552150,69,2,0:0:0:0:
175,185,552322,1,8,0:0:0:0:
283,300,552493,2,0,P|308:280|393:269,1,99.0000030212403,2|0,0:0|0:0,0:0:0:0:
508,343,552836,1,2,1:2:0:0:
478,361,552922,1,2,1:2:0:0:
444,354,553007,1,10,0:0:0:0:
511,258,553179,1,2,1:2:0:0:
418,158,553350,6,0,P|381:166|347:191,1,49.5000015106202,6|0,1:2|0:0,0:0:0:0:
266,228,553522,2,0,P|298:233|345:255,1,49.5000015106202,2|0,0:0|0:0,0:0:0:0:
404,81,553693,1,10,0:0:0:0:
249,42,553865,1,2,0:0:0:0:
236,73,553950,1,2,0:0:0:0:
241,107,554036,2,0,P|249:143|244:186,1,49.5000015106202,2|0,0:0|0:0,0:0:0:0:
190,230,554207,2,0,B|107:250|139:155|54:181,1,148.50000453186,2|0,1:2|0:0,0:0:0:0:
9,242,554550,6,0,L|25:352,1,99.0000030212403,6|0,0:0|1:0,0:0:0:0:
158,383,554893,1,2,0:0:0:0:
288,292,555065,1,10,0:0:0:0:
425,375,555236,2,0,P|360:377|331:332,1,99.0000030212403,2|0,0:0|0:0,0:0:0:0:
391,229,555579,1,2,1:2:0:0:
400,262,555665,1,2,1:2:0:0:
396,296,555750,1,10,0:0:0:0:
304,197,555922,6,0,B|260:185|260:185|207:214|207:214|138:192,1,148.50000453186,6|0,1:2|0:0,0:0:0:0:
132,184,556265,1,2,0:0:0:0:
9,65,556436,2,0,P|65:71|91:127,1,99.0000030212403,10|0,0:0|1:0,0:0:0:0:
36,274,556779,1,2,0:0:0:0:
5,167,556950,1,2,1:2:0:0:
131,317,557122,2,0,P|157:308|195:302,1,49.5000015106202,8|0,0:0|0:0,0:0:0:0:
321,243,557293,70,0,B|371:253|371:253|401:302|401:302|445:267|445:267|528:279,1,216,12|0,0:0|0:0,0:0:0:0:
507,202,557636,2,0,B|456:193|456:193|427:143|427:143|385:178|385:178|300:166,1,216,12|0,0:0|0:0,0:0:0:0:
256,192,557979,2,0,B|219:190|219:190|194:164,1,72,12|0,0:0|0:0,0:0:0:0:
240,39,558151,5,8,0:0:0:0:
267,30,558237,1,8,0:0:0:0:
296,28,558322,2,0,L|300:77,1,49.5000015106202,0|0,1:0|1:0,0:0:0:0:
161,89,558493,2,0,L|157:35,1,49.5000015106202,8|0,1:2|0:0,0:0:0:0:
256,192,558665,1,12,0:0:0:0:
99,121,568119,37,12,0:0:0:0:
287,182,568282,1,2,1:2:0:0:
330,87,568446,1,2,1:2:0:0:
99,121,568610,6,0,B|66:284|66:284|104:340,1,233.999989288331,8|0,0:0|1:0,0:0:0:0:
352,271,569102,1,10,0:0:0:0:
201,346,569266,1,2,1:2:0:0:
162,255,569430,1,2,1:2:0:0:
412,338,569594,6,0,P|446:285|329:188,1,233.999989288331,8|0,0:0|1:0,0:0:0:0:
267,119,570086,1,10,0:0:0:0:
162,255,570250,2,0,P|97:245|48:195,1,116.999994644165,2|8,1:2|0:0,0:0:0:0:
136,44,570578,2,0,B|169:100|169:100|143:181,1,116.999994644165,2|8,1:2|0:0,0:0:0:0:
69,114,570905,5,0,1:0:0:0:
221,5,571069,1,8,0:0:0:0:
313,171,571233,1,0,3:0:0:0:
345,184,571315,1,0,3:0:0:0:
379,179,571397,1,8,0:0:0:0:
461,107,571561,1,4,0:3:0:0:
510,244,571725,1,4,0:3:0:0:
376,92,571889,1,0,1:0:0:0:
341,85,571971,1,0,1:0:0:0:
303,101,572053,70,0,B|215:98|203:24|203:24|195:97|107:134|29:153|7:80|22:26|102:16|110:81,1,450,4|0,1:2|0:0,0:0:0:0:
414,221,574020,2,0,L|407:270,1,49.5000015106202,0|0,1:0|0:0,0:0:0:0:
351,336,574184,5,8,0:0:0:0:
322,327,574266,1,8,0:0:0:0:
293,318,574348,1,8,0:0:0:0:
264,309,574430,1,8,0:0:0:0:
221,336,574512,6,0,B|189:295|137:318|137:318|119:367|68:364,1,182.250000695229,4|0,1:2|0:0,0:0:0:0:
34,332,574840,1,0,1:0:0:0:
89,141,575004,2,0,P|141:176|153:272,1,121.500000463486,8|0,0:0|0:0,0:0:0:0:
22,195,575332,1,0,1:0:0:0:
109,36,575496,1,0,1:0:0:0:
233,154,575659,1,10,0:0:0:0:
315,28,575823,6,0,B|498:-7|498:-7|433:63,1,243.000000926971,2|0,1:2|1:0,0:0:0:0:
313,137,576315,1,10,0:0:0:0:
440,209,576479,1,2,0:0:0:0:
455,241,576561,1,0,3:0:0:0:
441,274,576643,2,0,B|417:313|417:313|446:397,1,121.500000463486,0|2,1:0|1:2,0:0:0:0:
508,325,576971,1,10,0:0:0:0:
361,217,577135,70,0,B|320:208|286:236|286:236|259:310|259:310|222:338|150:330,1,243.000000926971,2|0,1:2|1:0,0:0:0:0:
84,206,577627,2,0,P|153:194|198:256,1,121.500000463486,8|0,0:0|0:0,0:0:0:0:
1,264,577955,2,0,L|7:120,1,121.500000463486,0|2,1:0|1:2,0:0:0:0:
88,28,578282,1,10,0:0:0:0:
210,203,578446,6,0,B|385:167|385:167|324:141,1,243.000000926971,2|0,1:2|1:0,0:0:0:0:
225,104,578938,1,10,0:0:0:0:
360,11,579102,2,0,B|448:2|448:2|412:30,1,121.500000463486,2|0,0:0|1:0,0:0:0:0:
325,141,579430,1,2,1:2:0:0:
153,39,579594,1,10,0:0:0:0:
153,39,579676,1,0,3:0:0:0:
153,39,579758,6,0,B|-11:73|-11:73|48:134|48:134|110:119,1,288,6|0,1:2|1:0,0:0:0:0:
234,138,580250,1,10,0:0:0:0:
126,260,580414,2,0,P|156:310|213:322,1,121.500000463486,2|0,0:0|1:0,0:0:0:0:
325,198,580741,2,0,P|285:144|195:164,1,121.500000463486,2|8,1:2|0:0,0:0:0:0:
50,81,581069,6,0,B|31:141|31:141|52:196,1,121.500000463486,2|0,1:2|0:0,0:0:0:0:
309,118,581397,2,0,B|329:59|329:59|308:4,1,121.500000463486,2|8,1:2|0:0,0:0:0:0:
126,260,581725,2,0,L|271:240,1,121.500000463486,2|0,0:0|1:0,0:0:0:0:
462,116,582053,2,0,L|392:108,1,60.7500002317429,2|0,1:2|0:0,0:0:0:0:
331,188,582217,1,8,0:0:0:0:
354,220,582299,1,8,0:0:0:0:
391,237,582381,1,4,0:3:0:0:
432,232,582463,1,8,0:3:0:0:
466,207,582545,70,0,B|506:273|506:273|409:381,1,216,6|0,1:2|0:0,0:0:0:0:
413,374,582873,1,10,0:0:0:0:
262,240,583037,6,0,B|137:212|137:212|175:265,1,182.250000695229,2|0,1:2|0:0,0:0:0:0:
168,256,583364,1,10,0:0:0:0:
308,169,583528,1,2,1:2:0:0:
284,327,583692,6,0,B|182:340|182:340|183:348|183:348|181:340|181:340|54:358,1,216,6|0,1:2|0:0,0:0:0:0:
85,353,584020,1,2,1:2:0:0:
0,239,584184,1,10,0:0:0:0:
182,172,584348,2,0,L|175:242,1,60.7500002317429,2|0,1:2|0:0,0:0:0:0:
90,169,584512,5,4,0:3:0:0:
95,130,584594,1,4,0:3:0:0:
119,98,584676,1,8,0:3:0:0:
152,78,584758,1,0,1:0:0:0:
191,73,584840,2,0,L|271:93,1,60.7500002317429,8|0,0:0|0:0,0:0:0:0:
419,118,585004,70,0,B|433:90|432:61|432:61|347:46|324:114|324:114|348:138|355:190,1,243.000000926971,6|0,1:2|1:0,0:0:0:0:
190,215,585496,2,0,P|252:234|272:318,1,121.500000463486,8|0,0:0|3:0,0:0:0:0:
268,325,585741,1,0,3:0:0:0:
268,325,585823,1,0,1:0:0:0:
179,212,585987,1,2,1:2:0:0:
79,364,586151,1,10,0:0:0:0:
0,274,586315,6,0,B|-35:298|-26:346|18:353|18:353|148:310,1,243.000000926971,2|0,1:2|1:0,0:0:0:0:
179,212,586807,1,10,0:0:0:0:
78,85,586971,2,0,L|64:212,1,121.500000463486,2|0,0:0|1:0,0:0:0:0:
233,286,587299,1,2,1:2:0:0:
299,117,587463,1,10,0:0:0:0:
509,183,587627,6,0,B|469:204|433:197|401:165|401:165|384:123|342:103|299:118,1,243.000000926971,6|0,1:2|1:0,0:0:0:0:
238,158,588037,1,0,3:0:0:0:
238,158,588119,2,0,P|211:198|233:273,1,121.500000463486,8|0,0:0|0:0,0:0:0:0:
344,364,588446,1,0,1:0:0:0:
292,218,588610,1,2,1:2:0:0:
459,249,588774,1,10,0:0:0:0:
484,48,588938,6,0,B|350:84|350:84|307:53|307:53|231:38,1,243.000000926971,2|2,1:2|1:2,0:0:0:0:
119,140,589430,2,0,B|85:89|85:89|104:31,1,121.500000463486,10|2,0:0|0:0,0:0:0:0:
292,218,589758,1,0,1:0:0:0:
87,296,589922,1,0,1:0:0:0:
119,140,590086,1,10,0:0:0:0:
220,337,590250,70,0,B|400:364|400:364|366:345|372:305,1,243.000000926971,6|2,1:2|1:2,0:0:0:0:
508,218,590741,2,0,P|482:291|418:295,1,121.500000463486,10|0,0:0|0:0,0:0:0:0:
306,166,591069,1,0,1:0:0:0:
430,222,591233,1,0,1:0:0:0:
471,64,591397,1,10,0:0:0:0:
290,177,591561,6,0,P|140:158|111:60,1,243.000000926971,6|2,1:2|1:2,0:0:0:0:
261,0,592053,2,0,B|272:46|272:46|226:132,1,121.500000463486,10|0,0:0|0:0,0:0:0:0:
99,293,592381,1,0,1:0:0:0:
79,191,592545,2,0,L|167:203,1,60.7500002317429,0|0,1:0|0:0,0:0:0:0:
289,289,592709,5,8,0:0:0:0:
324,295,592791,1,8,0:0:0:0:
359,302,592873,1,4,0:3:0:0:
394,307,592955,1,8,0:3:0:0:
430,284,593037,6,0,B|323:234|343:377|212:298,1,216,6|0,1:2|0:0,0:0:0:0:
231,308,593364,1,10,0:0:0:0:
247,79,593528,70,0,B|294:112|294:112|277:254,1,182.250000695229,2|0,1:2|0:0,0:0:0:0:
280,236,593856,1,10,0:0:0:0:
118,134,594020,1,2,1:2:0:0:
59,335,594184,6,0,B|16:304|16:304|193:276|193:276|214:315|272:318,1,288,6|0,1:2|1:0,0:0:0:0:
378,254,594676,1,8,0:0:0:0:
359,373,594840,1,2,0:0:0:0:
490,237,595004,1,2,1:2:0:0:
276,184,595168,1,2,1:2:0:0:
384,10,595332,1,10,0:0:0:0:
422,27,595414,1,8,0:0:0:0:
431,68,595496,6,0,B|287:101|287:101|248:71,1,182.250000695229,6|0,1:2|0:0,0:0:0:0:
245,45,595823,1,0,1:0:0:0:
112,153,595987,2,0,P|65:136|35:68,1,121.500000463486,8|0,0:0|0:0,0:0:0:0:
221,161,596315,2,0,B|236:223|236:223|209:300,1,121.500000463486,0|0,1:0|1:0,0:0:0:0:
64,348,596643,1,10,0:0:0:0:
12,261,596807,6,0,L|214:300,1,182.250000695229,2|0,1:2|0:0,0:0:0:0:
222,328,597135,1,2,1:2:0:0:
390,228,597299,1,10,0:0:0:0:
302,371,597463,2,0,L|314:245,1,121.500000463486,2|0,0:0|1:0,0:0:0:0:
379,52,597791,1,2,1:2:0:0:
466,214,597955,1,10,0:0:0:0:
512,45,598119,70,0,P|413:86|251:107,1,243.000000926971,2|0,1:2|1:0,0:0:0:0:
187,57,598610,2,0,P|175:123|216:180,1,121.500000463486,8|0,0:0|0:0,0:0:0:0:
18,298,598938,1,0,1:0:0:0:
119,188,599102,1,2,1:2:0:0:
195,355,599266,1,10,0:0:0:0:
297,190,599430,6,0,B|368:216|368:216|165:262,1,243.000000926971,2|0,1:2|1:0,0:0:0:0:
119,188,599922,1,10,0:0:0:0:
255,81,600086,1,2,0:0:0:0:
266,46,600168,1,0,3:0:0:0:
253,11,600250,2,0,P|198:19|127:66,1,121.500000463486,0|2,1:0|1:2,0:0:0:0:
115,212,600578,1,10,0:0:0:0:
0,81,600741,6,0,P|142:86|285:154,1,288,6|0,1:2|1:0,0:0:0:0:
448,76,601233,1,10,0:0:0:0:
377,150,601397,2,0,P|348:177|373:263,1,121.500000463486,2|0,0:0|1:0,0:0:0:0:
510,349,601725,2,0,P|468:280|404:283,1,121.500000463486,2|8,1:2|0:0,0:0:0:0:
201,370,602053,6,0,B|256:357|256:357|299:287,1,121.500000463486,2|0,1:2|0:0,0:0:0:0:
96,201,602381,2,0,B|66:262|66:262|86:334,1,121.500000463486,2|8,1:2|0:0,0:0:0:0:
154,131,602709,2,0,P|106:88|21:91,1,121.500000463486,2|0,0:0|1:0,0:0:0:0:
216,2,603037,2,0,L|213:74,1,60.7500002317429,2|0,1:2|0:0,0:0:0:0:
340,119,603200,1,8,0:0:0:0:
355,86,603282,1,8,0:0:0:0:
385,65,603364,1,4,0:3:0:0:
421,66,603446,1,8,0:3:0:0:
452,84,603528,70,0,B|476:200|476:200|410:213|405:307,1,216,6|0,1:2|0:0,0:0:0:0:
411,265,603856,1,2,1:2:0:0:
512,297,604020,6,0,L|316:325,1,182.250000695229,10|0,0:0|0:0,0:0:0:0:
254,319,604348,2,0,B|207:285|207:285|131:293,1,121.500000463486,10|2,0:0|1:2,0:0:0:0:
141,95,604676,6,0,B|183:149|183:149|133:327,1,216,6|0,1:2|0:0,0:0:0:0:
143,291,605004,1,2,1:2:0:0:
85,158,605168,1,10,0:0:0:0:
261,246,605332,1,2,1:2:0:0:
289,256,605414,1,0,1:0:0:0:
318,264,605496,2,0,L|407:242,1,60.7500002317429,4|4,0:3|0:3,0:0:0:0:
512,160,605659,5,8,0:3:0:0:
479,143,605741,1,0,1:0:0:0:
463,110,605823,1,8,0:0:0:0:
471,74,605905,1,8,0:0:0:0:
492,43,605987,70,0,P|395:11|239:-4,1,243.000000926971,6|0,1:2|1:0,0:0:0:0:
179,82,606479,2,0,P|122:100|99:196,1,121.500000463486,8|0,0:0|3:0,0:0:0:0:
115,186,606725,1,0,3:0:0:0:
115,186,606807,1,0,1:0:0:0:
215,334,606971,1,2,1:2:0:0:
283,226,607135,1,10,0:0:0:0:
177,248,607299,6,0,B|272:238|324:324|324:324|434:294,1,243.000000926971,2|0,1:2|1:0,0:0:0:0:
463,139,607791,1,10,0:0:0:0:
509,236,607955,2,0,L|376:205,1,121.500000463486,2|0,0:0|1:0,0:0:0:0:
268,57,608282,2,0,P|335:72|349:155,1,121.500000463486,2|8,1:2|0:0,0:0:0:0:
496,12,608610,6,0,B|323:76|323:76|251:50,1,243.000000926971,2|0,1:2|1:0,0:0:0:0:
75,44,609102,1,10,0:0:0:0:
166,0,609266,2,0,L|153:135,1,121.500000463486,2|0,0:0|1:0,0:0:0:0:
0,235,609594,2,0,P|61:196|128:229,1,121.500000463486,2|8,1:2|0:0,0:0:0:0:
216,369,609922,6,0,B|193:316|193:316|221:173,1,182.250000695229,6|0,1:2|0:0,0:0:0:0:
243,168,610250,1,2,1:2:0:0:
334,333,610414,1,10,0:0:0:0:
416,245,610578,1,2,0:0:0:0:
445,251,610659,1,0,3:0:0:0:
473,262,610741,1,0,1:0:0:0:
416,352,610905,1,0,1:0:0:0:
279,258,611069,2,0,L|344:245,1,60.7500002317429,10|0,0:0|0:0,0:0:0:0:
505,147,611233,70,0,B|430:114|430:114|393:162|393:162|325:176,1,182.250000695229,6|0,1:2|0:0,0:0:0:0:
318,176,611561,1,2,1:2:0:0:
247,51,611725,2,0,P|318:50|340:128,1,121.500000463486,10|0,0:0|0:0,0:0:0:0:
247,192,612053,1,0,1:0:0:0:
134,114,612217,1,0,1:0:0:0:
60,230,612381,2,0,L|-28:219,1,60.7500002317429,10|0,0:0|0:0,0:0:0:0:
102,327,612545,6,0,P|159:263|263:299,1,182.250000695229,6|0,1:2|0:0,0:0:0:0:
271,307,612873,1,2,1:2:0:0:
428,378,613037,2,0,L|416:246,1,121.500000463486,10|0,0:0|0:0,0:0:0:0:
319,113,613364,1,0,1:0:0:0:
258,188,613528,2,0,L|356:206,1,60.7500002317429,0|0,1:0|0:0,0:0:0:0:
486,161,613692,5,8,0:0:0:0:
461,119,613774,1,8,0:0:0:0:
419,93,613856,1,4,0:3:0:0:
370,91,613938,1,8,0:3:0:0:
319,113,614020,5,12,0:0:0:0:
161,3,614184,1,2,1:2:0:0:
300,109,614348,69,8,0:0:0:0:
95,74,614512,1,2,1:2:0:0:
284,103,614676,5,8,0:0:0:0:
73,171,614840,1,2,1:2:0:0:
265,98,615004,5,8,0:0:0:0:
123,261,615168,2,0,B|158:340|158:340|261:353,1,182.250000695229,6|0,1:2|0:0,0:0:0:0:
253,352,615496,1,2,1:2:0:0:
365,202,615659,2,0,B|300:200|300:200|242:264,1,121.500000463486,10|0,0:0|3:0,0:0:0:0:
266,269,615905,1,0,3:0:0:0:
266,269,615987,1,0,1:0:0:0:
442,304,616151,5,8,0:0:0:0:
449,255,616233,1,8,0:0:0:0:
455,206,616315,1,8,0:0:0:0:
461,157,616397,1,8,0:0:0:0:
465,107,616479,70,0,B|313:73,1,148.50000453186,6|0,1:2|0:0,0:0:0:0:
289,97,616807,1,2,1:2:0:0:
215,7,616971,2,0,L|204:116,1,99.0000030212403,10|0,0:0|0:0,0:0:0:0:
41,203,617299,1,2,1:2:0:0:
50,106,617463,2,0,P|104:124|142:185,1,99.0000030212403,2|8,1:2|0:0,0:0:0:0:
278,199,617791,6,0,P|198:225|187:300,1,148.50000453186,2|0,1:2|0:0,0:0:0:0:
207,313,618119,2,0,L|319:333,1,99.0000030212403,2|8,1:2|0:0,0:0:0:0:
445,239,618446,2,0,P|397:234|360:298,1,99.0000030212403,2|0,0:0|1:0,0:0:0:0:
506,384,618774,2,0,L|512:271,1,99.0000030212403,2|8,1:2|0:0,0:0:0:0:
429,91,619102,6,0,L|447:264,1,148.50000453186,2|0,1:2|0:0,0:0:0:0:
433,286,619430,1,2,1:2:0:0:
301,145,619594,2,0,L|296:267,1,99.0000030212403,10|0,0:0|0:0,0:0:0:0:
130,219,619922,1,2,1:2:0:0:
202,368,620086,2,0,L|207:246,1,99.0000030212403,2|8,1:2|0:0,0:0:0:0:
40,115,620414,6,0,P|131:188|225:176,1,198.000006042481,2|0,1:2|1:0,0:0:0:0:
301,145,620905,1,8,0:0:0:0:
390,232,621069,2,0,B|346:256|346:256|271:222,1,99.0000030212403,2|0,0:0|1:0,0:0:0:0:
361,15,621397,2,0,B|385:59|385:59|351:134,1,99.0000030212403,2|8,1:2|0:0,0:0:0:0:
484,84,621725,70,0,P|386:96|275:175,1,198.000006042481,6|2,1:2|1:2,0:0:0:0:
207,183,622217,2,0,P|149:175|105:145,1,99.0000030212403,10|0,0:0|0:0,0:0:0:0:
28,55,622545,1,0,1:0:0:0:
183,101,622709,1,2,1:2:0:0:
58,210,622873,1,8,0:0:0:0:
154,340,623037,6,0,B|293:311|293:311|349:347,1,198.000006042481,2|2,1:2|1:2,0:0:0:0:
386,232,623528,1,10,0:0:0:0:
438,365,623692,2,0,B|464:339|464:339|484:259,1,99.0000030212403,2|0,0:0|1:0,0:0:0:0:
362,95,624020,2,0,L|373:161,1,49.5000015106202,0|0,1:0|0:0,0:0:0:0:
289,241,624184,5,8,0:0:0:0:
258,215,624266,1,8,0:0:0:0:
218,210,624348,1,4,0:3:0:0:
180,223,624430,1,8,0:3:0:0:
143,256,624512,6,0,L|10:228,1,99.0000030212403,12|0,0:0|1:0,0:0:0:0:
114,54,624840,2,0,L|247:82,1,99.0000030212403,8|0,0:0|1:0,0:0:0:0:
129,283,625168,2,0,L|-4:255,1,99.0000030212403,8|0,0:0|1:0,0:0:0:0:
210,74,625496,1,8,0:0:0:0:
215,117,625578,1,0,3:0:0:0:
220,160,625659,70,0,P|275:134|274:7,1,198.000006042481,4|0,1:2|0:0,0:0:0:0:
374,132,626151,1,8,0:0:0:0:
204,173,626315,6,0,P|205:236|343:244,1,198.000006042481,4|0,1:2|0:0,0:0:0:0:
449,201,626807,1,0,1:0:0:0:
495,373,626971,1,4,1:2:0:0:
256,192,627135,12,0,635004,0:0:0:0:
78,85,642425,101,4,1:2:0:0:
82,89,642896,5,0,1:0:0:0:
82,89,642975,2,0,L|94:29,1,45,8|8,0:0|0:0,0:0:0:0:
175,115,643210,1,0,1:0:0:0:
175,115,643289,2,0,L|184:63,1,45,8|8,0:0|0:0,0:0:0:0:
278,158,643525,1,0,1:0:0:0:
285,123,643603,1,8,0:0:0:0:
294,87,643682,6,0,B|360:49|373:142|452:87,1,157.5,12|0,0:0|0:0,0:0:0:0:
471,101,644310,2,0,L|463:164,1,51.7500009870529,0|0,1:0|0:0,0:0:0:0:
405,218,644467,1,8,0:0:0:0:
374,223,644545,1,8,0:0:0:0:
343,230,644624,2,0,L|260:224,1,51.7500009870529,0|0,1:0|0:0,0:0:0:0:
127,353,644781,1,8,0:0:0:0:
94,333,644860,1,8,0:0:0:0:
124,308,644938,6,0,B|198:320|198:320|233:360|233:360|328:373,1,188.999994232178,6|0,1:2|0:0,0:0:0:0:
293,368,645252,1,8,0:0:0:0:
343,230,645409,1,2,0:0:0:0:
451,334,645566,1,0,1:0:0:0:
286,293,645723,1,2,0:0:0:0:
435,236,645880,1,8,0:0:0:0:
381,384,646038,1,2,0:0:0:0:
339,216,646195,70,0,P|356:175|435:144,1,125.999996154785,2|0,1:2|0:0,0:0:0:0:
286,293,646509,2,0,P|231:289|178:219,1,125.999996154785,10|0,0:0|3:0,0:0:0:0:
183,240,646744,1,0,3:0:0:0:
183,240,646823,1,2,1:2:0:0:
161,50,646980,1,0,0:0:0:0:
127,179,647137,2,0,B|-8:149|-8:149|39:193,1,188.999994232178,8|0,0:0|0:0,0:0:0:0:
72,271,647451,6,0,B|92:210|175:187|232:249|232:249|210:322,1,251.999992309571,2|8,1:2|0:0,0:0:0:0:
144,355,647922,1,2,0:0:0:0:
272,246,648079,1,0,1:0:0:0:
315,384,648237,1,2,0:0:0:0:
457,226,648394,1,8,0:0:0:0:
426,364,648551,1,2,0:0:0:0:
331,174,648708,6,0,B|289:130|294:57|294:57|270:127|212:154,1,251.999992309571,2|8,1:2|0:0,0:0:0:0:
85,201,649179,1,0,3:0:0:0:
55,190,649258,1,0,3:0:0:0:
24,182,649336,1,2,1:2:0:0:
43,104,649493,1,0,0:0:0:0:
107,277,649650,2,0,B|204:305|204:305|272:229,1,188.999994232178,8|0,0:0|0:0,0:0:0:0:
290,211,649964,5,6,1:2:0:0:
408,277,650121,1,2,0:0:0:0:
351,81,650278,2,0,P|286:95|241:156,1,125.999996154785,10|0,0:0|0:0,0:0:0:0:
467,219,650593,2,0,B|473:151|473:151|418:106,1,125.999996154785,2|0,1:2|0:0,0:0:0:0:
312,309,650907,1,10,0:0:0:0:
363,181,651064,1,2,0:0:0:0:
312,309,651221,70,0,B|255:332|255:332|191:284,1,125.999996154785,2|0,1:2|0:0,0:0:0:0:
91,190,651535,1,10,0:0:0:0:
267,250,651692,1,2,0:0:0:0:
232,74,651849,2,0,P|180:123|172:178,1,125.999996154785,2|0,1:2|0:0,0:0:0:0:
267,250,652163,1,10,0:0:0:0:
121,293,652320,1,2,0:0:0:0:
10,121,652477,6,0,P|128:116|308:198,1,297.000002832413,6|8,1:2|0:0,0:0:0:0:
371,356,652949,1,0,0:0:0:0:
466,189,653106,6,0,B|460:146|393:128|393:128|321:241|470:322,1,297.000002832413,4|8,1:2|0:0,0:0:0:0:
482,371,653498,1,0,3:0:0:0:
482,371,653577,2,0,P|418:337|261:346,1,222.75000212431,4|0,1:2|0:0,0:0:0:0:
189,362,653891,5,0,1:0:0:0:
190,328,653970,1,0,1:0:0:0:
200,297,654048,1,8,0:0:0:0:
86,241,654205,1,0,1:0:0:0:
103,200,654284,1,0,1:0:0:0:
141,177,654362,1,8,0:0:0:0:
107,48,654519,69,0,1:0:0:0:
151,39,654598,1,8,0:0:0:0:
194,46,654676,1,8,0:0:0:0:
229,73,654755,1,0,1:0:0:0:
260,104,654833,2,0,L|331:89,1,62.9999980773926,0|8,1:0|0:0,0:0:0:0:
463,222,654990,5,4,1:2:0:0:
411,76,655147,1,2,0:0:0:0:
304,179,655304,1,8,0:0:0:0:
470,147,655462,1,2,0:0:0:0:
321,90,655618,1,0,1:0:0:0:
371,242,655776,1,2,0:0:0:0:
418,61,655933,1,8,0:0:0:0:
291,192,656090,1,2,0:0:0:0:
394,365,656247,6,0,L|369:231,1,125.999996154785,2|0,1:2|0:0,0:0:0:0:
190,204,656561,2,0,L|166:327,1,125.999996154785,10|0,0:0|0:0,0:0:0:0:
0,208,656875,2,0,P|55:130|144:152,1,188.999994232178,2|0,1:2|0:0,0:0:0:0:
190,204,657189,2,0,B|222:147|222:147|179:43,1,125.999996154785,10|0,0:0|0:0,0:0:0:0:
109,29,657504,6,0,B|164:102|237:107|302:78|302:78|336:119,1,251.999992309571,2|8,1:2|0:0,0:0:0:0:
391,191,657975,1,2,0:0:0:0:
512,8,658132,2,0,B|462:24|462:24|440:167|440:167|383:196,1,251.999992309571,2|8,1:2|0:0,0:0:0:0:
234,269,658603,1,0,0:0:0:0:
258,179,658760,70,0,P|302:203|326:275,1,125.999996154785,2|0,1:2|0:0,0:0:0:0:
165,361,659074,2,0,P|181:301|233:268,1,125.999996154785,10|0,0:0|0:0,0:0:0:0:
354,263,659388,6,0,P|325:195|262:158,1,148.500001416206,2|0,1:2|0:0,0:0:0:0:
73,256,659703,2,0,P|101:323|164:360,1,148.500001416206,10|0,0:0|0:0,0:0:0:0:
459,299,660017,6,0,B|428:272|428:272|272:314|272:314,1,188.999994232178,4|0,1:2|0:0,0:0:0:0:
176,274,660331,2,0,B|239:269|239:269|298:323,1,125.999996154785,8|0,0:0|0:0,0:0:0:0:
426,162,660645,2,0,B|363:169|363:169|318:246,1,125.999996154785,2|0,1:2|0:0,0:0:0:0:
176,63,660959,2,0,B|242:80|242:80|273:169,1,125.999996154785,10|0,0:0|0:0,0:0:0:0:
41,216,661273,6,0,L|61:81,1,125.999996154785,2|0,1:2|0:0,0:0:0:0:
231,256,661587,2,0,L|100:277,1,125.999996154785,10|0,0:0|0:0,0:0:0:0:
131,130,661901,1,2,1:2:0:0:
248,272,662059,1,0,3:0:0:0:
248,272,662137,1,0,3:0:0:0:
248,272,662216,2,0,P|310:312|393:287,1,125.999996154785,10|0,0:0|0:0,0:0:0:0:
397,291,662451,1,0,0:0:0:0:
397,291,662530,69,12,0:0:0:0:
431,127,662687,1,8,0:0:0:0:
397,291,663158,5,8,0:0:0:0:
349,92,663315,1,8,0:0:0:0:
271,152,663472,6,0,P|242:157|222:136,1,60.7499981460572,0|0,1:0|0:0,0:0:0:0:
209,103,663786,6,0,L|119:126,1,62.9999980773926,12|0,0:0|0:0,0:0:0:0:
20,154,663943,2,0,L|111:171,1,62.9999980773926,0|0,1:0|0:0,0:0:0:0:
208,80,664100,70,0,L|118:103,1,62.9999980773926,8|0,0:0|0:0,0:0:0:0:
19,132,664258,2,0,L|110:149,1,62.9999980773926,0|0,1:0|0:0,0:0:0:0:
173,245,664415,5,8,0:0:0:0:
195,256,664493,1,8,0:0:0:0:
219,260,664572,1,8,0:0:0:0:
242,253,664650,1,8,0:0:0:0:
263,237,664729,5,8,0:0:0:0:
295,207,664807,1,8,0:0:0:0:
336,190,664886,1,8,0:0:0:0:
378,199,664964,1,8,0:0:0:0:
415,223,665043,5,4,1:2:0:0:
359,369,665200,1,2,0:0:0:0:
263,237,665357,1,8,0:0:0:0:
429,304,665514,1,2,0:0:0:0:
265,339,665671,1,0,1:0:0:0:
336,190,665829,1,2,0:0:0:0:
362,384,665986,1,8,0:0:0:0:
250,224,666143,1,2,0:0:0:0:
169,357,666299,69,2,1:2:0:0:
74,221,666456,1,2,0:0:0:0:
70,246,666535,1,0,3:0:0:0:
68,271,666614,2,0,P|140:227|132:174,1,125.999996154785,10|0,0:0|0:0,0:0:0:0:
0,69,666928,2,0,P|73:137|234:133,1,251.999992309571,2|8,1:2|0:0,0:0:0:0:
321,72,667399,1,2,0:0:0:0:
425,248,667556,6,0,B|482:187|496:129|461:85|461:85|387:123,1,251.999992309571,2|8,1:2|0:0,0:0:0:0:
357,193,668027,1,2,0:0:0:0:
242,40,668184,1,0,1:0:0:0:
200,165,668341,1,2,0:0:0:0:
25,40,668498,1,8,0:0:0:0:
74,187,668655,1,2,0:0:0:0:
1,321,668812,6,0,B|47:269|127:245|189:256|189:256|202:295|253:299,1,251.999992309571,2|8,1:2|0:0,0:0:0:0:
381,261,669284,1,2,0:0:0:0:
378,292,669362,1,0,3:0:0:0:
375,323,669441,1,0,1:0:0:0:
293,288,669598,1,2,0:0:0:0:
390,161,669755,1,8,0:0:0:0:
459,340,669912,1,0,0:0:0:0:
503,125,670069,6,0,P|430:129|382:171,1,125.999996154785,2|0,1:2|0:0,0:0:0:0:
290,59,670383,2,0,P|222:44|184:2,1,125.999996154785,10|0,0:0|0:0,0:0:0:0:
32,147,670697,1,0,1:0:0:0:
113,4,670854,1,2,0:0:0:0:
233,114,671011,1,8,0:0:0:0:
152,257,671169,1,2,0:0:0:0:
175,55,671326,70,0,P|221:23|297:26,2,125.999996154785,2|2|10,1:2|0:0|0:0,0:0:0:0:
152,257,671797,1,2,0:0:0:0:
325,184,671954,1,0,1:0:0:0:
118,137,672111,1,2,0:0:0:0:
224,311,672268,1,8,0:0:0:0:
411,220,672425,1,2,0:0:0:0:
418,269,672504,1,0,3:0:0:0:
425,320,672582,5,12,0:0:0:0:
463,148,672739,1,0,1:0:0:0:
326,295,672896,1,0,1:0:0:0:
287,104,673053,1,10,0:0:0:0:
484,149,673210,1,6,1:2:0:0:
330,34,673367,1,0,1:0:0:0:
242,204,673525,1,8,0:0:0:0:
50,65,673682,6,0,B|182:77|106:198|252:204,1,251.999992309571,6|0,1:2|1:0,0:0:0:0:
270,236,674074,1,0,1:0:0:0:
268,273,674153,1,8,0:0:0:0:
383,293,674310,1,0,1:0:0:0:
378,250,674388,1,0,1:0:0:0:
373,207,674467,1,8,0:0:0:0:
493,173,674624,5,0,1:0:0:0:
493,223,674703,1,8,0:0:0:0:
490,272,674781,1,8,0:0:0:0:
488,322,674860,1,0,1:0:0:0:
484,371,674938,2,0,L|416:388,1,62.9999980773926,0|8,1:0|0:0,0:0:0:0:
284,349,675095,69,4,1:2:0:0:
228,203,675252,1,2,0:0:0:0:
132,335,675409,1,8,0:0:0:0:
298,268,675566,1,2,0:0:0:0:
134,233,675723,1,0,1:0:0:0:
205,382,675881,1,2,0:0:0:0:
231,188,676038,1,8,0:0:0:0:
119,348,676195,1,2,0:0:0:0:
56,197,676352,6,0,B|85:138|85:138|57:64,1,125.999996154785,2|0,1:2|0:0,0:0:0:0:
231,188,676666,2,0,B|165:192|165:192|115:253,1,125.999996154785,10|0,0:0|0:0,0:0:0:0:
120,20,676980,2,0,P|202:25|250:124,1,188.999994232178,2|0,1:2|0:0,0:0:0:0:
231,188,677294,2,0,P|273:241|357:210,1,125.999996154785,10|0,0:0|0:0,0:0:0:0:
490,64,677608,6,0,B|453:5|453:5|417:195,1,251.999992309571,2|8,1:2|0:0,0:0:0:0:
378,359,678079,1,2,0:0:0:0:
459,252,678237,2,0,B|412:214|412:214|339:224,1,125.999996154785,2|0,1:2|0:0,0:0:0:0:
226,368,678551,1,8,0:0:0:0:
116,202,678708,1,0,0:0:0:0:
22,278,678865,6,0,B|65:275|85:305|85:305|146:270|146:270|174:308|234:307,2,198.000001888275,12|8|8,0:0|0:0|0:0,0:0:0:0:
249,104,679493,70,0,B|206:101|186:131|186:131|125:96|125:96|97:134|37:133,2,198.000001888275,4|8|8,1:2|0:0|0:0,0:0:0:0:
432,202,680121,6,0,P|361:181|341:117,1,125.999996154785,8|2,0:0|1:2,0:0:0:0:
94,200,680436,2,0,P|157:215|188:288,1,125.999996154785,8|2,0:0|1:2,0:0:0:0:
458,178,680750,6,0,P|371:165|372:79,1,148.500001416206,8|2,0:0|1:2,0:0:0:0:
72,218,681064,2,0,P|155:237|164:324,1,148.500001416206,8|2,0:0|1:2,0:0:0:0:
411,332,681378,5,4,1:2:0:0:
411,332,682163,1,0,1:0:0:0:
346,373,682320,1,8,0:0:0:0:
202,3,690526,5,8,0:0:0:0:
304,109,690684,1,4,1:2:0:0:
304,109,691000,5,8,0:0:0:0:
329,87,691079,1,8,0:0:0:0:
323,54,691158,1,8,0:0:0:0:
291,43,691237,1,8,0:0:0:0:
266,65,691316,2,0,L|258:188,1,107.999996704102,0|0,1:0|0:0,0:0:0:0:
468,193,691631,5,8,0:0:0:0:
497,165,691710,1,8,0:0:0:0:
489,126,691789,1,8,0:0:0:0:
451,113,691868,1,8,0:0:0:0:
421,138,691947,2,0,L|411:300,1,130.500003982544,0|0,1:0|0:0,0:0:0:0:
372,349,692263,5,8,0:0:0:0:
294,195,692421,1,8,0:0:0:0:
403,47,692579,1,8,0:0:0:0:
403,47,692894,70,2,B|426:37|426:37|444:46|444:46|425:58|425:58|403:47,1,90,2|0,0:1|0:0,0:1:0:0:
343,0,693368,6,0,P|320:54|364:119,1,144,6|0,1:2|0:0,0:0:0:0:
238,274,693684,1,10,0:0:0:0:
168,178,693842,2,0,B|104:137|104:137|13:152,1,144,2|0,0:0|1:0,0:0:0:0:
193,349,694158,2,0,B|268:357|268:357|351:286,1,144,2|8,0:0|0:0,0:0:0:0:
435,135,694473,1,2,0:0:0:0:
445,100,694552,1,0,3:0:0:0:
454,65,694631,6,0,L|439:235,1,144,2|0,1:2|0:0,0:0:0:0:
288,0,694947,1,10,0:0:0:0:
235,73,695105,2,0,P|300:88|370:41,1,144,2|0,0:0|1:0,0:0:0:0:
168,178,695421,2,0,P|108:141|39:155,1,144,2|8,0:0|0:0,0:0:0:0:
126,309,695737,1,2,0:0:0:0:
121,344,695816,1,0,3:0:0:0:
118,379,695894,6,0,L|97:216,1,144,2|0,1:2|0:0,0:0:0:0:
337,284,696210,1,10,0:0:0:0:
421,384,696368,2,0,L|432:217,1,144,2|0,0:0|1:0,0:0:0:0:
306,83,696684,1,2,0:0:0:0:
334,60,696763,1,0,3:0:0:0:
369,58,696842,1,10,0:0:0:0:
488,164,697000,1,2,0:0:0:0:
281,209,697158,70,0,P|322:133|284:61,1,144,0|0,1:2|0:0,0:0:0:0:
78,21,697473,2,0,P|63:89|102:147,1,144,8|0,0:0|0:0,0:0:0:0:
234,54,697789,1,2,1:2:0:0:
67,225,697947,1,2,0:0:0:0:
159,21,698105,1,10,0:0:0:0:
242,271,698263,1,10,0:0:0:0:
239,306,698342,1,8,0:0:0:0:
238,342,698421,6,0,B|213:368|172:358|172:358|103:300|103:300|65:292|36:314,1,216,6|0,1:2|0:0,0:0:0:0:
30,378,698737,2,0,B|178:420|118:226|262:276,1,263.250001004219,8|0,0:0|0:0,0:0:0:0:
317,319,699052,5,2,1:2:0:0:
453,164,699210,1,2,0:0:0:0:
511,286,699368,1,10,0:0:0:0:
380,95,699526,1,2,0:0:0:0:
241,270,699684,6,0,B|250:251|232:217|232:217|158:165|158:165|138:128|157:97,1,216,0|0,1:0|0:0,0:0:0:0:
222,63,700000,2,0,B|296:170|93:163|173:295,1,263.250001004219,8|0,0:0|0:0,0:0:0:0:
225,354,700316,1,2,1:2:0:0:
298,206,700473,1,2,0:0:0:0:
472,343,700631,1,10,0:0:0:0:
512,261,700789,70,0,B|468:248|468:248|412:281|412:281|351:265,1,144,2|0,0:0|1:0,0:0:0:0:
253,279,701105,1,2,0:0:0:0:
327,136,701263,1,10,0:0:0:0:
203,40,701421,1,2,0:0:0:0:
167,47,701500,1,0,3:0:0:0:
131,55,701579,2,0,P|155:122|229:103,1,144,2|0,1:2|0:0,0:0:0:0:
291,51,701894,1,10,0:0:0:0:
440,215,702052,2,0,P|402:243|335:233,1,72,6|0,1:2|1:0,0:0:0:0:
246,214,702210,5,8,0:0:0:0:
214,183,702289,1,8,0:0:0:0:
171,174,702368,1,8,0:0:0:0:
129,185,702447,1,8,0:0:0:0:
95,215,702526,6,0,L|83:288,1,58.4999973220826,0|0,1:0|1:0,0:0:0:0:
174,379,702684,2,0,L|187:311,1,58.4999973220826,0|0,1:0|1:0,0:0:0:0:
338,230,702842,5,8,0:0:0:0:
381,223,702920,1,8,0:0:0:0:
421,242,702999,1,8,0:0:0:0:
443,280,703078,1,8,0:0:0:0:
437,324,703157,1,8,0:0:0:0:
408,357,703236,1,8,0:0:0:0:
364,366,703315,1,8,0:0:0:0:
324,349,703394,1,8,0:0:0:0:
302,306,703473,70,0,B|316:157,1,144,6|0,1:2|0:0,0:0:0:0:
439,0,703789,1,10,0:0:0:0:
512,53,703947,2,0,B|453:94|453:94|382:72,1,144,2|0,0:0|1:0,0:0:0:0:
225,9,704263,2,0,B|158:4|158:4|103:58,1,144,2|8,0:0|0:0,0:0:0:0:
19,268,704579,1,2,0:0:0:0:
13,225,704658,1,0,3:0:0:0:
6,182,704737,6,0,P|82:169|147:242,1,144,2|0,1:2|0:0,0:0:0:0:
307,339,705052,1,10,0:0:0:0:
362,264,705210,2,0,P|293:249|234:288,1,144,2|0,0:0|1:0,0:0:0:0:
470,351,705526,2,0,L|485:201,1,144,2|8,0:0|0:0,0:0:0:0:
271,70,705842,1,2,0:0:0:0:
267,113,705921,1,0,3:0:0:0:
264,156,706000,6,0,B|334:175|334:175|423:116,1,144,2|0,1:2|0:0,0:0:0:0:
172,67,706316,1,10,0:0:0:0:
129,149,706473,2,0,B|59:130|59:130|-33:191,1,144,2|0,0:0|1:0,0:0:0:0:
107,361,706789,1,2,0:0:0:0:
149,367,706868,1,0,3:0:0:0:
191,373,706947,1,10,0:0:0:0:
298,226,707105,1,2,0:0:0:0:
376,290,707263,5,0,1:0:0:0:
232,306,707421,1,0,0:0:0:0:
220,162,707579,1,8,0:0:0:0:
360,150,707737,1,0,0:0:0:0:
310,361,707894,69,2,1:2:0:0:
168,237,708052,1,2,0:0:0:0:
284,90,708210,1,10,0:0:0:0:
424,214,708368,1,10,0:0:0:0:
433,171,708447,1,8,0:0:0:0:
444,129,708526,6,0,B|393:116|393:116|298:179|298:179|230:164,1,216,4|0,1:2|0:0,0:0:0:0:
224,75,708842,2,0,B|297:93|297:93|360:198|360:198|432:215,1,263.250001004219,8|0,0:0|0:0,0:0:0:0:
509,187,709158,1,2,1:2:0:0:
355,46,709316,1,2,0:0:0:0:
249,168,709473,1,10,0:0:0:0:
95,27,709631,1,2,0:0:0:0:
0,179,709789,6,0,B|12:226|12:226|111:282|111:282|123:334,1,216,0|0,1:0|0:0,0:0:0:0:
38,354,710105,2,0,B|22:290|22:290|86:186|86:186|70:113,1,263.250001004219,8|0,0:0|0:0,0:0:0:0:
2,59,710421,1,2,1:2:0:0:
145,121,710579,1,2,0:0:0:0:
251,15,710737,1,10,0:0:0:0:
402,187,710894,6,0,P|459:184|514:266,1,144,2|0,0:0|1:0,0:0:0:0:
292,358,711210,2,0,B|221:371|221:371|147:309,1,144,2|8,0:0|0:0,0:0:0:0:
285,138,711526,2,0,P|259:82|170:60,1,144,2|0,0:0|1:0,0:0:0:0:
0,221,711842,2,0,L|16:364,1,144,2|8,0:0|0:0,0:0:0:0:
165,324,712158,2,0,L|152:231,1,72,4|0,1:2|1:0,0:0:0:0:
67,142,712316,69,8,0:0:0:0:
74,99,712394,1,8,0:0:0:0:
101,66,712473,1,8,0:0:0:0:
141,52,712552,1,8,0:0:0:0:
184,56,712631,2,0,L|239:69,1,49.5000015106202,0|0,1:0|1:0,0:0:0:0:
314,197,712789,2,0,L|242:213,1,49.5000015106202,0|0,1:0|1:0,0:0:0:0:
339,51,712947,5,8,0:0:0:0:
361,12,713025,1,8,0:0:0:0:
401,0,713104,1,8,0:0:0:0:
444,2,713183,1,8,0:0:0:0:
475,34,713262,1,8,0:0:0:0:
481,78,713341,1,8,0:0:0:0:
461,117,713420,1,8,0:0:0:0:
422,138,713499,1,8,0:0:0:0:
378,131,713579,6,0,L|399:279,1,125.999996154785,6|0,1:2|1:0,0:0:0:0:
219,324,713894,2,0,P|167:244|85:280,1,188.999994232178,10|0,0:0|0:0,0:0:0:0:
35,321,714210,2,0,B|-8:361|-8:361|27:129,1,251.999992309571,2|8,1:0|0:0,0:0:0:0:
151,128,714684,1,2,0:0:0:0:
43,21,714842,5,0,1:0:0:0:
96,193,715000,1,2,0:0:0:0:
246,116,715158,1,8,0:0:0:0:
333,192,715316,1,2,0:0:0:0:
440,50,715473,69,0,1:0:0:0:
246,116,715631,1,2,0:0:0:0:
475,177,715789,2,0,P|396:170|374:289,1,188.999994232178,8|0,0:0|0:0,0:0:0:0:
396,345,716105,6,0,P|336:291|274:315,1,125.999996154785,0|0,1:0|1:0,0:0:0:0:
64,330,716421,2,0,B|204:353|204:353|167:297,1,188.999994232178,10|0,0:0|0:0,0:0:0:0:
139,243,716737,2,0,P|146:144|270:172,1,251.999992309571,2|8,1:0|0:0,0:0:0:0:
235,265,717210,1,2,0:0:0:0:
351,125,717368,5,0,1:0:0:0:
396,261,717526,1,2,1:2:0:0:
420,51,717684,1,8,0:0:0:0:
323,216,717842,1,2,0:0:0:0:
279,22,718000,5,0,1:0:0:0:
462,143,718158,1,2,1:2:0:0:
233,204,718316,1,8,0:0:0:0:
205,162,718394,1,8,0:0:0:0:
160,137,718473,1,8,0:0:0:0:
110,144,718552,1,8,0:0:0:0:
74,179,718631,70,0,B|37:231|37:231|-13:188,1,125.999996154785,4|0,1:2|0:0,0:0:0:0:
47,358,718947,2,0,P|61:309|192:311,1,188.999994232178,10|0,0:0|0:0,0:0:0:0:
230,356,719263,2,0,B|303:341|303:341|371:245|371:245|448:229,1,251.999992309571,2|8,1:0|0:0,0:0:0:0:
496,303,719737,1,2,0:0:0:0:
377,154,719894,5,0,1:0:0:0:
497,106,720052,1,2,1:2:0:0:
295,81,720210,1,8,0:0:0:0:
462,168,720368,1,2,0:0:0:0:
347,11,720526,5,0,1:0:0:0:
283,171,720684,1,2,0:0:0:0:
147,58,720842,2,0,B|8:35|8:35|66:82,1,188.999994232178,8|0,0:0|0:0,0:0:0:0:
99,131,721158,6,0,L|74:281,1,125.999996154785,0|0,1:0|0:0,0:0:0:0:
222,379,721473,2,0,P|257:305|377:311,1,188.999994232178,10|0,0:0|0:0,0:0:0:0:
432,384,721789,2,0,B|385:347|385:347|406:137,1,251.999992309571,2|8,1:0|0:0,0:0:0:0:
464,24,722263,2,0,L|457:92,1,62.9999980773926,0|0,1:0|0:0,0:0:0:0:
434,233,722421,69,4,1:2:0:0:
396,264,722499,1,0,1:0:0:0:
348,266,722578,1,0,1:0:0:0:
308,238,722657,1,0,1:0:0:0:
294,192,722737,2,0,L|306:128,1,49.5000015106202,4|4,0:3|0:3,0:0:0:0:
228,13,722894,2,0,L|239:77,1,49.5000015106202,4|4,0:3|0:3,0:0:0:0:
104,255,723052,5,8,0:3:0:0:
73,233,723131,1,8,0:3:0:0:
55,201,723210,1,8,0:3:0:0:
53,165,723289,1,8,0:3:0:0:
66,131,723368,5,8,0:0:0:0:
103,104,723447,1,8,0:0:0:0:
147,99,723526,1,8,0:0:0:0:
187,119,723605,1,8,0:0:0:0:
211,157,723684,5,4,1:2:0:0:
276,338,723842,1,6,1:2:0:0:
276,338,724158,2,0,P|299:286|243:313,1,148.50000453186,2|0,0:0|0:0,0:0:0:0:
187,351,724473,69,2,0:0:0:0:
356,304,724631,1,2,0:0:0:0:
256,192,724789,1,4,1:2:0:0:
256,192,724868,12,0,729526,0:0:0:0:
