osu file format v14

[General]
AudioFilename: audio4.mp3
AudioLeadIn: 0
PreviewTime: 0
Countdown: 0
SampleSet: Soft
StackLeniency: 0.7
Mode: 3
LetterboxInBreaks: 0
SpecialStyle: 0
WidescreenStoryboard: 0

[Editor]
DistanceSpacing: 0.8
BeatDivisor: 4
GridSize: 32
TimelineZoom: 1

[Metadata]
Title:1212's Pack Maps 2
TitleUnicode:1212's Pack Maps 2
Artist:Various Artists
ArtistUnicode:Various Artists
Creator:Julio1212-
Version:YURiKA - Kyoumen no Nami (TV Size)
Source:
Tags:エロマンガ先生 eromanga sensei ero manga eromanga-sensei eromangasensei opening tv size sword art online sao alicization season three 3 kirito asuna eugeo alice opening 織部里沙 ソードアート・オンライン アリシゼーション steins;gate steins gate steinsgate 種田梨沙, 洲崎綾, M・A・O, 田所あずさ Gokukoku No Brynhildr 極黒のブリュンヒルデ 薬師るり アペイリア ステラ女学院高等科C³部 鏡面の波 宝石の国 Land of the Lustrous Country of Jewels
BeatmapID:1838191
BeatmapSetID:878953

[Difficulty]
HPDrainRate:7
CircleSize:7
OverallDifficulty:7
ApproachRate:5
SliderMultiplier:1.4
SliderTickRate:1

[Events]
//Background and Video events
0,0,"Houseki.no.Kuni.full.2209265.jpg",0,0
//Break Periods
//Storyboard Layer 0 (Background)
//Storyboard Layer 1 (Fail)
//Storyboard Layer 2 (Pass)
//Storyboard Layer 3 (Foreground)
//Storyboard Sound Samples

[TimingPoints]
653,342.857142857143,4,2,1,10,1,0

[HitObjects]
329,192,653,128,0,910:0:0:0:0:
36,192,653,1,0,0:0:0:0:
402,192,910,128,0,1167:0:0:0:0:
475,192,1167,128,0,1338:0:0:0:0:
109,192,1167,1,0,0:0:0:0:
256,192,1681,1,0,0:0:0:0:
402,192,2195,1,0,0:0:0:0:
329,192,2710,1,0,0:0:0:0:
256,192,3224,1,0,0:0:0:0:
36,192,3395,1,0,0:0:0:0:
475,192,3395,1,0,0:0:0:0:
109,192,3738,1,0,0:0:0:0:
182,192,4253,1,0,0:0:0:0:
329,192,4767,1,0,0:0:0:0:
475,192,5281,1,0,0:0:0:0:
329,192,5795,1,0,0:0:0:0:
36,192,6138,128,0,6395:0:0:0:0:
256,192,6138,1,0,0:0:0:0:
109,192,6395,128,0,6653:0:0:0:0:
182,192,6653,128,0,6824:0:0:0:0:
329,192,6653,1,0,0:0:0:0:
402,192,7167,1,0,0:0:0:0:
475,192,7681,1,0,0:0:0:0:
256,192,8195,1,0,0:0:0:0:
329,192,8710,1,0,0:0:0:0:
36,192,8881,128,0,11624:0:0:0:0:
475,192,8881,1,0,0:0:0:0:
182,192,9224,1,0,0:0:0:0:
329,192,9738,1,0,0:0:0:0:
402,192,10253,1,0,0:0:0:0:
475,192,10767,1,0,0:0:0:0:
256,192,11281,1,0,0:0:0:0:
109,192,11624,1,0,0:0:0:0:
475,192,11624,1,0,0:0:0:0:
329,192,11624,128,0,11881:0:0:0:0:
256,192,11624,1,0,0:0:0:0:
36,192,11795,1,0,0:0:0:0:
402,192,11881,128,0,12138:0:0:0:0:
109,192,11967,1,0,0:0:0:0:
475,192,12138,128,0,12310:0:0:0:0:
182,192,12138,1,0,0:0:0:0:
36,192,12310,1,0,0:0:0:0:
109,192,12481,1,0,0:0:0:0:
256,192,12653,1,0,0:0:0:0:
36,192,12824,1,0,0:0:0:0:
182,192,12995,1,0,0:0:0:0:
329,192,13167,1,0,0:0:0:0:
475,192,13167,1,0,0:0:0:0:
36,192,13338,1,0,0:0:0:0:
182,192,13510,1,0,0:0:0:0:
402,192,13681,1,0,0:0:0:0:
256,192,13681,1,0,0:0:0:0:
36,192,13853,1,0,0:0:0:0:
109,192,14024,1,0,0:0:0:0:
329,192,14195,1,0,0:0:0:0:
36,192,14367,1,0,0:0:0:0:
475,192,14367,1,0,0:0:0:0:
182,192,14367,1,0,0:0:0:0:
329,192,14538,1,0,0:0:0:0:
256,192,14710,1,0,0:0:0:0:
109,192,14881,1,0,0:0:0:0:
36,192,15053,1,0,0:0:0:0:
329,192,15224,1,0,0:0:0:0:
182,192,15395,1,0,0:0:0:0:
36,192,15567,1,0,0:0:0:0:
402,192,15738,1,0,0:0:0:0:
256,192,15910,1,0,0:0:0:0:
109,192,16081,1,0,0:0:0:0:
475,192,16253,1,0,0:0:0:0:
329,192,16424,1,0,0:0:0:0:
182,192,16595,1,0,0:0:0:0:
402,192,16767,1,0,0:0:0:0:
256,192,16938,1,0,0:0:0:0:
182,192,17110,128,0,17367:0:0:0:0:
36,192,17110,1,0,0:0:0:0:
329,192,17110,1,0,0:0:0:0:
402,192,17110,1,0,0:0:0:0:
475,192,17281,1,0,0:0:0:0:
109,192,17367,128,0,17624:0:0:0:0:
402,192,17453,1,0,0:0:0:0:
36,192,17624,128,0,17795:0:0:0:0:
256,192,17624,1,0,0:0:0:0:
475,192,17795,1,0,0:0:0:0:
329,192,17967,1,0,0:0:0:0:
182,192,18138,1,0,0:0:0:0:
402,192,18310,1,0,0:0:0:0:
256,192,18481,1,0,0:0:0:0:
109,192,18653,1,0,0:0:0:0:
475,192,18824,1,0,0:0:0:0:
329,192,18995,1,0,0:0:0:0:
256,192,19167,1,0,0:0:0:0:
475,192,19338,1,0,0:0:0:0:
329,192,19510,1,0,0:0:0:0:
182,192,19681,1,0,0:0:0:0:
475,192,19853,1,0,0:0:0:0:
402,192,20024,1,0,0:0:0:0:
256,192,20195,1,0,0:0:0:0:
475,192,20367,1,0,0:0:0:0:
329,192,20538,1,0,0:0:0:0:
182,192,20710,1,0,0:0:0:0:
475,192,20881,1,0,0:0:0:0:
256,192,21053,1,0,0:0:0:0:
109,192,21224,1,0,0:0:0:0:
475,192,21395,1,0,0:0:0:0:
182,192,21567,1,0,0:0:0:0:
36,192,21738,1,0,0:0:0:0:
329,192,22595,1,0,0:0:0:0:
256,192,22595,1,0,0:0:0:0:
182,192,22595,1,0,0:0:0:0:
36,192,22595,128,0,22938:0:0:0:0:
475,192,22595,128,0,22938:0:0:0:0:
256,192,22938,1,0,0:0:0:0:
402,192,22938,1,0,0:0:0:0:
182,192,23110,128,0,23281:0:0:0:0:
36,192,23110,128,0,23281:0:0:0:0:
402,192,23195,1,0,0:0:0:0:
475,192,23195,1,0,0:0:0:0:
329,192,23281,128,0,23453:0:0:0:0:
475,192,23453,128,0,23624:0:0:0:0:
182,192,23453,1,0,0:0:0:0:
36,192,23453,1,0,0:0:0:0:
256,192,23624,128,0,24053:0:0:0:0:
109,192,23624,128,0,23795:0:0:0:0:
402,192,23795,128,0,24053:0:0:0:0:
182,192,23795,1,0,0:0:0:0:
182,192,24138,1,0,0:0:0:0:
36,192,24138,1,0,0:0:0:0:
329,192,24138,128,0,24310:0:0:0:0:
475,192,24138,128,0,24310:0:0:0:0:
182,192,24310,128,0,24653:0:0:0:0:
256,192,24395,1,0,0:0:0:0:
402,192,24395,1,0,0:0:0:0:
36,192,24481,128,0,24653:0:0:0:0:
402,192,24653,128,0,24995:0:0:0:0:
475,192,24653,128,0,24995:0:0:0:0:
256,192,24653,1,0,0:0:0:0:
329,192,24824,1,0,0:0:0:0:
109,192,24995,1,0,0:0:0:0:
256,192,24995,1,0,0:0:0:0:
182,192,25167,128,0,25338:0:0:0:0:
36,192,25167,128,0,25338:0:0:0:0:
402,192,25167,1,0,0:0:0:0:
256,192,25253,1,0,0:0:0:0:
329,192,25338,128,0,25595:0:0:0:0:
475,192,25338,128,0,25595:0:0:0:0:
402,192,25681,128,0,25853:0:0:0:0:
109,192,25681,128,0,25853:0:0:0:0:
182,192,25853,128,0,26024:0:0:0:0:
256,192,25853,1,0,0:0:0:0:
329,192,25938,1,0,0:0:0:0:
475,192,25938,1,0,0:0:0:0:
36,192,26024,128,0,26538:0:0:0:0:
256,192,26024,1,0,0:0:0:0:
402,192,26195,1,0,0:0:0:0:
182,192,26195,128,0,26367:0:0:0:0:
329,192,26195,128,0,26367:0:0:0:0:
475,192,26367,1,0,0:0:0:0:
109,192,26367,1,0,0:0:0:0:
182,192,26538,1,0,0:0:0:0:
402,192,26538,128,0,26710:0:0:0:0:
256,192,26538,1,0,0:0:0:0:
109,192,26710,128,0,26881:0:0:0:0:
36,192,26710,128,0,26881:0:0:0:0:
329,192,26710,128,0,27224:0:0:0:0:
475,192,26881,128,0,27224:0:0:0:0:
182,192,27053,1,0,0:0:0:0:
402,192,27053,128,0,27224:0:0:0:0:
36,192,27053,1,0,0:0:0:0:
182,192,27224,128,0,27395:0:0:0:0:
256,192,27224,128,0,27395:0:0:0:0:
402,192,27395,1,0,0:0:0:0:
329,192,27395,1,0,0:0:0:0:
256,192,27567,1,0,0:0:0:0:
109,192,27567,1,0,0:0:0:0:
256,192,27738,128,0,27910:0:0:0:0:
329,192,27738,128,0,27910:0:0:0:0:
475,192,27738,128,0,28081:0:0:0:0:
36,192,27738,1,0,0:0:0:0:
36,192,27995,1,0,0:0:0:0:
109,192,27995,1,0,0:0:0:0:
182,192,28081,1,0,0:0:0:0:
329,192,28081,1,0,0:0:0:0:
402,192,28081,1,0,0:0:0:0:
475,192,28424,1,0,0:0:0:0:
329,192,28424,1,0,0:0:0:0:
109,192,28595,128,0,28767:0:0:0:0:
36,192,28595,128,0,28767:0:0:0:0:
329,192,28595,1,0,0:0:0:0:
475,192,28681,1,0,0:0:0:0:
402,192,28681,1,0,0:0:0:0:
256,192,28767,128,0,28938:0:0:0:0:
329,192,28767,1,0,0:0:0:0:
402,192,28938,128,0,29110:0:0:0:0:
109,192,28938,1,0,0:0:0:0:
475,192,28938,1,0,0:0:0:0:
36,192,29110,128,0,29281:0:0:0:0:
182,192,29110,128,0,29538:0:0:0:0:
256,192,29110,1,0,0:0:0:0:
329,192,29281,128,0,29538:0:0:0:0:
475,192,29281,1,0,0:0:0:0:
109,192,29624,128,0,29795:0:0:0:0:
256,192,29624,128,0,29795:0:0:0:0:
36,192,29624,1,0,0:0:0:0:
475,192,29795,128,0,30138:0:0:0:0:
182,192,29795,1,0,0:0:0:0:
402,192,29795,1,0,0:0:0:0:
109,192,29881,1,0,0:0:0:0:
36,192,29881,1,0,0:0:0:0:
329,192,29967,128,0,30138:0:0:0:0:
256,192,29967,1,0,0:0:0:0:
182,192,30138,128,0,30310:0:0:0:0:
36,192,30138,128,0,30310:0:0:0:0:
402,192,30310,128,0,30481:0:0:0:0:
256,192,30310,1,0,0:0:0:0:
475,192,30481,128,0,30653:0:0:0:0:
182,192,30481,1,0,0:0:0:0:
329,192,30481,1,0,0:0:0:0:
109,192,30653,128,0,30824:0:0:0:0:
256,192,30653,128,0,30824:0:0:0:0:
329,192,30738,1,0,0:0:0:0:
475,192,30824,128,0,31167:0:0:0:0:
402,192,30824,1,0,0:0:0:0:
182,192,30824,1,0,0:0:0:0:
256,192,31167,128,0,31338:0:0:0:0:
109,192,31167,1,0,0:0:0:0:
402,192,31338,128,0,31510:0:0:0:0:
329,192,31424,1,0,0:0:0:0:
109,192,31424,1,0,0:0:0:0:
182,192,31510,128,0,31853:0:0:0:0:
36,192,31510,128,0,31853:0:0:0:0:
402,192,31681,128,0,31853:0:0:0:0:
475,192,31681,128,0,31853:0:0:0:0:
329,192,31681,1,0,0:0:0:0:
256,192,31853,128,0,32024:0:0:0:0:
109,192,31853,1,0,0:0:0:0:
182,192,32024,128,0,32195:0:0:0:0:
36,192,32024,1,0,0:0:0:0:
475,192,32024,1,0,0:0:0:0:
402,192,32195,128,0,32710:0:0:0:0:
109,192,32195,1,0,0:0:0:0:
256,192,32195,1,0,0:0:0:0:
329,192,32367,128,0,32710:0:0:0:0:
475,192,32538,128,0,32710:0:0:0:0:
182,192,32538,1,0,0:0:0:0:
109,192,32538,1,0,0:0:0:0:
182,192,32710,128,0,32881:0:0:0:0:
36,192,32710,128,0,32881:0:0:0:0:
402,192,32881,1,0,0:0:0:0:
329,192,32881,1,0,0:0:0:0:
402,192,33053,128,0,33224:0:0:0:0:
256,192,33053,1,0,0:0:0:0:
182,192,33053,1,0,0:0:0:0:
256,192,33224,128,0,33395:0:0:0:0:
109,192,33224,1,0,0:0:0:0:
36,192,33224,1,0,0:0:0:0:
109,192,33395,128,0,33567:0:0:0:0:
402,192,33395,1,0,0:0:0:0:
329,192,33481,1,0,0:0:0:0:
475,192,33481,1,0,0:0:0:0:
402,192,33567,1,0,0:0:0:0:
182,192,33567,1,0,0:0:0:0:
36,192,33567,1,0,0:0:0:0:
256,192,33567,128,0,34081:0:0:0:0:
36,192,34081,128,0,34253:0:0:0:0:
182,192,34081,1,0,0:0:0:0:
475,192,34081,128,0,34253:0:0:0:0:
402,192,34081,128,0,34253:0:0:0:0:
256,192,34167,1,0,0:0:0:0:
182,192,34253,128,0,34424:0:0:0:0:
36,192,34424,128,0,34595:0:0:0:0:
475,192,34424,1,0,0:0:0:0:
329,192,34424,1,0,0:0:0:0:
402,192,34595,128,0,35110:0:0:0:0:
109,192,34595,128,0,34767:0:0:0:0:
256,192,34595,1,0,0:0:0:0:
475,192,34767,128,0,35110:0:0:0:0:
36,192,34767,128,0,35110:0:0:0:0:
109,192,35110,1,0,0:0:0:0:
182,192,35110,128,0,35281:0:0:0:0:
329,192,35110,128,0,35281:0:0:0:0:
475,192,35281,128,0,35624:0:0:0:0:
256,192,35281,1,0,0:0:0:0:
109,192,35367,1,0,0:0:0:0:
36,192,35367,1,0,0:0:0:0:
329,192,35453,128,0,35624:0:0:0:0:
182,192,35624,128,0,35795:0:0:0:0:
36,192,35624,128,0,35795:0:0:0:0:
402,192,35624,1,0,0:0:0:0:
329,192,35795,1,0,0:0:0:0:
256,192,35795,1,0,0:0:0:0:
475,192,35967,1,0,0:0:0:0:
36,192,35967,1,0,0:0:0:0:
256,192,35967,1,0,0:0:0:0:
329,192,36138,128,0,36310:0:0:0:0:
402,192,36138,128,0,36310:0:0:0:0:
182,192,36138,1,0,0:0:0:0:
109,192,36224,1,0,0:0:0:0:
36,192,36310,128,0,36653:0:0:0:0:
475,192,36310,128,0,36653:0:0:0:0:
182,192,36310,1,0,0:0:0:0:
256,192,36653,128,0,36824:0:0:0:0:
109,192,36653,128,0,36824:0:0:0:0:
402,192,36653,128,0,36824:0:0:0:0:
329,192,36653,1,0,0:0:0:0:
182,192,36824,128,0,36995:0:0:0:0:
402,192,36910,1,0,0:0:0:0:
36,192,36995,128,0,37338:0:0:0:0:
475,192,36995,1,0,0:0:0:0:
329,192,36995,1,0,0:0:0:0:
329,192,37167,128,0,37338:0:0:0:0:
182,192,37167,128,0,37338:0:0:0:0:
402,192,37167,1,0,0:0:0:0:
109,192,37338,1,0,0:0:0:0:
475,192,37338,1,0,0:0:0:0:
402,192,37510,1,0,0:0:0:0:
182,192,37510,1,0,0:0:0:0:
402,192,37681,128,0,37853:0:0:0:0:
329,192,37681,128,0,37853:0:0:0:0:
109,192,37681,128,0,38195:0:0:0:0:
36,192,37853,128,0,38195:0:0:0:0:
182,192,38024,128,0,38195:0:0:0:0:
329,192,38024,1,0,0:0:0:0:
475,192,38024,1,0,0:0:0:0:
475,192,38195,128,0,38367:0:0:0:0:
402,192,38195,128,0,38367:0:0:0:0:
36,192,38367,128,0,39053:0:0:0:0:
256,192,38367,1,0,0:0:0:0:
109,192,38367,1,0,0:0:0:0:
182,192,38538,1,0,0:0:0:0:
109,192,38710,128,0,38881:0:0:0:0:
182,192,38710,128,0,38881:0:0:0:0:
329,192,38710,1,0,0:0:0:0:
329,192,38881,1,0,0:0:0:0:
475,192,38967,1,0,0:0:0:0:
402,192,39053,1,0,0:0:0:0:
109,192,39053,1,0,0:0:0:0:
256,192,39053,128,0,39567:0:0:0:0:
329,192,39395,1,0,0:0:0:0:
182,192,39395,1,0,0:0:0:0:
402,192,39567,128,0,40081:0:0:0:0:
109,192,39653,1,0,0:0:0:0:
329,192,39738,128,0,40081:0:0:0:0:
182,192,39738,1,0,0:0:0:0:
36,192,39738,1,0,0:0:0:0:
475,192,39910,128,0,40081:0:0:0:0:
256,192,39910,1,0,0:0:0:0:
109,192,39910,1,0,0:0:0:0:
182,192,40081,128,0,40253:0:0:0:0:
109,192,40081,128,0,40253:0:0:0:0:
402,192,40253,1,0,0:0:0:0:
475,192,40253,1,0,0:0:0:0:
256,192,40253,128,0,41110:0:0:0:0:
329,192,40595,128,0,40767:0:0:0:0:
402,192,40595,128,0,40767:0:0:0:0:
109,192,40595,1,0,0:0:0:0:
475,192,40767,1,0,0:0:0:0:
36,192,40767,128,0,41110:0:0:0:0:
182,192,40938,128,0,41110:0:0:0:0:
109,192,41110,1,0,0:0:0:0:
329,192,41110,128,0,41281:0:0:0:0:
475,192,41110,128,0,41281:0:0:0:0:
256,192,41281,1,0,0:0:0:0:
182,192,41281,1,0,0:0:0:0:
36,192,41453,1,0,0:0:0:0:
475,192,41453,1,0,0:0:0:0:
256,192,41453,1,0,0:0:0:0:
109,192,41624,128,0,41795:0:0:0:0:
402,192,41624,128,0,41795:0:0:0:0:
256,192,41710,1,0,0:0:0:0:
475,192,41795,1,0,0:0:0:0:
36,192,41795,1,0,0:0:0:0:
329,192,41795,128,0,42053:0:0:0:0:
182,192,41795,128,0,42053:0:0:0:0:
402,192,42138,128,0,42310:0:0:0:0:
475,192,42138,128,0,42310:0:0:0:0:
256,192,42138,1,0,0:0:0:0:
182,192,42395,1,0,0:0:0:0:
36,192,42395,1,0,0:0:0:0:
329,192,42481,1,0,0:0:0:0:
402,192,42481,1,0,0:0:0:0:
109,192,42653,128,0,42824:0:0:0:0:
182,192,42653,128,0,42824:0:0:0:0:
256,192,42653,1,0,0:0:0:0:
475,192,42824,128,0,43167:0:0:0:0:
329,192,42824,1,0,0:0:0:0:
402,192,42995,1,0,0:0:0:0:
256,192,42995,1,0,0:0:0:0:
36,192,43081,1,0,0:0:0:0:
182,192,43081,1,0,0:0:0:0:
329,192,43167,128,0,43681:0:0:0:0:
256,192,43167,1,0,0:0:0:0:
109,192,43167,1,0,0:0:0:0:
402,192,43338,128,0,43681:0:0:0:0:
182,192,43338,1,0,0:0:0:0:
36,192,43338,1,0,0:0:0:0:
475,192,43510,128,0,43681:0:0:0:0:
109,192,43510,1,0,0:0:0:0:
182,192,43595,1,0,0:0:0:0:
256,192,43681,128,0,43853:0:0:0:0:
109,192,43681,128,0,43853:0:0:0:0:
329,192,43767,1,0,0:0:0:0:
182,192,43853,5,0,0:0:0:0:
36,192,43853,1,0,0:0:0:0:
402,192,43853,1,0,0:0:0:0:
475,192,43853,1,0,0:0:0:0:
109,192,44088,1,0,0:0:0:0:
256,192,44088,1,0,0:0:0:0:
402,192,44088,1,0,0:0:0:0:
329,192,44088,1,0,0:0:0:0:
182,192,44303,1,0,0:0:0:0:
36,192,44303,1,0,0:0:0:0:
329,192,44303,1,0,0:0:0:0:
256,192,44303,1,0,0:0:0:0:
329,192,44538,5,0,0:0:0:0:
109,192,44538,128,0,47110:0:0:0:0:
402,192,44538,128,0,46424:0:0:0:0:
475,192,44538,128,0,48824:0:0:0:0:
256,192,44538,128,0,46595:0:0:0:0:
36,192,44710,1,0,0:0:0:0:
182,192,44881,1,0,0:0:0:0:
329,192,45053,1,0,0:0:0:0:
36,192,45224,1,0,0:0:0:0:
182,192,45395,1,0,0:0:0:0:
329,192,45567,1,0,0:0:0:0:
36,192,45738,1,0,0:0:0:0:
182,192,45910,1,0,0:0:0:0:
329,192,46081,1,0,0:0:0:0:
36,192,46253,1,0,0:0:0:0:
182,192,46424,1,0,0:0:0:0:
329,192,46595,128,0,48653:0:0:0:0:
402,192,46595,1,0,0:0:0:0:
182,192,46767,1,0,0:0:0:0:
36,192,46938,1,0,0:0:0:0:
256,192,47110,1,0,0:0:0:0:
182,192,47110,128,0,48481:0:0:0:0:
109,192,47281,1,0,0:0:0:0:
36,192,47281,128,0,50024:0:0:0:0:
402,192,47453,1,0,0:0:0:0:
256,192,47624,1,0,0:0:0:0:
109,192,47795,1,0,0:0:0:0:
402,192,47967,1,0,0:0:0:0:
256,192,48138,1,0,0:0:0:0:
109,192,48310,1,0,0:0:0:0:
402,192,48481,1,0,0:0:0:0:
109,192,48653,128,0,48995:0:0:0:0:
182,192,48653,128,0,48995:0:0:0:0:
329,192,48824,128,0,49167:0:0:0:0:
475,192,48995,128,0,49510:0:0:0:0:
109,192,49167,128,0,49510:0:0:0:0:
182,192,49167,128,0,49510:0:0:0:0:
256,192,49338,128,0,49681:0:0:0:0:
402,192,49510,128,0,49853:0:0:0:0:
182,192,49681,128,0,49853:0:0:0:0:
329,192,49853,128,0,50024:0:0:0:0:
256,192,50024,1,0,0:0:0:0:
182,192,50024,1,0,0:0:0:0:
109,192,50024,1,0,0:0:0:0:
475,192,50024,128,0,50367:0:0:0:0:
182,192,50195,1,0,0:0:0:0:
329,192,50281,128,0,50538:0:0:0:0:
109,192,50367,1,0,0:0:0:0:
402,192,50367,1,0,0:0:0:0:
475,192,50538,1,0,0:0:0:0:
182,192,50538,128,0,50624:0:0:0:0:
256,192,50710,1,0,0:0:0:0:
36,192,50710,128,0,50881:0:0:0:0:
182,192,50710,128,0,50881:0:0:0:0:
329,192,50881,1,0,0:0:0:0:
402,192,50881,1,0,0:0:0:0:
109,192,50967,128,0,51224:0:0:0:0:
475,192,51053,1,0,0:0:0:0:
256,192,51053,1,0,0:0:0:0:
402,192,51053,1,0,0:0:0:0:
182,192,51224,1,0,0:0:0:0:
329,192,51224,128,0,51395:0:0:0:0:
109,192,51310,1,0,0:0:0:0:
36,192,51395,1,0,0:0:0:0:
256,192,51395,128,0,51910:0:0:0:0:
475,192,51395,1,0,0:0:0:0:
402,192,51567,1,0,0:0:0:0:
182,192,51567,1,0,0:0:0:0:
36,192,51738,1,0,0:0:0:0:
109,192,51738,1,0,0:0:0:0:
402,192,51824,1,0,0:0:0:0:
475,192,51824,1,0,0:0:0:0:
329,192,51910,1,0,0:0:0:0:
36,192,51910,128,0,52081:0:0:0:0:
182,192,51910,128,0,52081:0:0:0:0:
475,192,52081,1,0,0:0:0:0:
256,192,52081,1,0,0:0:0:0:
329,192,52253,128,0,52510:0:0:0:0:
109,192,52253,1,0,0:0:0:0:
182,192,52424,1,0,0:0:0:0:
36,192,52424,1,0,0:0:0:0:
109,192,52424,1,0,0:0:0:0:
402,192,52595,128,0,53110:0:0:0:0:
36,192,52595,1,0,0:0:0:0:
182,192,52681,1,0,0:0:0:0:
329,192,52681,1,0,0:0:0:0:
109,192,52767,1,0,0:0:0:0:
475,192,52767,1,0,0:0:0:0:
256,192,52767,1,0,0:0:0:0:
329,192,52938,1,0,0:0:0:0:
182,192,53110,128,0,53624:0:0:0:0:
256,192,53110,1,0,0:0:0:0:
475,192,53110,1,0,0:0:0:0:
109,192,53281,1,0,0:0:0:0:
36,192,53281,128,0,53624:0:0:0:0:
402,192,53281,1,0,0:0:0:0:
329,192,53453,1,0,0:0:0:0:
329,192,53624,128,0,54138:0:0:0:0:
475,192,53624,1,0,0:0:0:0:
475,192,53795,128,0,54138:0:0:0:0:
182,192,53795,1,0,0:0:0:0:
402,192,53795,1,0,0:0:0:0:
109,192,53795,1,0,0:0:0:0:
36,192,53967,1,0,0:0:0:0:
256,192,54053,1,0,0:0:0:0:
109,192,54053,1,0,0:0:0:0:
402,192,54138,1,0,0:0:0:0:
182,192,54138,1,0,0:0:0:0:
475,192,54310,1,0,0:0:0:0:
256,192,54310,1,0,0:0:0:0:
109,192,54481,1,0,0:0:0:0:
329,192,54481,128,0,54824:0:0:0:0:
36,192,54481,128,0,54824:0:0:0:0:
402,192,54567,1,0,0:0:0:0:
475,192,54567,1,0,0:0:0:0:
256,192,54653,1,0,0:0:0:0:
109,192,54824,128,0,55338:0:0:0:0:
402,192,54824,128,0,55167:0:0:0:0:
182,192,54824,1,0,0:0:0:0:
36,192,54995,128,0,55338:0:0:0:0:
329,192,54995,1,0,0:0:0:0:
256,192,55167,1,0,0:0:0:0:
182,192,55167,128,0,55338:0:0:0:0:
475,192,55167,128,0,57224:0:0:0:0:
402,192,55424,1,0,0:0:0:0:
329,192,55424,1,0,0:0:0:0:
256,192,55510,1,0,0:0:0:0:
182,192,55510,1,0,0:0:0:0:
109,192,55510,1,0,0:0:0:0:
36,192,55510,128,0,57224:0:0:0:0:
402,192,55681,1,0,0:0:0:0:
256,192,55853,1,0,0:0:0:0:
109,192,56024,1,0,0:0:0:0:
329,192,56024,1,0,0:0:0:0:
402,192,56195,1,0,0:0:0:0:
256,192,56367,1,0,0:0:0:0:
182,192,56367,1,0,0:0:0:0:
109,192,56538,1,0,0:0:0:0:
182,192,56538,1,0,0:0:0:0:
329,192,56538,1,0,0:0:0:0:
402,192,56710,1,0,0:0:0:0:
256,192,56710,1,0,0:0:0:0:
329,192,56795,1,0,0:0:0:0:
109,192,56881,1,0,0:0:0:0:
256,192,57053,1,0,0:0:0:0:
329,192,57053,1,0,0:0:0:0:
402,192,57224,1,0,0:0:0:0:
109,192,57224,1,0,0:0:0:0:
256,192,57310,1,0,0:0:0:0:
182,192,57310,1,0,0:0:0:0:
475,192,57395,1,0,0:0:0:0:
182,192,57567,128,0,57910:0:0:0:0:
36,192,57567,128,0,57910:0:0:0:0:
329,192,57567,1,0,0:0:0:0:
109,192,57738,1,0,0:0:0:0:
475,192,57738,1,0,0:0:0:0:
402,192,57910,1,0,0:0:0:0:
475,192,57910,1,0,0:0:0:0:
256,192,57910,1,0,0:0:0:0:
36,192,58081,1,0,0:0:0:0:
329,192,58167,1,0,0:0:0:0:
109,192,58167,1,0,0:0:0:0:
475,192,58253,1,0,0:0:0:0:
402,192,58253,1,0,0:0:0:0:
256,192,58253,128,0,58595:0:0:0:0:
182,192,58253,1,0,0:0:0:0:
329,192,58424,1,0,0:0:0:0:
36,192,58595,1,0,0:0:0:0:
109,192,58595,128,0,59110:0:0:0:0:
402,192,58595,128,0,59110:0:0:0:0:
182,192,58767,1,0,0:0:0:0:
475,192,58767,1,0,0:0:0:0:
256,192,58938,1,0,0:0:0:0:
475,192,59110,1,0,0:0:0:0:
329,192,59110,1,0,0:0:0:0:
402,192,59281,1,0,0:0:0:0:
36,192,59281,128,0,59624:0:0:0:0:
182,192,59281,128,0,59624:0:0:0:0:
475,192,59453,1,0,0:0:0:0:
402,192,59538,1,0,0:0:0:0:
256,192,59538,1,0,0:0:0:0:
329,192,59624,1,0,0:0:0:0:
109,192,59624,1,0,0:0:0:0:
109,192,59795,1,0,0:0:0:0:
402,192,59795,1,0,0:0:0:0:
256,192,59881,1,0,0:0:0:0:
329,192,59967,128,0,60310:0:0:0:0:
475,192,59967,128,0,60310:0:0:0:0:
36,192,59967,1,0,0:0:0:0:
109,192,60053,1,0,0:0:0:0:
402,192,60053,1,0,0:0:0:0:
256,192,60138,1,0,0:0:0:0:
182,192,60310,1,0,0:0:0:0:
402,192,60481,1,0,0:0:0:0:
36,192,60481,1,0,0:0:0:0:
475,192,60653,1,0,0:0:0:0:
182,192,60653,1,0,0:0:0:0:
329,192,60653,1,0,0:0:0:0:
109,192,60824,128,0,60995:0:0:0:0:
256,192,60824,1,0,0:0:0:0:
329,192,60910,1,0,0:0:0:0:
475,192,60995,1,0,0:0:0:0:
36,192,60995,128,0,61253:0:0:0:0:
402,192,60995,1,0,0:0:0:0:
182,192,60995,1,0,0:0:0:0:
256,192,61167,1,0,0:0:0:0:
182,192,61253,128,0,61510:0:0:0:0:
402,192,61253,1,0,0:0:0:0:
329,192,61338,1,0,0:0:0:0:
475,192,61338,1,0,0:0:0:0:
109,192,61338,1,0,0:0:0:0:
329,192,61510,128,0,61681:0:0:0:0:
402,192,61510,1,0,0:0:0:0:
36,192,61510,1,0,0:0:0:0:
475,192,61681,128,0,61853:0:0:0:0:
182,192,61681,1,0,0:0:0:0:
109,192,61853,128,0,62110:0:0:0:0:
402,192,61853,1,0,0:0:0:0:
256,192,61853,1,0,0:0:0:0:
329,192,62024,1,0,0:0:0:0:
475,192,62024,1,0,0:0:0:0:
182,192,62024,1,0,0:0:0:0:
256,192,62195,128,0,62367:0:0:0:0:
402,192,62195,1,0,0:0:0:0:
36,192,62195,1,0,0:0:0:0:
109,192,62281,1,0,0:0:0:0:
402,192,62367,128,0,62710:0:0:0:0:
182,192,62367,1,0,0:0:0:0:
475,192,62367,1,0,0:0:0:0:
256,192,62538,1,0,0:0:0:0:
109,192,62538,1,0,0:0:0:0:
329,192,62710,1,0,0:0:0:0:
36,192,62710,1,0,0:0:0:0:
182,192,62710,1,0,0:0:0:0:
402,192,62795,1,0,0:0:0:0:
475,192,62795,1,0,0:0:0:0:
182,192,62881,128,0,63395:0:0:0:0:
256,192,62881,1,0,0:0:0:0:
402,192,62967,1,0,0:0:0:0:
36,192,63053,1,0,0:0:0:0:
329,192,63053,1,0,0:0:0:0:
256,192,63224,1,0,0:0:0:0:
402,192,63224,1,0,0:0:0:0:
329,192,63395,128,0,63910:0:0:0:0:
36,192,63395,1,0,0:0:0:0:
475,192,63395,1,0,0:0:0:0:
402,192,63567,1,0,0:0:0:0:
109,192,63653,1,0,0:0:0:0:
256,192,63653,1,0,0:0:0:0:
182,192,63738,1,0,0:0:0:0:
36,192,63738,1,0,0:0:0:0:
475,192,63738,1,0,0:0:0:0:
475,192,63910,128,0,64081:0:0:0:0:
256,192,63910,1,0,0:0:0:0:
109,192,63910,1,0,0:0:0:0:
36,192,64081,128,0,64424:0:0:0:0:
329,192,64081,1,0,0:0:0:0:
182,192,64081,1,0,0:0:0:0:
475,192,64253,1,0,0:0:0:0:
329,192,64253,1,0,0:0:0:0:
402,192,64424,1,0,0:0:0:0:
256,192,64424,1,0,0:0:0:0:
329,192,64595,1,0,0:0:0:0:
182,192,64595,1,0,0:0:0:0:
475,192,64595,1,0,0:0:0:0:
402,192,64767,128,0,65110:0:0:0:0:
36,192,64767,1,0,0:0:0:0:
182,192,64767,1,0,0:0:0:0:
329,192,64767,1,0,0:0:0:0:
109,192,64938,1,0,0:0:0:0:
256,192,64938,1,0,0:0:0:0:
182,192,65024,1,0,0:0:0:0:
329,192,65024,1,0,0:0:0:0:
256,192,65110,128,0,65453:0:0:0:0:
475,192,65110,1,0,0:0:0:0:
36,192,65110,1,0,0:0:0:0:
329,192,65281,128,0,65624:0:0:0:0:
109,192,65281,1,0,0:0:0:0:
475,192,65453,128,0,65624:0:0:0:0:
36,192,65453,128,0,66481:0:0:0:0:
182,192,65453,1,0,0:0:0:0:
109,192,65624,128,0,66138:0:0:0:0:
402,192,65624,128,0,66053:0:0:0:0:
256,192,65624,1,0,0:0:0:0:
475,192,65795,128,0,66395:0:0:0:0:
329,192,65795,1,0,0:0:0:0:
329,192,65967,128,0,66395:0:0:0:0:
256,192,65967,1,0,0:0:0:0:
402,192,66138,128,0,66395:0:0:0:0:
182,192,66138,1,0,0:0:0:0:
256,192,66310,128,0,66395:0:0:0:0:
109,192,66310,1,0,0:0:0:0:
182,192,66395,1,0,0:0:0:0:
256,192,66481,128,0,66910:0:0:0:0:
475,192,66481,128,0,68881:0:0:0:0:
109,192,66481,128,0,67338:0:0:0:0:
402,192,66481,1,0,0:0:0:0:
182,192,66653,1,0,0:0:0:0:
36,192,66824,1,0,0:0:0:0:
402,192,66995,1,0,0:0:0:0:
329,192,66995,128,0,68538:0:0:0:0:
256,192,66995,1,0,0:0:0:0:
182,192,67167,1,0,0:0:0:0:
36,192,67167,1,0,0:0:0:0:
256,192,67338,1,0,0:0:0:0:
182,192,67510,128,0,68195:0:0:0:0:
402,192,67681,1,0,0:0:0:0:
36,192,67681,1,0,0:0:0:0:
256,192,67853,1,0,0:0:0:0:
402,192,68024,1,0,0:0:0:0:
109,192,68024,1,0,0:0:0:0:
109,192,68195,128,0,69224:0:0:0:0:
36,192,68195,1,0,0:0:0:0:
256,192,68195,1,0,0:0:0:0:
402,192,68367,1,0,0:0:0:0:
182,192,68367,1,0,0:0:0:0:
256,192,68538,128,0,69224:0:0:0:0:
36,192,68538,1,0,0:0:0:0:
329,192,68710,1,0,0:0:0:0:
402,192,68881,128,0,69224:0:0:0:0:
182,192,68881,1,0,0:0:0:0:
329,192,68881,1,0,0:0:0:0:
36,192,69053,1,0,0:0:0:0:
475,192,69053,1,0,0:0:0:0:
329,192,69138,1,0,0:0:0:0:
36,192,69224,128,0,70253:0:0:0:0:
182,192,69224,128,0,69910:0:0:0:0:
475,192,69224,128,0,69910:0:0:0:0:
256,192,69395,1,0,0:0:0:0:
329,192,69567,1,0,0:0:0:0:
402,192,69738,1,0,0:0:0:0:
256,192,69738,1,0,0:0:0:0:
109,192,69910,1,0,0:0:0:0:
329,192,69910,1,0,0:0:0:0:
256,192,70081,1,0,0:0:0:0:
475,192,70253,128,0,70938:0:0:0:0:
182,192,70253,128,0,70424:0:0:0:0:
402,192,70253,128,0,70595:0:0:0:0:
109,192,70424,128,0,71624:0:0:0:0:
329,192,70424,128,0,71281:0:0:0:0:
36,192,70424,1,0,0:0:0:0:
256,192,70595,1,0,0:0:0:0:
36,192,70767,1,0,0:0:0:0:
402,192,70767,1,0,0:0:0:0:
402,192,70938,128,0,71967:0:0:0:0:
182,192,70938,1,0,0:0:0:0:
36,192,71110,1,0,0:0:0:0:
256,192,71110,1,0,0:0:0:0:
256,192,71281,128,0,71967:0:0:0:0:
475,192,71281,1,0,0:0:0:0:
182,192,71453,1,0,0:0:0:0:
36,192,71453,1,0,0:0:0:0:
36,192,71624,128,0,71967:0:0:0:0:
329,192,71624,1,0,0:0:0:0:
475,192,71624,1,0,0:0:0:0:
109,192,71795,1,0,0:0:0:0:
182,192,71881,1,0,0:0:0:0:
109,192,71967,1,0,0:0:0:0:
329,192,71967,128,0,72310:0:0:0:0:
475,192,71967,128,0,72995:0:0:0:0:
402,192,72138,1,0,0:0:0:0:
182,192,72138,1,0,0:0:0:0:
256,192,72310,1,0,0:0:0:0:
109,192,72310,1,0,0:0:0:0:
182,192,72481,128,0,73510:0:0:0:0:
329,192,72481,128,0,73510:0:0:0:0:
36,192,72481,1,0,0:0:0:0:
402,192,72653,1,0,0:0:0:0:
256,192,72653,1,0,0:0:0:0:
109,192,72824,1,0,0:0:0:0:
36,192,72995,128,0,73767:0:0:0:0:
256,192,72995,1,0,0:0:0:0:
402,192,73167,1,0,0:0:0:0:
475,192,73167,1,0,0:0:0:0:
256,192,73338,1,0,0:0:0:0:
109,192,73510,1,0,0:0:0:0:
475,192,73510,1,0,0:0:0:0:
329,192,73681,1,0,0:0:0:0:
182,192,73853,128,0,74024:0:0:0:0:
402,192,73853,128,0,74024:0:0:0:0:
36,192,73853,1,0,0:0:0:0:
329,192,74024,1,0,0:0:0:0:
256,192,74024,128,0,74195:0:0:0:0:
475,192,74024,128,0,74710:0:0:0:0:
182,192,74195,1,0,0:0:0:0:
36,192,74195,1,0,0:0:0:0:
402,192,74195,1,0,0:0:0:0:
329,192,74367,128,0,74710:0:0:0:0:
109,192,74367,128,0,74710:0:0:0:0:
256,192,74538,1,0,0:0:0:0:
182,192,74624,1,0,0:0:0:0:
402,192,74710,1,0,0:0:0:0:
256,192,74710,128,0,75395:0:0:0:0:
36,192,74710,128,0,75395:0:0:0:0:
329,192,74881,1,0,0:0:0:0:
182,192,75053,1,0,0:0:0:0:
402,192,75224,1,0,0:0:0:0:
475,192,75224,1,0,0:0:0:0:
329,192,75395,1,0,0:0:0:0:
109,192,75395,1,0,0:0:0:0:
182,192,75567,1,0,0:0:0:0:
475,192,75738,1,0,0:0:0:0:
329,192,75910,128,0,76938:0:0:0:0:
256,192,75910,1,0,0:0:0:0:
182,192,76081,128,0,77110:0:0:0:0:
36,192,76081,1,0,0:0:0:0:
256,192,76253,1,0,0:0:0:0:
475,192,76253,1,0,0:0:0:0:
402,192,76424,128,0,77367:0:0:0:0:
109,192,76424,1,0,0:0:0:0:
256,192,76595,128,0,77367:0:0:0:0:
109,192,76767,1,0,0:0:0:0:
475,192,76767,1,0,0:0:0:0:
475,192,76938,128,0,77367:0:0:0:0:
36,192,76938,1,0,0:0:0:0:
109,192,77110,128,0,77367:0:0:0:0:
36,192,77281,1,0,0:0:0:0:
329,192,77367,1,0,0:0:0:0:
182,192,77367,1,0,0:0:0:0:
109,192,77453,1,0,0:0:0:0:
402,192,77453,1,0,0:0:0:0:
475,192,77453,1,0,0:0:0:0:
256,192,77453,1,0,0:0:0:0:
36,192,77624,1,0,0:0:0:0:
109,192,77795,1,0,0:0:0:0:
329,192,77967,1,0,0:0:0:0:
36,192,78138,1,0,0:0:0:0:
109,192,78310,1,0,0:0:0:0:
256,192,78481,1,0,0:0:0:0:
36,192,78653,1,0,0:0:0:0:
182,192,78824,1,0,0:0:0:0:
402,192,78995,1,0,0:0:0:0:
36,192,79167,1,0,0:0:0:0:
182,192,79338,1,0,0:0:0:0:
329,192,79510,1,0,0:0:0:0:
36,192,79681,1,0,0:0:0:0:
109,192,79853,1,0,0:0:0:0:
256,192,80024,1,0,0:0:0:0:
109,192,80195,1,0,0:0:0:0:
402,192,80195,1,0,0:0:0:0:
475,192,80367,1,0,0:0:0:0:
256,192,80538,1,0,0:0:0:0:
475,192,80710,1,0,0:0:0:0:
402,192,80881,1,0,0:0:0:0:
182,192,81053,1,0,0:0:0:0:
475,192,81224,1,0,0:0:0:0:
329,192,81395,1,0,0:0:0:0:
182,192,81567,1,0,0:0:0:0:
402,192,81738,1,0,0:0:0:0:
256,192,81910,1,0,0:0:0:0:
36,192,82081,1,0,0:0:0:0:
329,192,82424,1,0,0:0:0:0:
182,192,82595,1,0,0:0:0:0:
475,192,82767,1,0,0:0:0:0:
109,192,82938,1,0,0:0:0:0:
402,192,82938,1,0,0:0:0:0:
182,192,83110,1,0,0:0:0:0:
36,192,83281,1,0,0:0:0:0:
256,192,83453,1,0,0:0:0:0:
109,192,83624,1,0,0:0:0:0:
36,192,83795,1,0,0:0:0:0:
329,192,83967,1,0,0:0:0:0:
182,192,84138,1,0,0:0:0:0:
36,192,84310,1,0,0:0:0:0:
402,192,84481,1,0,0:0:0:0:
256,192,84653,1,0,0:0:0:0:
109,192,84824,1,0,0:0:0:0:
329,192,84995,1,0,0:0:0:0:
256,192,85167,1,0,0:0:0:0:
109,192,85338,1,0,0:0:0:0:
402,192,85510,1,0,0:0:0:0:
36,192,85853,1,0,0:0:0:0:
182,192,86024,1,0,0:0:0:0:
256,192,86538,1,0,0:0:0:0:
329,192,87053,1,0,0:0:0:0:
475,192,87567,1,0,0:0:0:0:
