osu file format v14

[General]
AudioFilename: audio5.mp3
AudioLeadIn: 0
PreviewTime: 0
Countdown: 0
SampleSet: Soft
StackLeniency: 0.7
Mode: 3
LetterboxInBreaks: 0
SpecialStyle: 0
WidescreenStoryboard: 0

[Editor]
DistanceSpacing: 0.8
BeatDivisor: 4
GridSize: 32
TimelineZoom: 1

[Metadata]
Title:1212's Pack Maps 2
TitleUnicode:1212's Pack Maps 2
Artist:Various Artists
ArtistUnicode:Various Artists
Creator:Julio1212-
Version:Taneda Risa, Suzaki Aya, Ichimichi Mao, Tadokoro Azusa - Ichiban Boshi (TV Size)
Source:
Tags:エロマンガ先生 eromanga sensei ero manga eromanga-sensei eromangasensei opening tv size sword art online sao alicization season three 3 kirito asuna eugeo alice opening 織部里沙 ソードアート・オンライン アリシゼーション steins;gate steins gate steinsgate 種田梨沙, 洲崎綾, M・A・O, 田所あずさ Gokukoku No Brynhildr 極黒のブリュンヒルデ 薬師るり アペイリア ステラ女学院高等科C³部 鏡面の波 宝石の国 Land of the Lustrous Country of Jewels
BeatmapID:1838188
BeatmapSetID:878953

[Difficulty]
HPDrainRate:7
CircleSize:7
OverallDifficulty:7
ApproachRate:5
SliderMultiplier:1.4
SliderTickRate:1

[Events]
//Background and Video events
0,0,"bgaaa.png",0,0
//Break Periods
//Storyboard Layer 0 (Background)
//Storyboard Layer 1 (Fail)
//Storyboard Layer 2 (Pass)
//Storyboard Layer 3 (Foreground)
//Storyboard Sound Samples

[TimingPoints]
314,576.923076923077,4,2,1,15,1,0

[HitObjects]
36,192,314,5,0,0:0:0:0:
182,192,314,1,0,0:0:0:0:
475,192,314,128,0,4929:0:0:0:0:
109,192,890,1,0,0:0:0:0:
256,192,890,1,0,0:0:0:0:
402,192,1179,1,0,0:0:0:0:
182,192,1467,1,0,0:0:0:0:
329,192,1467,1,0,0:0:0:0:
402,192,1756,1,0,0:0:0:0:
36,192,2044,1,0,0:0:0:0:
182,192,2044,1,0,0:0:0:0:
329,192,2044,1,0,0:0:0:0:
256,192,2333,1,0,0:0:0:0:
402,192,2333,1,0,0:0:0:0:
109,192,2333,1,0,0:0:0:0:
329,192,2910,1,0,0:0:0:0:
256,192,3198,1,0,0:0:0:0:
182,192,3487,1,0,0:0:0:0:
402,192,3775,1,0,0:0:0:0:
36,192,3775,1,0,0:0:0:0:
329,192,3919,1,0,0:0:0:0:
109,192,4064,1,0,0:0:0:0:
256,192,4064,1,0,0:0:0:0:
329,192,4352,128,0,4640:0:0:0:0:
182,192,4352,1,0,0:0:0:0:
36,192,4640,1,0,0:0:0:0:
182,192,4640,128,0,6371:0:0:0:0:
36,192,4929,128,0,6948:0:0:0:0:
256,192,4929,1,0,0:0:0:0:
402,192,4929,1,0,0:0:0:0:
329,192,5506,1,0,0:0:0:0:
475,192,5794,1,0,0:0:0:0:
256,192,6083,1,0,0:0:0:0:
402,192,6371,1,0,0:0:0:0:
475,192,6660,1,0,0:0:0:0:
182,192,6660,1,0,0:0:0:0:
329,192,6660,128,0,6948:0:0:0:0:
109,192,6948,128,0,9256:0:0:0:0:
402,192,6948,128,0,9256:0:0:0:0:
256,192,6948,1,0,0:0:0:0:
182,192,7525,1,0,0:0:0:0:
256,192,7814,1,0,0:0:0:0:
36,192,7814,1,0,0:0:0:0:
329,192,8102,1,0,0:0:0:0:
182,192,8102,1,0,0:0:0:0:
475,192,8390,1,0,0:0:0:0:
36,192,8390,1,0,0:0:0:0:
256,192,8390,1,0,0:0:0:0:
329,192,8679,1,0,0:0:0:0:
182,192,8679,1,0,0:0:0:0:
475,192,8679,1,0,0:0:0:0:
182,192,8823,1,0,0:0:0:0:
329,192,8823,1,0,0:0:0:0:
36,192,8823,1,0,0:0:0:0:
256,192,8967,1,0,0:0:0:0:
475,192,8967,1,0,0:0:0:0:
36,192,8967,1,0,0:0:0:0:
329,192,9112,1,0,0:0:0:0:
182,192,9112,1,0,0:0:0:0:
475,192,9256,1,0,0:0:0:0:
36,192,9256,1,0,0:0:0:0:
256,192,9256,1,0,0:0:0:0:
36,192,9544,1,0,0:0:0:0:
256,192,9544,128,0,10121:0:0:0:0:
475,192,9544,1,0,0:0:0:0:
182,192,9544,1,0,0:0:0:0:
329,192,9544,1,0,0:0:0:0:
329,192,9833,1,0,0:0:0:0:
402,192,10121,1,0,0:0:0:0:
182,192,10121,1,0,0:0:0:0:
36,192,10121,1,0,0:0:0:0:
36,192,10410,128,0,10698:0:0:0:0:
256,192,10410,1,0,0:0:0:0:
402,192,10554,1,0,0:0:0:0:
256,192,10698,1,0,0:0:0:0:
475,192,10698,1,0,0:0:0:0:
182,192,10698,128,0,11275:0:0:0:0:
109,192,10987,1,0,0:0:0:0:
475,192,10987,1,0,0:0:0:0:
402,192,11275,1,0,0:0:0:0:
36,192,11275,1,0,0:0:0:0:
256,192,11275,1,0,0:0:0:0:
475,192,11564,128,0,11852:0:0:0:0:
182,192,11564,1,0,0:0:0:0:
36,192,11708,1,0,0:0:0:0:
329,192,11852,128,0,12140:0:0:0:0:
109,192,11852,1,0,0:0:0:0:
109,192,12140,128,0,12429:0:0:0:0:
256,192,12140,1,0,0:0:0:0:
256,192,12429,128,0,12717:0:0:0:0:
36,192,12429,1,0,0:0:0:0:
402,192,12429,1,0,0:0:0:0:
475,192,12717,128,0,13294:0:0:0:0:
329,192,12717,1,0,0:0:0:0:
182,192,12862,1,0,0:0:0:0:
36,192,13006,1,0,0:0:0:0:
256,192,13006,1,0,0:0:0:0:
182,192,13150,1,0,0:0:0:0:
109,192,13294,1,0,0:0:0:0:
329,192,13439,1,0,0:0:0:0:
36,192,13583,1,0,0:0:0:0:
475,192,13583,128,0,13871:0:0:0:0:
182,192,13583,1,0,0:0:0:0:
36,192,13871,1,0,0:0:0:0:
402,192,13871,128,0,14160:0:0:0:0:
256,192,13871,1,0,0:0:0:0:
36,192,14160,1,0,0:0:0:0:
475,192,14160,1,0,0:0:0:0:
329,192,14160,1,0,0:0:0:0:
182,192,14160,128,0,14737:0:0:0:0:
402,192,14448,1,0,0:0:0:0:
329,192,14737,128,0,15314:0:0:0:0:
475,192,14737,1,0,0:0:0:0:
36,192,14737,1,0,0:0:0:0:
109,192,15025,1,0,0:0:0:0:
36,192,15314,128,0,15602:0:0:0:0:
475,192,15314,1,0,0:0:0:0:
182,192,15314,1,0,0:0:0:0:
402,192,15602,1,0,0:0:0:0:
256,192,15602,128,0,15890:0:0:0:0:
475,192,15890,1,0,0:0:0:0:
36,192,15890,1,0,0:0:0:0:
182,192,15890,1,0,0:0:0:0:
36,192,16179,128,0,16756:0:0:0:0:
402,192,16179,128,0,16467:0:0:0:0:
256,192,16179,1,0,0:0:0:0:
329,192,16467,1,0,0:0:0:0:
109,192,16467,1,0,0:0:0:0:
182,192,16756,128,0,17044:0:0:0:0:
109,192,16756,1,0,0:0:0:0:
402,192,16756,1,0,0:0:0:0:
329,192,17044,128,0,17333:0:0:0:0:
475,192,17044,1,0,0:0:0:0:
36,192,17044,1,0,0:0:0:0:
475,192,17333,128,0,18198:0:0:0:0:
36,192,17333,128,0,18198:0:0:0:0:
182,192,17333,1,0,0:0:0:0:
329,192,17477,1,0,0:0:0:0:
109,192,17621,1,0,0:0:0:0:
182,192,17621,1,0,0:0:0:0:
256,192,17765,1,0,0:0:0:0:
329,192,17910,1,0,0:0:0:0:
402,192,17910,1,0,0:0:0:0:
109,192,18054,1,0,0:0:0:0:
182,192,18054,1,0,0:0:0:0:
329,192,18198,1,0,0:0:0:0:
256,192,18342,1,0,0:0:0:0:
182,192,18342,1,0,0:0:0:0:
475,192,18342,1,0,0:0:0:0:
109,192,18487,1,0,0:0:0:0:
329,192,18487,1,0,0:0:0:0:
36,192,18487,1,0,0:0:0:0:
182,192,18631,1,0,0:0:0:0:
402,192,18631,1,0,0:0:0:0:
36,192,18775,1,0,0:0:0:0:
475,192,18775,1,0,0:0:0:0:
329,192,18775,1,0,0:0:0:0:
256,192,18775,128,0,19352:0:0:0:0:
182,192,19064,1,0,0:0:0:0:
402,192,19064,1,0,0:0:0:0:
475,192,19352,1,0,0:0:0:0:
36,192,19352,1,0,0:0:0:0:
329,192,19352,1,0,0:0:0:0:
182,192,19640,128,0,19785:0:0:0:0:
402,192,19640,1,0,0:0:0:0:
256,192,19785,128,0,19929:0:0:0:0:
329,192,19929,128,0,20506:0:0:0:0:
182,192,19929,128,0,20506:0:0:0:0:
475,192,19929,1,0,0:0:0:0:
36,192,19929,1,0,0:0:0:0:
109,192,20217,1,0,0:0:0:0:
402,192,20217,1,0,0:0:0:0:
256,192,20506,1,0,0:0:0:0:
36,192,20506,1,0,0:0:0:0:
475,192,20506,1,0,0:0:0:0:
109,192,20794,128,0,20939:0:0:0:0:
402,192,20794,1,0,0:0:0:0:
256,192,20939,128,0,21083:0:0:0:0:
109,192,21083,128,0,21371:0:0:0:0:
402,192,21083,128,0,21371:0:0:0:0:
36,192,21371,128,0,21660:0:0:0:0:
256,192,21371,1,0,0:0:0:0:
475,192,21371,128,0,21660:0:0:0:0:
329,192,21660,128,0,21948:0:0:0:0:
182,192,21660,128,0,21948:0:0:0:0:
256,192,21660,1,0,0:0:0:0:
402,192,21948,128,0,22237:0:0:0:0:
109,192,21948,128,0,22237:0:0:0:0:
256,192,22092,1,0,0:0:0:0:
329,192,22237,1,0,0:0:0:0:
182,192,22237,1,0,0:0:0:0:
475,192,22381,1,0,0:0:0:0:
36,192,22381,1,0,0:0:0:0:
256,192,22525,128,0,22814:0:0:0:0:
402,192,22525,1,0,0:0:0:0:
109,192,22525,1,0,0:0:0:0:
329,192,22814,128,0,23102:0:0:0:0:
182,192,22814,128,0,23102:0:0:0:0:
475,192,22814,1,0,0:0:0:0:
36,192,23102,128,0,23390:0:0:0:0:
109,192,23102,1,0,0:0:0:0:
475,192,23102,128,0,23679:0:0:0:0:
402,192,23390,1,0,0:0:0:0:
182,192,23390,1,0,0:0:0:0:
329,192,23390,1,0,0:0:0:0:
109,192,23679,128,0,23967:0:0:0:0:
256,192,23679,1,0,0:0:0:0:
182,192,23967,128,0,24256:0:0:0:0:
36,192,23967,1,0,0:0:0:0:
329,192,23967,1,0,0:0:0:0:
256,192,24256,128,0,24544:0:0:0:0:
402,192,24256,1,0,0:0:0:0:
475,192,24256,128,0,24544:0:0:0:0:
109,192,24256,1,0,0:0:0:0:
329,192,24544,1,0,0:0:0:0:
109,192,24544,1,0,0:0:0:0:
402,192,24833,128,0,25121:0:0:0:0:
475,192,24833,1,0,0:0:0:0:
182,192,24833,128,0,25121:0:0:0:0:
36,192,24833,1,0,0:0:0:0:
329,192,25121,1,0,0:0:0:0:
256,192,25121,1,0,0:0:0:0:
109,192,25121,1,0,0:0:0:0:
475,192,25410,128,0,26275:0:0:0:0:
36,192,25410,128,0,26275:0:0:0:0:
402,192,25410,1,0,0:0:0:0:
329,192,25410,1,0,0:0:0:0:
182,192,25410,1,0,0:0:0:0:
256,192,25698,1,0,0:0:0:0:
109,192,25698,1,0,0:0:0:0:
182,192,25987,1,0,0:0:0:0:
329,192,25987,1,0,0:0:0:0:
256,192,26275,1,0,0:0:0:0:
402,192,26275,1,0,0:0:0:0:
109,192,26275,1,0,0:0:0:0:
329,192,26564,1,0,0:0:0:0:
182,192,26564,1,0,0:0:0:0:
256,192,26708,1,0,0:0:0:0:
402,192,26708,1,0,0:0:0:0:
475,192,26852,1,0,0:0:0:0:
109,192,26852,1,0,0:0:0:0:
36,192,26852,1,0,0:0:0:0:
329,192,26852,128,0,27140:0:0:0:0:
109,192,27140,1,0,0:0:0:0:
182,192,27140,1,0,0:0:0:0:
402,192,27140,128,0,27429:0:0:0:0:
182,192,27429,1,0,0:0:0:0:
475,192,27429,128,0,27717:0:0:0:0:
256,192,27429,1,0,0:0:0:0:
109,192,27573,1,0,0:0:0:0:
36,192,27573,1,0,0:0:0:0:
402,192,27717,1,0,0:0:0:0:
329,192,27717,1,0,0:0:0:0:
256,192,27717,128,0,28006:0:0:0:0:
329,192,28006,1,0,0:0:0:0:
182,192,28006,1,0,0:0:0:0:
36,192,28006,1,0,0:0:0:0:
475,192,28006,1,0,0:0:0:0:
256,192,28294,1,0,0:0:0:0:
109,192,28294,1,0,0:0:0:0:
329,192,28439,1,0,0:0:0:0:
402,192,28439,1,0,0:0:0:0:
475,192,28583,1,0,0:0:0:0:
182,192,28583,1,0,0:0:0:0:
36,192,28583,1,0,0:0:0:0:
402,192,28871,1,0,0:0:0:0:
256,192,28871,1,0,0:0:0:0:
182,192,29015,1,0,0:0:0:0:
109,192,29015,1,0,0:0:0:0:
329,192,29160,1,0,0:0:0:0:
475,192,29160,1,0,0:0:0:0:
36,192,29160,128,0,29448:0:0:0:0:
182,192,29448,128,0,29737:0:0:0:0:
402,192,29448,1,0,0:0:0:0:
329,192,29737,128,0,30025:0:0:0:0:
475,192,29737,1,0,0:0:0:0:
36,192,29737,1,0,0:0:0:0:
475,192,30025,128,0,30746:0:0:0:0:
36,192,30025,1,0,0:0:0:0:
109,192,30025,1,0,0:0:0:0:
402,192,30314,1,0,0:0:0:0:
109,192,30314,1,0,0:0:0:0:
256,192,30314,128,0,30602:0:0:0:0:
36,192,30602,128,0,30890:0:0:0:0:
182,192,30602,1,0,0:0:0:0:
329,192,30602,1,0,0:0:0:0:
402,192,30746,1,0,0:0:0:0:
256,192,30746,1,0,0:0:0:0:
109,192,30890,128,0,31467:0:0:0:0:
475,192,30890,1,0,0:0:0:0:
329,192,30890,1,0,0:0:0:0:
329,192,31179,128,0,31467:0:0:0:0:
402,192,31179,1,0,0:0:0:0:
36,192,31179,1,0,0:0:0:0:
182,192,31323,1,0,0:0:0:0:
256,192,31323,1,0,0:0:0:0:
36,192,31467,1,0,0:0:0:0:
475,192,31467,128,0,31756:0:0:0:0:
402,192,31467,1,0,0:0:0:0:
256,192,31612,1,0,0:0:0:0:
36,192,31756,1,0,0:0:0:0:
182,192,31756,128,0,32044:0:0:0:0:
402,192,31756,1,0,0:0:0:0:
109,192,32044,1,0,0:0:0:0:
475,192,32044,1,0,0:0:0:0:
329,192,32044,128,0,32333:0:0:0:0:
256,192,32333,1,0,0:0:0:0:
182,192,32333,1,0,0:0:0:0:
475,192,32333,128,0,32621:0:0:0:0:
402,192,32621,1,0,0:0:0:0:
182,192,32621,1,0,0:0:0:0:
36,192,32621,1,0,0:0:0:0:
109,192,32621,1,0,0:0:0:0:
109,192,32910,128,0,33342:0:0:0:0:
329,192,32910,1,0,0:0:0:0:
475,192,32910,1,0,0:0:0:0:
402,192,33054,1,0,0:0:0:0:
256,192,33054,1,0,0:0:0:0:
36,192,33198,1,0,0:0:0:0:
329,192,33198,1,0,0:0:0:0:
182,192,33198,1,0,0:0:0:0:
256,192,33487,128,0,34064:0:0:0:0:
402,192,33487,1,0,0:0:0:0:
475,192,33631,1,0,0:0:0:0:
329,192,33631,1,0,0:0:0:0:
36,192,33775,1,0,0:0:0:0:
402,192,33775,1,0,0:0:0:0:
182,192,33775,1,0,0:0:0:0:
402,192,34064,128,0,34352:0:0:0:0:
109,192,34064,1,0,0:0:0:0:
475,192,34352,1,0,0:0:0:0:
36,192,34352,128,0,34640:0:0:0:0:
256,192,34352,1,0,0:0:0:0:
329,192,34640,128,0,34929:0:0:0:0:
182,192,34640,1,0,0:0:0:0:
475,192,34929,1,0,0:0:0:0:
36,192,34929,128,0,35217:0:0:0:0:
109,192,34929,1,0,0:0:0:0:
256,192,34929,1,0,0:0:0:0:
402,192,35217,128,0,35506:0:0:0:0:
182,192,35217,1,0,0:0:0:0:
36,192,35506,1,0,0:0:0:0:
475,192,35506,1,0,0:0:0:0:
256,192,35506,128,0,35794:0:0:0:0:
182,192,35794,1,0,0:0:0:0:
329,192,35794,1,0,0:0:0:0:
402,192,35794,1,0,0:0:0:0:
109,192,35939,1,0,0:0:0:0:
182,192,36083,1,0,0:0:0:0:
475,192,36083,128,0,36371:0:0:0:0:
329,192,36083,1,0,0:0:0:0:
109,192,36371,1,0,0:0:0:0:
402,192,36371,128,0,36660:0:0:0:0:
256,192,36371,1,0,0:0:0:0:
182,192,36371,1,0,0:0:0:0:
329,192,36660,128,0,36948:0:0:0:0:
475,192,36660,1,0,0:0:0:0:
182,192,36660,1,0,0:0:0:0:
402,192,36804,1,0,0:0:0:0:
109,192,36804,1,0,0:0:0:0:
256,192,36948,128,0,37814:0:0:0:0:
475,192,36948,1,0,0:0:0:0:
36,192,36948,1,0,0:0:0:0:
182,192,36948,1,0,0:0:0:0:
475,192,37237,1,0,0:0:0:0:
329,192,37237,1,0,0:0:0:0:
182,192,37237,1,0,0:0:0:0:
36,192,37237,1,0,0:0:0:0:
402,192,37525,1,0,0:0:0:0:
109,192,37525,1,0,0:0:0:0:
36,192,37669,1,0,0:0:0:0:
182,192,37669,1,0,0:0:0:0:
329,192,37814,128,0,37958:0:0:0:0:
475,192,37814,128,0,37958:0:0:0:0:
402,192,37814,1,0,0:0:0:0:
109,192,37814,1,0,0:0:0:0:
256,192,38102,128,0,38246:0:0:0:0:
402,192,38102,128,0,38246:0:0:0:0:
109,192,38246,1,0,0:0:0:0:
36,192,38246,1,0,0:0:0:0:
329,192,38390,1,0,0:0:0:0:
475,192,38390,1,0,0:0:0:0:
182,192,38390,128,0,38679:0:0:0:0:
256,192,38679,128,0,38967:0:0:0:0:
402,192,38679,1,0,0:0:0:0:
329,192,38967,128,0,39256:0:0:0:0:
475,192,38967,1,0,0:0:0:0:
36,192,38967,1,0,0:0:0:0:
109,192,39256,128,0,40121:0:0:0:0:
402,192,39256,128,0,40121:0:0:0:0:
256,192,39256,1,0,0:0:0:0:
329,192,39544,1,0,0:0:0:0:
182,192,39544,1,0,0:0:0:0:
475,192,39544,1,0,0:0:0:0:
36,192,39544,1,0,0:0:0:0:
256,192,39833,128,0,39977:0:0:0:0:
329,192,39833,128,0,39977:0:0:0:0:
182,192,40121,128,0,40265:0:0:0:0:
256,192,40121,128,0,40265:0:0:0:0:
36,192,40121,1,0,0:0:0:0:
475,192,40410,128,0,40554:0:0:0:0:
329,192,40410,128,0,40554:0:0:0:0:
109,192,40410,1,0,0:0:0:0:
182,192,40698,1,0,0:0:0:0:
36,192,40698,128,0,40987:0:0:0:0:
402,192,40698,1,0,0:0:0:0:
329,192,40987,1,0,0:0:0:0:
109,192,40987,1,0,0:0:0:0:
256,192,40987,128,0,41275:0:0:0:0:
475,192,41275,128,0,41564:0:0:0:0:
402,192,41275,1,0,0:0:0:0:
182,192,41275,1,0,0:0:0:0:
109,192,41564,128,0,41852:0:0:0:0:
256,192,41564,128,0,41852:0:0:0:0:
329,192,41564,1,0,0:0:0:0:
475,192,41852,1,0,0:0:0:0:
402,192,41852,1,0,0:0:0:0:
36,192,41852,1,0,0:0:0:0:
182,192,41852,1,0,0:0:0:0:
329,192,42140,128,0,42429:0:0:0:0:
182,192,42140,128,0,42429:0:0:0:0:
256,192,42285,1,0,0:0:0:0:
402,192,42285,1,0,0:0:0:0:
109,192,42429,1,0,0:0:0:0:
475,192,42429,1,0,0:0:0:0:
36,192,42429,1,0,0:0:0:0:
402,192,42717,128,0,43150:0:0:0:0:
109,192,42717,128,0,43150:0:0:0:0:
256,192,42717,1,0,0:0:0:0:
329,192,42862,1,0,0:0:0:0:
182,192,42862,1,0,0:0:0:0:
36,192,42862,1,0,0:0:0:0:
256,192,43006,1,0,0:0:0:0:
475,192,43294,128,0,43583:0:0:0:0:
36,192,43294,128,0,43583:0:0:0:0:
329,192,43294,1,0,0:0:0:0:
182,192,43294,1,0,0:0:0:0:
402,192,43583,128,0,43871:0:0:0:0:
109,192,43583,128,0,43871:0:0:0:0:
256,192,43583,1,0,0:0:0:0:
256,192,43871,1,0,0:0:0:0:
475,192,43871,1,0,0:0:0:0:
36,192,43871,1,0,0:0:0:0:
329,192,43871,128,0,45890:0:0:0:0:
182,192,43871,128,0,45890:0:0:0:0:
36,192,44160,1,0,0:0:0:0:
475,192,44160,1,0,0:0:0:0:
402,192,44448,1,0,0:0:0:0:
109,192,44448,1,0,0:0:0:0:
256,192,44448,1,0,0:0:0:0:
475,192,44737,1,0,0:0:0:0:
402,192,44737,1,0,0:0:0:0:
36,192,44737,1,0,0:0:0:0:
109,192,44737,1,0,0:0:0:0:
475,192,45025,1,0,0:0:0:0:
36,192,45025,1,0,0:0:0:0:
256,192,45169,1,0,0:0:0:0:
402,192,45314,1,0,0:0:0:0:
109,192,45314,1,0,0:0:0:0:
475,192,45602,1,0,0:0:0:0:
36,192,45602,1,0,0:0:0:0:
256,192,45602,1,0,0:0:0:0:
109,192,45890,1,0,0:0:0:0:
402,192,45890,1,0,0:0:0:0:
329,192,46035,1,0,0:0:0:0:
182,192,46035,1,0,0:0:0:0:
256,192,46179,1,0,0:0:0:0:
329,192,46323,1,0,0:0:0:0:
182,192,46323,1,0,0:0:0:0:
256,192,46467,128,0,47621:0:0:0:0:
402,192,46467,1,0,0:0:0:0:
109,192,46467,1,0,0:0:0:0:
36,192,46467,1,0,0:0:0:0:
475,192,46467,1,0,0:0:0:0:
402,192,46756,1,0,0:0:0:0:
329,192,46756,1,0,0:0:0:0:
182,192,46756,1,0,0:0:0:0:
109,192,46756,1,0,0:0:0:0:
475,192,47044,1,0,0:0:0:0:
182,192,47044,1,0,0:0:0:0:
109,192,47044,1,0,0:0:0:0:
36,192,47044,1,0,0:0:0:0:
329,192,47189,1,0,0:0:0:0:
402,192,47189,1,0,0:0:0:0:
475,192,47333,1,0,0:0:0:0:
182,192,47333,1,0,0:0:0:0:
109,192,47477,1,0,0:0:0:0:
402,192,47477,1,0,0:0:0:0:
36,192,47621,5,0,0:0:0:0:
329,192,47621,1,0,0:0:0:0:
402,192,47693,1,0,0:0:0:0:
109,192,47717,1,0,0:0:0:0:
475,192,47765,1,0,0:0:0:0:
182,192,47814,1,0,0:0:0:0:
256,192,47910,1,0,0:0:0:0:
36,192,47910,1,0,0:0:0:0:
329,192,48006,1,0,0:0:0:0:
109,192,48054,1,0,0:0:0:0:
402,192,48102,1,0,0:0:0:0:
475,192,48198,1,0,0:0:0:0:
36,192,48198,1,0,0:0:0:0:
256,192,48198,1,0,0:0:0:0:
402,192,48294,1,0,0:0:0:0:
109,192,48342,1,0,0:0:0:0:
329,192,48390,1,0,0:0:0:0:
256,192,48487,1,0,0:0:0:0:
475,192,48487,1,0,0:0:0:0:
182,192,48583,1,0,0:0:0:0:
475,192,48631,1,0,0:0:0:0:
109,192,48679,1,0,0:0:0:0:
475,192,48775,1,0,0:0:0:0:
402,192,48775,1,0,0:0:0:0:
36,192,48775,128,0,49929:0:0:0:0:
329,192,48775,128,0,49208:0:0:0:0:
256,192,48919,1,0,0:0:0:0:
402,192,49064,1,0,0:0:0:0:
182,192,49064,1,0,0:0:0:0:
475,192,49208,1,0,0:0:0:0:
256,192,49352,128,0,49640:0:0:0:0:
109,192,49352,1,0,0:0:0:0:
329,192,49352,1,0,0:0:0:0:
182,192,49496,1,0,0:0:0:0:
475,192,49640,128,0,49929:0:0:0:0:
402,192,49640,1,0,0:0:0:0:
256,192,49785,1,0,0:0:0:0:
329,192,49929,128,0,50506:0:0:0:0:
109,192,49929,1,0,0:0:0:0:
182,192,49929,1,0,0:0:0:0:
256,192,50073,1,0,0:0:0:0:
36,192,50217,128,0,50506:0:0:0:0:
402,192,50217,1,0,0:0:0:0:
109,192,50362,1,0,0:0:0:0:
182,192,50506,128,0,50794:0:0:0:0:
475,192,50506,1,0,0:0:0:0:
256,192,50650,1,0,0:0:0:0:
329,192,50794,128,0,51083:0:0:0:0:
36,192,50794,1,0,0:0:0:0:
402,192,50939,1,0,0:0:0:0:
109,192,50939,1,0,0:0:0:0:
182,192,51083,128,0,51515:0:0:0:0:
36,192,51083,1,0,0:0:0:0:
475,192,51083,128,0,51515:0:0:0:0:
256,192,51227,1,0,0:0:0:0:
329,192,51371,1,0,0:0:0:0:
109,192,51371,1,0,0:0:0:0:
402,192,51515,128,0,51948:0:0:0:0:
36,192,51515,1,0,0:0:0:0:
182,192,51660,1,0,0:0:0:0:
329,192,51660,1,0,0:0:0:0:
475,192,51660,1,0,0:0:0:0:
109,192,51804,1,0,0:0:0:0:
36,192,51948,128,0,52814:0:0:0:0:
475,192,51948,128,0,52814:0:0:0:0:
256,192,51948,1,0,0:0:0:0:
329,192,52092,1,0,0:0:0:0:
402,192,52237,1,0,0:0:0:0:
182,192,52237,1,0,0:0:0:0:
256,192,52381,1,0,0:0:0:0:
329,192,52525,1,0,0:0:0:0:
256,192,52669,1,0,0:0:0:0:
402,192,52814,1,0,0:0:0:0:
109,192,52814,1,0,0:0:0:0:
182,192,52814,1,0,0:0:0:0:
329,192,52958,1,0,0:0:0:0:
36,192,53102,128,0,53390:0:0:0:0:
182,192,53102,1,0,0:0:0:0:
475,192,53102,1,0,0:0:0:0:
109,192,53246,1,0,0:0:0:0:
402,192,53246,1,0,0:0:0:0:
329,192,53390,1,0,0:0:0:0:
475,192,53390,128,0,53679:0:0:0:0:
182,192,53390,128,0,53535:0:0:0:0:
402,192,53535,1,0,0:0:0:0:
256,192,53679,1,0,0:0:0:0:
109,192,53679,128,0,53823:0:0:0:0:
36,192,53679,1,0,0:0:0:0:
329,192,53823,128,0,54112:0:0:0:0:
182,192,53967,1,0,0:0:0:0:
36,192,53967,128,0,54112:0:0:0:0:
475,192,53967,1,0,0:0:0:0:
256,192,54112,1,0,0:0:0:0:
182,192,54256,128,0,54689:0:0:0:0:
329,192,54256,1,0,0:0:0:0:
475,192,54256,128,0,54400:0:0:0:0:
109,192,54400,1,0,0:0:0:0:
256,192,54544,1,0,0:0:0:0:
402,192,54544,128,0,54689:0:0:0:0:
36,192,54544,1,0,0:0:0:0:
475,192,54689,1,0,0:0:0:0:
182,192,54833,1,0,0:0:0:0:
36,192,54833,128,0,55265:0:0:0:0:
329,192,54833,128,0,54977:0:0:0:0:
475,192,54977,1,0,0:0:0:0:
109,192,55121,1,0,0:0:0:0:
256,192,55121,128,0,55265:0:0:0:0:
182,192,55121,1,0,0:0:0:0:
402,192,55121,1,0,0:0:0:0:
475,192,55265,1,0,0:0:0:0:
329,192,55410,128,0,55987:0:0:0:0:
36,192,55410,1,0,0:0:0:0:
182,192,55410,1,0,0:0:0:0:
402,192,55554,1,0,0:0:0:0:
109,192,55698,1,0,0:0:0:0:
475,192,55698,128,0,55842:0:0:0:0:
256,192,55698,1,0,0:0:0:0:
182,192,55842,128,0,55987:0:0:0:0:
36,192,55842,1,0,0:0:0:0:
36,192,55987,128,0,56131:0:0:0:0:
402,192,55987,1,0,0:0:0:0:
329,192,56131,1,0,0:0:0:0:
182,192,56131,1,0,0:0:0:0:
256,192,56275,128,0,56419:0:0:0:0:
475,192,56275,1,0,0:0:0:0:
109,192,56275,1,0,0:0:0:0:
109,192,56419,128,0,56564:0:0:0:0:
402,192,56419,1,0,0:0:0:0:
329,192,56564,128,0,56852:0:0:0:0:
36,192,56564,1,0,0:0:0:0:
256,192,56564,1,0,0:0:0:0:
402,192,56708,1,0,0:0:0:0:
182,192,56708,128,0,56852:0:0:0:0:
36,192,56852,128,0,56996:0:0:0:0:
475,192,56852,128,0,57140:0:0:0:0:
109,192,56852,1,0,0:0:0:0:
256,192,56852,1,0,0:0:0:0:
402,192,56996,1,0,0:0:0:0:
256,192,57140,128,0,57429:0:0:0:0:
109,192,57140,128,0,57285:0:0:0:0:
182,192,57140,1,0,0:0:0:0:
329,192,57140,1,0,0:0:0:0:
402,192,57285,1,0,0:0:0:0:
329,192,57429,128,0,57573:0:0:0:0:
36,192,57429,128,0,57717:0:0:0:0:
109,192,57429,1,0,0:0:0:0:
475,192,57429,1,0,0:0:0:0:
402,192,57573,128,0,57717:0:0:0:0:
182,192,57573,1,0,0:0:0:0:
475,192,57717,128,0,57862:0:0:0:0:
182,192,57717,128,0,58006:0:0:0:0:
256,192,57717,1,0,0:0:0:0:
329,192,57862,128,0,58006:0:0:0:0:
109,192,57862,1,0,0:0:0:0:
402,192,58006,128,0,58583:0:0:0:0:
475,192,58006,1,0,0:0:0:0:
256,192,58006,1,0,0:0:0:0:
36,192,58006,1,0,0:0:0:0:
329,192,58150,1,0,0:0:0:0:
256,192,58294,1,0,0:0:0:0:
182,192,58294,128,0,58439:0:0:0:0:
109,192,58294,1,0,0:0:0:0:
329,192,58439,1,0,0:0:0:0:
475,192,58583,1,0,0:0:0:0:
182,192,58583,1,0,0:0:0:0:
109,192,58583,128,0,58727:0:0:0:0:
36,192,58583,1,0,0:0:0:0:
256,192,58727,1,0,0:0:0:0:
329,192,58871,128,0,59160:0:0:0:0:
36,192,58871,128,0,59015:0:0:0:0:
182,192,58871,1,0,0:0:0:0:
475,192,58871,1,0,0:0:0:0:
256,192,59015,1,0,0:0:0:0:
36,192,59160,1,0,0:0:0:0:
182,192,59160,128,0,59448:0:0:0:0:
475,192,59160,128,0,59304:0:0:0:0:
402,192,59304,1,0,0:0:0:0:
475,192,59448,1,0,0:0:0:0:
109,192,59448,128,0,59737:0:0:0:0:
329,192,59448,128,0,59592:0:0:0:0:
36,192,59448,1,0,0:0:0:0:
256,192,59592,1,0,0:0:0:0:
402,192,59737,128,0,60025:0:0:0:0:
182,192,59737,128,0,59881:0:0:0:0:
329,192,59737,1,0,0:0:0:0:
36,192,59737,1,0,0:0:0:0:
256,192,59881,1,0,0:0:0:0:
256,192,60025,128,0,60314:0:0:0:0:
475,192,60025,1,0,0:0:0:0:
36,192,60025,1,0,0:0:0:0:
402,192,60169,1,0,0:0:0:0:
109,192,60169,1,0,0:0:0:0:
329,192,60314,128,0,60890:0:0:0:0:
475,192,60314,128,0,60890:0:0:0:0:
182,192,60314,1,0,0:0:0:0:
109,192,60458,1,0,0:0:0:0:
36,192,60602,1,0,0:0:0:0:
256,192,60602,128,0,60746:0:0:0:0:
109,192,60746,1,0,0:0:0:0:
36,192,60890,1,0,0:0:0:0:
182,192,60890,1,0,0:0:0:0:
402,192,60890,1,0,0:0:0:0:
329,192,61035,1,0,0:0:0:0:
36,192,61179,128,0,61612:0:0:0:0:
109,192,61179,1,0,0:0:0:0:
256,192,61179,1,0,0:0:0:0:
402,192,61179,128,0,61323:0:0:0:0:
475,192,61323,128,0,61467:0:0:0:0:
402,192,61467,128,0,61612:0:0:0:0:
182,192,61467,128,0,61612:0:0:0:0:
109,192,61467,1,0,0:0:0:0:
329,192,61612,128,0,61756:0:0:0:0:
36,192,61756,128,0,61900:0:0:0:0:
475,192,61756,128,0,62333:0:0:0:0:
182,192,61756,1,0,0:0:0:0:
256,192,61756,128,0,61900:0:0:0:0:
109,192,61900,128,0,62044:0:0:0:0:
182,192,62044,128,0,62189:0:0:0:0:
256,192,62044,1,0,0:0:0:0:
402,192,62044,128,0,62189:0:0:0:0:
109,192,62189,128,0,62333:0:0:0:0:
329,192,62333,128,0,62910:0:0:0:0:
402,192,62333,1,0,0:0:0:0:
36,192,62333,1,0,0:0:0:0:
475,192,62477,1,0,0:0:0:0:
182,192,62477,1,0,0:0:0:0:
475,192,62621,1,0,0:0:0:0:
402,192,62621,1,0,0:0:0:0:
36,192,62621,1,0,0:0:0:0:
109,192,62621,1,0,0:0:0:0:
256,192,62765,1,0,0:0:0:0:
182,192,62910,128,0,63342:0:0:0:0:
36,192,62910,1,0,0:0:0:0:
475,192,62910,128,0,63054:0:0:0:0:
402,192,63054,1,0,0:0:0:0:
36,192,63198,1,0,0:0:0:0:
475,192,63198,1,0,0:0:0:0:
329,192,63198,128,0,63342:0:0:0:0:
256,192,63342,1,0,0:0:0:0:
402,192,63487,128,0,64064:0:0:0:0:
475,192,63487,1,0,0:0:0:0:
36,192,63487,1,0,0:0:0:0:
182,192,63487,128,0,63631:0:0:0:0:
329,192,63631,1,0,0:0:0:0:
256,192,63775,1,0,0:0:0:0:
109,192,63775,1,0,0:0:0:0:
36,192,63775,128,0,63919:0:0:0:0:
329,192,63919,1,0,0:0:0:0:
475,192,64064,1,0,0:0:0:0:
109,192,64064,1,0,0:0:0:0:
256,192,64064,128,0,64352:0:0:0:0:
182,192,64208,1,0,0:0:0:0:
329,192,64208,1,0,0:0:0:0:
109,192,64352,1,0,0:0:0:0:
36,192,64352,1,0,0:0:0:0:
402,192,64352,1,0,0:0:0:0:
329,192,64496,1,0,0:0:0:0:
182,192,64496,1,0,0:0:0:0:
475,192,64640,1,0,0:0:0:0:
402,192,64640,1,0,0:0:0:0:
256,192,64640,128,0,64929:0:0:0:0:
36,192,64640,1,0,0:0:0:0:
329,192,64785,1,0,0:0:0:0:
182,192,64785,1,0,0:0:0:0:
475,192,64929,1,0,0:0:0:0:
329,192,64929,1,0,0:0:0:0:
109,192,64929,128,0,65073:0:0:0:0:
36,192,64929,128,0,65073:0:0:0:0:
402,192,65073,1,0,0:0:0:0:
475,192,65217,1,0,0:0:0:0:
256,192,65217,1,0,0:0:0:0:
182,192,65217,128,0,65362:0:0:0:0:
109,192,65217,128,0,65362:0:0:0:0:
329,192,65362,1,0,0:0:0:0:
182,192,65506,1,0,0:0:0:0:
36,192,65506,1,0,0:0:0:0:
402,192,65506,128,0,65650:0:0:0:0:
475,192,65506,128,0,65650:0:0:0:0:
256,192,65650,1,0,0:0:0:0:
109,192,65794,1,0,0:0:0:0:
36,192,65794,1,0,0:0:0:0:
475,192,65794,1,0,0:0:0:0:
329,192,65794,128,0,65939:0:0:0:0:
402,192,65794,128,0,65939:0:0:0:0:
256,192,65939,1,0,0:0:0:0:
182,192,66083,1,0,0:0:0:0:
475,192,66083,1,0,0:0:0:0:
402,192,66083,1,0,0:0:0:0:
36,192,66083,1,0,0:0:0:0:
329,192,66179,1,0,0:0:0:0:
256,192,66179,1,0,0:0:0:0:
182,192,66275,1,0,0:0:0:0:
109,192,66275,1,0,0:0:0:0:
475,192,66371,1,0,0:0:0:0:
36,192,66371,1,0,0:0:0:0:
329,192,66371,1,0,0:0:0:0:
402,192,66515,1,0,0:0:0:0:
256,192,66515,1,0,0:0:0:0:
36,192,66660,1,0,0:0:0:0:
329,192,66660,1,0,0:0:0:0:
182,192,66660,1,0,0:0:0:0:
109,192,66660,1,0,0:0:0:0:
402,192,66804,1,0,0:0:0:0:
475,192,66804,1,0,0:0:0:0:
256,192,66804,1,0,0:0:0:0:
109,192,66948,1,0,0:0:0:0:
182,192,66948,1,0,0:0:0:0:
329,192,67092,1,0,0:0:0:0:
402,192,67092,1,0,0:0:0:0:
36,192,67237,128,0,68390:0:0:0:0:
109,192,67237,1,0,0:0:0:0:
475,192,67237,128,0,67381:0:0:0:0:
256,192,67237,1,0,0:0:0:0:
402,192,67381,128,0,67525:0:0:0:0:
329,192,67525,128,0,67669:0:0:0:0:
182,192,67525,1,0,0:0:0:0:
256,192,67525,1,0,0:0:0:0:
402,192,67669,128,0,67814:0:0:0:0:
109,192,67814,1,0,0:0:0:0:
182,192,67814,128,0,67958:0:0:0:0:
475,192,67814,1,0,0:0:0:0:
256,192,67814,1,0,0:0:0:0:
329,192,67958,128,0,68102:0:0:0:0:
109,192,68102,128,0,68246:0:0:0:0:
402,192,68102,1,0,0:0:0:0:
182,192,68102,1,0,0:0:0:0:
256,192,68246,128,0,68390:0:0:0:0:
402,192,68390,128,0,68967:0:0:0:0:
475,192,68390,1,0,0:0:0:0:
109,192,68390,1,0,0:0:0:0:
182,192,68390,128,0,68535:0:0:0:0:
329,192,68535,128,0,68679:0:0:0:0:
475,192,68679,128,0,68823:0:0:0:0:
36,192,68679,128,0,68823:0:0:0:0:
256,192,68679,1,0,0:0:0:0:
182,192,68823,128,0,68967:0:0:0:0:
256,192,68967,128,0,69544:0:0:0:0:
475,192,68967,128,0,69112:0:0:0:0:
36,192,68967,1,0,0:0:0:0:
109,192,68967,1,0,0:0:0:0:
329,192,69112,128,0,69256:0:0:0:0:
109,192,69256,1,0,0:0:0:0:
182,192,69256,128,0,69400:0:0:0:0:
402,192,69256,1,0,0:0:0:0:
36,192,69400,128,0,69544:0:0:0:0:
329,192,69400,1,0,0:0:0:0:
109,192,69544,128,0,70410:0:0:0:0:
402,192,69544,128,0,69689:0:0:0:0:
475,192,69544,1,0,0:0:0:0:
329,192,69689,128,0,69833:0:0:0:0:
256,192,69833,128,0,69977:0:0:0:0:
182,192,69833,1,0,0:0:0:0:
36,192,69833,1,0,0:0:0:0:
329,192,69977,128,0,70121:0:0:0:0:
182,192,70121,128,0,70265:0:0:0:0:
475,192,70121,1,0,0:0:0:0:
36,192,70121,1,0,0:0:0:0:
402,192,70121,1,0,0:0:0:0:
256,192,70265,128,0,70410:0:0:0:0:
329,192,70410,128,0,70554:0:0:0:0:
475,192,70410,128,0,71275:0:0:0:0:
36,192,70410,1,0,0:0:0:0:
402,192,70410,1,0,0:0:0:0:
182,192,70554,128,0,70698:0:0:0:0:
36,192,70698,128,0,70842:0:0:0:0:
256,192,70698,1,0,0:0:0:0:
402,192,70698,1,0,0:0:0:0:
182,192,70842,128,0,70987:0:0:0:0:
402,192,70987,128,0,71131:0:0:0:0:
109,192,70987,1,0,0:0:0:0:
329,192,70987,1,0,0:0:0:0:
256,192,71131,128,0,71275:0:0:0:0:
109,192,71275,128,0,71419:0:0:0:0:
329,192,71275,1,0,0:0:0:0:
36,192,71275,1,0,0:0:0:0:
182,192,71275,1,0,0:0:0:0:
256,192,71419,128,0,71564:0:0:0:0:
475,192,71419,1,0,0:0:0:0:
402,192,71564,128,0,71708:0:0:0:0:
182,192,71564,1,0,0:0:0:0:
36,192,71564,1,0,0:0:0:0:
109,192,71708,1,0,0:0:0:0:
329,192,71708,1,0,0:0:0:0:
402,192,71852,1,0,0:0:0:0:
36,192,71852,1,0,0:0:0:0:
256,192,71852,128,0,72140:0:0:0:0:
475,192,71852,1,0,0:0:0:0:
182,192,71996,1,0,0:0:0:0:
329,192,71996,1,0,0:0:0:0:
36,192,72140,1,0,0:0:0:0:
475,192,72140,1,0,0:0:0:0:
109,192,72140,1,0,0:0:0:0:
329,192,72285,128,0,72573:0:0:0:0:
182,192,72285,128,0,72573:0:0:0:0:
256,192,72429,1,0,0:0:0:0:
402,192,72429,1,0,0:0:0:0:
109,192,72429,1,0,0:0:0:0:
36,192,72573,1,0,0:0:0:0:
475,192,72573,1,0,0:0:0:0:
475,192,72717,128,0,73006:0:0:0:0:
36,192,72717,128,0,73006:0:0:0:0:
329,192,72717,1,0,0:0:0:0:
182,192,72717,1,0,0:0:0:0:
109,192,72862,1,0,0:0:0:0:
402,192,72862,1,0,0:0:0:0:
329,192,73006,128,0,73150:0:0:0:0:
182,192,73006,128,0,73150:0:0:0:0:
402,192,73150,1,0,0:0:0:0:
109,192,73150,1,0,0:0:0:0:
402,192,73294,128,0,73583:0:0:0:0:
109,192,73294,128,0,73583:0:0:0:0:
36,192,73294,1,0,0:0:0:0:
475,192,73294,1,0,0:0:0:0:
329,192,73439,1,0,0:0:0:0:
182,192,73439,1,0,0:0:0:0:
256,192,73583,1,0,0:0:0:0:
475,192,73583,128,0,73727:0:0:0:0:
36,192,73583,128,0,73727:0:0:0:0:
329,192,73727,1,0,0:0:0:0:
182,192,73727,1,0,0:0:0:0:
182,192,73871,128,0,74737:0:0:0:0:
329,192,73871,128,0,74737:0:0:0:0:
36,192,73871,1,0,0:0:0:0:
475,192,73871,1,0,0:0:0:0:
109,192,74015,1,0,0:0:0:0:
402,192,74015,1,0,0:0:0:0:
36,192,74160,1,0,0:0:0:0:
475,192,74160,1,0,0:0:0:0:
256,192,74160,1,0,0:0:0:0:
109,192,74304,1,0,0:0:0:0:
256,192,74448,1,0,0:0:0:0:
36,192,74448,1,0,0:0:0:0:
402,192,74448,1,0,0:0:0:0:
109,192,74592,1,0,0:0:0:0:
475,192,74737,1,0,0:0:0:0:
36,192,74737,1,0,0:0:0:0:
256,192,74737,128,0,74881:0:0:0:0:
182,192,74881,128,0,75025:0:0:0:0:
329,192,74881,1,0,0:0:0:0:
109,192,75025,128,0,75169:0:0:0:0:
402,192,75025,1,0,0:0:0:0:
256,192,75025,1,0,0:0:0:0:
329,192,75169,128,0,75314:0:0:0:0:
256,192,75314,128,0,75458:0:0:0:0:
109,192,75314,1,0,0:0:0:0:
36,192,75314,1,0,0:0:0:0:
475,192,75314,1,0,0:0:0:0:
402,192,75314,1,0,0:0:0:0:
182,192,75458,128,0,75602:0:0:0:0:
329,192,75458,1,0,0:0:0:0:
402,192,75602,128,0,75746:0:0:0:0:
256,192,75602,1,0,0:0:0:0:
109,192,75602,1,0,0:0:0:0:
36,192,75602,1,0,0:0:0:0:
475,192,75602,1,0,0:0:0:0:
329,192,75746,128,0,75890:0:0:0:0:
182,192,75746,1,0,0:0:0:0:
256,192,75890,128,0,76035:0:0:0:0:
475,192,75890,1,0,0:0:0:0:
109,192,75890,1,0,0:0:0:0:
36,192,75890,1,0,0:0:0:0:
475,192,76035,128,0,76179:0:0:0:0:
329,192,76035,1,0,0:0:0:0:
182,192,76035,1,0,0:0:0:0:
402,192,76179,128,0,76323:0:0:0:0:
256,192,76179,1,0,0:0:0:0:
109,192,76179,1,0,0:0:0:0:
329,192,76323,128,0,76467:0:0:0:0:
182,192,76323,1,0,0:0:0:0:
36,192,76323,1,0,0:0:0:0:
402,192,76467,1,0,0:0:0:0:
475,192,76467,1,0,0:0:0:0:
109,192,76467,1,0,0:0:0:0:
256,192,76467,1,0,0:0:0:0:
329,192,76612,1,0,0:0:0:0:
182,192,76756,1,0,0:0:0:0:
402,192,76756,1,0,0:0:0:0:
36,192,76756,1,0,0:0:0:0:
402,192,76900,1,0,0:0:0:0:
182,192,76900,1,0,0:0:0:0:
36,192,76900,1,0,0:0:0:0:
182,192,77044,1,0,0:0:0:0:
329,192,77044,128,0,77189:0:0:0:0:
475,192,77044,128,0,77189:0:0:0:0:
36,192,77044,1,0,0:0:0:0:
402,192,77189,1,0,0:0:0:0:
256,192,77189,1,0,0:0:0:0:
182,192,77333,128,0,77621:0:0:0:0:
36,192,77333,128,0,77621:0:0:0:0:
329,192,77333,1,0,0:0:0:0:
475,192,77333,1,0,0:0:0:0:
256,192,77477,1,0,0:0:0:0:
329,192,77621,1,0,0:0:0:0:
109,192,77621,1,0,0:0:0:0:
475,192,77621,1,0,0:0:0:0:
329,192,77765,1,0,0:0:0:0:
109,192,77765,1,0,0:0:0:0:
475,192,77765,1,0,0:0:0:0:
109,192,77910,1,0,0:0:0:0:
329,192,77910,128,0,78198:0:0:0:0:
475,192,77910,128,0,78198:0:0:0:0:
182,192,78054,1,0,0:0:0:0:
256,192,78198,1,0,0:0:0:0:
402,192,78198,1,0,0:0:0:0:
109,192,78198,1,0,0:0:0:0:
36,192,78342,1,0,0:0:0:0:
475,192,78342,1,0,0:0:0:0:
329,192,78342,1,0,0:0:0:0:
109,192,78487,1,0,0:0:0:0:
256,192,78487,1,0,0:0:0:0:
475,192,78487,128,0,78775:0:0:0:0:
36,192,78487,128,0,78775:0:0:0:0:
182,192,78631,1,0,0:0:0:0:
329,192,78631,1,0,0:0:0:0:
402,192,78775,1,0,0:0:0:0:
109,192,78775,1,0,0:0:0:0:
256,192,78775,128,0,79352:0:0:0:0:
329,192,78919,1,0,0:0:0:0:
109,192,79064,128,0,79640:0:0:0:0:
36,192,79064,1,0,0:0:0:0:
475,192,79064,1,0,0:0:0:0:
182,192,79208,1,0,0:0:0:0:
329,192,79208,1,0,0:0:0:0:
402,192,79352,128,0,79785:0:0:0:0:
475,192,79352,1,0,0:0:0:0:
36,192,79352,1,0,0:0:0:0:
329,192,79496,1,0,0:0:0:0:
182,192,79640,128,0,79929:0:0:0:0:
256,192,79640,1,0,0:0:0:0:
475,192,79640,1,0,0:0:0:0:
36,192,79785,128,0,80217:0:0:0:0:
329,192,79785,1,0,0:0:0:0:
109,192,79785,1,0,0:0:0:0:
475,192,79929,1,0,0:0:0:0:
256,192,79929,1,0,0:0:0:0:
402,192,80073,1,0,0:0:0:0:
182,192,80073,1,0,0:0:0:0:
475,192,80217,128,0,80506:0:0:0:0:
329,192,80217,128,0,80506:0:0:0:0:
109,192,80217,1,0,0:0:0:0:
256,192,80217,1,0,0:0:0:0:
182,192,80362,1,0,0:0:0:0:
36,192,80506,1,0,0:0:0:0:
256,192,80506,1,0,0:0:0:0:
402,192,80506,1,0,0:0:0:0:
109,192,80650,1,0,0:0:0:0:
329,192,80650,1,0,0:0:0:0:
182,192,80794,128,0,81083:0:0:0:0:
36,192,80794,128,0,81083:0:0:0:0:
475,192,80794,1,0,0:0:0:0:
329,192,80794,1,0,0:0:0:0:
402,192,80939,1,0,0:0:0:0:
256,192,80939,1,0,0:0:0:0:
109,192,81083,1,0,0:0:0:0:
475,192,81083,1,0,0:0:0:0:
329,192,81083,128,0,81660:0:0:0:0:
256,192,81227,1,0,0:0:0:0:
182,192,81371,1,0,0:0:0:0:
36,192,81371,1,0,0:0:0:0:
109,192,81371,128,0,81515:0:0:0:0:
475,192,81371,1,0,0:0:0:0:
402,192,81515,1,0,0:0:0:0:
256,192,81660,1,0,0:0:0:0:
109,192,81660,1,0,0:0:0:0:
182,192,81660,128,0,81804:0:0:0:0:
402,192,81804,1,0,0:0:0:0:
475,192,81804,128,0,81948:0:0:0:0:
329,192,81948,1,0,0:0:0:0:
182,192,81948,1,0,0:0:0:0:
256,192,81948,128,0,82092:0:0:0:0:
109,192,82092,1,0,0:0:0:0:
36,192,82092,128,0,82237:0:0:0:0:
256,192,82237,1,0,0:0:0:0:
402,192,82237,1,0,0:0:0:0:
475,192,82237,128,0,82525:0:0:0:0:
329,192,82237,128,0,82525:0:0:0:0:
182,192,82381,128,0,82669:0:0:0:0:
109,192,82381,1,0,0:0:0:0:
256,192,82525,1,0,0:0:0:0:
36,192,82525,128,0,82814:0:0:0:0:
402,192,82525,1,0,0:0:0:0:
475,192,82669,1,0,0:0:0:0:
402,192,82669,128,0,82958:0:0:0:0:
329,192,82814,1,0,0:0:0:0:
182,192,82814,1,0,0:0:0:0:
256,192,82814,128,0,83102:0:0:0:0:
36,192,82958,1,0,0:0:0:0:
109,192,82958,128,0,83246:0:0:0:0:
475,192,83102,128,0,83246:0:0:0:0:
402,192,83102,1,0,0:0:0:0:
182,192,83102,1,0,0:0:0:0:
329,192,83246,128,0,83390:0:0:0:0:
256,192,83246,1,0,0:0:0:0:
36,192,83246,1,0,0:0:0:0:
182,192,83390,1,0,0:0:0:0:
475,192,83390,1,0,0:0:0:0:
109,192,83390,1,0,0:0:0:0:
402,192,83390,1,0,0:0:0:0:
36,192,83390,1,0,0:0:0:0:
329,192,83535,1,0,0:0:0:0:
182,192,83679,1,0,0:0:0:0:
256,192,83679,1,0,0:0:0:0:
402,192,83679,1,0,0:0:0:0:
36,192,83679,1,0,0:0:0:0:
475,192,83679,1,0,0:0:0:0:
109,192,83823,1,0,0:0:0:0:
182,192,83967,1,0,0:0:0:0:
36,192,83967,1,0,0:0:0:0:
329,192,83967,1,0,0:0:0:0:
475,192,83967,1,0,0:0:0:0:
256,192,83967,1,0,0:0:0:0:
402,192,84112,1,0,0:0:0:0:
329,192,84256,1,0,0:0:0:0:
475,192,84256,1,0,0:0:0:0:
256,192,84256,1,0,0:0:0:0:
109,192,84256,1,0,0:0:0:0:
36,192,84256,1,0,0:0:0:0:
109,192,84400,1,0,0:0:0:0:
36,192,84400,1,0,0:0:0:0:
182,192,84400,1,0,0:0:0:0:
256,192,84544,1,0,0:0:0:0:
109,192,84544,1,0,0:0:0:0:
402,192,84544,1,0,0:0:0:0:
475,192,84544,1,0,0:0:0:0:
329,192,84640,1,0,0:0:0:0:
182,192,84640,1,0,0:0:0:0:
256,192,84737,1,0,0:0:0:0:
109,192,84737,1,0,0:0:0:0:
182,192,84833,1,0,0:0:0:0:
36,192,84833,1,0,0:0:0:0:
402,192,84833,1,0,0:0:0:0:
475,192,84833,1,0,0:0:0:0:
329,192,84977,1,0,0:0:0:0:
256,192,84977,1,0,0:0:0:0:
182,192,85121,1,0,0:0:0:0:
36,192,85121,1,0,0:0:0:0:
109,192,85121,1,0,0:0:0:0:
329,192,85265,1,0,0:0:0:0:
475,192,85265,1,0,0:0:0:0:
402,192,85265,1,0,0:0:0:0:
109,192,85410,1,0,0:0:0:0:
256,192,85410,1,0,0:0:0:0:
182,192,85410,1,0,0:0:0:0:
475,192,85554,1,0,0:0:0:0:
402,192,85554,1,0,0:0:0:0:
36,192,85554,1,0,0:0:0:0:
182,192,85698,1,0,0:0:0:0:
329,192,85698,1,0,0:0:0:0:
256,192,85698,128,0,88294:0:0:0:0:
475,192,85698,1,0,0:0:0:0:
36,192,85698,1,0,0:0:0:0:
182,192,86275,1,0,0:0:0:0:
329,192,86347,1,0,0:0:0:0:
182,192,86419,1,0,0:0:0:0:
329,192,86491,1,0,0:0:0:0:
36,192,86564,1,0,0:0:0:0:
182,192,86564,1,0,0:0:0:0:
475,192,86564,1,0,0:0:0:0:
329,192,86600,1,0,0:0:0:0:
