osu file format v14

[General]
AudioFilename: audio6.mp3
AudioLeadIn: 0
PreviewTime: 55582
Countdown: 0
SampleSet: Soft
StackLeniency: 0.7
Mode: 3
LetterboxInBreaks: 0
SpecialStyle: 0
WidescreenStoryboard: 0

[Editor]
DistanceSpacing: 0.8
BeatDivisor: 4
GridSize: 32
TimelineZoom: 1

[Metadata]
Title:1212's Pack Maps 2
TitleUnicode:1212's Pack Maps 2
Artist:Various Artists
ArtistUnicode:Various Artists
Creator:Julio1212-
Version:LiSA - ADAMAS (TV Size)
Source:
Tags:エロマンガ先生 eromanga sensei ero manga eromanga-sensei eromangasensei opening tv size sword art online sao alicization season three 3 kirito asuna eugeo alice opening 織部里沙 ソードアート・オンライン アリシゼーション steins;gate steins gate steinsgate 種田梨沙, 洲崎綾, M・A・O, 田所あずさ Gokukoku No Brynhildr 極黒のブリュンヒルデ 薬師るり アペイリア ステラ女学院高等科C³部 鏡面の波 宝石の国 Land of the Lustrous Country of Jewels
BeatmapID:1838186
BeatmapSetID:878953

[Difficulty]
HPDrainRate:7
CircleSize:7
OverallDifficulty:7
ApproachRate:5
SliderMultiplier:1.4
SliderTickRate:1

[Events]
//Background and Video events
0,0,"sao alice.jpg",0,0
//Break Periods
//Storyboard Layer 0 (Background)
//Storyboard Layer 1 (Fail)
//Storyboard Layer 2 (Pass)
//Storyboard Layer 3 (Foreground)
//Storyboard Sound Samples

[TimingPoints]
537,314.13612565445,4,2,1,20,1,0
5392,314.13612565445,4,2,1,20,1,0
5549,314.13612565445,4,2,1,20,1,0
35706,-200,4,2,1,20,0,0
38219,-100,4,2,1,20,0,0
55661,314.13612565445,4,2,1,20,1,1
55818,314.13612565445,4,2,1,20,1,1
75765,-100,4,2,1,20,0,0

[HitObjects]
329,192,537,5,0,0:0:0:0:
329,192,694,1,0,0:0:0:0:
329,192,851,1,0,0:0:0:0:
256,192,851,1,0,0:0:0:0:
182,192,1008,1,0,0:0:0:0:
182,192,1165,1,0,0:0:0:0:
182,192,1322,1,0,0:0:0:0:
329,192,1479,1,0,0:0:0:0:
256,192,1479,1,0,0:0:0:0:
329,192,1636,1,0,0:0:0:0:
329,192,1793,1,0,0:0:0:0:
182,192,1950,1,0,0:0:0:0:
182,192,2107,1,0,0:0:0:0:
256,192,2107,1,0,0:0:0:0:
182,192,2264,1,0,0:0:0:0:
109,192,2421,1,0,0:0:0:0:
109,192,2578,1,0,0:0:0:0:
402,192,2735,1,0,0:0:0:0:
256,192,2735,1,0,0:0:0:0:
402,192,2893,1,0,0:0:0:0:
329,192,3050,1,0,0:0:0:0:
329,192,3207,1,0,0:0:0:0:
329,192,3364,1,0,0:0:0:0:
256,192,3364,1,0,0:0:0:0:
182,192,3521,1,0,0:0:0:0:
182,192,3678,1,0,0:0:0:0:
182,192,3835,1,0,0:0:0:0:
402,192,3992,1,0,0:0:0:0:
256,192,3992,1,0,0:0:0:0:
402,192,4149,1,0,0:0:0:0:
402,192,4306,1,0,0:0:0:0:
256,192,4463,1,0,0:0:0:0:
256,192,4620,1,0,0:0:0:0:
36,192,4620,1,0,0:0:0:0:
256,192,4777,1,0,0:0:0:0:
475,192,4777,1,0,0:0:0:0:
182,192,5392,128,0,5863:0:0:0:0:
329,192,5392,1,0,0:0:0:0:
36,192,5392,1,0,0:0:0:0:
475,192,5392,1,0,0:0:0:0:
402,192,5549,1,0,0:0:0:0:
256,192,5706,1,0,0:0:0:0:
109,192,5706,1,0,0:0:0:0:
329,192,5863,128,0,6177:0:0:0:0:
36,192,5863,1,0,0:0:0:0:
475,192,5863,1,0,0:0:0:0:
182,192,6020,1,0,0:0:0:0:
475,192,6177,128,0,6491:0:0:0:0:
109,192,6177,1,0,0:0:0:0:
256,192,6334,1,0,0:0:0:0:
182,192,6491,128,0,6805:0:0:0:0:
36,192,6491,1,0,0:0:0:0:
402,192,6491,1,0,0:0:0:0:
256,192,6648,1,0,0:0:0:0:
329,192,6805,128,0,7119:0:0:0:0:
109,192,6805,1,0,0:0:0:0:
256,192,6962,1,0,0:0:0:0:
109,192,7119,128,0,7433:0:0:0:0:
475,192,7119,1,0,0:0:0:0:
402,192,7119,1,0,0:0:0:0:
182,192,7276,1,0,0:0:0:0:
36,192,7433,128,0,7590:0:0:0:0:
329,192,7433,128,0,7590:0:0:0:0:
256,192,7590,128,0,7905:0:0:0:0:
475,192,7590,128,0,7905:0:0:0:0:
36,192,7747,1,0,0:0:0:0:
402,192,7747,1,0,0:0:0:0:
182,192,7747,1,0,0:0:0:0:
109,192,7905,128,0,8376:0:0:0:0:
329,192,7905,1,0,0:0:0:0:
402,192,8062,1,0,0:0:0:0:
256,192,8219,1,0,0:0:0:0:
182,192,8219,1,0,0:0:0:0:
36,192,8376,1,0,0:0:0:0:
475,192,8376,1,0,0:0:0:0:
329,192,8376,128,0,8690:0:0:0:0:
256,192,8533,1,0,0:0:0:0:
109,192,8690,1,0,0:0:0:0:
402,192,8690,128,0,9004:0:0:0:0:
329,192,8847,1,0,0:0:0:0:
182,192,9004,128,0,9318:0:0:0:0:
475,192,9004,1,0,0:0:0:0:
36,192,9004,1,0,0:0:0:0:
256,192,9161,1,0,0:0:0:0:
475,192,9318,128,0,9632:0:0:0:0:
329,192,9318,1,0,0:0:0:0:
109,192,9475,1,0,0:0:0:0:
329,192,9632,128,0,9946:0:0:0:0:
182,192,9632,1,0,0:0:0:0:
36,192,9632,1,0,0:0:0:0:
402,192,9789,1,0,0:0:0:0:
182,192,9946,128,0,10103:0:0:0:0:
475,192,9946,1,0,0:0:0:0:
36,192,9946,1,0,0:0:0:0:
256,192,10025,1,0,0:0:0:0:
36,192,10103,128,0,10418:0:0:0:0:
329,192,10103,1,0,0:0:0:0:
475,192,10182,1,0,0:0:0:0:
256,192,10261,1,0,0:0:0:0:
109,192,10261,1,0,0:0:0:0:
402,192,10339,1,0,0:0:0:0:
475,192,10418,128,0,10889:0:0:0:0:
329,192,10418,1,0,0:0:0:0:
182,192,10418,1,0,0:0:0:0:
256,192,10575,1,0,0:0:0:0:
402,192,10732,1,0,0:0:0:0:
109,192,10732,1,0,0:0:0:0:
402,192,10889,128,0,11203:0:0:0:0:
36,192,10889,1,0,0:0:0:0:
329,192,10889,1,0,0:0:0:0:
109,192,11046,1,0,0:0:0:0:
109,192,11203,128,0,11517:0:0:0:0:
256,192,11203,1,0,0:0:0:0:
402,192,11360,1,0,0:0:0:0:
402,192,11517,128,0,11831:0:0:0:0:
36,192,11517,1,0,0:0:0:0:
256,192,11517,1,0,0:0:0:0:
182,192,11674,1,0,0:0:0:0:
182,192,11831,128,0,12145:0:0:0:0:
36,192,11831,1,0,0:0:0:0:
329,192,11988,1,0,0:0:0:0:
475,192,11988,1,0,0:0:0:0:
329,192,12145,128,0,12459:0:0:0:0:
475,192,12145,1,0,0:0:0:0:
109,192,12145,1,0,0:0:0:0:
256,192,12224,1,0,0:0:0:0:
402,192,12302,1,0,0:0:0:0:
109,192,12302,1,0,0:0:0:0:
256,192,12381,1,0,0:0:0:0:
475,192,12459,1,0,0:0:0:0:
36,192,12459,1,0,0:0:0:0:
182,192,12459,1,0,0:0:0:0:
329,192,12538,1,0,0:0:0:0:
182,192,12617,1,0,0:0:0:0:
402,192,12617,1,0,0:0:0:0:
36,192,12695,1,0,0:0:0:0:
402,192,12774,1,0,0:0:0:0:
256,192,12774,1,0,0:0:0:0:
109,192,12852,1,0,0:0:0:0:
329,192,12931,128,0,13245:0:0:0:0:
475,192,12931,128,0,13245:0:0:0:0:
182,192,12931,128,0,13245:0:0:0:0:
256,192,13245,1,0,0:0:0:0:
36,192,13402,1,0,0:0:0:0:
182,192,13402,128,0,13480:0:0:0:0:
402,192,13402,1,0,0:0:0:0:
109,192,13559,128,0,13638:0:0:0:0:
329,192,13559,1,0,0:0:0:0:
402,192,13716,128,0,13795:0:0:0:0:
109,192,13716,1,0,0:0:0:0:
402,192,13873,128,0,13952:0:0:0:0:
182,192,13873,1,0,0:0:0:0:
182,192,14030,128,0,14109:0:0:0:0:
329,192,14030,1,0,0:0:0:0:
475,192,14030,1,0,0:0:0:0:
109,192,14187,128,0,14266:0:0:0:0:
402,192,14187,1,0,0:0:0:0:
182,192,14344,1,0,0:0:0:0:
329,192,14344,1,0,0:0:0:0:
475,192,14344,128,0,14423:0:0:0:0:
256,192,14423,1,0,0:0:0:0:
402,192,14501,128,0,14580:0:0:0:0:
109,192,14501,1,0,0:0:0:0:
256,192,14580,1,0,0:0:0:0:
475,192,14658,1,0,0:0:0:0:
36,192,14658,128,0,14737:0:0:0:0:
182,192,14658,1,0,0:0:0:0:
402,192,14737,1,0,0:0:0:0:
109,192,14816,128,0,14894:0:0:0:0:
256,192,14816,1,0,0:0:0:0:
402,192,14894,1,0,0:0:0:0:
256,192,14973,1,0,0:0:0:0:
475,192,14973,128,0,15130:0:0:0:0:
36,192,14973,128,0,15130:0:0:0:0:
329,192,15130,128,0,15287:0:0:0:0:
182,192,15130,128,0,15287:0:0:0:0:
475,192,15287,128,0,15601:0:0:0:0:
256,192,15287,128,0,15601:0:0:0:0:
36,192,15287,128,0,15601:0:0:0:0:
329,192,15758,1,0,0:0:0:0:
402,192,15758,1,0,0:0:0:0:
109,192,15915,1,0,0:0:0:0:
36,192,15954,1,0,0:0:0:0:
109,192,16229,1,0,0:0:0:0:
36,192,16268,1,0,0:0:0:0:
109,192,16543,1,0,0:0:0:0:
36,192,16583,1,0,0:0:0:0:
109,192,16857,1,0,0:0:0:0:
36,192,16897,1,0,0:0:0:0:
109,192,17172,1,0,0:0:0:0:
36,192,17211,1,0,0:0:0:0:
256,192,17329,1,0,0:0:0:0:
402,192,17329,1,0,0:0:0:0:
109,192,17486,1,0,0:0:0:0:
36,192,17525,1,0,0:0:0:0:
329,192,17643,1,0,0:0:0:0:
475,192,17643,1,0,0:0:0:0:
109,192,17800,1,0,0:0:0:0:
36,192,17839,1,0,0:0:0:0:
182,192,17957,1,0,0:0:0:0:
329,192,17957,1,0,0:0:0:0:
475,192,18114,1,0,0:0:0:0:
329,192,18153,1,0,0:0:0:0:
475,192,18428,1,0,0:0:0:0:
329,192,18467,1,0,0:0:0:0:
475,192,18742,1,0,0:0:0:0:
329,192,18781,1,0,0:0:0:0:
475,192,19056,1,0,0:0:0:0:
329,192,19096,1,0,0:0:0:0:
475,192,19370,1,0,0:0:0:0:
329,192,19410,1,0,0:0:0:0:
475,192,19685,1,0,0:0:0:0:
329,192,19724,1,0,0:0:0:0:
109,192,19842,1,0,0:0:0:0:
36,192,19842,1,0,0:0:0:0:
475,192,19999,1,0,0:0:0:0:
329,192,20038,1,0,0:0:0:0:
109,192,20156,1,0,0:0:0:0:
36,192,20156,1,0,0:0:0:0:
256,192,20234,1,0,0:0:0:0:
475,192,20313,1,0,0:0:0:0:
109,192,20313,1,0,0:0:0:0:
329,192,20352,1,0,0:0:0:0:
109,192,20470,1,0,0:0:0:0:
36,192,20470,1,0,0:0:0:0:
329,192,20627,1,0,0:0:0:0:
182,192,20666,1,0,0:0:0:0:
329,192,20941,1,0,0:0:0:0:
182,192,20980,1,0,0:0:0:0:
329,192,21255,1,0,0:0:0:0:
182,192,21295,1,0,0:0:0:0:
329,192,21569,1,0,0:0:0:0:
182,192,21609,1,0,0:0:0:0:
329,192,21884,1,0,0:0:0:0:
182,192,21923,1,0,0:0:0:0:
329,192,22198,1,0,0:0:0:0:
182,192,22237,1,0,0:0:0:0:
256,192,22355,1,0,0:0:0:0:
36,192,22355,1,0,0:0:0:0:
329,192,22512,1,0,0:0:0:0:
182,192,22551,1,0,0:0:0:0:
475,192,22669,1,0,0:0:0:0:
256,192,22669,1,0,0:0:0:0:
329,192,22826,1,0,0:0:0:0:
182,192,22865,1,0,0:0:0:0:
256,192,22983,1,0,0:0:0:0:
36,192,22983,1,0,0:0:0:0:
402,192,23140,1,0,0:0:0:0:
475,192,23179,1,0,0:0:0:0:
402,192,23454,1,0,0:0:0:0:
475,192,23494,1,0,0:0:0:0:
329,192,23611,1,0,0:0:0:0:
182,192,23690,1,0,0:0:0:0:
402,192,23768,1,0,0:0:0:0:
36,192,23768,1,0,0:0:0:0:
475,192,23808,1,0,0:0:0:0:
109,192,23925,1,0,0:0:0:0:
256,192,24004,1,0,0:0:0:0:
402,192,24083,1,0,0:0:0:0:
109,192,24083,1,0,0:0:0:0:
36,192,24083,128,0,25339:0:0:0:0:
329,192,24240,128,0,25339:0:0:0:0:
182,192,24240,128,0,25339:0:0:0:0:
475,192,24240,128,0,25339:0:0:0:0:
402,192,25496,128,0,25967:0:0:0:0:
182,192,25496,1,0,0:0:0:0:
36,192,25496,1,0,0:0:0:0:
475,192,25496,1,0,0:0:0:0:
256,192,25653,1,0,0:0:0:0:
109,192,25810,1,0,0:0:0:0:
329,192,25810,1,0,0:0:0:0:
36,192,25967,128,0,26203:0:0:0:0:
475,192,25967,1,0,0:0:0:0:
256,192,25967,1,0,0:0:0:0:
182,192,26124,1,0,0:0:0:0:
109,192,26281,128,0,26517:0:0:0:0:
256,192,26281,1,0,0:0:0:0:
402,192,26281,128,0,26439:0:0:0:0:
475,192,26439,128,0,26596:0:0:0:0:
182,192,26596,128,0,26831:0:0:0:0:
36,192,26596,1,0,0:0:0:0:
402,192,26596,128,0,26753:0:0:0:0:
329,192,26753,128,0,26910:0:0:0:0:
402,192,26910,128,0,26988:0:0:0:0:
256,192,26910,1,0,0:0:0:0:
36,192,26910,128,0,26988:0:0:0:0:
329,192,27067,128,0,27145:0:0:0:0:
109,192,27224,128,0,27302:0:0:0:0:
256,192,27224,1,0,0:0:0:0:
475,192,27224,128,0,27302:0:0:0:0:
182,192,27381,128,0,27459:0:0:0:0:
36,192,27538,128,0,27852:0:0:0:0:
329,192,27538,1,0,0:0:0:0:
475,192,27538,1,0,0:0:0:0:
329,192,27695,128,0,27774:0:0:0:0:
109,192,27695,1,0,0:0:0:0:
182,192,27852,1,0,0:0:0:0:
402,192,27852,1,0,0:0:0:0:
475,192,27852,128,0,27931:0:0:0:0:
329,192,28009,1,0,0:0:0:0:
109,192,28009,128,0,28480:0:0:0:0:
256,192,28166,1,0,0:0:0:0:
475,192,28323,1,0,0:0:0:0:
402,192,28323,1,0,0:0:0:0:
182,192,28480,1,0,0:0:0:0:
36,192,28480,1,0,0:0:0:0:
329,192,28480,128,0,28716:0:0:0:0:
256,192,28638,1,0,0:0:0:0:
402,192,28795,128,0,29030:0:0:0:0:
475,192,28795,1,0,0:0:0:0:
109,192,28795,128,0,28952:0:0:0:0:
182,192,28952,128,0,29109:0:0:0:0:
475,192,29109,128,0,29344:0:0:0:0:
329,192,29109,1,0,0:0:0:0:
36,192,29109,128,0,29266:0:0:0:0:
182,192,29266,128,0,29423:0:0:0:0:
475,192,29423,1,0,0:0:0:0:
109,192,29423,128,0,29501:0:0:0:0:
329,192,29423,128,0,29501:0:0:0:0:
256,192,29580,128,0,29658:0:0:0:0:
402,192,29737,128,0,29816:0:0:0:0:
182,192,29737,128,0,29816:0:0:0:0:
36,192,29737,1,0,0:0:0:0:
256,192,29894,128,0,29973:0:0:0:0:
109,192,30051,128,0,30444:0:0:0:0:
475,192,30051,1,0,0:0:0:0:
329,192,30051,1,0,0:0:0:0:
256,192,30208,1,0,0:0:0:0:
402,192,30208,128,0,30287:0:0:0:0:
402,192,30365,128,0,30679:0:0:0:0:
182,192,30365,1,0,0:0:0:0:
329,192,30365,1,0,0:0:0:0:
109,192,30522,128,0,30601:0:0:0:0:
256,192,30522,1,0,0:0:0:0:
475,192,30679,1,0,0:0:0:0:
109,192,30679,1,0,0:0:0:0:
329,192,30679,1,0,0:0:0:0:
36,192,30679,1,0,0:0:0:0:
256,192,30836,128,0,30915:0:0:0:0:
109,192,30994,1,0,0:0:0:0:
402,192,30994,1,0,0:0:0:0:
256,192,30994,128,0,31151:0:0:0:0:
36,192,31151,128,0,31308:0:0:0:0:
182,192,31308,128,0,31386:0:0:0:0:
329,192,31308,1,0,0:0:0:0:
475,192,31308,128,0,31465:0:0:0:0:
329,192,31465,128,0,31857:0:0:0:0:
109,192,31465,1,0,0:0:0:0:
475,192,31622,128,0,31700:0:0:0:0:
256,192,31622,1,0,0:0:0:0:
36,192,31622,128,0,31779:0:0:0:0:
182,192,31779,128,0,31857:0:0:0:0:
402,192,31936,128,0,32093:0:0:0:0:
256,192,31936,1,0,0:0:0:0:
109,192,31936,1,0,0:0:0:0:
109,192,32093,128,0,32250:0:0:0:0:
402,192,32250,128,0,32407:0:0:0:0:
182,192,32250,1,0,0:0:0:0:
329,192,32250,1,0,0:0:0:0:
182,192,32407,128,0,32564:0:0:0:0:
329,192,32564,128,0,32721:0:0:0:0:
475,192,32564,1,0,0:0:0:0:
109,192,32564,1,0,0:0:0:0:
182,192,32721,128,0,32878:0:0:0:0:
36,192,32721,1,0,0:0:0:0:
475,192,32878,1,0,0:0:0:0:
329,192,32878,1,0,0:0:0:0:
402,192,32878,1,0,0:0:0:0:
256,192,33035,1,0,0:0:0:0:
36,192,33192,1,0,0:0:0:0:
329,192,33192,1,0,0:0:0:0:
182,192,33192,128,0,33507:0:0:0:0:
475,192,33350,1,0,0:0:0:0:
402,192,33507,128,0,33821:0:0:0:0:
256,192,33507,1,0,0:0:0:0:
109,192,33507,1,0,0:0:0:0:
182,192,33664,1,0,0:0:0:0:
109,192,33821,128,0,34135:0:0:0:0:
329,192,33821,1,0,0:0:0:0:
475,192,33821,1,0,0:0:0:0:
36,192,33821,1,0,0:0:0:0:
256,192,33978,1,0,0:0:0:0:
329,192,34135,128,0,34449:0:0:0:0:
182,192,34135,1,0,0:0:0:0:
475,192,34135,1,0,0:0:0:0:
256,192,34292,1,0,0:0:0:0:
36,192,34449,128,0,34763:0:0:0:0:
109,192,34449,1,0,0:0:0:0:
402,192,34449,1,0,0:0:0:0:
182,192,34606,1,0,0:0:0:0:
402,192,34606,1,0,0:0:0:0:
329,192,34685,1,0,0:0:0:0:
182,192,34763,128,0,35077:0:0:0:0:
109,192,34763,1,0,0:0:0:0:
475,192,34763,1,0,0:0:0:0:
329,192,34842,1,0,0:0:0:0:
475,192,34920,1,0,0:0:0:0:
402,192,34999,1,0,0:0:0:0:
329,192,35077,128,0,35391:0:0:0:0:
36,192,35077,1,0,0:0:0:0:
109,192,35077,1,0,0:0:0:0:
109,192,35234,1,0,0:0:0:0:
182,192,35234,1,0,0:0:0:0:
475,192,35391,128,0,35706:0:0:0:0:
182,192,35391,1,0,0:0:0:0:
256,192,35391,1,0,0:0:0:0:
256,192,35548,1,0,0:0:0:0:
329,192,35548,1,0,0:0:0:0:
402,192,35706,1,0,0:0:0:0:
329,192,35706,1,0,0:0:0:0:
36,192,35706,1,0,0:0:0:0:
109,192,35706,1,0,0:0:0:0:
36,192,36020,1,0,0:0:0:0:
182,192,36334,1,0,0:0:0:0:
182,192,36648,1,0,0:0:0:0:
329,192,36962,1,0,0:0:0:0:
329,192,37276,1,0,0:0:0:0:
475,192,37590,1,0,0:0:0:0:
475,192,37905,1,0,0:0:0:0:
329,192,38062,1,0,0:0:0:0:
109,192,38062,1,0,0:0:0:0:
182,192,38140,1,0,0:0:0:0:
402,192,38140,1,0,0:0:0:0:
36,192,38219,1,0,0:0:0:0:
256,192,38219,1,0,0:0:0:0:
475,192,38219,1,0,0:0:0:0:
36,192,38376,1,0,0:0:0:0:
182,192,38533,1,0,0:0:0:0:
182,192,38690,1,0,0:0:0:0:
329,192,38847,1,0,0:0:0:0:
329,192,39004,1,0,0:0:0:0:
475,192,39161,1,0,0:0:0:0:
475,192,39318,1,0,0:0:0:0:
109,192,39475,1,0,0:0:0:0:
109,192,39632,1,0,0:0:0:0:
402,192,39789,1,0,0:0:0:0:
329,192,39946,1,0,0:0:0:0:
402,192,39946,1,0,0:0:0:0:
256,192,39946,1,0,0:0:0:0:
475,192,39946,1,0,0:0:0:0:
182,192,40103,1,0,0:0:0:0:
182,192,40261,1,0,0:0:0:0:
256,192,40261,1,0,0:0:0:0:
109,192,40261,1,0,0:0:0:0:
36,192,40261,1,0,0:0:0:0:
402,192,40418,1,0,0:0:0:0:
109,192,40575,1,0,0:0:0:0:
329,192,40575,1,0,0:0:0:0:
475,192,40575,1,0,0:0:0:0:
256,192,40732,1,0,0:0:0:0:
36,192,40732,1,0,0:0:0:0:
402,192,40732,1,0,0:0:0:0:
36,192,40889,1,0,0:0:0:0:
36,192,41046,1,0,0:0:0:0:
256,192,41046,1,0,0:0:0:0:
256,192,41203,1,0,0:0:0:0:
256,192,41360,1,0,0:0:0:0:
475,192,41360,1,0,0:0:0:0:
475,192,41517,1,0,0:0:0:0:
475,192,41674,1,0,0:0:0:0:
109,192,41674,1,0,0:0:0:0:
109,192,41831,1,0,0:0:0:0:
109,192,41988,1,0,0:0:0:0:
329,192,41988,1,0,0:0:0:0:
329,192,42145,1,0,0:0:0:0:
329,192,42302,1,0,0:0:0:0:
182,192,42302,1,0,0:0:0:0:
182,192,42459,1,0,0:0:0:0:
182,192,42617,1,0,0:0:0:0:
402,192,42617,1,0,0:0:0:0:
402,192,42774,1,0,0:0:0:0:
402,192,42931,1,0,0:0:0:0:
109,192,42931,1,0,0:0:0:0:
109,192,43088,1,0,0:0:0:0:
329,192,43088,1,0,0:0:0:0:
182,192,43166,1,0,0:0:0:0:
402,192,43166,1,0,0:0:0:0:
36,192,43245,1,0,0:0:0:0:
109,192,43245,1,0,0:0:0:0:
329,192,43245,1,0,0:0:0:0:
109,192,43402,1,0,0:0:0:0:
36,192,43402,1,0,0:0:0:0:
402,192,43559,1,0,0:0:0:0:
329,192,43559,1,0,0:0:0:0:
329,192,43716,1,0,0:0:0:0:
402,192,43716,1,0,0:0:0:0:
182,192,43873,1,0,0:0:0:0:
109,192,43873,1,0,0:0:0:0:
109,192,44030,1,0,0:0:0:0:
182,192,44030,1,0,0:0:0:0:
402,192,44187,1,0,0:0:0:0:
475,192,44187,1,0,0:0:0:0:
402,192,44344,1,0,0:0:0:0:
475,192,44344,1,0,0:0:0:0:
256,192,44344,128,0,44423:0:0:0:0:
109,192,44501,128,0,44658:0:0:0:0:
402,192,44658,1,0,0:0:0:0:
475,192,44658,1,0,0:0:0:0:
256,192,44658,128,0,44737:0:0:0:0:
329,192,44658,1,0,0:0:0:0:
36,192,44816,1,0,0:0:0:0:
182,192,44816,128,0,44973:0:0:0:0:
329,192,44973,128,0,45051:0:0:0:0:
475,192,44973,1,0,0:0:0:0:
36,192,45130,128,0,45287:0:0:0:0:
182,192,45130,1,0,0:0:0:0:
109,192,45287,1,0,0:0:0:0:
256,192,45287,1,0,0:0:0:0:
402,192,45287,128,0,45365:0:0:0:0:
182,192,45444,1,0,0:0:0:0:
475,192,45444,1,0,0:0:0:0:
402,192,45522,1,0,0:0:0:0:
109,192,45522,1,0,0:0:0:0:
329,192,45601,1,0,0:0:0:0:
36,192,45601,1,0,0:0:0:0:
182,192,45679,1,0,0:0:0:0:
475,192,45679,1,0,0:0:0:0:
109,192,45758,1,0,0:0:0:0:
256,192,45758,1,0,0:0:0:0:
402,192,45758,128,0,45836:0:0:0:0:
182,192,45915,1,0,0:0:0:0:
402,192,45915,128,0,46072:0:0:0:0:
256,192,46072,128,0,46151:0:0:0:0:
36,192,46072,1,0,0:0:0:0:
109,192,46072,1,0,0:0:0:0:
256,192,46229,128,0,46386:0:0:0:0:
402,192,46229,1,0,0:0:0:0:
182,192,46386,1,0,0:0:0:0:
36,192,46386,128,0,46465:0:0:0:0:
475,192,46386,1,0,0:0:0:0:
36,192,46543,128,0,46700:0:0:0:0:
256,192,46543,1,0,0:0:0:0:
329,192,46700,128,0,46779:0:0:0:0:
182,192,46700,1,0,0:0:0:0:
475,192,46700,1,0,0:0:0:0:
36,192,46857,1,0,0:0:0:0:
329,192,46857,128,0,47014:0:0:0:0:
109,192,46936,1,0,0:0:0:0:
402,192,47014,128,0,47329:0:0:0:0:
182,192,47014,1,0,0:0:0:0:
475,192,47014,1,0,0:0:0:0:
256,192,47172,128,0,47329:0:0:0:0:
329,192,47329,1,0,0:0:0:0:
36,192,47329,1,0,0:0:0:0:
182,192,47329,128,0,47643:0:0:0:0:
256,192,47486,128,0,47643:0:0:0:0:
329,192,47643,128,0,47957:0:0:0:0:
36,192,47643,1,0,0:0:0:0:
475,192,47643,1,0,0:0:0:0:
256,192,47800,128,0,47957:0:0:0:0:
36,192,47957,128,0,48742:0:0:0:0:
182,192,47957,1,0,0:0:0:0:
402,192,47957,1,0,0:0:0:0:
329,192,48114,1,0,0:0:0:0:
402,192,48192,1,0,0:0:0:0:
475,192,48271,1,0,0:0:0:0:
109,192,48271,128,0,48350:0:0:0:0:
256,192,48271,1,0,0:0:0:0:
109,192,48428,128,0,48585:0:0:0:0:
329,192,48428,1,0,0:0:0:0:
402,192,48585,128,0,48664:0:0:0:0:
182,192,48585,1,0,0:0:0:0:
475,192,48585,1,0,0:0:0:0:
402,192,48742,128,0,48899:0:0:0:0:
256,192,48742,1,0,0:0:0:0:
182,192,48899,128,0,48978:0:0:0:0:
36,192,48899,1,0,0:0:0:0:
329,192,48899,1,0,0:0:0:0:
182,192,49056,128,0,49213:0:0:0:0:
256,192,49056,1,0,0:0:0:0:
109,192,49213,1,0,0:0:0:0:
475,192,49213,128,0,49528:0:0:0:0:
402,192,49213,1,0,0:0:0:0:
182,192,49370,1,0,0:0:0:0:
109,192,49449,1,0,0:0:0:0:
36,192,49528,1,0,0:0:0:0:
329,192,49528,128,0,49842:0:0:0:0:
256,192,49528,1,0,0:0:0:0:
402,192,49685,1,0,0:0:0:0:
256,192,49685,128,0,49842:0:0:0:0:
475,192,49842,1,0,0:0:0:0:
36,192,49842,1,0,0:0:0:0:
109,192,49842,1,0,0:0:0:0:
182,192,49842,128,0,50156:0:0:0:0:
256,192,49999,128,0,50156:0:0:0:0:
329,192,50156,1,0,0:0:0:0:
402,192,50156,1,0,0:0:0:0:
475,192,50156,1,0,0:0:0:0:
36,192,50156,128,0,50470:0:0:0:0:
182,192,50313,128,0,50470:0:0:0:0:
329,192,50470,1,0,0:0:0:0:
402,192,50470,1,0,0:0:0:0:
475,192,50470,1,0,0:0:0:0:
256,192,50470,128,0,50784:0:0:0:0:
475,192,50627,1,0,0:0:0:0:
109,192,50627,128,0,50784:0:0:0:0:
402,192,50706,1,0,0:0:0:0:
329,192,50784,1,0,0:0:0:0:
182,192,50784,1,0,0:0:0:0:
36,192,50784,1,0,0:0:0:0:
329,192,50941,1,0,0:0:0:0:
182,192,50941,1,0,0:0:0:0:
402,192,51098,1,0,0:0:0:0:
36,192,51255,1,0,0:0:0:0:
402,192,51255,1,0,0:0:0:0:
256,192,51255,1,0,0:0:0:0:
182,192,51255,1,0,0:0:0:0:
36,192,51412,1,0,0:0:0:0:
329,192,51569,1,0,0:0:0:0:
182,192,51569,1,0,0:0:0:0:
329,192,51727,1,0,0:0:0:0:
36,192,51727,1,0,0:0:0:0:
475,192,51727,1,0,0:0:0:0:
182,192,51727,1,0,0:0:0:0:
256,192,51884,1,0,0:0:0:0:
109,192,51884,1,0,0:0:0:0:
109,192,52041,1,0,0:0:0:0:
402,192,52041,1,0,0:0:0:0:
475,192,52041,1,0,0:0:0:0:
256,192,52041,1,0,0:0:0:0:
402,192,52198,1,0,0:0:0:0:
182,192,52355,1,0,0:0:0:0:
36,192,52355,1,0,0:0:0:0:
36,192,52512,1,0,0:0:0:0:
182,192,52512,1,0,0:0:0:0:
402,192,52512,1,0,0:0:0:0:
329,192,52512,1,0,0:0:0:0:
329,192,52669,1,0,0:0:0:0:
475,192,52826,1,0,0:0:0:0:
182,192,52826,1,0,0:0:0:0:
475,192,52983,1,0,0:0:0:0:
329,192,52983,1,0,0:0:0:0:
182,192,52983,1,0,0:0:0:0:
36,192,52983,1,0,0:0:0:0:
256,192,53140,1,0,0:0:0:0:
109,192,53140,1,0,0:0:0:0:
329,192,53297,1,0,0:0:0:0:
36,192,53297,1,0,0:0:0:0:
182,192,53297,128,0,53611:0:0:0:0:
402,192,53297,1,0,0:0:0:0:
475,192,53376,1,0,0:0:0:0:
256,192,53454,1,0,0:0:0:0:
329,192,53533,1,0,0:0:0:0:
402,192,53611,1,0,0:0:0:0:
109,192,53611,1,0,0:0:0:0:
329,192,53690,1,0,0:0:0:0:
256,192,53768,1,0,0:0:0:0:
475,192,53768,1,0,0:0:0:0:
182,192,53768,1,0,0:0:0:0:
36,192,53768,128,0,54083:0:0:0:0:
329,192,53847,1,0,0:0:0:0:
109,192,53925,1,0,0:0:0:0:
329,192,54004,1,0,0:0:0:0:
182,192,54083,1,0,0:0:0:0:
475,192,54083,1,0,0:0:0:0:
256,192,54161,1,0,0:0:0:0:
329,192,54240,1,0,0:0:0:0:
475,192,54240,1,0,0:0:0:0:
36,192,54240,1,0,0:0:0:0:
109,192,54240,128,0,54318:0:0:0:0:
256,192,54397,1,0,0:0:0:0:
36,192,54397,1,0,0:0:0:0:
475,192,54397,1,0,0:0:0:0:
402,192,54397,128,0,54475:0:0:0:0:
182,192,54711,128,0,54868:0:0:0:0:
329,192,54868,128,0,55025:0:0:0:0:
182,192,55025,128,0,55182:0:0:0:0:
402,192,55182,128,0,55339:0:0:0:0:
109,192,55339,128,0,55661:0:0:0:0:
36,192,55661,1,0,0:0:0:0:
182,192,55661,1,0,0:0:0:0:
402,192,55661,1,0,0:0:0:0:
475,192,55661,128,0,56132:0:0:0:0:
329,192,55818,1,0,0:0:0:0:
256,192,55975,1,0,0:0:0:0:
182,192,55975,1,0,0:0:0:0:
402,192,56132,1,0,0:0:0:0:
109,192,56132,1,0,0:0:0:0:
36,192,56132,128,0,56446:0:0:0:0:
256,192,56289,1,0,0:0:0:0:
329,192,56446,128,0,56760:0:0:0:0:
109,192,56446,1,0,0:0:0:0:
475,192,56446,1,0,0:0:0:0:
182,192,56603,1,0,0:0:0:0:
256,192,56760,1,0,0:0:0:0:
402,192,56760,128,0,57074:0:0:0:0:
36,192,56760,1,0,0:0:0:0:
182,192,56917,1,0,0:0:0:0:
475,192,57074,1,0,0:0:0:0:
109,192,57074,128,0,57388:0:0:0:0:
329,192,57074,1,0,0:0:0:0:
182,192,57231,1,0,0:0:0:0:
475,192,57388,1,0,0:0:0:0:
402,192,57388,128,0,57545:0:0:0:0:
256,192,57388,1,0,0:0:0:0:
182,192,57545,128,0,57859:0:0:0:0:
36,192,57545,1,0,0:0:0:0:
475,192,57702,1,0,0:0:0:0:
329,192,57702,1,0,0:0:0:0:
109,192,57859,1,0,0:0:0:0:
256,192,58016,1,0,0:0:0:0:
402,192,58016,1,0,0:0:0:0:
182,192,58016,1,0,0:0:0:0:
36,192,58016,1,0,0:0:0:0:
329,192,58174,1,0,0:0:0:0:
475,192,58174,128,0,58331:0:0:0:0:
36,192,58331,128,0,58488:0:0:0:0:
182,192,58331,1,0,0:0:0:0:
109,192,58331,1,0,0:0:0:0:
256,192,58488,128,0,58645:0:0:0:0:
402,192,58488,1,0,0:0:0:0:
109,192,58645,128,0,58802:0:0:0:0:
36,192,58645,1,0,0:0:0:0:
329,192,58645,1,0,0:0:0:0:
329,192,58802,128,0,58959:0:0:0:0:
475,192,58802,1,0,0:0:0:0:
182,192,58959,128,0,59116:0:0:0:0:
36,192,58959,1,0,0:0:0:0:
475,192,59116,1,0,0:0:0:0:
402,192,59116,128,0,59430:0:0:0:0:
329,192,59273,1,0,0:0:0:0:
182,192,59273,1,0,0:0:0:0:
36,192,59273,128,0,59430:0:0:0:0:
109,192,59430,128,0,59509:0:0:0:0:
256,192,59430,1,0,0:0:0:0:
182,192,59587,1,0,0:0:0:0:
256,192,59587,128,0,59744:0:0:0:0:
475,192,59587,128,0,59744:0:0:0:0:
329,192,59744,1,0,0:0:0:0:
182,192,59901,1,0,0:0:0:0:
109,192,59901,128,0,60058:0:0:0:0:
36,192,59901,1,0,0:0:0:0:
402,192,59901,128,0,60058:0:0:0:0:
256,192,60058,1,0,0:0:0:0:
475,192,60215,1,0,0:0:0:0:
109,192,60215,1,0,0:0:0:0:
402,192,60215,128,0,60372:0:0:0:0:
329,192,60215,128,0,60372:0:0:0:0:
256,192,60372,1,0,0:0:0:0:
182,192,60530,1,0,0:0:0:0:
36,192,60530,1,0,0:0:0:0:
329,192,60530,128,0,60687:0:0:0:0:
475,192,60530,128,0,60687:0:0:0:0:
36,192,60687,1,0,0:0:0:0:
182,192,60687,1,0,0:0:0:0:
402,192,60765,1,0,0:0:0:0:
256,192,60765,1,0,0:0:0:0:
329,192,60844,1,0,0:0:0:0:
475,192,60844,1,0,0:0:0:0:
109,192,60844,128,0,61158:0:0:0:0:
402,192,61001,1,0,0:0:0:0:
182,192,61001,1,0,0:0:0:0:
329,192,61158,1,0,0:0:0:0:
36,192,61158,1,0,0:0:0:0:
402,192,61158,128,0,61315:0:0:0:0:
256,192,61315,1,0,0:0:0:0:
109,192,61315,1,0,0:0:0:0:
475,192,61315,128,0,61393:0:0:0:0:
329,192,61472,1,0,0:0:0:0:
475,192,61472,128,0,61786:0:0:0:0:
182,192,61472,128,0,61786:0:0:0:0:
36,192,61629,1,0,0:0:0:0:
256,192,61629,1,0,0:0:0:0:
402,192,61786,128,0,61943:0:0:0:0:
329,192,61786,1,0,0:0:0:0:
109,192,61786,128,0,61943:0:0:0:0:
182,192,61943,1,0,0:0:0:0:
256,192,61943,1,0,0:0:0:0:
329,192,62100,1,0,0:0:0:0:
36,192,62100,128,0,62414:0:0:0:0:
109,192,62100,1,0,0:0:0:0:
475,192,62100,128,0,62414:0:0:0:0:
256,192,62257,1,0,0:0:0:0:
402,192,62414,1,0,0:0:0:0:
256,192,62414,1,0,0:0:0:0:
109,192,62414,1,0,0:0:0:0:
329,192,62571,1,0,0:0:0:0:
36,192,62728,1,0,0:0:0:0:
182,192,62728,128,0,62886:0:0:0:0:
402,192,62728,1,0,0:0:0:0:
329,192,62886,128,0,63043:0:0:0:0:
109,192,62886,1,0,0:0:0:0:
475,192,62886,1,0,0:0:0:0:
182,192,63043,128,0,63200:0:0:0:0:
109,192,63043,1,0,0:0:0:0:
402,192,63043,1,0,0:0:0:0:
329,192,63200,128,0,63357:0:0:0:0:
256,192,63200,1,0,0:0:0:0:
36,192,63200,1,0,0:0:0:0:
475,192,63200,128,0,63357:0:0:0:0:
109,192,63357,1,0,0:0:0:0:
109,192,63514,128,0,63592:0:0:0:0:
475,192,63514,1,0,0:0:0:0:
329,192,63514,1,0,0:0:0:0:
109,192,63671,128,0,63828:0:0:0:0:
402,192,63671,1,0,0:0:0:0:
329,192,63749,1,0,0:0:0:0:
475,192,63828,128,0,63907:0:0:0:0:
182,192,63828,1,0,0:0:0:0:
256,192,63907,1,0,0:0:0:0:
475,192,63985,128,0,64142:0:0:0:0:
36,192,63985,1,0,0:0:0:0:
329,192,63985,1,0,0:0:0:0:
109,192,64064,1,0,0:0:0:0:
182,192,64142,1,0,0:0:0:0:
256,192,64142,128,0,64221:0:0:0:0:
402,192,64142,1,0,0:0:0:0:
109,192,64221,1,0,0:0:0:0:
36,192,64299,1,0,0:0:0:0:
256,192,64299,128,0,64456:0:0:0:0:
402,192,64299,1,0,0:0:0:0:
329,192,64378,1,0,0:0:0:0:
182,192,64456,1,0,0:0:0:0:
109,192,64456,1,0,0:0:0:0:
402,192,64456,1,0,0:0:0:0:
475,192,64456,1,0,0:0:0:0:
402,192,64770,1,0,0:0:0:0:
329,192,64770,1,0,0:0:0:0:
109,192,64770,1,0,0:0:0:0:
36,192,64770,1,0,0:0:0:0:
109,192,65085,1,0,0:0:0:0:
475,192,65085,1,0,0:0:0:0:
329,192,65085,1,0,0:0:0:0:
256,192,65085,1,0,0:0:0:0:
402,192,65399,1,0,0:0:0:0:
256,192,65399,1,0,0:0:0:0:
182,192,65399,1,0,0:0:0:0:
36,192,65399,1,0,0:0:0:0:
36,192,65713,128,0,67126:0:0:0:0:
329,192,65713,128,0,67126:0:0:0:0:
475,192,65713,1,0,0:0:0:0:
182,192,65713,1,0,0:0:0:0:
256,192,66027,1,0,0:0:0:0:
256,192,66184,1,0,0:0:0:0:
256,192,66498,1,0,0:0:0:0:
256,192,66812,1,0,0:0:0:0:
109,192,67126,128,0,68226:0:0:0:0:
402,192,67126,128,0,68226:0:0:0:0:
256,192,67126,1,0,0:0:0:0:
256,192,67441,1,0,0:0:0:0:
256,192,67755,1,0,0:0:0:0:
475,192,67912,1,0,0:0:0:0:
36,192,67912,1,0,0:0:0:0:
256,192,68069,1,0,0:0:0:0:
36,192,68226,128,0,69011:0:0:0:0:
475,192,68226,128,0,69011:0:0:0:0:
329,192,68226,1,0,0:0:0:0:
182,192,68226,1,0,0:0:0:0:
256,192,68383,1,0,0:0:0:0:
256,192,68697,1,0,0:0:0:0:
109,192,69011,128,0,69639:0:0:0:0:
402,192,69011,128,0,69639:0:0:0:0:
256,192,69011,1,0,0:0:0:0:
256,192,69325,1,0,0:0:0:0:
256,192,69639,1,0,0:0:0:0:
36,192,69639,1,0,0:0:0:0:
329,192,69718,1,0,0:0:0:0:
402,192,69797,1,0,0:0:0:0:
109,192,69797,1,0,0:0:0:0:
329,192,69875,1,0,0:0:0:0:
256,192,69954,1,0,0:0:0:0:
36,192,69954,1,0,0:0:0:0:
475,192,69954,1,0,0:0:0:0:
182,192,70032,1,0,0:0:0:0:
109,192,70111,1,0,0:0:0:0:
329,192,70111,1,0,0:0:0:0:
182,192,70189,1,0,0:0:0:0:
256,192,70268,1,0,0:0:0:0:
36,192,70268,1,0,0:0:0:0:
475,192,70268,1,0,0:0:0:0:
329,192,70346,1,0,0:0:0:0:
402,192,70425,1,0,0:0:0:0:
109,192,70425,1,0,0:0:0:0:
329,192,70503,1,0,0:0:0:0:
256,192,70582,1,0,0:0:0:0:
182,192,70582,1,0,0:0:0:0:
402,192,70660,1,0,0:0:0:0:
475,192,70660,1,0,0:0:0:0:
182,192,70739,1,0,0:0:0:0:
109,192,70739,1,0,0:0:0:0:
329,192,70817,1,0,0:0:0:0:
402,192,70817,1,0,0:0:0:0:
36,192,70896,128,0,71053:0:0:0:0:
109,192,70896,128,0,71053:0:0:0:0:
256,192,70896,128,0,71053:0:0:0:0:
182,192,70896,128,0,71053:0:0:0:0:
475,192,71053,1,0,0:0:0:0:
329,192,71053,1,0,0:0:0:0:
329,192,71210,1,0,0:0:0:0:
475,192,71210,1,0,0:0:0:0:
182,192,71367,128,0,71524:0:0:0:0:
36,192,71367,128,0,71524:0:0:0:0:
109,192,71367,128,0,71524:0:0:0:0:
475,192,71367,128,0,71524:0:0:0:0:
256,192,71524,1,0,0:0:0:0:
402,192,71524,1,0,0:0:0:0:
256,192,71681,1,0,0:0:0:0:
402,192,71681,1,0,0:0:0:0:
182,192,71838,128,0,71996:0:0:0:0:
329,192,71838,128,0,71996:0:0:0:0:
475,192,71838,128,0,71996:0:0:0:0:
402,192,71838,128,0,71996:0:0:0:0:
36,192,71996,1,0,0:0:0:0:
109,192,71996,1,0,0:0:0:0:
109,192,72153,1,0,0:0:0:0:
36,192,72153,1,0,0:0:0:0:
256,192,72310,128,0,72467:0:0:0:0:
109,192,72310,128,0,72467:0:0:0:0:
402,192,72310,128,0,72467:0:0:0:0:
475,192,72310,128,0,72467:0:0:0:0:
182,192,72467,1,0,0:0:0:0:
329,192,72467,1,0,0:0:0:0:
182,192,72624,1,0,0:0:0:0:
329,192,72624,1,0,0:0:0:0:
329,192,72781,128,0,72938:0:0:0:0:
402,192,72781,128,0,72938:0:0:0:0:
475,192,72781,128,0,72938:0:0:0:0:
36,192,72781,128,0,72938:0:0:0:0:
109,192,72938,1,0,0:0:0:0:
256,192,72938,1,0,0:0:0:0:
182,192,73095,128,0,73252:0:0:0:0:
109,192,73095,128,0,73252:0:0:0:0:
36,192,73095,128,0,73252:0:0:0:0:
402,192,73095,128,0,73252:0:0:0:0:
475,192,73252,1,0,0:0:0:0:
256,192,73252,1,0,0:0:0:0:
182,192,73409,1,0,0:0:0:0:
402,192,73409,1,0,0:0:0:0:
36,192,73409,1,0,0:0:0:0:
256,192,73488,1,0,0:0:0:0:
329,192,73566,1,0,0:0:0:0:
109,192,73566,1,0,0:0:0:0:
256,192,73645,1,0,0:0:0:0:
475,192,73723,1,0,0:0:0:0:
182,192,73723,1,0,0:0:0:0:
36,192,73723,1,0,0:0:0:0:
329,192,73802,1,0,0:0:0:0:
182,192,73880,1,0,0:0:0:0:
36,192,73880,1,0,0:0:0:0:
256,192,73959,1,0,0:0:0:0:
329,192,74037,1,0,0:0:0:0:
475,192,74037,1,0,0:0:0:0:
182,192,74116,1,0,0:0:0:0:
36,192,74116,1,0,0:0:0:0:
402,192,74194,1,0,0:0:0:0:
256,192,74194,1,0,0:0:0:0:
109,192,74273,1,0,0:0:0:0:
475,192,74352,1,0,0:0:0:0:
256,192,74352,1,0,0:0:0:0:
402,192,74430,1,0,0:0:0:0:
329,192,74509,1,0,0:0:0:0:
109,192,74509,1,0,0:0:0:0:
182,192,74587,1,0,0:0:0:0:
36,192,74666,1,0,0:0:0:0:
256,192,74666,1,0,0:0:0:0:
475,192,74666,1,0,0:0:0:0:
109,192,74744,1,0,0:0:0:0:
329,192,74744,1,0,0:0:0:0:
402,192,74823,1,0,0:0:0:0:
256,192,74823,1,0,0:0:0:0:
182,192,74901,1,0,0:0:0:0:
36,192,74901,1,0,0:0:0:0:
329,192,74980,1,0,0:0:0:0:
475,192,74980,1,0,0:0:0:0:
182,192,75058,1,0,0:0:0:0:
402,192,75137,1,0,0:0:0:0:
109,192,75137,1,0,0:0:0:0:
182,192,75215,1,0,0:0:0:0:
36,192,75294,1,0,0:0:0:0:
256,192,75294,1,0,0:0:0:0:
402,192,75294,1,0,0:0:0:0:
182,192,75372,1,0,0:0:0:0:
475,192,75451,1,0,0:0:0:0:
329,192,75451,1,0,0:0:0:0:
256,192,75530,1,0,0:0:0:0:
109,192,75530,1,0,0:0:0:0:
36,192,75608,1,0,0:0:0:0:
475,192,75608,1,0,0:0:0:0:
182,192,75687,1,0,0:0:0:0:
329,192,75687,1,0,0:0:0:0:
402,192,75765,1,0,0:0:0:0:
36,192,75765,1,0,0:0:0:0:
256,192,75765,1,0,0:0:0:0:
475,192,75765,128,0,78278:0:0:0:0:
182,192,75922,1,0,0:0:0:0:
402,192,76079,1,0,0:0:0:0:
329,192,76079,1,0,0:0:0:0:
36,192,76236,1,0,0:0:0:0:
402,192,76236,1,0,0:0:0:0:
256,192,76236,1,0,0:0:0:0:
109,192,76393,1,0,0:0:0:0:
36,192,76550,1,0,0:0:0:0:
329,192,76550,1,0,0:0:0:0:
182,192,76550,1,0,0:0:0:0:
256,192,76708,1,0,0:0:0:0:
402,192,76865,1,0,0:0:0:0:
329,192,76865,1,0,0:0:0:0:
109,192,76865,1,0,0:0:0:0:
182,192,77022,1,0,0:0:0:0:
256,192,77179,1,0,0:0:0:0:
329,192,77179,1,0,0:0:0:0:
36,192,77179,1,0,0:0:0:0:
182,192,77336,1,0,0:0:0:0:
109,192,77493,1,0,0:0:0:0:
402,192,77493,1,0,0:0:0:0:
256,192,77493,1,0,0:0:0:0:
329,192,77650,1,0,0:0:0:0:
256,192,77807,1,0,0:0:0:0:
182,192,77807,1,0,0:0:0:0:
36,192,77807,1,0,0:0:0:0:
329,192,77964,1,0,0:0:0:0:
402,192,78121,1,0,0:0:0:0:
182,192,78121,1,0,0:0:0:0:
109,192,78121,1,0,0:0:0:0:
182,192,78278,128,0,80791:0:0:0:0:
36,192,78278,1,0,0:0:0:0:
329,192,78278,1,0,0:0:0:0:
402,192,78435,1,0,0:0:0:0:
256,192,78592,1,0,0:0:0:0:
109,192,78592,1,0,0:0:0:0:
329,192,78749,1,0,0:0:0:0:
475,192,78749,1,0,0:0:0:0:
36,192,78749,1,0,0:0:0:0:
256,192,78907,1,0,0:0:0:0:
402,192,79064,1,0,0:0:0:0:
109,192,79064,1,0,0:0:0:0:
475,192,79064,1,0,0:0:0:0:
329,192,79221,1,0,0:0:0:0:
256,192,79378,1,0,0:0:0:0:
36,192,79378,1,0,0:0:0:0:
402,192,79378,1,0,0:0:0:0:
109,192,79535,1,0,0:0:0:0:
329,192,79692,1,0,0:0:0:0:
475,192,79692,1,0,0:0:0:0:
256,192,79692,1,0,0:0:0:0:
402,192,79849,1,0,0:0:0:0:
109,192,80006,1,0,0:0:0:0:
36,192,80006,1,0,0:0:0:0:
256,192,80006,1,0,0:0:0:0:
329,192,80163,1,0,0:0:0:0:
402,192,80320,1,0,0:0:0:0:
109,192,80320,1,0,0:0:0:0:
475,192,80320,1,0,0:0:0:0:
256,192,80477,1,0,0:0:0:0:
36,192,80634,1,0,0:0:0:0:
475,192,80634,1,0,0:0:0:0:
329,192,80634,1,0,0:0:0:0:
36,192,80791,128,0,83304:0:0:0:0:
402,192,80791,1,0,0:0:0:0:
256,192,80791,1,0,0:0:0:0:
329,192,80948,1,0,0:0:0:0:
182,192,81105,1,0,0:0:0:0:
402,192,81105,1,0,0:0:0:0:
329,192,81263,1,0,0:0:0:0:
475,192,81263,1,0,0:0:0:0:
256,192,81263,1,0,0:0:0:0:
182,192,81420,1,0,0:0:0:0:
402,192,81577,1,0,0:0:0:0:
109,192,81577,1,0,0:0:0:0:
256,192,81577,1,0,0:0:0:0:
329,192,81734,1,0,0:0:0:0:
402,192,81891,1,0,0:0:0:0:
475,192,81891,1,0,0:0:0:0:
182,192,81891,1,0,0:0:0:0:
256,192,82048,1,0,0:0:0:0:
182,192,82205,1,0,0:0:0:0:
109,192,82205,1,0,0:0:0:0:
329,192,82205,1,0,0:0:0:0:
402,192,82283,1,0,0:0:0:0:
475,192,82283,1,0,0:0:0:0:
256,192,82362,1,0,0:0:0:0:
329,192,82441,1,0,0:0:0:0:
182,192,82519,1,0,0:0:0:0:
109,192,82519,1,0,0:0:0:0:
402,192,82598,1,0,0:0:0:0:
329,192,82676,1,0,0:0:0:0:
182,192,82676,1,0,0:0:0:0:
402,192,82755,1,0,0:0:0:0:
109,192,82833,1,0,0:0:0:0:
182,192,82833,1,0,0:0:0:0:
329,192,82912,1,0,0:0:0:0:
475,192,82912,1,0,0:0:0:0:
182,192,82990,1,0,0:0:0:0:
256,192,82990,1,0,0:0:0:0:
109,192,82990,1,0,0:0:0:0:
329,192,83069,1,0,0:0:0:0:
402,192,83147,1,0,0:0:0:0:
475,192,83147,1,0,0:0:0:0:
256,192,83226,1,0,0:0:0:0:
109,192,83304,1,0,0:0:0:0:
329,192,83304,128,0,83619:0:0:0:0:
182,192,83304,128,0,83619:0:0:0:0:
475,192,83304,128,0,83619:0:0:0:0:
109,192,83619,1,0,0:0:0:0:
256,192,83619,1,0,0:0:0:0:
402,192,83619,1,0,0:0:0:0:
182,192,83776,1,0,0:0:0:0:
329,192,83776,1,0,0:0:0:0:
36,192,83776,128,0,83854:0:0:0:0:
475,192,83776,1,0,0:0:0:0:
36,192,83933,128,0,84404:0:0:0:0:
256,192,83933,1,0,0:0:0:0:
329,192,84090,128,0,84168:0:0:0:0:
475,192,84090,1,0,0:0:0:0:
182,192,84090,1,0,0:0:0:0:
329,192,84247,128,0,84718:0:0:0:0:
256,192,84247,1,0,0:0:0:0:
182,192,84404,128,0,84482:0:0:0:0:
402,192,84404,1,0,0:0:0:0:
475,192,84404,1,0,0:0:0:0:
182,192,84561,128,0,85032:0:0:0:0:
256,192,84561,1,0,0:0:0:0:
475,192,84718,128,0,84797:0:0:0:0:
109,192,84718,1,0,0:0:0:0:
36,192,84718,1,0,0:0:0:0:
475,192,84875,128,0,85346:0:0:0:0:
329,192,84875,1,0,0:0:0:0:
36,192,85032,128,0,85111:0:0:0:0:
256,192,85032,1,0,0:0:0:0:
402,192,85032,1,0,0:0:0:0:
36,192,85189,128,0,85346:0:0:0:0:
182,192,85189,1,0,0:0:0:0:
402,192,85346,128,0,85425:0:0:0:0:
109,192,85346,128,0,85425:0:0:0:0:
256,192,85346,1,0,0:0:0:0:
329,192,85503,128,0,85582:0:0:0:0:
182,192,85503,128,0,85582:0:0:0:0:
109,192,85660,128,0,85739:0:0:0:0:
402,192,85660,128,0,85739:0:0:0:0:
36,192,85660,1,0,0:0:0:0:
475,192,85660,1,0,0:0:0:0:
329,192,85817,128,0,85975:0:0:0:0:
182,192,85817,128,0,85975:0:0:0:0:
109,192,85975,1,0,0:0:0:0:
256,192,85975,1,0,0:0:0:0:
36,192,85975,1,0,0:0:0:0:
402,192,86053,1,0,0:0:0:0:
475,192,86053,1,0,0:0:0:0:
109,192,86132,1,0,0:0:0:0:
329,192,86132,1,0,0:0:0:0:
402,192,86210,1,0,0:0:0:0:
109,192,86289,1,0,0:0:0:0:
36,192,86289,1,0,0:0:0:0:
182,192,86289,1,0,0:0:0:0:
402,192,86367,1,0,0:0:0:0:
329,192,86367,1,0,0:0:0:0:
109,192,86446,1,0,0:0:0:0:
256,192,86446,1,0,0:0:0:0:
329,192,86524,1,0,0:0:0:0:
109,192,86603,1,0,0:0:0:0:
36,192,86603,1,0,0:0:0:0:
475,192,86603,1,0,0:0:0:0:
329,192,86681,1,0,0:0:0:0:
182,192,86760,1,0,0:0:0:0:
329,192,86838,1,0,0:0:0:0:
109,192,86838,1,0,0:0:0:0:
256,192,86917,1,0,0:0:0:0:
402,192,86917,1,0,0:0:0:0:
36,192,86917,1,0,0:0:0:0:
329,192,86996,1,0,0:0:0:0:
475,192,86996,1,0,0:0:0:0:
182,192,87074,1,0,0:0:0:0:
36,192,87074,1,0,0:0:0:0:
329,192,87153,1,0,0:0:0:0:
475,192,87153,1,0,0:0:0:0:
109,192,87231,1,0,0:0:0:0:
36,192,87231,1,0,0:0:0:0:
182,192,87251,1,0,0:0:0:0:
329,192,87251,1,0,0:0:0:0:
109,192,87506,1,0,0:0:0:0:
182,192,87565,1,0,0:0:0:0:
329,192,87585,1,0,0:0:0:0:
256,192,87624,1,0,0:0:0:0:
109,192,87702,1,0,0:0:0:0:
256,192,87781,1,0,0:0:0:0:
475,192,87859,1,0,0:0:0:0:
329,192,87899,1,0,0:0:0:0:
109,192,88016,1,0,0:0:0:0:
182,192,88095,1,0,0:0:0:0:
109,192,88331,128,0,88488:0:0:0:0:
256,192,88331,128,0,88488:0:0:0:0:
402,192,88331,128,0,88488:0:0:0:0:
475,192,88331,128,0,88488:0:0:0:0:
36,192,88331,128,0,88488:0:0:0:0:
