osu file format v14

[General]
AudioFilename: SAVIOR OF SONG.mp3
AudioLeadIn: 0
PreviewTime: 45494
Countdown: 0
SampleSet: Soft
StackLeniency: 0.7
Mode: 3
LetterboxInBreaks: 0
SpecialStyle: 0
WidescreenStoryboard: 1

[Editor]
DistanceSpacing: 1.1
BeatDivisor: 4
GridSize: 4
TimelineZoom: 1

[Metadata]
Title:1212's Pack Maps 1
TitleUnicode:1212's Pack Maps 1
Artist:Various Artists
ArtistUnicode:Various Artists
Creator:Julio1212-
Version:nano feat. MY FIRST STORY - SAVIOR OF SONG
Source:
Tags:1212
BeatmapID:1596459
BeatmapSetID:759045

[Difficulty]
HPDrainRate:8
CircleSize:7
OverallDifficulty:7
ApproachRate:5
SliderMultiplier:1.4
SliderTickRate:1

[Events]
//Background and Video events
0,0,"savior song.jpg",0,0
//Break Periods
//Storyboard Layer 0 (Background)
//Storyboard Layer 1 (Fail)
//Storyboard Layer 2 (Pass)
//Storyboard Layer 3 (Foreground)
//Storyboard Sound Samples

[TimingPoints]
573,312.5,4,2,1,15,1,0
46041,-100,4,2,1,15,0,1
66198,-100,4,2,1,15,0,0

[HitObjects]
329,192,573,5,0,0:0:0:0:
402,192,1041,1,0,0:0:0:0:
475,192,1510,1,0,0:0:0:0:
256,192,3073,1,0,0:0:0:0:
329,192,3541,1,0,0:0:0:0:
402,192,4010,1,0,0:0:0:0:
109,192,5573,1,0,0:0:0:0:
182,192,6041,1,0,0:0:0:0:
256,192,6510,1,0,0:0:0:0:
36,192,9948,1,0,0:0:0:0:
475,192,9948,1,0,0:0:0:0:
256,192,9948,1,0,0:0:0:0:
109,192,10026,1,0,0:0:0:0:
329,192,10026,1,0,0:0:0:0:
182,192,10104,1,0,0:0:0:0:
475,192,10104,1,0,0:0:0:0:
329,192,10182,1,0,0:0:0:0:
109,192,10182,1,0,0:0:0:0:
256,192,10260,1,0,0:0:0:0:
475,192,10260,1,0,0:0:0:0:
36,192,10260,1,0,0:0:0:0:
402,192,10338,1,0,0:0:0:0:
182,192,10338,1,0,0:0:0:0:
329,192,10416,1,0,0:0:0:0:
109,192,10416,1,0,0:0:0:0:
36,192,10416,1,0,0:0:0:0:
475,192,10729,1,0,0:0:0:0:
256,192,10729,1,0,0:0:0:0:
182,192,10885,1,0,0:0:0:0:
36,192,10885,1,0,0:0:0:0:
402,192,10885,1,0,0:0:0:0:
475,192,11041,1,0,0:0:0:0:
109,192,11041,1,0,0:0:0:0:
402,192,11198,1,0,0:0:0:0:
256,192,11198,1,0,0:0:0:0:
475,192,11354,1,0,0:0:0:0:
256,192,11354,1,0,0:0:0:0:
182,192,11510,1,0,0:0:0:0:
36,192,11510,1,0,0:0:0:0:
329,192,11510,1,0,0:0:0:0:
402,192,11666,1,0,0:0:0:0:
109,192,11823,1,0,0:0:0:0:
329,192,11823,1,0,0:0:0:0:
182,192,11979,1,0,0:0:0:0:
109,192,12135,1,0,0:0:0:0:
329,192,12135,1,0,0:0:0:0:
475,192,12135,1,0,0:0:0:0:
182,192,12291,1,0,0:0:0:0:
402,192,12291,1,0,0:0:0:0:
109,192,12448,1,0,0:0:0:0:
475,192,12448,1,0,0:0:0:0:
182,192,12604,1,0,0:0:0:0:
475,192,12604,1,0,0:0:0:0:
256,192,12760,1,0,0:0:0:0:
402,192,12760,1,0,0:0:0:0:
36,192,12760,1,0,0:0:0:0:
329,192,12916,1,0,0:0:0:0:
109,192,12916,1,0,0:0:0:0:
475,192,12916,1,0,0:0:0:0:
475,192,13229,1,0,0:0:0:0:
182,192,13229,1,0,0:0:0:0:
329,192,13385,1,0,0:0:0:0:
109,192,13385,1,0,0:0:0:0:
36,192,13385,1,0,0:0:0:0:
475,192,13541,1,0,0:0:0:0:
256,192,13541,1,0,0:0:0:0:
329,192,13698,1,0,0:0:0:0:
182,192,13698,1,0,0:0:0:0:
475,192,13854,1,0,0:0:0:0:
182,192,13854,1,0,0:0:0:0:
109,192,14010,1,0,0:0:0:0:
36,192,14010,1,0,0:0:0:0:
329,192,14010,1,0,0:0:0:0:
475,192,14166,1,0,0:0:0:0:
182,192,14166,1,0,0:0:0:0:
329,192,14323,1,0,0:0:0:0:
36,192,14323,1,0,0:0:0:0:
109,192,14479,1,0,0:0:0:0:
475,192,14479,1,0,0:0:0:0:
329,192,14635,1,0,0:0:0:0:
182,192,14635,1,0,0:0:0:0:
402,192,14635,1,0,0:0:0:0:
109,192,14791,1,0,0:0:0:0:
256,192,14948,1,0,0:0:0:0:
402,192,14948,1,0,0:0:0:0:
109,192,15104,1,0,0:0:0:0:
256,192,15104,1,0,0:0:0:0:
329,192,15260,1,0,0:0:0:0:
475,192,15260,1,0,0:0:0:0:
182,192,15260,1,0,0:0:0:0:
402,192,15416,1,0,0:0:0:0:
256,192,15416,1,0,0:0:0:0:
109,192,15416,1,0,0:0:0:0:
182,192,15729,1,0,0:0:0:0:
36,192,15729,1,0,0:0:0:0:
329,192,15885,1,0,0:0:0:0:
475,192,15885,1,0,0:0:0:0:
109,192,15885,1,0,0:0:0:0:
182,192,16041,1,0,0:0:0:0:
329,192,16198,1,0,0:0:0:0:
36,192,16198,1,0,0:0:0:0:
182,192,16354,1,0,0:0:0:0:
36,192,16354,1,0,0:0:0:0:
329,192,16510,1,0,0:0:0:0:
475,192,16510,1,0,0:0:0:0:
109,192,16510,1,0,0:0:0:0:
182,192,16666,1,0,0:0:0:0:
402,192,16666,1,0,0:0:0:0:
329,192,16823,1,0,0:0:0:0:
36,192,16823,1,0,0:0:0:0:
109,192,16979,1,0,0:0:0:0:
475,192,16979,1,0,0:0:0:0:
256,192,17135,1,0,0:0:0:0:
402,192,17135,1,0,0:0:0:0:
36,192,17135,1,0,0:0:0:0:
109,192,17291,1,0,0:0:0:0:
256,192,17448,1,0,0:0:0:0:
475,192,17448,1,0,0:0:0:0:
109,192,17604,1,0,0:0:0:0:
475,192,17604,1,0,0:0:0:0:
256,192,17760,1,0,0:0:0:0:
402,192,17760,1,0,0:0:0:0:
36,192,17760,1,0,0:0:0:0:
109,192,17916,1,0,0:0:0:0:
329,192,17916,1,0,0:0:0:0:
475,192,17916,1,0,0:0:0:0:
36,192,18229,1,0,0:0:0:0:
329,192,18229,1,0,0:0:0:0:
475,192,18385,1,0,0:0:0:0:
109,192,18385,1,0,0:0:0:0:
256,192,18385,1,0,0:0:0:0:
36,192,18541,1,0,0:0:0:0:
329,192,18541,1,0,0:0:0:0:
475,192,18698,1,0,0:0:0:0:
182,192,18698,1,0,0:0:0:0:
36,192,18854,1,0,0:0:0:0:
182,192,18854,1,0,0:0:0:0:
475,192,19010,1,0,0:0:0:0:
329,192,19010,1,0,0:0:0:0:
109,192,19010,1,0,0:0:0:0:
36,192,19166,1,0,0:0:0:0:
256,192,19166,1,0,0:0:0:0:
475,192,19323,1,0,0:0:0:0:
182,192,19323,1,0,0:0:0:0:
36,192,19479,1,0,0:0:0:0:
329,192,19479,1,0,0:0:0:0:
475,192,19635,1,0,0:0:0:0:
256,192,19635,1,0,0:0:0:0:
109,192,19635,1,0,0:0:0:0:
36,192,19791,1,0,0:0:0:0:
182,192,19791,1,0,0:0:0:0:
402,192,19791,1,0,0:0:0:0:
475,192,19948,1,0,0:0:0:0:
329,192,19948,1,0,0:0:0:0:
256,192,19948,1,0,0:0:0:0:
182,192,20026,1,0,0:0:0:0:
109,192,20104,1,0,0:0:0:0:
402,192,20104,1,0,0:0:0:0:
36,192,20182,1,0,0:0:0:0:
475,192,20260,1,0,0:0:0:0:
256,192,20260,1,0,0:0:0:0:
329,192,20260,1,0,0:0:0:0:
182,192,20338,1,0,0:0:0:0:
402,192,20338,1,0,0:0:0:0:
109,192,20416,1,0,0:0:0:0:
329,192,20416,1,0,0:0:0:0:
475,192,20416,1,0,0:0:0:0:
36,192,20494,1,0,0:0:0:0:
256,192,20494,1,0,0:0:0:0:
402,192,20494,1,0,0:0:0:0:
182,192,23073,1,0,0:0:0:0:
256,192,23073,1,0,0:0:0:0:
329,192,23541,1,0,0:0:0:0:
402,192,24010,1,0,0:0:0:0:
475,192,24323,1,0,0:0:0:0:
182,192,25573,1,0,0:0:0:0:
109,192,25573,1,0,0:0:0:0:
256,192,26041,1,0,0:0:0:0:
402,192,26510,1,0,0:0:0:0:
329,192,26823,1,0,0:0:0:0:
36,192,28073,1,0,0:0:0:0:
109,192,28073,1,0,0:0:0:0:
182,192,28541,1,0,0:0:0:0:
256,192,29010,1,0,0:0:0:0:
329,192,29323,1,0,0:0:0:0:
475,192,30573,1,0,0:0:0:0:
36,192,30573,1,0,0:0:0:0:
182,192,31041,1,0,0:0:0:0:
329,192,31510,1,0,0:0:0:0:
256,192,31823,1,0,0:0:0:0:
402,192,32291,1,0,0:0:0:0:
182,192,32291,1,0,0:0:0:0:
109,192,32369,1,0,0:0:0:0:
36,192,32448,1,0,0:0:0:0:
256,192,32448,1,0,0:0:0:0:
475,192,32448,1,0,0:0:0:0:
402,192,32604,1,0,0:0:0:0:
182,192,32604,1,0,0:0:0:0:
329,192,32760,1,0,0:0:0:0:
109,192,32760,1,0,0:0:0:0:
256,192,32916,1,0,0:0:0:0:
36,192,32916,1,0,0:0:0:0:
256,192,33073,1,0,0:0:0:0:
36,192,33073,1,0,0:0:0:0:
475,192,33073,1,0,0:0:0:0:
402,192,33229,1,0,0:0:0:0:
475,192,33385,1,0,0:0:0:0:
36,192,33385,1,0,0:0:0:0:
402,192,33541,1,0,0:0:0:0:
475,192,33698,1,0,0:0:0:0:
36,192,33698,1,0,0:0:0:0:
402,192,33854,1,0,0:0:0:0:
475,192,34010,1,0,0:0:0:0:
36,192,34010,1,0,0:0:0:0:
402,192,34166,1,0,0:0:0:0:
475,192,34323,1,0,0:0:0:0:
36,192,34323,1,0,0:0:0:0:
182,192,34323,1,0,0:0:0:0:
402,192,34479,1,0,0:0:0:0:
256,192,34479,1,0,0:0:0:0:
475,192,34635,1,0,0:0:0:0:
36,192,34635,1,0,0:0:0:0:
402,192,34791,1,0,0:0:0:0:
109,192,34791,1,0,0:0:0:0:
475,192,34948,1,0,0:0:0:0:
36,192,34948,1,0,0:0:0:0:
402,192,35104,1,0,0:0:0:0:
256,192,35104,1,0,0:0:0:0:
475,192,35260,1,0,0:0:0:0:
36,192,35260,1,0,0:0:0:0:
402,192,35416,1,0,0:0:0:0:
36,192,35573,1,0,0:0:0:0:
475,192,35573,1,0,0:0:0:0:
109,192,35729,1,0,0:0:0:0:
36,192,35885,1,0,0:0:0:0:
475,192,35885,1,0,0:0:0:0:
109,192,36041,1,0,0:0:0:0:
36,192,36198,1,0,0:0:0:0:
475,192,36198,1,0,0:0:0:0:
109,192,36354,1,0,0:0:0:0:
475,192,36510,1,0,0:0:0:0:
36,192,36510,1,0,0:0:0:0:
109,192,36666,1,0,0:0:0:0:
36,192,36823,1,0,0:0:0:0:
475,192,36823,1,0,0:0:0:0:
256,192,36823,1,0,0:0:0:0:
109,192,36979,1,0,0:0:0:0:
329,192,36979,1,0,0:0:0:0:
36,192,37135,1,0,0:0:0:0:
475,192,37135,1,0,0:0:0:0:
109,192,37291,1,0,0:0:0:0:
256,192,37291,1,0,0:0:0:0:
36,192,37448,1,0,0:0:0:0:
475,192,37448,1,0,0:0:0:0:
109,192,37604,1,0,0:0:0:0:
402,192,37604,1,0,0:0:0:0:
36,192,37760,1,0,0:0:0:0:
475,192,37760,1,0,0:0:0:0:
109,192,37916,1,0,0:0:0:0:
402,192,38073,1,0,0:0:0:0:
256,192,38073,1,0,0:0:0:0:
109,192,38229,1,0,0:0:0:0:
402,192,38385,1,0,0:0:0:0:
109,192,38541,1,0,0:0:0:0:
402,192,38698,1,0,0:0:0:0:
256,192,38698,1,0,0:0:0:0:
109,192,38854,1,0,0:0:0:0:
182,192,38854,1,0,0:0:0:0:
402,192,39010,1,0,0:0:0:0:
109,192,39166,1,0,0:0:0:0:
329,192,39166,1,0,0:0:0:0:
475,192,39323,1,0,0:0:0:0:
256,192,39323,1,0,0:0:0:0:
36,192,39479,1,0,0:0:0:0:
182,192,39479,1,0,0:0:0:0:
475,192,39635,1,0,0:0:0:0:
36,192,39791,1,0,0:0:0:0:
256,192,39791,1,0,0:0:0:0:
475,192,39948,1,0,0:0:0:0:
329,192,39948,1,0,0:0:0:0:
36,192,40104,1,0,0:0:0:0:
182,192,40104,1,0,0:0:0:0:
475,192,40260,1,0,0:0:0:0:
256,192,40260,1,0,0:0:0:0:
36,192,40416,1,0,0:0:0:0:
329,192,40573,1,0,0:0:0:0:
182,192,40573,1,0,0:0:0:0:
475,192,40573,1,0,0:0:0:0:
182,192,40729,1,0,0:0:0:0:
329,192,40729,1,0,0:0:0:0:
475,192,40729,1,0,0:0:0:0:
182,192,40885,1,0,0:0:0:0:
329,192,40885,1,0,0:0:0:0:
475,192,40885,1,0,0:0:0:0:
329,192,41041,1,0,0:0:0:0:
182,192,41041,1,0,0:0:0:0:
475,192,41041,1,0,0:0:0:0:
36,192,41510,1,0,0:0:0:0:
182,192,41510,1,0,0:0:0:0:
329,192,41510,1,0,0:0:0:0:
329,192,41666,1,0,0:0:0:0:
182,192,41666,1,0,0:0:0:0:
36,192,41666,1,0,0:0:0:0:
36,192,41823,1,0,0:0:0:0:
182,192,41823,1,0,0:0:0:0:
329,192,41823,1,0,0:0:0:0:
329,192,41979,1,0,0:0:0:0:
182,192,41979,1,0,0:0:0:0:
36,192,41979,1,0,0:0:0:0:
475,192,43073,1,0,0:0:0:0:
329,192,43229,1,0,0:0:0:0:
402,192,43385,1,0,0:0:0:0:
256,192,43541,1,0,0:0:0:0:
329,192,43698,1,0,0:0:0:0:
109,192,43854,1,0,0:0:0:0:
256,192,44010,1,0,0:0:0:0:
109,192,44166,1,0,0:0:0:0:
402,192,44323,1,0,0:0:0:0:
256,192,44479,1,0,0:0:0:0:
475,192,44635,1,0,0:0:0:0:
109,192,44791,1,0,0:0:0:0:
329,192,44948,1,0,0:0:0:0:
475,192,45104,1,0,0:0:0:0:
182,192,45260,1,0,0:0:0:0:
329,192,45416,1,0,0:0:0:0:
256,192,45885,1,0,0:0:0:0:
402,192,46041,1,0,0:0:0:0:
256,192,46041,1,0,0:0:0:0:
109,192,46041,1,0,0:0:0:0:
329,192,46198,1,0,0:0:0:0:
36,192,46354,1,0,0:0:0:0:
256,192,46354,1,0,0:0:0:0:
329,192,46510,1,0,0:0:0:0:
475,192,46510,1,0,0:0:0:0:
109,192,46510,1,0,0:0:0:0:
36,192,46666,1,0,0:0:0:0:
402,192,46666,1,0,0:0:0:0:
109,192,46823,1,0,0:0:0:0:
256,192,46823,1,0,0:0:0:0:
36,192,46979,1,0,0:0:0:0:
256,192,46979,1,0,0:0:0:0:
329,192,47135,1,0,0:0:0:0:
475,192,47135,1,0,0:0:0:0:
182,192,47135,1,0,0:0:0:0:
36,192,47291,1,0,0:0:0:0:
109,192,47291,1,0,0:0:0:0:
402,192,47448,1,0,0:0:0:0:
182,192,47448,1,0,0:0:0:0:
329,192,47604,1,0,0:0:0:0:
182,192,47760,1,0,0:0:0:0:
36,192,47760,1,0,0:0:0:0:
475,192,47760,1,0,0:0:0:0:
329,192,47916,1,0,0:0:0:0:
109,192,47916,1,0,0:0:0:0:
402,192,48073,1,0,0:0:0:0:
36,192,48073,1,0,0:0:0:0:
329,192,48229,1,0,0:0:0:0:
36,192,48229,1,0,0:0:0:0:
256,192,48385,1,0,0:0:0:0:
475,192,48385,1,0,0:0:0:0:
182,192,48385,1,0,0:0:0:0:
402,192,48541,1,0,0:0:0:0:
36,192,48541,1,0,0:0:0:0:
109,192,48541,1,0,0:0:0:0:
256,192,48698,1,0,0:0:0:0:
36,192,48854,1,0,0:0:0:0:
329,192,48854,1,0,0:0:0:0:
182,192,49010,1,0,0:0:0:0:
402,192,49010,1,0,0:0:0:0:
475,192,49010,1,0,0:0:0:0:
256,192,49166,1,0,0:0:0:0:
36,192,49166,1,0,0:0:0:0:
182,192,49323,1,0,0:0:0:0:
329,192,49323,1,0,0:0:0:0:
36,192,49479,1,0,0:0:0:0:
329,192,49479,1,0,0:0:0:0:
402,192,49635,1,0,0:0:0:0:
475,192,49635,1,0,0:0:0:0:
182,192,49635,1,0,0:0:0:0:
256,192,49791,1,0,0:0:0:0:
109,192,49791,1,0,0:0:0:0:
182,192,49948,1,0,0:0:0:0:
402,192,49948,1,0,0:0:0:0:
36,192,50104,1,0,0:0:0:0:
329,192,50104,1,0,0:0:0:0:
182,192,50260,1,0,0:0:0:0:
475,192,50260,1,0,0:0:0:0:
402,192,50260,1,0,0:0:0:0:
256,192,50416,1,0,0:0:0:0:
109,192,50416,1,0,0:0:0:0:
402,192,50573,1,0,0:0:0:0:
182,192,50573,1,0,0:0:0:0:
36,192,50729,1,0,0:0:0:0:
402,192,50729,1,0,0:0:0:0:
182,192,50885,1,0,0:0:0:0:
36,192,50885,1,0,0:0:0:0:
329,192,50885,1,0,0:0:0:0:
402,192,51041,1,0,0:0:0:0:
256,192,51198,1,0,0:0:0:0:
475,192,51198,1,0,0:0:0:0:
109,192,51198,1,0,0:0:0:0:
329,192,51354,1,0,0:0:0:0:
182,192,51510,1,0,0:0:0:0:
36,192,51510,1,0,0:0:0:0:
475,192,51510,1,0,0:0:0:0:
329,192,51666,1,0,0:0:0:0:
109,192,51823,1,0,0:0:0:0:
256,192,51823,1,0,0:0:0:0:
402,192,51823,1,0,0:0:0:0:
329,192,51979,1,0,0:0:0:0:
182,192,52135,1,0,0:0:0:0:
36,192,52135,1,0,0:0:0:0:
402,192,52135,1,0,0:0:0:0:
329,192,52291,1,0,0:0:0:0:
182,192,52448,1,0,0:0:0:0:
475,192,52448,1,0,0:0:0:0:
256,192,52448,1,0,0:0:0:0:
402,192,52604,1,0,0:0:0:0:
182,192,52760,1,0,0:0:0:0:
475,192,52760,1,0,0:0:0:0:
109,192,52760,1,0,0:0:0:0:
402,192,52916,1,0,0:0:0:0:
256,192,53073,1,0,0:0:0:0:
109,192,53073,1,0,0:0:0:0:
402,192,53229,1,0,0:0:0:0:
256,192,53385,1,0,0:0:0:0:
36,192,53385,1,0,0:0:0:0:
475,192,53385,1,0,0:0:0:0:
182,192,53541,1,0,0:0:0:0:
402,192,53698,1,0,0:0:0:0:
109,192,53698,1,0,0:0:0:0:
329,192,53854,1,0,0:0:0:0:
36,192,54010,1,0,0:0:0:0:
402,192,54010,1,0,0:0:0:0:
182,192,54010,1,0,0:0:0:0:
475,192,54166,1,0,0:0:0:0:
402,192,54323,1,0,0:0:0:0:
256,192,54323,1,0,0:0:0:0:
329,192,54479,1,0,0:0:0:0:
109,192,54479,1,0,0:0:0:0:
36,192,54635,1,0,0:0:0:0:
256,192,54635,1,0,0:0:0:0:
402,192,54635,1,0,0:0:0:0:
475,192,54791,1,0,0:0:0:0:
109,192,54791,1,0,0:0:0:0:
256,192,54948,1,0,0:0:0:0:
402,192,54948,1,0,0:0:0:0:
109,192,55104,1,0,0:0:0:0:
329,192,55104,1,0,0:0:0:0:
36,192,55260,1,0,0:0:0:0:
256,192,55260,1,0,0:0:0:0:
475,192,55260,1,0,0:0:0:0:
109,192,55416,1,0,0:0:0:0:
402,192,55416,1,0,0:0:0:0:
256,192,55573,1,0,0:0:0:0:
36,192,55573,1,0,0:0:0:0:
329,192,55651,1,0,0:0:0:0:
109,192,55651,1,0,0:0:0:0:
402,192,55729,1,0,0:0:0:0:
182,192,55729,1,0,0:0:0:0:
475,192,55807,1,0,0:0:0:0:
256,192,55807,1,0,0:0:0:0:
329,192,55885,1,0,0:0:0:0:
36,192,55885,1,0,0:0:0:0:
109,192,55885,1,0,0:0:0:0:
182,192,55963,1,0,0:0:0:0:
402,192,55963,1,0,0:0:0:0:
109,192,56041,1,0,0:0:0:0:
475,192,56041,1,0,0:0:0:0:
36,192,56041,1,0,0:0:0:0:
256,192,56041,1,0,0:0:0:0:
329,192,56198,1,0,0:0:0:0:
475,192,56354,1,0,0:0:0:0:
256,192,56354,1,0,0:0:0:0:
182,192,56510,1,0,0:0:0:0:
36,192,56510,1,0,0:0:0:0:
402,192,56510,1,0,0:0:0:0:
475,192,56666,1,0,0:0:0:0:
109,192,56666,1,0,0:0:0:0:
402,192,56823,1,0,0:0:0:0:
256,192,56823,1,0,0:0:0:0:
475,192,56979,1,0,0:0:0:0:
256,192,56979,1,0,0:0:0:0:
182,192,57135,1,0,0:0:0:0:
36,192,57135,1,0,0:0:0:0:
329,192,57135,1,0,0:0:0:0:
475,192,57291,1,0,0:0:0:0:
256,192,57291,1,0,0:0:0:0:
109,192,57448,1,0,0:0:0:0:
329,192,57448,1,0,0:0:0:0:
256,192,57604,1,0,0:0:0:0:
329,192,57760,1,0,0:0:0:0:
475,192,57760,1,0,0:0:0:0:
36,192,57760,1,0,0:0:0:0:
109,192,57916,1,0,0:0:0:0:
256,192,57916,1,0,0:0:0:0:
182,192,58073,1,0,0:0:0:0:
475,192,58073,1,0,0:0:0:0:
329,192,58229,1,0,0:0:0:0:
182,192,58229,1,0,0:0:0:0:
256,192,58385,1,0,0:0:0:0:
36,192,58385,1,0,0:0:0:0:
402,192,58385,1,0,0:0:0:0:
109,192,58541,1,0,0:0:0:0:
475,192,58541,1,0,0:0:0:0:
329,192,58541,1,0,0:0:0:0:
256,192,58698,1,0,0:0:0:0:
475,192,58854,1,0,0:0:0:0:
182,192,58854,1,0,0:0:0:0:
329,192,59010,1,0,0:0:0:0:
109,192,59010,1,0,0:0:0:0:
36,192,59010,1,0,0:0:0:0:
256,192,59166,1,0,0:0:0:0:
475,192,59166,1,0,0:0:0:0:
329,192,59323,1,0,0:0:0:0:
182,192,59323,1,0,0:0:0:0:
475,192,59479,1,0,0:0:0:0:
182,192,59479,1,0,0:0:0:0:
109,192,59635,1,0,0:0:0:0:
36,192,59635,1,0,0:0:0:0:
329,192,59635,1,0,0:0:0:0:
182,192,59791,1,0,0:0:0:0:
475,192,59791,1,0,0:0:0:0:
329,192,59948,1,0,0:0:0:0:
109,192,59948,1,0,0:0:0:0:
402,192,60104,1,0,0:0:0:0:
256,192,60104,1,0,0:0:0:0:
329,192,60260,1,0,0:0:0:0:
36,192,60260,1,0,0:0:0:0:
109,192,60260,1,0,0:0:0:0:
182,192,60416,1,0,0:0:0:0:
475,192,60416,1,0,0:0:0:0:
36,192,60573,1,0,0:0:0:0:
329,192,60573,1,0,0:0:0:0:
475,192,60729,1,0,0:0:0:0:
36,192,60729,1,0,0:0:0:0:
256,192,60729,1,0,0:0:0:0:
329,192,60885,1,0,0:0:0:0:
475,192,60885,1,0,0:0:0:0:
182,192,60885,1,0,0:0:0:0:
109,192,61041,1,0,0:0:0:0:
256,192,61198,1,0,0:0:0:0:
36,192,61198,1,0,0:0:0:0:
402,192,61198,1,0,0:0:0:0:
182,192,61354,1,0,0:0:0:0:
402,192,61354,1,0,0:0:0:0:
329,192,61510,1,0,0:0:0:0:
475,192,61510,1,0,0:0:0:0:
36,192,61510,1,0,0:0:0:0:
182,192,61666,1,0,0:0:0:0:
475,192,61666,1,0,0:0:0:0:
402,192,61823,1,0,0:0:0:0:
256,192,61823,1,0,0:0:0:0:
109,192,61823,1,0,0:0:0:0:
182,192,61979,1,0,0:0:0:0:
402,192,61979,1,0,0:0:0:0:
329,192,62135,1,0,0:0:0:0:
475,192,62135,1,0,0:0:0:0:
109,192,62135,1,0,0:0:0:0:
182,192,62291,1,0,0:0:0:0:
329,192,62291,1,0,0:0:0:0:
36,192,62448,1,0,0:0:0:0:
256,192,62448,1,0,0:0:0:0:
402,192,62448,1,0,0:0:0:0:
109,192,62604,1,0,0:0:0:0:
256,192,62604,1,0,0:0:0:0:
329,192,62760,1,0,0:0:0:0:
36,192,62760,1,0,0:0:0:0:
475,192,62760,1,0,0:0:0:0:
109,192,62916,1,0,0:0:0:0:
475,192,62916,1,0,0:0:0:0:
402,192,63073,1,0,0:0:0:0:
256,192,63073,1,0,0:0:0:0:
109,192,63229,1,0,0:0:0:0:
402,192,63229,1,0,0:0:0:0:
256,192,63385,1,0,0:0:0:0:
36,192,63385,1,0,0:0:0:0:
475,192,63385,1,0,0:0:0:0:
402,192,63541,1,0,0:0:0:0:
182,192,63541,1,0,0:0:0:0:
109,192,63698,1,0,0:0:0:0:
402,192,63698,1,0,0:0:0:0:
329,192,63698,1,0,0:0:0:0:
182,192,63854,1,0,0:0:0:0:
329,192,63854,1,0,0:0:0:0:
475,192,64010,1,0,0:0:0:0:
109,192,64010,1,0,0:0:0:0:
329,192,64010,1,0,0:0:0:0:
36,192,64166,1,0,0:0:0:0:
475,192,64166,1,0,0:0:0:0:
109,192,64323,1,0,0:0:0:0:
256,192,64323,1,0,0:0:0:0:
475,192,64323,1,0,0:0:0:0:
256,192,64479,1,0,0:0:0:0:
182,192,64479,1,0,0:0:0:0:
109,192,64635,1,0,0:0:0:0:
256,192,64635,1,0,0:0:0:0:
402,192,64635,1,0,0:0:0:0:
36,192,64791,1,0,0:0:0:0:
402,192,64791,1,0,0:0:0:0:
109,192,64948,1,0,0:0:0:0:
402,192,64948,1,0,0:0:0:0:
475,192,64948,1,0,0:0:0:0:
182,192,65104,1,0,0:0:0:0:
475,192,65104,1,0,0:0:0:0:
475,192,65260,1,0,0:0:0:0:
329,192,65260,1,0,0:0:0:0:
109,192,65260,1,0,0:0:0:0:
329,192,65416,1,0,0:0:0:0:
36,192,65416,1,0,0:0:0:0:
329,192,65573,1,0,0:0:0:0:
182,192,65573,1,0,0:0:0:0:
256,192,65573,1,0,0:0:0:0:
109,192,65651,1,0,0:0:0:0:
402,192,65651,1,0,0:0:0:0:
36,192,65729,1,0,0:0:0:0:
475,192,65729,1,0,0:0:0:0:
109,192,65807,1,0,0:0:0:0:
402,192,65807,1,0,0:0:0:0:
182,192,65885,1,0,0:0:0:0:
329,192,65885,1,0,0:0:0:0:
256,192,65963,1,0,0:0:0:0:
475,192,65963,1,0,0:0:0:0:
36,192,65963,1,0,0:0:0:0:
329,192,66041,1,0,0:0:0:0:
182,192,66041,1,0,0:0:0:0:
402,192,66119,1,0,0:0:0:0:
109,192,66119,1,0,0:0:0:0:
402,192,66198,1,0,0:0:0:0:
109,192,66198,1,0,0:0:0:0:
256,192,66198,1,0,0:0:0:0:
256,192,66354,1,0,0:0:0:0:
109,192,66510,1,0,0:0:0:0:
402,192,66510,1,0,0:0:0:0:
475,192,66510,1,0,0:0:0:0:
109,192,66666,1,0,0:0:0:0:
256,192,66666,1,0,0:0:0:0:
329,192,66823,1,0,0:0:0:0:
182,192,66823,1,0,0:0:0:0:
329,192,66979,1,0,0:0:0:0:
475,192,67135,1,0,0:0:0:0:
36,192,67135,1,0,0:0:0:0:
182,192,67135,1,0,0:0:0:0:
475,192,67291,1,0,0:0:0:0:
256,192,67291,1,0,0:0:0:0:
109,192,67448,1,0,0:0:0:0:
329,192,67448,1,0,0:0:0:0:
109,192,67604,1,0,0:0:0:0:
402,192,67760,1,0,0:0:0:0:
256,192,67760,1,0,0:0:0:0:
36,192,67760,1,0,0:0:0:0:
402,192,67916,1,0,0:0:0:0:
109,192,67916,1,0,0:0:0:0:
182,192,68073,1,0,0:0:0:0:
475,192,68073,1,0,0:0:0:0:
182,192,68229,1,0,0:0:0:0:
329,192,68385,1,0,0:0:0:0:
36,192,68385,1,0,0:0:0:0:
475,192,68385,1,0,0:0:0:0:
329,192,68541,1,0,0:0:0:0:
182,192,68541,1,0,0:0:0:0:
256,192,68698,1,0,0:0:0:0:
36,192,68698,1,0,0:0:0:0:
402,192,68698,1,0,0:0:0:0:
36,192,68854,1,0,0:0:0:0:
109,192,69010,1,0,0:0:0:0:
329,192,69010,1,0,0:0:0:0:
475,192,69010,1,0,0:0:0:0:
109,192,69166,1,0,0:0:0:0:
402,192,69166,1,0,0:0:0:0:
182,192,69323,1,0,0:0:0:0:
475,192,69323,1,0,0:0:0:0:
182,192,69479,1,0,0:0:0:0:
256,192,69635,1,0,0:0:0:0:
402,192,69635,1,0,0:0:0:0:
36,192,69635,1,0,0:0:0:0:
256,192,69791,1,0,0:0:0:0:
109,192,69791,1,0,0:0:0:0:
475,192,69948,1,0,0:0:0:0:
182,192,69948,1,0,0:0:0:0:
475,192,70104,1,0,0:0:0:0:
402,192,70260,1,0,0:0:0:0:
109,192,70260,1,0,0:0:0:0:
256,192,70260,1,0,0:0:0:0:
402,192,70416,1,0,0:0:0:0:
182,192,70416,1,0,0:0:0:0:
329,192,70573,1,0,0:0:0:0:
36,192,70573,1,0,0:0:0:0:
329,192,70729,1,0,0:0:0:0:
256,192,70885,1,0,0:0:0:0:
109,192,70885,1,0,0:0:0:0:
475,192,70885,1,0,0:0:0:0:
256,192,71041,1,0,0:0:0:0:
402,192,71041,1,0,0:0:0:0:
475,192,71198,1,0,0:0:0:0:
182,192,71198,1,0,0:0:0:0:
36,192,71198,1,0,0:0:0:0:
182,192,71510,1,0,0:0:0:0:
36,192,71510,1,0,0:0:0:0:
475,192,71510,1,0,0:0:0:0:
475,192,71823,1,0,0:0:0:0:
182,192,71823,1,0,0:0:0:0:
36,192,71823,1,0,0:0:0:0:
475,192,72135,1,0,0:0:0:0:
182,192,72135,1,0,0:0:0:0:
36,192,72135,1,0,0:0:0:0:
402,192,72448,1,0,0:0:0:0:
256,192,72448,1,0,0:0:0:0:
109,192,72448,1,0,0:0:0:0:
402,192,72760,1,0,0:0:0:0:
256,192,72760,1,0,0:0:0:0:
109,192,72760,1,0,0:0:0:0:
402,192,73073,1,0,0:0:0:0:
256,192,73073,1,0,0:0:0:0:
109,192,73073,1,0,0:0:0:0:
402,192,73385,1,0,0:0:0:0:
256,192,73385,1,0,0:0:0:0:
109,192,73385,1,0,0:0:0:0:
329,192,73698,1,0,0:0:0:0:
475,192,73698,1,0,0:0:0:0:
256,192,73698,1,0,0:0:0:0:
109,192,73698,1,0,0:0:0:0:
475,192,74010,1,0,0:0:0:0:
329,192,74010,1,0,0:0:0:0:
256,192,74010,1,0,0:0:0:0:
109,192,74010,1,0,0:0:0:0:
256,192,74323,1,0,0:0:0:0:
329,192,74323,1,0,0:0:0:0:
475,192,74323,1,0,0:0:0:0:
109,192,74323,1,0,0:0:0:0:
475,192,74635,1,0,0:0:0:0:
329,192,74635,1,0,0:0:0:0:
256,192,74635,1,0,0:0:0:0:
109,192,74635,1,0,0:0:0:0:
109,192,74948,1,0,0:0:0:0:
36,192,74948,1,0,0:0:0:0:
256,192,74948,1,0,0:0:0:0:
402,192,74948,1,0,0:0:0:0:
402,192,75260,1,0,0:0:0:0:
256,192,75260,1,0,0:0:0:0:
109,192,75260,1,0,0:0:0:0:
36,192,75260,1,0,0:0:0:0:
256,192,75573,1,0,0:0:0:0:
36,192,75573,1,0,0:0:0:0:
402,192,75573,1,0,0:0:0:0:
109,192,75651,1,0,0:0:0:0:
329,192,75651,1,0,0:0:0:0:
182,192,75729,1,0,0:0:0:0:
402,192,75729,1,0,0:0:0:0:
475,192,75807,1,0,0:0:0:0:
256,192,75807,1,0,0:0:0:0:
109,192,75885,1,0,0:0:0:0:
36,192,75885,1,0,0:0:0:0:
329,192,75885,1,0,0:0:0:0:
182,192,75963,1,0,0:0:0:0:
402,192,75963,1,0,0:0:0:0:
109,192,76041,1,0,0:0:0:0:
256,192,76041,1,0,0:0:0:0:
36,192,76041,1,0,0:0:0:0:
475,192,76041,1,0,0:0:0:0:
36,192,76354,1,0,0:0:0:0:
256,192,76354,1,0,0:0:0:0:
329,192,76510,1,0,0:0:0:0:
475,192,76510,1,0,0:0:0:0:
109,192,76510,1,0,0:0:0:0:
36,192,76666,1,0,0:0:0:0:
402,192,76666,1,0,0:0:0:0:
109,192,76823,1,0,0:0:0:0:
256,192,76823,1,0,0:0:0:0:
36,192,76979,1,0,0:0:0:0:
256,192,76979,1,0,0:0:0:0:
329,192,77135,1,0,0:0:0:0:
475,192,77135,1,0,0:0:0:0:
182,192,77135,1,0,0:0:0:0:
109,192,77291,1,0,0:0:0:0:
402,192,77448,1,0,0:0:0:0:
182,192,77448,1,0,0:0:0:0:
329,192,77604,1,0,0:0:0:0:
402,192,77760,1,0,0:0:0:0:
182,192,77760,1,0,0:0:0:0:
36,192,77760,1,0,0:0:0:0:
329,192,77916,1,0,0:0:0:0:
109,192,77916,1,0,0:0:0:0:
402,192,78073,1,0,0:0:0:0:
36,192,78073,1,0,0:0:0:0:
329,192,78229,1,0,0:0:0:0:
36,192,78229,1,0,0:0:0:0:
256,192,78385,1,0,0:0:0:0:
109,192,78385,1,0,0:0:0:0:
475,192,78385,1,0,0:0:0:0:
182,192,78541,1,0,0:0:0:0:
402,192,78541,1,0,0:0:0:0:
36,192,78541,1,0,0:0:0:0:
256,192,78698,1,0,0:0:0:0:
36,192,78854,1,0,0:0:0:0:
329,192,78854,1,0,0:0:0:0:
182,192,79010,1,0,0:0:0:0:
402,192,79010,1,0,0:0:0:0:
475,192,79010,1,0,0:0:0:0:
36,192,79166,1,0,0:0:0:0:
256,192,79166,1,0,0:0:0:0:
182,192,79323,1,0,0:0:0:0:
329,192,79323,1,0,0:0:0:0:
36,192,79479,1,0,0:0:0:0:
329,192,79479,1,0,0:0:0:0:
402,192,79635,1,0,0:0:0:0:
475,192,79635,1,0,0:0:0:0:
182,192,79635,1,0,0:0:0:0:
36,192,79791,1,0,0:0:0:0:
329,192,79791,1,0,0:0:0:0:
182,192,79948,1,0,0:0:0:0:
475,192,79948,1,0,0:0:0:0:
402,192,80104,1,0,0:0:0:0:
36,192,80104,1,0,0:0:0:0:
182,192,80260,1,0,0:0:0:0:
329,192,80260,1,0,0:0:0:0:
109,192,80260,1,0,0:0:0:0:
402,192,80416,1,0,0:0:0:0:
256,192,80573,1,0,0:0:0:0:
109,192,80573,1,0,0:0:0:0:
402,192,80729,1,0,0:0:0:0:
256,192,80729,1,0,0:0:0:0:
182,192,80885,1,0,0:0:0:0:
36,192,80885,1,0,0:0:0:0:
329,192,80885,1,0,0:0:0:0:
109,192,81041,1,0,0:0:0:0:
256,192,81041,1,0,0:0:0:0:
402,192,81041,1,0,0:0:0:0:
182,192,81198,1,0,0:0:0:0:
329,192,81354,1,0,0:0:0:0:
475,192,81354,1,0,0:0:0:0:
182,192,81510,1,0,0:0:0:0:
36,192,81510,1,0,0:0:0:0:
402,192,81510,1,0,0:0:0:0:
329,192,81666,1,0,0:0:0:0:
182,192,81823,1,0,0:0:0:0:
475,192,81823,1,0,0:0:0:0:
329,192,81979,1,0,0:0:0:0:
475,192,81979,1,0,0:0:0:0:
182,192,82135,1,0,0:0:0:0:
36,192,82135,1,0,0:0:0:0:
402,192,82135,1,0,0:0:0:0:
329,192,82291,1,0,0:0:0:0:
109,192,82291,1,0,0:0:0:0:
182,192,82448,1,0,0:0:0:0:
475,192,82448,1,0,0:0:0:0:
402,192,82604,1,0,0:0:0:0:
36,192,82604,1,0,0:0:0:0:
256,192,82760,1,0,0:0:0:0:
109,192,82760,1,0,0:0:0:0:
475,192,82760,1,0,0:0:0:0:
402,192,82916,1,0,0:0:0:0:
256,192,83073,1,0,0:0:0:0:
36,192,83073,1,0,0:0:0:0:
402,192,83229,1,0,0:0:0:0:
36,192,83229,1,0,0:0:0:0:
256,192,83385,1,0,0:0:0:0:
109,192,83385,1,0,0:0:0:0:
475,192,83385,1,0,0:0:0:0:
402,192,83541,1,0,0:0:0:0:
182,192,83541,1,0,0:0:0:0:
36,192,83541,1,0,0:0:0:0:
329,192,83698,1,0,0:0:0:0:
475,192,83854,1,0,0:0:0:0:
182,192,83854,1,0,0:0:0:0:
36,192,84010,1,0,0:0:0:0:
402,192,84010,1,0,0:0:0:0:
256,192,84010,1,0,0:0:0:0:
475,192,84166,1,0,0:0:0:0:
182,192,84166,1,0,0:0:0:0:
36,192,84323,1,0,0:0:0:0:
329,192,84323,1,0,0:0:0:0:
475,192,84479,1,0,0:0:0:0:
329,192,84479,1,0,0:0:0:0:
36,192,84635,1,0,0:0:0:0:
182,192,84635,1,0,0:0:0:0:
402,192,84635,1,0,0:0:0:0:
475,192,84791,1,0,0:0:0:0:
256,192,84791,1,0,0:0:0:0:
36,192,84948,1,0,0:0:0:0:
329,192,84948,1,0,0:0:0:0:
475,192,85104,1,0,0:0:0:0:
182,192,85104,1,0,0:0:0:0:
36,192,85260,1,0,0:0:0:0:
256,192,85260,1,0,0:0:0:0:
402,192,85260,1,0,0:0:0:0:
475,192,85416,1,0,0:0:0:0:
329,192,85416,1,0,0:0:0:0:
109,192,85416,1,0,0:0:0:0:
36,192,85573,1,0,0:0:0:0:
182,192,85573,1,0,0:0:0:0:
256,192,85573,1,0,0:0:0:0:
329,192,85651,1,0,0:0:0:0:
402,192,85729,1,0,0:0:0:0:
109,192,85729,1,0,0:0:0:0:
475,192,85807,1,0,0:0:0:0:
36,192,85885,1,0,0:0:0:0:
256,192,85885,1,0,0:0:0:0:
182,192,85885,1,0,0:0:0:0:
329,192,85963,1,0,0:0:0:0:
109,192,85963,1,0,0:0:0:0:
402,192,86041,1,0,0:0:0:0:
182,192,86041,1,0,0:0:0:0:
36,192,86041,1,0,0:0:0:0:
475,192,86119,1,0,0:0:0:0:
256,192,86119,1,0,0:0:0:0:
109,192,86119,1,0,0:0:0:0:
475,192,86198,1,0,0:0:0:0:
256,192,86198,1,0,0:0:0:0:
